  0
SECTION
  2
HEADER
  9
$ACADVER
  1
AC1015
  9
$ACADMAINTVER
 70
     6
  9
$DWGCODEPAGE
  3
DOS932
  9
$INSBASE
 10
0.0
 20
0.0
 30
0.0
  9
$EXTMIN
 10
0.0
 20
0.0
 30
0.0
  9
$EXTMAX
 10
420.0
 20
297.0
 30
0.0
  9
$LIMMIN
 10
0.0
 20
0.0
  9
$LIMMAX
 10
0.0
 20
0.0
  9
$ORTHOMODE
 70
     0
  9
$REGENMODE
 70
     1
  9
$FILLMODE
 70
     1
  9
$QTEXTMODE
 70
     0
  9
$MIRRTEXT
 70
     1
  9
$LTSCALE
 40
1.0
  9
$ATTMODE
 70
     1
  9
$TEXTSIZE
 40
3.5
  9
$TRACEWID
 40
1.0
  9
$TEXTSTYLE
  7
Standard
  9
$CLAYER
  8
0
  9
$CELTYPE
  6
ByLayer
  9
$CECOLOR
 62
   256
  9
$CELTSCALE
 40
1.0
  9
$DISPSILH
 70
     0
  9
$DIMSCALE
 40
1.0
  9
$DIMASZ
 40
3.0
  9
$DIMEXO
 40
1.0
  9
$DIMDLI
 40
3.75
  9
$DIMRND
 40
0.0
  9
$DIMDLE
 40
0.0
  9
$DIMEXE
 40
1.0
  9
$DIMTP
 40
0.0
  9
$DIMTM
 40
0.0
  9
$DIMTXT
 40
3.5
  9
$DIMCEN
 40
2.5
  9
$DIMTSZ
 40
0.0
  9
$DIMTOL
 70
     0
  9
$DIMLIM
 70
     0
  9
$DIMTIH
 70
     1
  9
$DIMTOH
 70
     1
  9
$DIMSE1
 70
     0
  9
$DIMSE2
 70
     0
  9
$DIMTAD
 70
     1
  9
$DIMZIN
 70
     1
  9
$DIMBLK
  1

  9
$DIMASO
 70
     1
  9
$DIMSHO
 70
     1
  9
$DIMPOST
  1

  9
$DIMAPOST
  1

  9
$DIMALT
 70
     0
  9
$DIMALTD
 70
     3
  9
$DIMALTF
 40
0.0393700787
  9
$DIMLFAC
 40
1.0
  9
$DIMTOFL
 70
     1
  9
$DIMTVP
 40
0.0
  9
$DIMTIX
 70
     0
  9
$DIMSOXD
 70
     0
  9
$DIMSAH
 70
     0
  9
$DIMBLK1
  1

  9
$DIMBLK2
  1

  9
$DIMSTYLE
  2
ISO-25
  9
$DIMCLRD
 70
     0
  9
$DIMCLRE
 70
     0
  9
$DIMCLRT
 70
     0
  9
$DIMTFAC
 40
1.0
  9
$DIMGAP
 40
1.524
  9
$DIMJUST
 70
     0
  9
$DIMSD1
 70
     0
  9
$DIMSD2
 70
     0
  9
$DIMTOLJ
 70
     0
  9
$DIMTZIN
 70
     1
  9
$DIMALTZ
 70
     0
  9
$DIMALTTZ
 70
     0
  9
$DIMUPT
 70
     0
  9
$DIMDEC
 70
     2
  9
$DIMTDEC
 70
     2
  9
$DIMALTU
 70
     2
  9
$DIMALTTD
 70
     3
  9
$DIMTXSTY
  7
Standard
  9
$DIMAUNIT
 70
     0
  9
$DIMADEC
 70
     0
  9
$DIMALTRND
 40
0.0
  9
$DIMAZIN
 70
     0
  9
$DIMDSEP
 70
    44
  9
$DIMATFIT
 70
     3
  9
$DIMFRAC
 70
     0
  9
$DIMLDRBLK
  1

  9
$DIMLUNIT
 70
     2
  9
$DIMLWD
 70
    -2
  9
$DIMLWE
 70
    -2
  9
$DIMTMOVE
 70
     0
  9
$LUNITS
 70
     2
  9
$LUPREC
 70
     4
  9
$SKETCHINC
 40
1.0
  9
$FILLETRAD
 40
10.0
  9
$AUNITS
 70
     0
  9
$AUPREC
 70
     0
  9
$MENU
  1
.
  9
$ELEVATION
 40
0.0
  9
$PELEVATION
 40
0.0
  9
$THICKNESS
 40
0.0
  9
$LIMCHECK
 70
     0
  9
$CHAMFERA
 40
10.0
  9
$CHAMFERB
 40
10.0
  9
$CHAMFERC
 40
20.0
  9
$CHAMFERD
 40
0.0
  9
$SKPOLY
 70
     0
  9
$TDCREATE
 40
2456409.499948993
  9
$TDUCREATE
 40
2456409.124948993
  9
$TDUPDATE
 40
2456409.499949005
  9
$TDUUPDATE
 40
2456409.124949005
  9
$TDINDWG
 40
0.0000000116
  9
$TDUSRTIMER
 40
0.0000000116
  9
$USRTIMER
 70
     1
  9
$ANGBASE
 50
0.0
  9
$ANGDIR
 70
     0
  9
$PDMODE
 70
     0
  9
$PDSIZE
 40
-1.0
  9
$PLINEWID
 40
0.0
  9
$SPLFRAME
 70
     0
  9
$SPLINETYPE
 70
     6
  9
$SPLINESEGS
 70
     8
  9
$HANDSEED
  5
289
  9
$SURFTAB1
 70
     6
  9
$SURFTAB2
 70
     6
  9
$SURFTYPE
 70
     6
  9
$SURFU
 70
     6
  9
$SURFV
 70
     6
  9
$UCSBASE
  2

  9
$UCSNAME
  2

  9
$UCSORG
 10
0.0
 20
0.0
 30
0.0
  9
$UCSXDIR
 10
1.0
 20
0.0
 30
0.0
  9
$UCSYDIR
 10
0.0
 20
1.0
 30
0.0
  9
$UCSORTHOREF
  2

  9
$UCSORTHOVIEW
 70
     0
  9
$UCSORGTOP
 10
0.0
 20
0.0
 30
0.0
  9
$UCSORGBOTTOM
 10
0.0
 20
0.0
 30
0.0
  9
$UCSORGLEFT
 10
0.0
 20
0.0
 30
0.0
  9
$UCSORGRIGHT
 10
0.0
 20
0.0
 30
0.0
  9
$UCSORGFRONT
 10
0.0
 20
0.0
 30
0.0
  9
$UCSORGBACK
 10
0.0
 20
0.0
 30
0.0
  9
$PUCSBASE
  2

  9
$PUCSNAME
  2

  9
$PUCSORG
 10
0.0
 20
0.0
 30
0.0
  9
$PUCSXDIR
 10
1.0
 20
0.0
 30
0.0
  9
$PUCSYDIR
 10
0.0
 20
1.0
 30
0.0
  9
$PUCSORTHOREF
  2

  9
$PUCSORTHOVIEW
 70
     0
  9
$PUCSORGTOP
 10
0.0
 20
0.0
 30
0.0
  9
$PUCSORGBOTTOM
 10
0.0
 20
0.0
 30
0.0
  9
$PUCSORGLEFT
 10
0.0
 20
0.0
 30
0.0
  9
$PUCSORGRIGHT
 10
0.0
 20
0.0
 30
0.0
  9
$PUCSORGFRONT
 10
0.0
 20
0.0
 30
0.0
  9
$PUCSORGBACK
 10
0.0
 20
0.0
 30
0.0
  9
$USERI1
 70
     0
  9
$USERI2
 70
     0
  9
$USERI3
 70
     0
  9
$USERI4
 70
     0
  9
$USERI5
 70
     0
  9
$USERR1
 40
0.0
  9
$USERR2
 40
0.0
  9
$USERR3
 40
0.0
  9
$USERR4
 40
0.0
  9
$USERR5
 40
0.0
  9
$WORLDVIEW
 70
     1
  9
$SHADEDGE
 70
     3
  9
$SHADEDIF
 70
    70
  9
$TILEMODE
 70
     1
  9
$MAXACTVP
 70
    64
  9
$PINSBASE
 10
0.0
 20
0.0
 30
0.0
  9
$PLIMCHECK
 70
     0
  9
$PEXTMIN
 10
1.0000000000E+20
 20
1.0000000000E+20
 30
1.0000000000E+20
  9
$PEXTMAX
 10
-1.0000000000E+20
 20
-1.0000000000E+20
 30
-1.0000000000E+20
  9
$PLIMMIN
 10
0.0
 20
0.0
  9
$PLIMMAX
 10
420.0
 20
297.0
  9
$UNITMODE
 70
     0
  9
$VISRETAIN
 70
     1
  9
$PLINEGEN
 70
     0
  9
$PSLTSCALE
 70
     1
  9
$TREEDEPTH
 70
  3020
  9
$CMLSTYLE
  2
Standard
  9
$CMLJUST
 70
     0
  9
$CMLSCALE
 40
20.0
  9
$PROXYGRAPHICS
 70
     1
  9
$MEASUREMENT
 70
     1
  9
$CELWEIGHT
370
    -1
  9
$ENDCAPS
280
     0
  9
$JOINSTYLE
280
     0
  9
$LWDISPLAY
290
     1
  9
$INSUNITS
 70
     4
  9
$HYPERLINKBASE
  1

  9
$STYLESHEET
  1

  9
$XEDIT
290
     1
  9
$CEPSNTYPE
380
     0
  9
$PSTYLEMODE
290
     1
  9
$FINGERPRINTGUID
  2
{A3F29E8B-C00E-4669-80F1-C447ED6C6E3F}
  9
$VERSIONGUID
  2
{FAEB1C32-E019-11D5-929B-00C0DF256EC4}
  9
$EXTNAMES
290
     1
  9
$PSVPSCALE
 40
0.0
  9
$OLESTARTUP
290
     0
  0
ENDSEC
  0
SECTION
  2
CLASSES
  0
CLASS
  1
ACDBDICTIONARYWDFLT
  2
AcDbDictionaryWithDefault
  3
ObjectDBX Classes
 90
        0
280
     0
281
     0
  0
CLASS
  1
ACDBPLACEHOLDER
  2
AcDbPlaceHolder
  3
ObjectDBX Classes
 90
        0
280
     0
281
     0
  0
CLASS
  1
LAYOUT
  2
AcDbLayout
  3
ObjectDBX Classes
 90
        0
280
     0
281
     0
  0
ENDSEC
  0
SECTION
  2
TABLES
  0
TABLE
  2
VPORT
  5
8
330
0
100
AcDbSymbolTable
 70
     1
  0
VPORT
  5
29
330
8
100
AcDbSymbolTableRecord
100
AcDbViewportTableRecord
  2
*Active
 70
     0
 10
0.0
 20
0.0
 11
1.0
 21
1.0
 12
210.0
 22
148.5
 13
0.0
 23
0.0
 14
10.0
 24
10.0
 15
10.0
 25
10.0
 16
0.0
 26
0.0
 36
1.0
 17
0.0
 27
0.0
 37
0.0
 40
297.0
 41
1.4141414141
 42
50.0
 43
0.0
 44
0.0
 50
0.0
 51
0.0
 71
     0
 72
  2000
 73
     1
 74
     3
 75
     0
 76
     0
 77
     0
 78
     0
281
     0
 65
     1
110
0.0
120
0.0
130
0.0
111
1.0
121
0.0
131
0.0
112
0.0
122
1.0
132
0.0
 79
     0
146
0.0
  0
ENDTAB
  0
TABLE
  2
LTYPE
  5
5
330
0
100
AcDbSymbolTable
 70
     6
  0
LTYPE
  5
14
330
5
100
AcDbSymbolTableRecord
100
AcDbLinetypeTableRecord
  2
ByBlock
 70
     0
  3

 72
    65
 73
     0
 40
0.0
  0
LTYPE
  5
15
330
5
100
AcDbSymbolTableRecord
100
AcDbLinetypeTableRecord
  2
ByLayer
 70
     0
  3

 72
    65
 73
     0
 40
0.0
  0
LTYPE
  5
16
330
5
100
AcDbSymbolTableRecord
100
AcDbLinetypeTableRecord
  2
Continuous
 70
     0
  3
Solid line
 72
    65
 73
     0
 40
0.0
  0
LTYPE
  5
2A
330
5
100
AcDbSymbolTableRecord
100
AcDbLinetypeTableRecord
  2
HIDDEN
 70
     0
  3
Hidden __ __ __ __ __ __ __ __ __ __ __ __ __ __
 72
    65
 73
     2
 40
1.905
 49
1.27
 74
     0
 49
-0.635
 74
     0
  0
LTYPE
  5
2B
330
5
100
AcDbSymbolTableRecord
100
AcDbLinetypeTableRecord
  2
PHANTOM
 70
     0
  3
Phantom ______  __  __  ______  __  __  ______
 72
    65
 73
     6
 40
12.7
 49
6.35
 74
     0
 49
-1.27
 74
     0
 49
1.27
 74
     0
 49
-1.27
 74
     0
 49
1.27
 74
     0
 49
-1.27
 74
     0
  0
LTYPE
  5
2C
330
5
100
AcDbSymbolTableRecord
100
AcDbLinetypeTableRecord
  2
CENTER
 70
     0
  3
Center ____ _ ____ _ ____ _ ____ _ ____ _ ____
 72
    65
 73
     4
 40
10.16
 49
6.35
 74
     0
 49
-1.27
 74
     0
 49
1.27
 74
     0
 49
-1.27
 74
     0
  0
LTYPE
  5
2D
330
5
100
AcDbSymbolTableRecord
100
AcDbLinetypeTableRecord
  2
CENTERX2
 70
     0
  3
Center (2x) ________  __  ________  __  _____
 72
    65
 73
     4
 40
20.32
 49
12.7
 74
     0
 49
-2.54
 74
     0
 49
2.54
 74
     0
 49
-2.54
 74
     0
  0
LTYPE
  5
2E
330
5
100
AcDbSymbolTableRecord
100
AcDbLinetypeTableRecord
  2
DOT2
 70
     0
  3
Dot (.5x) ........................................
 72
    65
 73
     2
 40
0.635
 49
0.0
 74
     0
 49
-0.635
 74
     0
  0
ENDTAB
  0
TABLE
  2
LAYER
  5
2
330
0
100
AcDbSymbolTable
 70
    30
  0
LAYER
  5
10
330
2
100
AcDbSymbolTableRecord
100
AcDbLayerTableRecord
  2
0
 70
     0
 62
     7
  6
Continuous
370
    -3
390
F
  0
LAYER
  5
2F
330
2
100
AcDbSymbolTableRecord
100
AcDbLayerTableRecord
  2
SLD-0
 70
     0
 62
   179
  6
Continuous
370
    -3
390
F
  0
LAYER
  5
30
330
2
100
AcDbSymbolTableRecord
100
AcDbLayerTableRecord
  2
1
 70
     0
 62
   179
  6
Continuous
370
    -3
390
F
  0
LAYER
  5
31
330
2
100
AcDbSymbolTableRecord
100
AcDbLayerTableRecord
  2
2
 70
     0
 62
   179
  6
Continuous
370
    -3
390
F
  0
LAYER
  5
32
330
2
100
AcDbSymbolTableRecord
100
AcDbLayerTableRecord
  2
3
 70
     0
 62
   179
  6
Continuous
370
    -3
390
F
  0
LAYER
  5
33
330
2
100
AcDbSymbolTableRecord
100
AcDbLayerTableRecord
  2
4
 70
     0
 62
   179
  6
Continuous
370
    -3
390
F
  0
LAYER
  5
34
330
2
100
AcDbSymbolTableRecord
100
AcDbLayerTableRecord
  2
5
 70
     0
 62
   179
  6
Continuous
370
    -3
390
F
  0
LAYER
  5
35
330
2
100
AcDbSymbolTableRecord
100
AcDbLayerTableRecord
  2
SLD-DEFPOINTS
 70
     0
 62
   179
  6
Continuous
370
    -3
390
F
  0
LAYER
  5
36
330
2
100
AcDbSymbolTableRecord
100
AcDbLayerTableRecord
  2
$DDT_AUDIT_GENERATED_(30)
 70
     0
 62
     7
  6
Continuous
370
    -3
390
F
  0
LAYER
  5
37
330
2
100
AcDbSymbolTableRecord
100
AcDbLayerTableRecord
  2
シリズムカグー
 70
     0
 62
     7
  6
Continuous
370
    -3
390
F
  0
LAYER
  5
38
330
2
100
AcDbSymbolTableRecord
100
AcDbLayerTableRecord
  2
ﾌﾟﾘ_ﾞﾑﾎﾙﾀﾞｰ
 70
     0
 62
     7
  6
Continuous
370
    -3
390
F
  0
LAYER
  5
39
330
2
100
AcDbSymbolTableRecord
100
AcDbLayerTableRecord
  2
シリズム2
 70
     0
 62
     7
  6
Continuous
370
    -3
390
F
  0
LAYER
  5
3A
330
2
100
AcDbSymbolTableRecord
100
AcDbLayerTableRecord
  2
光源_LED_
 70
     0
 62
     7
  6
Continuous
370
    -3
390
F
  0
LAYER
  5
3B
330
2
100
AcDbSymbolTableRecord
100
AcDbLayerTableRecord
  2
LAYER1
 70
     0
 62
     7
  6
Continuous
370
    -3
390
F
  0
LAYER
  5
3C
330
2
100
AcDbSymbolTableRecord
100
AcDbLayerTableRecord
  2
$DDT_AUDIT_GENERATED_(36)
 70
     0
 62
     7
  6
Continuous
370
    -3
390
F
  0
LAYER
  5
3D
330
2
100
AcDbSymbolTableRecord
100
AcDbLayerTableRecord
  2
カグー板
 70
     0
 62
     7
  6
Continuous
370
    -3
390
F
  0
LAYER
  5
3E
330
2
100
AcDbSymbolTableRecord
100
AcDbLayerTableRecord
  2
DIMENSION
 70
     0
 62
     7
  6
Continuous
370
    -3
390
F
  0
LAYER
  5
3F
330
2
100
AcDbSymbolTableRecord
100
AcDbLayerTableRecord
  2
$DDT_AUDIT_GENERATED_(39)
 70
     0
 62
     7
  6
Continuous
370
    -3
390
F
  0
LAYER
  5
40
330
2
100
AcDbSymbolTableRecord
100
AcDbLayerTableRecord
  2
KCM-4
 70
     0
 62
     7
  6
Continuous
370
    -3
390
F
  0
LAYER
  5
41
330
2
100
AcDbSymbolTableRecord
100
AcDbLayerTableRecord
  2
LAYER7
 70
     0
 62
     7
  6
Continuous
370
    -3
390
F
  0
LAYER
  5
42
330
2
100
AcDbSymbolTableRecord
100
AcDbLayerTableRecord
  2
LAYER4
 70
     0
 62
     7
  6
Continuous
370
    -3
390
F
  0
LAYER
  5
43
330
2
100
AcDbSymbolTableRecord
100
AcDbLayerTableRecord
  2
LAYER6
 70
     0
 62
     7
  6
Continuous
370
    -3
390
F
  0
LAYER
  5
44
330
2
100
AcDbSymbolTableRecord
100
AcDbLayerTableRecord
  2
LAYER5
 70
     0
 62
     7
  6
Continuous
370
    -3
390
F
  0
LAYER
  5
45
330
2
100
AcDbSymbolTableRecord
100
AcDbLayerTableRecord
  2
LAYER11
 70
     0
 62
     7
  6
Continuous
370
    -3
390
F
  0
LAYER
  5
46
330
2
100
AcDbSymbolTableRecord
100
AcDbLayerTableRecord
  2
LAYER12
 70
     0
 62
     7
  6
Continuous
370
    -3
390
F
  0
LAYER
  5
47
330
2
100
AcDbSymbolTableRecord
100
AcDbLayerTableRecord
  2
LAYER2
 70
     0
 62
     7
  6
Continuous
370
    -3
390
F
  0
LAYER
  5
48
330
2
100
AcDbSymbolTableRecord
100
AcDbLayerTableRecord
  2
LAYER9
 70
     0
 62
     7
  6
Continuous
370
    -3
390
F
  0
LAYER
  5
49
330
2
100
AcDbSymbolTableRecord
100
AcDbLayerTableRecord
  2
LAYER3
 70
     0
 62
     7
  6
Continuous
370
    -3
390
F
  0
LAYER
  5
4A
330
2
100
AcDbSymbolTableRecord
100
AcDbLayerTableRecord
  2
$CONSTRUCTION
 70
     0
 62
    -9
  6
CENTERX2
370
    -3
390
F
  0
LAYER
  5
4B
330
2
100
AcDbSymbolTableRecord
100
AcDbLayerTableRecord
  2
99
 70
     0
 62
    -3
  6
Continuous
370
    -3
390
F
  0
ENDTAB
  0
TABLE
  2
STYLE
  5
3
330
0
100
AcDbSymbolTable
 70
     9
  0
STYLE
  5
11
330
3
100
AcDbSymbolTableRecord
100
AcDbTextStyleTableRecord
  2
Standard
 70
     0
 40
0.0
 41
1.0
 50
0.0
 71
     0
 42
2.5
  3
txt
  4
bigfont
  0
STYLE
  5
12E
330
3
100
AcDbSymbolTableRecord
100
AcDbTextStyleTableRecord
  2
SLDTEXTSTYLE0
 70
     0
 40
0.0
 41
0.7
 50
0.0
 71
     0
 42
0.2
  3
TXT
  4
bigfont
  0
STYLE
  5
21A
330
3
100
AcDbSymbolTableRecord
100
AcDbTextStyleTableRecord
  2
SLDTEXTSTYLE1
 70
     0
 40
0.0
 41
0.63
 50
0.0
 71
     0
 42
0.2
  3
TXT
  4
bigfont
  0
STYLE
  5
21E
330
3
100
AcDbSymbolTableRecord
100
AcDbTextStyleTableRecord
  2
SLDTEXTSTYLE2
 70
     0
 40
0.0
 41
0.315
 50
0.0
 71
     0
 42
0.2
  3
TXT
  4
bigfont
  0
STYLE
  5
222
330
3
100
AcDbSymbolTableRecord
100
AcDbTextStyleTableRecord
  2
SLDTEXTSTYLE3
 70
     0
 40
0.0
 41
0.3722727273
 50
0.0
 71
     0
 42
0.2
  3
TXT
  4
bigfont
  0
STYLE
  5
225
330
3
100
AcDbSymbolTableRecord
100
AcDbTextStyleTableRecord
  2
SLDTEXTSTYLE4
 70
     0
 40
0.0
 41
0.39375
 50
0.0
 71
     0
 42
0.2
  3
TXT
  4
bigfont
  0
STYLE
  5
229
330
3
100
AcDbSymbolTableRecord
100
AcDbTextStyleTableRecord
  2
SLDTEXTSTYLE5
 70
     0
 40
0.0
 41
0.4725
 50
0.0
 71
     0
 42
0.2
  3
TXT
  4
bigfont
  0
STYLE
  5
22D
330
3
100
AcDbSymbolTableRecord
100
AcDbTextStyleTableRecord
  2
SLDTEXTSTYLE6
 70
     0
 40
0.0
 41
0.441
 50
0.0
 71
     0
 42
0.2
  3
TXT
  4
bigfont
  0
STYLE
  5
22F
330
3
100
AcDbSymbolTableRecord
100
AcDbTextStyleTableRecord
  2
SLDTEXTSTYLE7
 70
     0
 40
0.0
 41
0.441
 50
0.0
 71
     0
 42
0.2
  3
TXT
  4
bigfont
  0
ENDTAB
  0
TABLE
  2
VIEW
  5
6
330
0
100
AcDbSymbolTable
 70
     0
  0
ENDTAB
  0
TABLE
  2
UCS
  5
7
330
0
100
AcDbSymbolTable
 70
     0
  0
ENDTAB
  0
TABLE
  2
APPID
  5
9
330
0
100
AcDbSymbolTable
 70
     1
  0
APPID
  5
12
330
9
100
AcDbSymbolTableRecord
100
AcDbRegAppTableRecord
  2
ACAD
 70
     0
  0
ENDTAB
  0
TABLE
  2
DIMSTYLE
  5
A
330
0
100
AcDbSymbolTable
 70
     6
100
AcDbDimStyleTable
  0
DIMSTYLE
105
27
330
A
100
AcDbSymbolTableRecord
100
AcDbDimStyleTableRecord
  2
ISO-25
 70
     0
 41
2.5
 42
0.625
 43
3.75
 44
1.25
 73
     0
 74
     0
 77
     1
 78
     8
140
2.5
141
2.5
143
0.0393700787
147
0.625
171
     3
172
     1
271
     2
272
     2
274
     3
278
    44
283
     0
284
     8
340
11
  0
DIMSTYLE
105
12F
102
{ACAD_REACTORS
330
12D
330
170
330
1F6
102
}
330
A
100
AcDbSymbolTableRecord
100
AcDbDimStyleTableRecord
  2
SLDDIMSTYLE0
 70
     0
 41
3.0
 44
0.0
 73
     0
 74
     0
 77
     3
 78
    12
140
3.5
147
0.875
173
     1
284
    12
340
12E
341
130
343
130
344
130
  0
DIMSTYLE
105
140
102
{ACAD_REACTORS
330
13F
330
200
102
}
330
A
100
AcDbSymbolTableRecord
100
AcDbDimStyleTableRecord
  2
SLDDIMSTYLE1
 70
     0
 41
3.0
 44
0.0
 48
0.1
 71
     1
 73
     0
 74
     0
 77
     3
 78
    12
140
3.5
147
0.875
173
     1
271
     0
272
     1
340
12E
341
130
343
130
344
130
  0
DIMSTYLE
105
14F
102
{ACAD_REACTORS
330
14E
330
158
330
165
330
185
330
18F
330
199
330
1AD
330
1C3
330
1CC
102
}
330
A
100
AcDbSymbolTableRecord
100
AcDbDimStyleTableRecord
  2
SLDDIMSTYLE2
 70
     0
 41
3.0
 44
0.0
 73
     0
 74
     0
 77
     3
 78
    12
140
3.5
147
0.875
173
     1
271
     0
272
     0
284
    12
340
12E
341
130
343
130
344
130
  0
DIMSTYLE
105
17B
102
{ACAD_REACTORS
330
17A
330
1A3
330
1B9
330
1D5
330
20E
102
}
330
A
100
AcDbSymbolTableRecord
100
AcDbDimStyleTableRecord
  2
SLDDIMSTYLE3
 70
     0
 41
3.0
 44
0.0
 73
     0
 74
     0
 77
     3
 78
    12
140
3.5
147
0.875
173
     1
271
     1
272
     1
284
    12
340
12E
341
130
343
130
344
130
  0
DIMSTYLE
105
1E0
102
{ACAD_REACTORS
330
1DF
330
1EC
102
}
330
A
100
AcDbSymbolTableRecord
100
AcDbDimStyleTableRecord
  2
SLDDIMSTYLE4
 70
     0
 41
3.0
 44
0.0
 73
     0
 74
     0
 77
     3
 78
    12
140
3.5
147
0.875
173
     1
271
     2
272
     2
284
    12
340
12E
341
130
343
130
344
130
  0
ENDTAB
  0
TABLE
  2
BLOCK_RECORD
  5
1
330
0
100
AcDbSymbolTable
 70
    25
  0
BLOCK_RECORD
  5
1F
330
1
100
AcDbSymbolTableRecord
100
AcDbBlockTableRecord
  2
*Model_Space
340
22
  0
BLOCK_RECORD
  5
1B
330
1
100
AcDbSymbolTableRecord
100
AcDbBlockTableRecord
  2
*Paper_Space
340
1E
  0
BLOCK_RECORD
  5
23
330
1
100
AcDbSymbolTableRecord
100
AcDbBlockTableRecord
  2
*Paper_Space0
340
26
  0
BLOCK_RECORD
  5
130
330
1
100
AcDbSymbolTableRecord
100
AcDbBlockTableRecord
  2
_Open30
340
0
102
{BLKREFS
331
139
331
13A
331
144
331
145
331
153
331
154
331
15C
331
15D
331
169
331
16A
331
174
331
175
331
17F
331
180
331
189
331
18A
331
193
331
194
331
19D
331
19E
331
1A7
331
1A8
331
1B1
331
1B2
331
1BD
331
1BE
331
1C7
331
1C8
331
1D0
331
1D1
331
1D9
331
1DA
331
1E4
331
1E5
331
1F0
331
1F1
331
1FA
331
1FB
331
204
331
205
331
212
331
213
102
}
1001
ACAD
1000
DesignCenter Data
1002
{
1070
     1
1070
     0
1002
}
  0
BLOCK_RECORD
  5
136
330
1
100
AcDbSymbolTableRecord
100
AcDbBlockTableRecord
  2
*D2
340
0
  0
BLOCK_RECORD
  5
141
330
1
100
AcDbSymbolTableRecord
100
AcDbBlockTableRecord
  2
*D3
340
0
  0
BLOCK_RECORD
  5
150
330
1
100
AcDbSymbolTableRecord
100
AcDbBlockTableRecord
  2
*D4
340
0
  0
BLOCK_RECORD
  5
159
330
1
100
AcDbSymbolTableRecord
100
AcDbBlockTableRecord
  2
*D5
340
0
  0
BLOCK_RECORD
  5
166
330
1
100
AcDbSymbolTableRecord
100
AcDbBlockTableRecord
  2
*D6
340
0
  0
BLOCK_RECORD
  5
171
330
1
100
AcDbSymbolTableRecord
100
AcDbBlockTableRecord
  2
*D7
340
0
  0
BLOCK_RECORD
  5
17C
330
1
100
AcDbSymbolTableRecord
100
AcDbBlockTableRecord
  2
*D8
340
0
  0
BLOCK_RECORD
  5
186
330
1
100
AcDbSymbolTableRecord
100
AcDbBlockTableRecord
  2
*D9
340
0
  0
BLOCK_RECORD
  5
190
330
1
100
AcDbSymbolTableRecord
100
AcDbBlockTableRecord
  2
*D10
340
0
  0
BLOCK_RECORD
  5
19A
330
1
100
AcDbSymbolTableRecord
100
AcDbBlockTableRecord
  2
*D11
340
0
  0
BLOCK_RECORD
  5
1A4
330
1
100
AcDbSymbolTableRecord
100
AcDbBlockTableRecord
  2
*D12
340
0
  0
BLOCK_RECORD
  5
1AE
330
1
100
AcDbSymbolTableRecord
100
AcDbBlockTableRecord
  2
*D13
340
0
  0
BLOCK_RECORD
  5
1BA
330
1
100
AcDbSymbolTableRecord
100
AcDbBlockTableRecord
  2
*D14
340
0
  0
BLOCK_RECORD
  5
1C4
330
1
100
AcDbSymbolTableRecord
100
AcDbBlockTableRecord
  2
*D15
340
0
  0
BLOCK_RECORD
  5
1CD
330
1
100
AcDbSymbolTableRecord
100
AcDbBlockTableRecord
  2
*D16
340
0
  0
BLOCK_RECORD
  5
1D6
330
1
100
AcDbSymbolTableRecord
100
AcDbBlockTableRecord
  2
*D17
340
0
  0
BLOCK_RECORD
  5
1E1
330
1
100
AcDbSymbolTableRecord
100
AcDbBlockTableRecord
  2
*D18
340
0
  0
BLOCK_RECORD
  5
1ED
330
1
100
AcDbSymbolTableRecord
100
AcDbBlockTableRecord
  2
*D19
340
0
  0
BLOCK_RECORD
  5
1F7
330
1
100
AcDbSymbolTableRecord
100
AcDbBlockTableRecord
  2
*D20
340
0
  0
BLOCK_RECORD
  5
201
330
1
100
AcDbSymbolTableRecord
100
AcDbBlockTableRecord
  2
*D21
340
0
  0
BLOCK_RECORD
  5
20F
330
1
100
AcDbSymbolTableRecord
100
AcDbBlockTableRecord
  2
*D22
340
0
  0
BLOCK_RECORD
  5
25B
330
1
100
AcDbSymbolTableRecord
100
AcDbBlockTableRecord
  2
SW_NOTE_0
340
0
102
{BLKREFS
331
260
102
}
1001
ACAD
1000
DesignCenter Data
1002
{
1070
     1
1070
     0
1002
}
  0
BLOCK_RECORD
  5
267
330
1
100
AcDbSymbolTableRecord
100
AcDbBlockTableRecord
  2
SW_TABLEANNOTATION_0
340
0
102
{BLKREFS
331
288
102
}
1001
ACAD
1000
DesignCenter Data
1002
{
1070
     1
1070
     0
1002
}
  0
ENDTAB
  0
ENDSEC
  0
SECTION
  2
BLOCKS
  0
BLOCK
  5
20
330
1F
100
AcDbEntity
  8
0
100
AcDbBlockBegin
  2
*Model_Space
 70
     0
 71
     0
 10
0.0
 20
0.0
 30
0.0
  3
*Model_Space
  1

  0
ENDBLK
  5
21
330
1F
100
AcDbEntity
  8
0
100
AcDbBlockEnd
  0
BLOCK
  5
1C
330
1B
100
AcDbEntity
 67
     1
  8
0
100
AcDbBlockBegin
  2
*Paper_Space
 70
     0
 71
     0
 10
0.0
 20
0.0
 30
0.0
  3
*Paper_Space
  1

  0
ENDBLK
  5
1D
330
1B
100
AcDbEntity
 67
     1
  8
0
100
AcDbBlockEnd
  0
BLOCK
  5
24
330
23
100
AcDbEntity
  8
0
100
AcDbBlockBegin
  2
*Paper_Space0
 70
     0
 71
     0
 10
0.0
 20
0.0
 30
0.0
  3
*Paper_Space0
  1

  0
ENDBLK
  5
25
330
23
100
AcDbEntity
  8
0
100
AcDbBlockEnd
  0
BLOCK
  5
131
330
130
100
AcDbEntity
  8
0
100
AcDbBlockBegin
  2
_Open30
 70
     0
 71
     0
 10
0.0
 20
0.0
 30
0.0
  3
_Open30
  1

  0
LINE
  5
133
330
130
100
AcDbEntity
  8
0
  6
ByBlock
 62
     0
370
    -2
100
AcDbLine
 10
-1.0
 20
0.267949
 30
0.0
 11
0.0
 21
0.0
 31
0.0
  0
LINE
  5
134
330
130
100
AcDbEntity
  8
0
  6
ByBlock
 62
     0
370
    -2
100
AcDbLine
 10
0.0
 20
0.0
 30
0.0
 11
-1.0
 21
-0.267949
 31
0.0
  0
LINE
  5
135
330
130
100
AcDbEntity
  8
0
  6
ByBlock
 62
     0
370
    -2
100
AcDbLine
 10
0.0
 20
0.0
 30
0.0
 11
-1.0
 21
0.0
 31
0.0
  0
ENDBLK
  5
132
330
130
100
AcDbEntity
  8
0
100
AcDbBlockEnd
  0
BLOCK
  5
137
330
136
100
AcDbEntity
  8
0
100
AcDbBlockBegin
  2
*D2
 70
     1
 71
     0
 10
0.0
 20
0.0
 30
0.0
  3
*D2
  1

  0
INSERT
  5
139
330
136
100
AcDbEntity
  8
SLD-0
100
AcDbBlockReference
  2
_Open30
 10
31.107776981
 20
215.3434897382
 30
0.1
 41
3.0
 42
3.0
 50
180.0
  0
INSERT
  5
13A
330
136
100
AcDbEntity
  8
SLD-0
100
AcDbBlockReference
  2
_Open30
 10
92.3606295898
 20
215.3434897382
 30
0.1
 41
3.0
 42
3.0
 50
360.0
  0
LINE
  5
13B
330
136
100
AcDbEntity
  8
SLD-0
100
AcDbLine
 10
31.107776981
 20
170.6272302351
 30
0.0
 11
31.107776981
 21
216.3434897382
 31
0.0
  0
LINE
  5
13C
330
136
100
AcDbEntity
  8
SLD-0
100
AcDbLine
 10
92.3606295898
 20
195.8400662941
 30
0.0
 11
92.3606295898
 21
216.3434897382
 31
0.0
  0
LINE
  5
13D
330
136
100
AcDbEntity
  8
SLD-0
100
AcDbLine
 10
31.107776981
 20
215.3434897382
 30
0.0
 11
92.3606295898
 21
215.3434897382
 31
0.0
  0
MTEXT
  5
13E
330
136
100
AcDbEntity
  8
SLD-0
100
AcDbMText
 10
54.6017156455
 20
219.4162167781
 30
0.0
 40
3.5
 41
0.0
 71
     1
 72
     1
  1
WD=800
  7
SLDTEXTSTYLE0
 73
     1
 44
1.0
  0
ENDBLK
  5
138
330
136
100
AcDbEntity
  8
0
100
AcDbBlockEnd
  0
BLOCK
  5
142
330
141
100
AcDbEntity
  8
0
100
AcDbBlockBegin
  2
*D3
 70
     1
 71
     0
 10
0.0
 20
0.0
 30
0.0
  3
*D3
  1

  0
INSERT
  5
144
330
141
100
AcDbEntity
  8
SLD-0
100
AcDbBlockReference
  2
_Open30
 10
81.5670731707
 20
195.3400662941
 30
0.1
 41
3.0
 42
3.0
 50
90.0
  0
INSERT
  5
145
330
141
100
AcDbEntity
  8
SLD-0
100
AcDbBlockReference
  2
_Open30
 10
81.5670731707
 20
137.3400662941
 30
0.1
 41
3.0
 42
3.0
 50
270.0
  0
LINE
  5
146
330
141
100
AcDbEntity
  8
SLD-0
100
AcDbLine
 10
91.8606295898
 20
195.3400662941
 30
0.0
 11
80.5670731707
 21
195.3400662941
 31
0.0
  0
LINE
  5
147
330
141
100
AcDbEntity
  8
SLD-0
100
AcDbLine
 10
91.8606295898
 20
137.3400662941
 30
0.0
 11
80.5670731707
 21
137.3400662941
 31
0.0
  0
LINE
  5
148
330
141
100
AcDbEntity
  8
SLD-0
100
AcDbLine
 10
81.5670731707
 20
195.3400662941
 30
0.0
 11
81.5670731707
 21
137.3400662941
 31
0.0
  0
MTEXT
  5
149
330
141
100
AcDbEntity
  8
SLD-0
100
AcDbMText
 10
77.4943461308
 20
160.9387508794
 30
0.0
 40
3.5
 41
0.0
 71
     1
 72
     1
  1
%%c
  7
SLDTEXTSTYLE0
 11
1.377288853712105E-13
 21
1.0
 31
0.0
 73
     1
 44
1.0
  0
MTEXT
  5
14A
330
141
100
AcDbEntity
  8
SLD-0
100
AcDbMText
 10
77.4943461308
 20
164.8047996599
 30
0.0
 40
3.5
 41
0.0
 71
     1
 72
     1
  1
58
  7
SLDTEXTSTYLE0
 11
1.377288853712105E-13
 21
1.0
 31
0.0
 73
     1
 44
1.0
  0
MTEXT
  5
14B
330
141
100
AcDbEntity
  8
SLD-0
100
AcDbMText
 10
78.5463713096
 20
169.7418484404
 30
0.0
 40
2.45
 41
0.0
 71
     1
 72
     1
  1
-
  7
SLDTEXTSTYLE0
 11
1.377288853712105E-13
 21
1.0
 31
0.0
 73
     1
 44
1.0
  0
MTEXT
  5
14C
330
141
100
AcDbEntity
  8
SLD-0
100
AcDbMText
 10
78.5463713096
 20
171.1654947818
 30
0.0
 40
2.45
 41
0.0
 71
     1
 72
     1
  1
0.1
  7
SLDTEXTSTYLE0
 11
1.377288853712105E-13
 21
1.0
 31
0.0
 73
     1
 44
1.0
  0
MTEXT
  5
14D
330
141
100
AcDbEntity
  8
SLD-0
100
AcDbMText
 10
75.6990786266
 20
171.1654947818
 30
0.0
 40
2.45
 41
0.0
 71
     1
 72
     1
  1
0.0
  7
SLDTEXTSTYLE0
 11
1.377288853712105E-13
 21
1.0
 31
0.0
 73
     1
 44
1.0
  0
ENDBLK
  5
143
330
141
100
AcDbEntity
  8
0
100
AcDbBlockEnd
  0
BLOCK
  5
151
330
150
100
AcDbEntity
  8
0
100
AcDbBlockBegin
  2
*D4
 70
     1
 71
     0
 10
0.0
 20
0.0
 30
0.0
  3
*D4
  1

  0
INSERT
  5
153
330
150
100
AcDbEntity
  8
SLD-0
100
AcDbBlockReference
  2
_Open30
 10
255.6762492564
 20
166.3400662941
 30
0.1
 41
3.0
 42
3.0
 50
90.0
  0
INSERT
  5
154
330
150
100
AcDbEntity
  8
SLD-0
100
AcDbBlockReference
  2
_Open30
 10
255.6762492564
 20
121.3400662941
 30
0.1
 41
3.0
 42
3.0
 50
270.0
  0
LINE
  5
155
330
150
100
AcDbEntity
  8
SLD-0
100
AcDbLine
 10
271.1606295898
 20
121.3400662941
 30
0.0
 11
254.6762492564
 21
121.3400662941
 31
0.0
  0
LINE
  5
156
330
150
100
AcDbEntity
  8
SLD-0
100
AcDbLine
 10
255.6762492564
 20
166.3400662941
 30
0.0
 11
255.6762492564
 21
121.3400662941
 31
0.0
  0
MTEXT
  5
157
330
150
100
AcDbEntity
  8
SLD-0
100
AcDbMText
 10
251.6035222165
 20
139.9216631812
 30
0.0
 40
3.5
 41
0.0
 71
     1
 72
     1
  1
45
  7
SLDTEXTSTYLE0
 11
4.502122416191745E-15
 21
1.0
 31
0.0
 73
     1
 44
1.0
  0
ENDBLK
  5
152
330
150
100
AcDbEntity
  8
0
100
AcDbBlockEnd
  0
BLOCK
  5
15A
330
159
100
AcDbEntity
  8
0
100
AcDbBlockBegin
  2
*D5
 70
     1
 71
     0
 10
0.0
 20
0.0
 30
0.0
  3
*D5
  1

  0
INSERT
  5
15C
330
159
100
AcDbEntity
  8
SLD-0
100
AcDbBlockReference
  2
_Open30
 10
276.6606295898
 20
113.8898033597
 30
0.1
 41
3.0
 42
3.0
 50
0.0
  0
INSERT
  5
15D
330
159
100
AcDbEntity
  8
SLD-0
100
AcDbBlockReference
  2
_Open30
 10
284.6606295898
 20
113.8898033597
 30
0.1
 41
3.0
 42
3.0
 50
180.0
  0
LINE
  5
15E
330
159
100
AcDbEntity
  8
SLD-0
100
AcDbLine
 10
276.6606295898
 20
120.3400662941
 30
0.0
 11
276.6606295898
 21
112.8898033597
 31
0.0
  0
LINE
  5
15F
330
159
100
AcDbEntity
  8
SLD-0
100
AcDbLine
 10
284.6606295898
 20
120.3400662941
 30
0.0
 11
284.6606295898
 21
112.8898033597
 31
0.0
  0
LINE
  5
160
330
159
100
AcDbEntity
  8
SLD-0
100
AcDbLine
 10
276.6606295898
 20
113.8898033597
 30
0.0
 11
270.6606295898
 21
113.8898033597
 31
0.0
  0
LINE
  5
161
330
159
100
AcDbEntity
  8
SLD-0
100
AcDbLine
 10
276.6606295898
 20
113.8898033597
 30
0.0
 11
284.6606295898
 21
113.8898033597
 31
0.0
  0
LINE
  5
162
330
159
100
AcDbEntity
  8
SLD-0
100
AcDbLine
 10
284.6606295898
 20
113.8898033597
 30
0.0
 11
290.6606295898
 21
113.8898033597
 31
0.0
  0
MTEXT
  5
163
330
159
100
AcDbEntity
  8
SLD-0
100
AcDbMText
 10
276.9821444964
 20
117.9625303996
 30
0.0
 40
3.5
 41
0.0
 71
     1
 72
     1
  1
%%c
  7
SLDTEXTSTYLE0
 73
     1
 44
1.0
  0
MTEXT
  5
164
330
159
100
AcDbEntity
  8
SLD-0
100
AcDbMText
 10
280.8481932768
 20
117.9625303996
 30
0.0
 40
3.5
 41
0.0
 71
     1
 72
     1
  1
8
  7
SLDTEXTSTYLE0
 73
     1
 44
1.0
  0
ENDBLK
  5
15B
330
159
100
AcDbEntity
  8
0
100
AcDbBlockEnd
  0
BLOCK
  5
167
330
166
100
AcDbEntity
  8
0
100
AcDbBlockBegin
  2
*D6
 70
     1
 71
     0
 10
0.0
 20
0.0
 30
0.0
  3
*D6
  1

  0
INSERT
  5
169
330
166
100
AcDbEntity
  8
SLD-0
100
AcDbBlockReference
  2
_Open30
 10
271.6606295898
 20
107.1010623425
 30
0.1
 41
3.0
 42
3.0
 50
180.0
  0
INSERT
  5
16A
330
166
100
AcDbEntity
  8
SLD-0
100
AcDbBlockReference
  2
_Open30
 10
289.6606295898
 20
107.1010623425
 30
0.1
 41
3.0
 42
3.0
 50
0.0
  0
LINE
  5
16B
330
166
100
AcDbEntity
  8
SLD-0
100
AcDbLine
 10
271.6606295898
 20
120.8400662941
 30
0.0
 11
271.6606295898
 21
106.1010623425
 31
0.0
  0
LINE
  5
16C
330
166
100
AcDbEntity
  8
SLD-0
100
AcDbLine
 10
289.6606295898
 20
120.8400662941
 30
0.0
 11
289.6606295898
 21
106.1010623425
 31
0.0
  0
LINE
  5
16D
330
166
100
AcDbEntity
  8
SLD-0
100
AcDbLine
 10
271.6606295898
 20
107.1010623425
 30
0.0
 11
289.6606295898
 21
107.1010623425
 31
0.0
  0
MTEXT
  5
16E
330
166
100
AcDbEntity
  8
SLD-0
100
AcDbMText
 10
276.9234112571
 20
111.1737893824
 30
0.0
 40
3.5
 41
0.0
 71
     1
 72
     1
  1
%%c
  7
SLDTEXTSTYLE0
 73
     1
 44
1.0
  0
MTEXT
  5
16F
330
166
100
AcDbEntity
  8
SLD-0
100
AcDbMText
 10
280.7894600376
 20
111.1737893824
 30
0.0
 40
3.5
 41
0.0
 71
     1
 72
     1
  1
18
  7
SLDTEXTSTYLE0
 73
     1
 44
1.0
  0
ENDBLK
  5
168
330
166
100
AcDbEntity
  8
0
100
AcDbBlockEnd
  0
BLOCK
  5
172
330
171
100
AcDbEntity
  8
0
100
AcDbBlockBegin
  2
*D7
 70
     1
 71
     0
 10
0.0
 20
0.0
 30
0.0
  3
*D7
  1

  0
INSERT
  5
174
330
171
100
AcDbEntity
  8
SLD-0
100
AcDbBlockReference
  2
_Open30
 10
389.6766295898
 20
224.1178020774
 30
0.1
 41
3.0
 42
3.0
 50
0.0
  0
INSERT
  5
175
330
171
100
AcDbEntity
  8
SLD-0
100
AcDbBlockReference
  2
_Open30
 10
31.107776981
 20
224.1178020774
 30
0.1
 41
3.0
 42
3.0
 50
180.0
  0
LINE
  5
176
330
171
100
AcDbEntity
  8
SLD-0
100
AcDbLine
 10
389.6766295898
 20
169.9241315529
 30
0.0
 11
389.6766295898
 21
225.1178020774
 31
0.0
  0
LINE
  5
177
330
171
100
AcDbEntity
  8
SLD-0
100
AcDbLine
 10
31.107776981
 20
170.6272302351
 30
0.0
 11
31.107776981
 21
225.1178020774
 31
0.0
  0
LINE
  5
178
330
171
100
AcDbEntity
  8
SLD-0
100
AcDbLine
 10
389.6766295898
 20
224.1178020774
 30
0.0
 11
31.107776981
 21
224.1178020774
 31
0.0
  0
MTEXT
  5
179
330
171
100
AcDbEntity
  8
SLD-0
100
AcDbMText
 10
201.6075267698
 20
228.1905291173
 30
0.0
 40
3.5
 41
0.0
 71
     1
 72
     1
  1
O/I 1092.32
  7
SLDTEXTSTYLE0
 73
     1
 44
1.0
  0
ENDBLK
  5
173
330
171
100
AcDbEntity
  8
0
100
AcDbBlockEnd
  0
BLOCK
  5
17D
330
17C
100
AcDbEntity
  8
0
100
AcDbBlockBegin
  2
*D8
 70
     1
 71
     0
 10
0.0
 20
0.0
 30
0.0
  3
*D8
  1

  0
INSERT
  5
17F
330
17C
100
AcDbEntity
  8
SLD-0
100
AcDbBlockReference
  2
_Open30
 10
213.6606295898
 20
206.2001133925
 30
0.1
 41
3.0
 42
3.0
 50
360.0
  0
INSERT
  5
180
330
17C
100
AcDbEntity
  8
SLD-0
100
AcDbBlockReference
  2
_Open30
 10
92.3606295898
 20
206.2001133925
 30
0.1
 41
3.0
 42
3.0
 50
180.0
  0
LINE
  5
181
330
17C
100
AcDbEntity
  8
SLD-0
100
AcDbLine
 10
213.6606295898
 20
196.3400662941
 30
0.0
 11
213.6606295898
 21
207.2001133925
 31
0.0
  0
LINE
  5
182
330
17C
100
AcDbEntity
  8
SLD-0
100
AcDbLine
 10
92.3606295898
 20
195.8400662941
 30
0.0
 11
92.3606295898
 21
207.2001133925
 31
0.0
  0
LINE
  5
183
330
17C
100
AcDbEntity
  8
SLD-0
100
AcDbLine
 10
213.6606295898
 20
206.2001133925
 30
0.0
 11
92.3606295898
 21
206.2001133925
 31
0.0
  0
MTEXT
  5
184
330
17C
100
AcDbEntity
  8
SLD-0
100
AcDbMText
 10
149.7666759146
 20
210.2728404324
 30
0.0
 40
3.5
 41
0.0
 71
     1
 72
     1
  1
121.3
  7
SLDTEXTSTYLE0
 73
     1
 44
1.0
  0
ENDBLK
  5
17E
330
17C
100
AcDbEntity
  8
0
100
AcDbBlockEnd
  0
BLOCK
  5
187
330
186
100
AcDbEntity
  8
0
100
AcDbBlockBegin
  2
*D9
 70
     1
 71
     0
 10
0.0
 20
0.0
 30
0.0
  3
*D9
  1

  0
INSERT
  5
189
330
186
100
AcDbEntity
  8
SLD-0
100
AcDbBlockReference
  2
_Open30
 10
213.6606295898
 20
206.2001133925
 30
0.1
 41
3.0
 42
3.0
 50
180.0
  0
INSERT
  5
18A
330
186
100
AcDbEntity
  8
SLD-0
100
AcDbBlockReference
  2
_Open30
 10
228.6606295898
 20
206.2001133925
 30
0.1
 41
3.0
 42
3.0
 50
360.0
  0
LINE
  5
18B
330
186
100
AcDbEntity
  8
SLD-0
100
AcDbLine
 10
213.6606295898
 20
196.3400662941
 30
0.0
 11
213.6606295898
 21
207.2001133925
 31
0.0
  0
LINE
  5
18C
330
186
100
AcDbEntity
  8
SLD-0
100
AcDbLine
 10
228.6606295898
 20
189.3400662941
 30
0.0
 11
228.6606295898
 21
207.2001133925
 31
0.0
  0
LINE
  5
18D
330
186
100
AcDbEntity
  8
SLD-0
100
AcDbLine
 10
213.6606295898
 20
206.2001133925
 30
0.0
 11
228.6606295898
 21
206.2001133925
 31
0.0
  0
MTEXT
  5
18E
330
186
100
AcDbEntity
  8
SLD-0
100
AcDbMText
 10
218.3554848305
 20
210.2728404324
 30
0.0
 40
3.5
 41
0.0
 71
     1
 72
     1
  1
15
  7
SLDTEXTSTYLE0
 73
     1
 44
1.0
  0
ENDBLK
  5
188
330
186
100
AcDbEntity
  8
0
100
AcDbBlockEnd
  0
BLOCK
  5
191
330
190
100
AcDbEntity
  8
0
100
AcDbBlockBegin
  2
*D10
 70
     1
 71
     0
 10
0.0
 20
0.0
 30
0.0
  3
*D10
  1

  0
INSERT
  5
193
330
190
100
AcDbEntity
  8
SLD-0
100
AcDbBlockReference
  2
_Open30
 10
228.6606295898
 20
206.2001133924
 30
0.1
 41
3.0
 42
3.0
 50
180.0
  0
INSERT
  5
194
330
190
100
AcDbEntity
  8
SLD-0
100
AcDbBlockReference
  2
_Open30
 10
264.6606295898
 20
206.2001133923
 30
0.1
 41
3.0
 42
3.0
 50
360.0
  0
LINE
  5
195
330
190
100
AcDbEntity
  8
SLD-0
100
AcDbLine
 10
228.6606295898
 20
189.3400662941
 30
0.0
 11
228.6606295898
 21
207.2001133924
 31
0.0
  0
LINE
  5
196
330
190
100
AcDbEntity
  8
SLD-0
100
AcDbLine
 10
264.6606295898
 20
183.8400662941
 30
0.0
 11
264.6606295898
 21
207.2001133923
 31
0.0
  0
LINE
  5
197
330
190
100
AcDbEntity
  8
SLD-0
100
AcDbLine
 10
228.6606295898
 20
206.2001133924
 30
0.0
 11
264.6606295898
 21
206.2001133923
 31
0.0
  0
MTEXT
  5
198
330
190
100
AcDbEntity
  8
SLD-0
100
AcDbMText
 10
243.667319304
 20
210.2728404322
 30
0.0
 40
3.5
 41
0.0
 71
     1
 72
     1
  1
36
  7
SLDTEXTSTYLE0
 73
     1
 44
1.0
  0
ENDBLK
  5
192
330
190
100
AcDbEntity
  8
0
100
AcDbBlockEnd
  0
BLOCK
  5
19B
330
19A
100
AcDbEntity
  8
0
100
AcDbBlockBegin
  2
*D11
 70
     1
 71
     0
 10
0.0
 20
0.0
 30
0.0
  3
*D11
  1

  0
INSERT
  5
19D
330
19A
100
AcDbEntity
  8
SLD-0
100
AcDbBlockReference
  2
_Open30
 10
264.6606295898
 20
206.2001133922
 30
0.1
 41
3.0
 42
3.0
 50
180.0
  0
INSERT
  5
19E
330
19A
100
AcDbEntity
  8
SLD-0
100
AcDbBlockReference
  2
_Open30
 10
294.6606295898
 20
206.2001133922
 30
0.1
 41
3.0
 42
3.0
 50
360.0
  0
LINE
  5
19F
330
19A
100
AcDbEntity
  8
SLD-0
100
AcDbLine
 10
264.6606295898
 20
183.8400662941
 30
0.0
 11
264.6606295898
 21
207.2001133922
 31
0.0
  0
LINE
  5
1A0
330
19A
100
AcDbEntity
  8
SLD-0
100
AcDbLine
 10
294.6606295898
 20
181.8400662941
 30
0.0
 11
294.6606295898
 21
207.2001133922
 31
0.0
  0
LINE
  5
1A1
330
19A
100
AcDbEntity
  8
SLD-0
100
AcDbLine
 10
264.6606295898
 20
206.2001133922
 30
0.0
 11
294.6606295898
 21
206.2001133922
 31
0.0
  0
MTEXT
  5
1A2
330
19A
100
AcDbEntity
  8
SLD-0
100
AcDbMText
 10
278.0014916716
 20
210.2728404321
 30
0.0
 40
3.5
 41
0.0
 71
     1
 72
     1
  1
30
  7
SLDTEXTSTYLE0
 73
     1
 44
1.0
  0
ENDBLK
  5
19C
330
19A
100
AcDbEntity
  8
0
100
AcDbBlockEnd
  0
BLOCK
  5
1A5
330
1A4
100
AcDbEntity
  8
0
100
AcDbBlockBegin
  2
*D12
 70
     1
 71
     0
 10
0.0
 20
0.0
 30
0.0
  3
*D12
  1

  0
INSERT
  5
1A7
330
1A4
100
AcDbEntity
  8
SLD-0
100
AcDbBlockReference
  2
_Open30
 10
294.6606295898
 20
206.2001133922
 30
0.1
 41
3.0
 42
3.0
 50
180.0
  0
INSERT
  5
1A8
330
1A4
100
AcDbEntity
  8
SLD-0
100
AcDbBlockReference
  2
_Open30
 10
309.0606295898
 20
206.2001133922
 30
0.1
 41
3.0
 42
3.0
 50
360.0
  0
LINE
  5
1A9
330
1A4
100
AcDbEntity
  8
SLD-0
100
AcDbLine
 10
294.6606295898
 20
181.8400662941
 30
0.0
 11
294.6606295898
 21
207.2001133922
 31
0.0
  0
LINE
  5
1AA
330
1A4
100
AcDbEntity
  8
SLD-0
100
AcDbLine
 10
309.0606295898
 20
181.8400662941
 30
0.0
 11
309.0606295898
 21
207.2001133922
 31
0.0
  0
LINE
  5
1AB
330
1A4
100
AcDbEntity
  8
SLD-0
100
AcDbLine
 10
294.6606295898
 20
206.2001133922
 30
0.0
 11
309.0606295898
 21
206.2001133922
 31
0.0
  0
MTEXT
  5
1AC
330
1A4
100
AcDbEntity
  8
SLD-0
100
AcDbMText
 10
298.1123144148
 20
210.2728404321
 30
0.0
 40
3.5
 41
0.0
 71
     1
 72
     1
  1
14.4
  7
SLDTEXTSTYLE0
 73
     1
 44
1.0
  0
ENDBLK
  5
1A6
330
1A4
100
AcDbEntity
  8
0
100
AcDbBlockEnd
  0
BLOCK
  5
1AF
330
1AE
100
AcDbEntity
  8
0
100
AcDbBlockBegin
  2
*D13
 70
     1
 71
     0
 10
0.0
 20
0.0
 30
0.0
  3
*D13
  1

  0
INSERT
  5
1B1
330
1AE
100
AcDbEntity
  8
SLD-0
100
AcDbBlockReference
  2
_Open30
 10
376.1506295898
 20
143.3226268903
 30
0.1
 41
3.0
 42
3.0
 50
180.0
  0
INSERT
  5
1B2
330
1AE
100
AcDbEntity
  8
SLD-0
100
AcDbBlockReference
  2
_Open30
 10
372.1506295898
 20
143.3226268903
 30
0.1
 41
3.0
 42
3.0
 50
360.0
  0
LINE
  5
1B3
330
1AE
100
AcDbEntity
  8
SLD-0
100
AcDbLine
 10
376.1506295898
 20
153.0400662941
 30
0.0
 11
376.1506295898
 21
142.3226268903
 31
0.0
  0
LINE
  5
1B4
330
1AE
100
AcDbEntity
  8
SLD-0
100
AcDbLine
 10
372.1506295898
 20
150.8400662941
 30
0.0
 11
372.1506295898
 21
142.3226268903
 31
0.0
  0
LINE
  5
1B5
330
1AE
100
AcDbEntity
  8
SLD-0
100
AcDbLine
 10
376.1506295898
 20
143.3226268903
 30
0.0
 11
382.1506295898
 21
143.3226268903
 31
0.0
  0
LINE
  5
1B6
330
1AE
100
AcDbEntity
  8
SLD-0
100
AcDbLine
 10
376.1506295898
 20
143.3226268903
 30
0.0
 11
372.1506295898
 21
143.3226268903
 31
0.0
  0
LINE
  5
1B7
330
1AE
100
AcDbEntity
  8
SLD-0
100
AcDbLine
 10
372.1506295898
 20
143.3226268903
 30
0.0
 11
366.1506295898
 21
143.3226268903
 31
0.0
  0
MTEXT
  5
1B8
330
1AE
100
AcDbEntity
  8
SLD-0
100
AcDbMText
 10
372.9126000791
 20
147.3953539302
 30
0.0
 40
3.5
 41
0.0
 71
     1
 72
     1
  1
4
  7
SLDTEXTSTYLE0
 73
     1
 44
1.0
  0
ENDBLK
  5
1B0
330
1AE
100
AcDbEntity
  8
0
100
AcDbBlockEnd
  0
BLOCK
  5
1BB
330
1BA
100
AcDbEntity
  8
0
100
AcDbBlockBegin
  2
*D14
 70
     1
 71
     0
 10
0.0
 20
0.0
 30
0.0
  3
*D14
  1

  0
INSERT
  5
1BD
330
1BA
100
AcDbEntity
  8
SLD-0
100
AcDbBlockReference
  2
_Open30
 10
92.3606295898
 20
102.0321281975
 30
0.1
 41
3.0
 42
3.0
 50
180.0
  0
INSERT
  5
1BE
330
1BA
100
AcDbEntity
  8
SLD-0
100
AcDbBlockReference
  2
_Open30
 10
280.6606295898
 20
102.0321281975
 30
0.1
 41
3.0
 42
3.0
 50
360.0
  0
LINE
  5
1BF
330
1BA
100
AcDbEntity
  8
SLD-0
100
AcDbLine
 10
92.3606295898
 20
136.8400662941
 30
0.0
 11
92.3606295898
 21
101.0321281975
 31
0.0
  0
LINE
  5
1C0
330
1BA
100
AcDbEntity
  8
SLD-0
100
AcDbLine
 10
280.6606295898
 20
118.6136043743
 30
0.0
 11
280.6606295898
 21
101.0321281975
 31
0.0
  0
LINE
  5
1C1
330
1BA
100
AcDbEntity
  8
SLD-0
100
AcDbLine
 10
92.3606295898
 20
102.0321281975
 30
0.0
 11
280.6606295898
 21
102.0321281975
 31
0.0
  0
MTEXT
  5
1C2
330
1BA
100
AcDbEntity
  8
SLD-0
100
AcDbMText
 10
170.7693662176
 20
106.1048552374
 30
0.0
 40
3.5
 41
0.0
 71
     1
 72
     1
  1
188.3
  7
SLDTEXTSTYLE0
 73
     1
 44
1.0
  0
ENDBLK
  5
1BC
330
1BA
100
AcDbEntity
  8
0
100
AcDbBlockEnd
  0
BLOCK
  5
1C5
330
1C4
100
AcDbEntity
  8
0
100
AcDbBlockBegin
  2
*D15
 70
     1
 71
     0
 10
0.0
 20
0.0
 30
0.0
  3
*D15
  1

  0
INSERT
  5
1C7
330
1C4
100
AcDbEntity
  8
SLD-0
100
AcDbBlockReference
  2
_Open30
 10
249.9665853659
 20
149.3400662941
 30
0.1
 41
3.0
 42
3.0
 50
270.0
  0
INSERT
  5
1C8
330
1C4
100
AcDbEntity
  8
SLD-0
100
AcDbBlockReference
  2
_Open30
 10
249.9665853659
 20
183.3400662941
 30
0.1
 41
3.0
 42
3.0
 50
90.0
  0
LINE
  5
1C9
330
1C4
100
AcDbEntity
  8
SLD-0
100
AcDbLine
 10
249.9665853659
 20
149.3400662941
 30
0.0
 11
249.9665853659
 21
183.3400662941
 31
0.0
  0
MTEXT
  5
1CA
330
1C4
100
AcDbEntity
  8
SLD-0
100
AcDbMText
 10
245.893858326
 20
167.8089008032
 30
0.0
 40
3.5
 41
0.0
 71
     1
 72
     1
  1
%%c
  7
SLDTEXTSTYLE0
 11
1.446122681238865E-13
 21
1.0
 31
0.0
 73
     1
 44
1.0
  0
MTEXT
  5
1CB
330
1C4
100
AcDbEntity
  8
SLD-0
100
AcDbMText
 10
245.893858326
 20
171.6749495837
 30
0.0
 40
3.5
 41
0.0
 71
     1
 72
     1
  1
34
  7
SLDTEXTSTYLE0
 11
1.446122681238865E-13
 21
1.0
 31
0.0
 73
     1
 44
1.0
  0
ENDBLK
  5
1C6
330
1C4
100
AcDbEntity
  8
0
100
AcDbBlockEnd
  0
BLOCK
  5
1CE
330
1CD
100
AcDbEntity
  8
0
100
AcDbBlockBegin
  2
*D16
 70
     1
 71
     0
 10
0.0
 20
0.0
 30
0.0
  3
*D16
  1

  0
INSERT
  5
1D0
330
1CD
100
AcDbEntity
  8
SLD-0
100
AcDbBlockReference
  2
_Open30
 10
304.3228083173
 20
180.8400662941
 30
0.1
 41
3.0
 42
3.0
 50
90.0
  0
INSERT
  5
1D1
330
1CD
100
AcDbEntity
  8
SLD-0
100
AcDbBlockReference
  2
_Open30
 10
304.3228083173
 20
151.8400662941
 30
0.1
 41
3.0
 42
3.0
 50
270.0
  0
LINE
  5
1D2
330
1CD
100
AcDbEntity
  8
SLD-0
100
AcDbLine
 10
304.3228083173
 20
180.8400662941
 30
0.0
 11
304.3228083173
 21
151.8400662941
 31
0.0
  0
MTEXT
  5
1D3
330
1CD
100
AcDbEntity
  8
SLD-0
100
AcDbMText
 10
300.2500812774
 20
167.8089008031
 30
0.0
 40
3.5
 41
0.0
 71
     1
 72
     1
  1
%%c
  7
SLDTEXTSTYLE0
 11
1.377288853712105E-13
 21
1.0
 31
0.0
 73
     1
 44
1.0
  0
MTEXT
  5
1D4
330
1CD
100
AcDbEntity
  8
SLD-0
100
AcDbMText
 10
300.2500812774
 20
171.6749495836
 30
0.0
 40
3.5
 41
0.0
 71
     1
 72
     1
  1
29
  7
SLDTEXTSTYLE0
 11
1.377288853712105E-13
 21
1.0
 31
0.0
 73
     1
 44
1.0
  0
ENDBLK
  5
1CF
330
1CD
100
AcDbEntity
  8
0
100
AcDbBlockEnd
  0
BLOCK
  5
1D7
330
1D6
100
AcDbEntity
  8
0
100
AcDbBlockBegin
  2
*D17
 70
     1
 71
     0
 10
0.0
 20
0.0
 30
0.0
  3
*D17
  1

  0
INSERT
  5
1D9
330
1D6
100
AcDbEntity
  8
SLD-0
100
AcDbBlockReference
  2
_Open30
 10
363.9606295898
 20
206.2001133922
 30
0.1
 41
3.0
 42
3.0
 50
360.0
  0
INSERT
  5
1DA
330
1D6
100
AcDbEntity
  8
SLD-0
100
AcDbBlockReference
  2
_Open30
 10
309.0606295898
 20
206.2001133922
 30
0.1
 41
3.0
 42
3.0
 50
180.0
  0
LINE
  5
1DB
330
1D6
100
AcDbEntity
  8
SLD-0
100
AcDbLine
 10
363.9606295898
 20
181.8400662941
 30
0.0
 11
363.9606295898
 21
207.2001133922
 31
0.0
  0
LINE
  5
1DC
330
1D6
100
AcDbEntity
  8
SLD-0
100
AcDbLine
 10
309.0606295898
 20
181.8400662941
 30
0.0
 11
309.0606295898
 21
207.2001133922
 31
0.0
  0
LINE
  5
1DD
330
1D6
100
AcDbEntity
  8
SLD-0
100
AcDbLine
 10
363.9606295898
 20
206.2001133922
 30
0.0
 11
309.0606295898
 21
206.2001133922
 31
0.0
  0
MTEXT
  5
1DE
330
1D6
100
AcDbEntity
  8
SLD-0
100
AcDbMText
 10
332.6901857525
 20
210.2728404321
 30
0.0
 40
3.5
 41
0.0
 71
     1
 72
     1
  1
54.9
  7
SLDTEXTSTYLE0
 73
     1
 44
1.0
  0
ENDBLK
  5
1D8
330
1D6
100
AcDbEntity
  8
0
100
AcDbBlockEnd
  0
BLOCK
  5
1E2
330
1E1
100
AcDbEntity
  8
0
100
AcDbBlockBegin
  2
*D18
 70
     1
 71
     0
 10
0.0
 20
0.0
 30
0.0
  3
*D18
  1

  0
INSERT
  5
1E4
330
1E1
100
AcDbEntity
  8
SLD-0
100
AcDbBlockReference
  2
_Open30
 10
363.9606295898
 20
215.342796319
 30
0.1
 41
3.0
 42
3.0
 50
360.0
  0
INSERT
  5
1E5
330
1E1
100
AcDbEntity
  8
SLD-0
100
AcDbBlockReference
  2
_Open30
 10
372.1506295898
 20
215.342796319
 30
0.1
 41
3.0
 42
3.0
 50
180.0
  0
LINE
  5
1E6
330
1E1
100
AcDbEntity
  8
SLD-0
100
AcDbLine
 10
363.9606295898
 20
181.8400662941
 30
0.0
 11
363.9606295898
 21
216.342796319
 31
0.0
  0
LINE
  5
1E7
330
1E1
100
AcDbEntity
  8
SLD-0
100
AcDbLine
 10
372.1506295898
 20
181.8400662941
 30
0.0
 11
372.1506295898
 21
216.342796319
 31
0.0
  0
LINE
  5
1E8
330
1E1
100
AcDbEntity
  8
SLD-0
100
AcDbLine
 10
363.9606295898
 20
215.342796319
 30
0.0
 11
357.9606295898
 21
215.342796319
 31
0.0
  0
LINE
  5
1E9
330
1E1
100
AcDbEntity
  8
SLD-0
100
AcDbLine
 10
363.9606295898
 20
215.342796319
 30
0.0
 11
372.1506295898
 21
215.342796319
 31
0.0
  0
LINE
  5
1EA
330
1E1
100
AcDbEntity
  8
SLD-0
100
AcDbLine
 10
372.1506295898
 20
215.342796319
 30
0.0
 11
378.1506295898
 21
215.342796319
 31
0.0
  0
MTEXT
  5
1EB
330
1E1
100
AcDbEntity
  8
SLD-0
100
AcDbMText
 10
364.7063004164
 20
219.4155233589
 30
0.0
 40
3.5
 41
0.0
 71
     1
 72
     1
  1
8.19
  7
SLDTEXTSTYLE0
 73
     1
 44
1.0
  0
ENDBLK
  5
1E3
330
1E1
100
AcDbEntity
  8
0
100
AcDbBlockEnd
  0
BLOCK
  5
1EE
330
1ED
100
AcDbEntity
  8
0
100
AcDbBlockBegin
  2
*D19
 70
     1
 71
     0
 10
0.0
 20
0.0
 30
0.0
  3
*D19
  1

  0
INSERT
  5
1F0
330
1ED
100
AcDbEntity
  8
SLD-0
100
AcDbBlockReference
  2
_Open30
 10
389.6766295898
 20
215.342796319
 30
0.1
 41
3.0
 42
3.0
 50
360.0
  0
INSERT
  5
1F1
330
1ED
100
AcDbEntity
  8
SLD-0
100
AcDbBlockReference
  2
_Open30
 10
372.1506295898
 20
215.342796319
 30
0.1
 41
3.0
 42
3.0
 50
180.0
  0
LINE
  5
1F2
330
1ED
100
AcDbEntity
  8
SLD-0
100
AcDbLine
 10
389.6766295898
 20
169.9241315529
 30
0.0
 11
389.6766295898
 21
216.342796319
 31
0.0
  0
LINE
  5
1F3
330
1ED
100
AcDbEntity
  8
SLD-0
100
AcDbLine
 10
372.1506295898
 20
181.8400662941
 30
0.0
 11
372.1506295898
 21
216.342796319
 31
0.0
  0
LINE
  5
1F4
330
1ED
100
AcDbEntity
  8
SLD-0
100
AcDbLine
 10
389.6766295898
 20
215.342796319
 30
0.0
 11
372.1506295898
 21
215.342796319
 31
0.0
  0
MTEXT
  5
1F5
330
1ED
100
AcDbEntity
  8
SLD-0
100
AcDbMText
 10
375.9407038965
 20
219.4155233589
 30
0.0
 40
3.5
 41
0.0
 71
     1
 72
     1
  1
17.53
  7
SLDTEXTSTYLE0
 73
     1
 44
1.0
  0
ENDBLK
  5
1EF
330
1ED
100
AcDbEntity
  8
0
100
AcDbBlockEnd
  0
BLOCK
  5
1F8
330
1F7
100
AcDbEntity
  8
0
100
AcDbBlockBegin
  2
*D20
 70
     1
 71
     0
 10
0.0
 20
0.0
 30
0.0
  3
*D20
  1

  0
INSERT
  5
1FA
330
1F7
100
AcDbEntity
  8
SLD-0
100
AcDbBlockReference
  2
_Open30
 10
92.3606295898
 20
215.3434897383
 30
0.1
 41
3.0
 42
3.0
 50
180.0
  0
INSERT
  5
1FB
330
1F7
100
AcDbEntity
  8
SLD-0
100
AcDbBlockReference
  2
_Open30
 10
363.9606295898
 20
215.3434897382
 30
0.1
 41
3.0
 42
3.0
 50
360.0
  0
LINE
  5
1FC
330
1F7
100
AcDbEntity
  8
SLD-0
100
AcDbLine
 10
92.3606295898
 20
195.8400662941
 30
0.0
 11
92.3606295898
 21
216.3434897383
 31
0.0
  0
LINE
  5
1FD
330
1F7
100
AcDbEntity
  8
SLD-0
100
AcDbLine
 10
363.9606295898
 20
181.8400662941
 30
0.0
 11
363.9606295898
 21
216.3434897382
 31
0.0
  0
LINE
  5
1FE
330
1F7
100
AcDbEntity
  8
SLD-0
100
AcDbLine
 10
92.3606295898
 20
215.3434897383
 30
0.0
 11
363.9606295898
 21
215.3434897382
 31
0.0
  0
MTEXT
  5
1FF
330
1F7
100
AcDbEntity
  8
SLD-0
100
AcDbMText
 10
206.2028133552
 20
219.4162167781
 30
0.0
 40
3.5
 41
0.0
 71
     1
 72
     1
  1
271.61
  7
SLDTEXTSTYLE0
 73
     1
 44
1.0
  0
ENDBLK
  5
1F9
330
1F7
100
AcDbEntity
  8
0
100
AcDbBlockEnd
  0
BLOCK
  5
202
330
201
100
AcDbEntity
  8
0
100
AcDbBlockBegin
  2
*D21
 70
     1
 71
     0
 10
0.0
 20
0.0
 30
0.0
  3
*D21
  1

  0
INSERT
  5
204
330
201
100
AcDbEntity
  8
SLD-0
100
AcDbBlockReference
  2
_Open30
 10
398.2215779298
 20
181.3400662941
 30
0.1
 41
3.0
 42
3.0
 50
90.0
  0
INSERT
  5
205
330
201
100
AcDbEntity
  8
SLD-0
100
AcDbBlockReference
  2
_Open30
 10
398.2215779298
 20
151.3400662941
 30
0.1
 41
3.0
 42
3.0
 50
270.0
  0
LINE
  5
206
330
201
100
AcDbEntity
  8
SLD-0
100
AcDbLine
 10
372.6506295898
 20
181.3400662941
 30
0.0
 11
399.2215779298
 21
181.3400662941
 31
0.0
  0
LINE
  5
207
330
201
100
AcDbEntity
  8
SLD-0
100
AcDbLine
 10
372.6506295898
 20
151.3400662941
 30
0.0
 11
399.2215779298
 21
151.3400662941
 31
0.0
  0
LINE
  5
208
330
201
100
AcDbEntity
  8
SLD-0
100
AcDbLine
 10
398.2215779298
 20
181.3400662941
 30
0.0
 11
398.2215779298
 21
151.3400662941
 31
0.0
  0
MTEXT
  5
209
330
201
100
AcDbEntity
  8
SLD-0
100
AcDbMText
 10
394.1488508899
 20
159.5031054302
 30
0.0
 40
3.5
 41
0.0
 71
     1
 72
     1
  1
%%c
  7
SLDTEXTSTYLE0
 11
1.359525285318103E-13
 21
1.0
 31
0.0
 73
     1
 44
1.0
  0
MTEXT
  5
20A
330
201
100
AcDbEntity
  8
SLD-0
100
AcDbMText
 10
394.1488508899
 20
163.3691542107
 30
0.0
 40
3.5
 41
0.0
 71
     1
 72
     1
  1
30
  7
SLDTEXTSTYLE0
 11
1.359525285318103E-13
 21
1.0
 31
0.0
 73
     1
 44
1.0
  0
MTEXT
  5
20B
330
201
100
AcDbEntity
  8
SLD-0
100
AcDbMText
 10
395.2008760687
 20
168.3062029912
 30
0.0
 40
2.45
 41
0.0
 71
     1
 72
     1
  1
-
  7
SLDTEXTSTYLE0
 11
1.359525285318103E-13
 21
1.0
 31
0.0
 73
     1
 44
1.0
  0
MTEXT
  5
20C
330
201
100
AcDbEntity
  8
SLD-0
100
AcDbMText
 10
395.2008760687
 20
169.7298493327
 30
0.0
 40
2.45
 41
0.0
 71
     1
 72
     1
  1
0.1
  7
SLDTEXTSTYLE0
 11
1.359525285318103E-13
 21
1.0
 31
0.0
 73
     1
 44
1.0
  0
MTEXT
  5
20D
330
201
100
AcDbEntity
  8
SLD-0
100
AcDbMText
 10
392.3535833857
 20
169.7298493327
 30
0.0
 40
2.45
 41
0.0
 71
     1
 72
     1
  1
0.0
  7
SLDTEXTSTYLE0
 11
1.359525285318103E-13
 21
1.0
 31
0.0
 73
     1
 44
1.0
  0
ENDBLK
  5
203
330
201
100
AcDbEntity
  8
0
100
AcDbBlockEnd
  0
BLOCK
  5
210
330
20F
100
AcDbEntity
  8
0
100
AcDbBlockBegin
  2
*D22
 70
     1
 71
     0
 10
0.0
 20
0.0
 30
0.0
  3
*D22
  1

  0
INSERT
  5
212
330
20F
100
AcDbEntity
  8
SLD-0
100
AcDbBlockReference
  2
_Open30
 10
383.2671094169
 20
179.0400662941
 30
0.1
 41
3.0
 42
3.0
 50
90.0
  0
INSERT
  5
213
330
20F
100
AcDbEntity
  8
SLD-0
100
AcDbBlockReference
  2
_Open30
 10
383.2671094169
 20
153.6400662941
 30
0.1
 41
3.0
 42
3.0
 50
270.0
  0
LINE
  5
214
330
20F
100
AcDbEntity
  8
SLD-0
100
AcDbLine
 10
376.7506295898
 20
179.0400662941
 30
0.0
 11
384.2671094169
 21
179.0400662941
 31
0.0
  0
LINE
  5
215
330
20F
100
AcDbEntity
  8
SLD-0
100
AcDbLine
 10
376.7506295898
 20
153.6400662941
 30
0.0
 11
384.2671094169
 21
153.6400662941
 31
0.0
  0
LINE
  5
216
330
20F
100
AcDbEntity
  8
SLD-0
100
AcDbLine
 10
383.2671094169
 20
179.0400662941
 30
0.0
 11
383.2671094169
 21
153.6400662941
 31
0.0
  0
MTEXT
  5
217
330
20F
100
AcDbEntity
  8
SLD-0
100
AcDbMText
 10
379.194382377
 20
155.752428601
 30
0.0
 40
3.5
 41
0.0
 71
     1
 72
     1
  1
M
  7
SLDTEXTSTYLE0
 11
1.315116364333097E-13
 21
1.0
 31
0.0
 73
     1
 44
1.0
  0
MTEXT
  5
218
330
20F
100
AcDbEntity
  8
SLD-0
100
AcDbMText
 10
379.194382377
 20
158.7738676253
 30
0.0
 40
3.5
 41
0.0
 71
     1
 72
     1
  1
25.4
  7
SLDTEXTSTYLE0
 11
1.315116364333097E-13
 21
1.0
 31
0.0
 73
     1
 44
1.0
  0
MTEXT
  5
219
330
20F
100
AcDbEntity
  8
SLD-0
100
AcDbMText
 10
379.194382377
 20
165.7092456741
 30
0.0
 40
3.5
 41
0.0
 71
     1
 72
     1
  1
 UNC1
  7
SLDTEXTSTYLE0
 11
1.315116364333097E-13
 21
1.0
 31
0.0
 73
     1
 44
1.0
  0
ENDBLK
  5
211
330
20F
100
AcDbEntity
  8
0
100
AcDbBlockEnd
  0
BLOCK
  5
25C
330
25B
100
AcDbEntity
  8
0
100
AcDbBlockBegin
  2
SW_NOTE_0
 70
     0
 71
     0
 10
0.0
 20
0.0
 30
0.0
  3
SW_NOTE_0
  1

  0
MTEXT
  5
25E
330
25B
100
AcDbEntity
  8
0
  6
Continuous
 62
     0
370
     0
100
AcDbMText
 10
0.0
 20
2.463030303
 30
0.0
 40
2.1166666667
 41
0.0
 71
     1
 72
     1
  1
1
  7
SLDTEXTSTYLE0
 73
     1
 44
1.0
  0
MTEXT
  5
25F
330
25B
100
AcDbEntity
  8
0
  6
Continuous
 62
     0
370
     0
100
AcDbMText
 10
1.4111110941
 20
2.463030303
 30
0.0
 40
2.1166666667
 41
0.0
 71
     1
 72
     1
  1
.6
  7
SLDTEXTSTYLE0
 73
     1
 44
1.0
  0
ENDBLK
  5
25D
330
25B
100
AcDbEntity
  8
0
100
AcDbBlockEnd
  0
BLOCK
  5
268
330
267
100
AcDbEntity
  8
0
100
AcDbBlockBegin
  2
SW_TABLEANNOTATION_0
 70
     0
 71
     0
 10
0.0
 20
0.0
 30
0.0
  3
SW_TABLEANNOTATION_0
  1

  0
LINE
  5
26A
330
267
100
AcDbEntity
  8
SLD-0
 62
     0
100
AcDbLine
 10
0.0
 20
0.0
 30
0.0
 11
0.0
 21
-65.7796136663
 31
0.0
  0
LINE
  5
26B
330
267
100
AcDbEntity
  8
SLD-0
 62
     0
100
AcDbLine
 10
0.0
 20
-65.7796136663
 30
0.0
 11
84.441441417
 21
-65.7796136663
 31
0.0
  0
LINE
  5
26C
330
267
100
AcDbEntity
  8
SLD-0
 62
     0
100
AcDbLine
 10
84.441441417
 20
-65.7796136663
 30
0.0
 11
84.441441417
 21
0.0
 31
0.0
  0
LINE
  5
26D
330
267
100
AcDbEntity
  8
SLD-0
 62
     0
100
AcDbLine
 10
84.441441417
 20
0.0
 30
0.0
 11
0.0
 21
0.0
 31
0.0
  0
LINE
  5
26E
330
267
100
AcDbEntity
  8
SLD-0
 62
     0
100
AcDbLine
 10
59.6774243076
 20
-8.0158700669
 30
0.0
 11
59.6774243076
 21
-65.7796136663
 31
0.0
  0
LINE
  5
26F
330
267
100
AcDbEntity
  8
SLD-0
 62
     0
100
AcDbLine
 10
0.0
 20
-14.1734712463
 30
0.0
 11
84.441441417
 21
-14.1734712463
 31
0.0
  0
LINE
  5
270
330
267
100
AcDbEntity
  8
SLD-0
 62
     0
100
AcDbLine
 10
0.0
 20
-20.90480681
 30
0.0
 11
84.441441417
 21
-20.90480681
 31
0.0
  0
LINE
  5
271
330
267
100
AcDbEntity
  8
SLD-0
 62
     0
100
AcDbLine
 10
0.0
 20
-28.4561096551
 30
0.0
 11
84.441441417
 21
-28.4561096551
 31
0.0
  0
LINE
  5
272
330
267
100
AcDbEntity
  8
SLD-0
 62
     0
100
AcDbLine
 10
0.0
 20
-35.0782780563
 30
0.0
 11
84.441441417
 21
-35.0782780563
 31
0.0
  0
LINE
  5
273
330
267
100
AcDbEntity
  8
SLD-0
 62
     0
100
AcDbLine
 10
0.0
 20
-42.72801938
 30
0.0
 11
84.441441417
 21
-42.72801938
 31
0.0
  0
LINE
  5
274
330
267
100
AcDbEntity
  8
SLD-0
 62
     0
100
AcDbLine
 10
0.0
 20
-50.3777607036
 30
0.0
 11
84.441441417
 21
-50.3777607036
 31
0.0
  0
LINE
  5
275
330
267
100
AcDbEntity
  8
SLD-0
 62
     0
100
AcDbLine
 10
0.0
 20
-58.0717819202
 30
0.0
 11
84.441441417
 21
-58.0717819202
 31
0.0
  0
LINE
  5
276
330
267
100
AcDbEntity
  8
SLD-0
 62
     0
100
AcDbLine
 10
0.0
 20
-8.0158700669
 30
0.0
 11
84.441441417
 21
-8.0158700669
 31
0.0
  0
MTEXT
  5
277
330
267
100
AcDbEntity
  8
SLD-0
 62
     0
100
AcDbMText
 10
34.0734987186
 20
-2.221708613
 30
0.0
 40
3.5
 41
0.0
 71
     1
 72
     1
  1
光学仕様
  7
SLDTEXTSTYLE0
 73
     1
 44
1.0
  0
MTEXT
  5
278
330
267
100
AcDbEntity
  8
SLD-0
 62
     0
100
AcDbMText
 10
25.7651011588
 20
-9.3084442362
 30
0.0
 40
3.5
 41
0.0
 71
     1
 72
     1
  1
倍率
  7
SLDTEXTSTYLE0
 73
     1
 44
1.0
  0
MTEXT
  5
279
330
267
100
AcDbEntity
  8
SLD-0
 62
     0
100
AcDbMText
 10
70.0226273648
 20
-9.3084442362
 30
0.0
 40
3.5
 41
0.0
 71
     1
 72
     1
  1
x5
  7
SLDTEXTSTYLE0
 73
     1
 44
1.0
  0
MTEXT
  5
27A
330
267
100
AcDbEntity
  8
SLD-0
 62
     0
100
AcDbMText
 10
17.6178796345
 20
-15.7529126077
 30
0.0
 40
3.5
 41
0.0
 71
     1
 72
     1
  1
WD(作動距離)
  7
SLDTEXTSTYLE0
 73
     1
 44
1.0
  0
MTEXT
  5
27B
330
267
100
AcDbEntity
  8
SLD-0
 62
     0
100
AcDbMText
 10
66.967419235
 20
-15.7529126077
 30
0.0
 40
3.5
 41
0.0
 71
     1
 72
     1
  1
800mm
  7
SLDTEXTSTYLE0
 73
     1
 44
1.0
  0
MTEXT
  5
27C
330
267
100
AcDbEntity
  8
SLD-0
 62
     0
100
AcDbMText
 10
19.6546848992
 20
-22.8942318121
 30
0.0
 40
3.5
 41
0.0
 71
     1
 72
     1
  1
被写界深度
  7
SLDTEXTSTYLE0
 73
     1
 44
1.0
  0
MTEXT
  5
27D
330
267
100
AcDbEntity
  8
SLD-0
 62
     0
100
AcDbMText
 10
65.9490166027
 20
-22.8942318121
 30
0.0
 40
3.5
 41
0.0
 71
     1
 72
     1
  1
3.89mm
  7
SLDTEXTSTYLE0
 73
     1
 44
1.0
  0
MTEXT
  5
27E
330
267
100
AcDbEntity
  8
SLD-0
 62
     0
100
AcDbMText
 10
25.7651011588
 20
-29.9809674352
 30
0.0
 40
3.5
 41
0.0
 71
     1
 72
     1
  1
ＮＡ
  7
SLDTEXTSTYLE0
 73
     1
 44
1.0
  0
MTEXT
  5
27F
330
267
100
AcDbEntity
  8
SLD-0
 62
     0
100
AcDbMText
 10
66.967419235
 20
-29.9809674352
 30
0.0
 40
3.5
 41
0.0
 71
     1
 72
     1
  1
0.015
  7
SLDTEXTSTYLE0
 73
     1
 44
1.0
  0
MTEXT
  5
280
330
267
100
AcDbEntity
  8
SLD-0
 62
     0
100
AcDbMText
 10
17.6178796345
 20
-37.1169222977
 30
0.0
 40
3.5
 41
0.0
 71
     1
 72
     1
  1
光学的分解能
  7
SLDTEXTSTYLE0
 73
     1
 44
1.0
  0
MTEXT
  5
281
330
267
100
AcDbEntity
  8
SLD-0
 62
     0
100
AcDbMText
 10
64.9306135047
 20
-37.1169222977
 30
0.0
 40
3.5
 41
0.0
 71
     1
 72
     1
  1
22.4μm
  7
SLDTEXTSTYLE0
 73
     1
 44
1.0
  0
MTEXT
  5
282
330
267
100
AcDbEntity
  8
SLD-0
 62
     0
100
AcDbMText
 10
21.6914901639
 20
-44.7666636213
 30
0.0
 40
3.5
 41
0.0
 71
     1
 72
     1
  1
有効Ｆ値
  7
SLDTEXTSTYLE0
 73
     1
 44
1.0
  0
MTEXT
  5
283
330
267
100
AcDbEntity
  8
SLD-0
 62
     0
100
AcDbMText
 10
67.9858218673
 20
-44.7666636213
 30
0.0
 40
3.5
 41
0.0
 71
     1
 72
     1
  1
16.7
  7
SLDTEXTSTYLE0
 73
     1
 44
1.0
  0
MTEXT
  5
284
330
267
100
AcDbEntity
  8
SLD-0
 62
     0
100
AcDbMText
 10
14.5626712719
 20
-52.4385448915
 30
0.0
 40
3.5
 41
0.0
 71
     1
 72
     1
  1
視野(水平x垂直)
  7
SLDTEXTSTYLE0
 73
     1
 44
1.0
  0
MTEXT
  5
285
330
267
100
AcDbEntity
  8
SLD-0
 62
     0
100
AcDbMText
 10
61.8754046764
 20
-52.4385448915
 30
0.0
 40
3.5
 41
0.0
 71
     1
 72
     1
  1
14.28x10.7
  7
SLDTEXTSTYLE0
 73
     1
 44
1.0
  0
MTEXT
  5
286
330
267
100
AcDbEntity
  8
SLD-0
 62
     0
100
AcDbMText
 10
3.360237194
 20
-60.1394713728
 30
0.0
 40
3.5
 41
0.0
 71
     1
 72
     1
  1
ディストーション％(対角値)
  7
SLDTEXTSTYLE0
 73
     1
 44
1.0
  0
MTEXT
  5
287
330
267
100
AcDbEntity
  8
SLD-0
 62
     0
100
AcDbMText
 10
66.967419235
 20
-60.1394713728
 30
0.0
 40
3.5
 41
0.0
 71
     1
 72
     1
  1
0.04%
  7
SLDTEXTSTYLE0
 73
     1
 44
1.0
  0
ENDBLK
  5
269
330
267
100
AcDbEntity
  8
0
100
AcDbBlockEnd
  0
ENDSEC
  0
SECTION
  2
ENTITIES
  0
LINE
  5
4C
330
1F
100
AcDbEntity
  8
SLD-0
  6
CENTER
 62
   179
100
AcDbLine
 10
31.107776981
 20
169.6272302351
 30
0.0
 11
31.107776981
 21
163.2920672002
 31
0.0
  0
LINE
  5
4D
330
1F
100
AcDbEntity
  8
SLD-0
  6
CENTER
 62
   179
100
AcDbLine
 10
88.9202594501
 20
166.3400662941
 30
0.0
 11
391.8047841758
 21
166.3400662941
 31
0.0
  0
LINE
  5
4E
330
1F
100
AcDbEntity
  8
SLD-0
  6
CENTER
 62
   179
100
AcDbLine
 10
28.005478393
 20
166.3400662941
 30
0.0
 11
64.5870260158
 21
166.3400662941
 31
0.0
  0
LINE
  5
4F
330
1F
100
AcDbEntity
  8
SLD-0
  6
CENTER
 62
     4
100
AcDbLine
 10
314.0606295898
 20
169.1151223861
 30
0.0
 11
314.0606295898
 21
164.1140287524
 31
0.0
  0
LINE
  5
50
330
1F
100
AcDbEntity
  8
SLD-0
  6
Continuous
 62
   179
100
AcDbLine
 10
372.9506295898
 20
179.0400662941
 30
0.0
 11
375.7506295898
 21
179.0400662941
 31
0.0
  0
LINE
  5
51
330
1F
100
AcDbEntity
  8
SLD-0
  6
Continuous
 62
   179
100
AcDbLine
 10
372.1506295898
 20
178.6400662941
 30
0.0
 11
372.9506295898
 21
178.6400662941
 31
0.0
  0
LINE
  5
52
330
1F
100
AcDbEntity
  8
SLD-0
  6
Continuous
 62
   179
100
AcDbLine
 10
372.1506295898
 20
180.8400662941
 30
0.0
 11
372.1506295898
 21
151.8400662941
 31
0.0
  0
LINE
  5
53
330
1F
100
AcDbEntity
  8
SLD-0
  6
Continuous
 62
   179
100
AcDbLine
 10
363.9606295898
 20
180.8400662941
 30
0.0
 11
364.4606295898
 21
181.3400662941
 31
0.0
  0
LINE
  5
54
330
1F
100
AcDbEntity
  8
SLD-0
  6
Continuous
 62
   179
100
AcDbLine
 10
375.7506295898
 20
153.6400662941
 30
0.0
 11
376.1506295898
 21
154.0400662941
 31
0.0
  0
LINE
  5
55
330
1F
100
AcDbEntity
  8
SLD-0
  6
Continuous
 62
   179
100
AcDbLine
 10
375.7506295898
 20
179.0400662941
 30
0.0
 11
376.1506295898
 21
178.6400662941
 31
0.0
  0
LINE
  5
56
330
1F
100
AcDbEntity
  8
SLD-0
  6
Continuous
 62
     4
100
AcDbLine
 10
372.9506295898
 20
154.0400662941
 30
0.0
 11
376.1506295898
 21
154.0400662941
 31
0.0
  0
LINE
  5
57
330
1F
100
AcDbEntity
  8
SLD-0
  6
Continuous
 62
   179
100
AcDbLine
 10
372.1506295898
 20
154.0400662941
 30
0.0
 11
372.9506295898
 21
154.0400662941
 31
0.0
  0
LINE
  5
58
330
1F
100
AcDbEntity
  8
SLD-0
  6
Continuous
 62
   179
100
AcDbLine
 10
294.6606295898
 20
151.8400662941
 30
0.0
 11
308.6606295898
 21
151.8400662941
 31
0.0
  0
LINE
  5
59
330
1F
100
AcDbEntity
  8
SLD-0
  6
Continuous
 62
     4
100
AcDbLine
 10
372.9506295898
 20
178.6400662941
 30
0.0
 11
376.1506295898
 21
178.6400662941
 31
0.0
  0
LINE
  5
5A
330
1F
100
AcDbEntity
  8
SLD-0
  6
Continuous
 62
   179
100
AcDbLine
 10
294.6606295898
 20
151.8400662941
 30
0.0
 11
294.6606295898
 21
180.8400662941
 31
0.0
  0
LINE
  5
5B
330
1F
100
AcDbEntity
  8
SLD-0
  6
Continuous
 62
   179
100
AcDbLine
 10
372.9506295898
 20
154.0400662941
 30
0.0
 11
372.9506295898
 21
153.6400662941
 31
0.0
  0
LINE
  5
5C
330
1F
100
AcDbEntity
  8
SLD-0
  6
Continuous
 62
   179
100
AcDbLine
 10
372.9506295898
 20
179.0400662941
 30
0.0
 11
372.9506295898
 21
154.0400662941
 31
0.0
  0
LINE
  5
5D
330
1F
100
AcDbEntity
  8
SLD-0
  6
Continuous
 62
   179
100
AcDbLine
 10
294.6606295898
 20
180.8400662941
 30
0.0
 11
308.6606295898
 21
180.8400662941
 31
0.0
  0
LINE
  5
5E
330
1F
100
AcDbEntity
  8
SLD-0
  6
Continuous
 62
   179
100
AcDbLine
 10
92.3606295898
 20
194.8400662941
 30
0.0
 11
92.3606295898
 21
137.8400662941
 31
0.0
  0
LINE
  5
5F
330
1F
100
AcDbEntity
  8
SLD-0
  6
Continuous
 62
   179
100
AcDbLine
 10
271.6606295898
 20
121.8400662941
 30
0.0
 11
272.1606295898
 21
121.3400662941
 31
0.0
  0
LINE
  5
60
330
1F
100
AcDbEntity
  8
SLD-0
  6
Continuous
 62
   179
100
AcDbLine
 10
289.1606295898
 20
121.3400662941
 30
0.0
 11
289.6606295898
 21
121.8400662941
 31
0.0
  0
LINE
  5
61
330
1F
100
AcDbEntity
  8
SLD-0
  6
Continuous
 62
   179
100
AcDbLine
 10
269.6606295898
 20
151.8400662941
 30
0.0
 11
264.6606295898
 21
151.8400662941
 31
0.0
  0
LINE
  5
62
330
1F
100
AcDbEntity
  8
SLD-0
  6
Continuous
 62
   179
100
AcDbLine
 10
269.6606295898
 20
158.8400662941
 30
0.0
 11
269.6606295898
 21
151.8400662941
 31
0.0
  0
LINE
  5
63
330
1F
100
AcDbEntity
  8
SLD-0
  6
CENTER
 62
   179
100
AcDbLine
 10
277.8144746565
 20
125.3400662941
 30
0.0
 11
283.3848394565
 21
125.3400662941
 31
0.0
  0
LINE
  5
64
330
1F
100
AcDbEntity
  8
SLD-0
  6
Continuous
 62
   179
100
AcDbLine
 10
269.6606295898
 20
158.8400662941
 30
0.0
 11
291.6606295898
 21
158.8400662941
 31
0.0
  0
LINE
  5
65
330
1F
100
AcDbEntity
  8
SLD-0
  6
Continuous
 62
   179
100
AcDbLine
 10
291.6606295898
 20
158.8400662941
 30
0.0
 11
291.6606295898
 21
151.8400662941
 31
0.0
  0
LINE
  5
66
330
1F
100
AcDbEntity
  8
SLD-0
  6
Continuous
 62
   179
100
AcDbLine
 10
269.6606295898
 20
155.8400662941
 30
0.0
 11
291.6606295898
 21
155.8400662941
 31
0.0
  0
LINE
  5
67
330
1F
100
AcDbEntity
  8
SLD-0
  6
PHANTOM
 62
   179
100
AcDbLine
 10
273.1606295898
 20
173.8400662941
 30
0.0
 11
288.1606295898
 21
158.8400662941
 31
0.0
  0
LINE
  5
68
330
1F
100
AcDbEntity
  8
SLD-0
  6
Continuous
 62
   179
100
AcDbLine
 10
364.4606295898
 20
181.3400662941
 30
0.0
 11
371.6506295898
 21
181.3400662941
 31
0.0
  0
LINE
  5
69
330
1F
100
AcDbEntity
  8
SLD-0
  6
HIDDEN
 62
   179
100
AcDbLine
 10
284.6606295898
 20
134.3400662941
 30
0.0
 11
284.6606295898
 21
121.3400662941
 31
0.0
  0
LINE
  5
6A
330
1F
100
AcDbEntity
  8
SLD-0
  6
HIDDEN
 62
   179
100
AcDbLine
 10
276.6606295898
 20
134.3400662941
 30
0.0
 11
276.6606295898
 21
121.3400662941
 31
0.0
  0
LINE
  5
6B
330
1F
100
AcDbEntity
  8
SLD-0
  6
Continuous
 62
   179
100
AcDbLine
 10
291.6606295898
 20
151.8400662941
 30
0.0
 11
294.7606295898
 21
151.8400662941
 31
0.0
  0
LINE
  5
6C
330
1F
100
AcDbEntity
  8
SLD-0
  6
Continuous
 62
   179
100
AcDbLine
 10
264.6606295898
 20
182.8400662941
 30
0.0
 11
264.6606295898
 21
149.8400662941
 31
0.0
  0
LINE
  5
6D
330
1F
100
AcDbEntity
  8
SLD-0
  6
Continuous
 62
   179
100
AcDbLine
 10
289.6606295898
 20
155.8400662941
 30
0.0
 11
289.6606295898
 21
121.8400662941
 31
0.0
  0
LINE
  5
6E
330
1F
100
AcDbEntity
  8
SLD-0
  6
Continuous
 62
   179
100
AcDbLine
 10
272.1606295898
 20
121.3400662941
 30
0.0
 11
289.1606295898
 21
121.3400662941
 31
0.0
  0
LINE
  5
6F
330
1F
100
AcDbEntity
  8
SLD-0
  6
CENTER
 62
   179
100
AcDbLine
 10
280.6606295898
 20
166.3400662941
 30
0.0
 11
280.6606295898
 21
119.6136043743
 31
0.0
  0
LINE
  5
70
330
1F
100
AcDbEntity
  8
SLD-0
  6
Continuous
 62
   179
100
AcDbLine
 10
264.6606295898
 20
180.8400662941
 30
0.0
 11
294.6606295898
 21
180.8400662941
 31
0.0
  0
LINE
  5
71
330
1F
100
AcDbEntity
  8
SLD-0
  6
Continuous
 62
   179
100
AcDbLine
 10
271.6606295898
 20
155.8400662941
 30
0.0
 11
271.6606295898
 21
121.8400662941
 31
0.0
  0
LINE
  5
72
330
1F
100
AcDbEntity
  8
SLD-0
  6
Continuous
 62
   179
100
AcDbLine
 10
372.9506295898
 20
153.6400662941
 30
0.0
 11
375.7506295898
 21
153.6400662941
 31
0.0
  0
LINE
  5
73
330
1F
100
AcDbEntity
  8
SLD-0
  6
Continuous
 62
   179
100
AcDbLine
 10
376.1506295898
 20
178.6400662941
 30
0.0
 11
376.1506295898
 21
154.0400662941
 31
0.0
  0
LINE
  5
74
330
1F
100
AcDbEntity
  8
SLD-0
  6
Continuous
 62
   179
100
AcDbLine
 10
364.4606295898
 20
151.3400662941
 30
0.0
 11
371.6506295898
 21
151.3400662941
 31
0.0
  0
LINE
  5
75
330
1F
100
AcDbEntity
  8
SLD-0
  6
Continuous
 62
   179
100
AcDbLine
 10
264.1606295898
 20
183.3400662941
 30
0.0
 11
264.6606295898
 21
182.8400662941
 31
0.0
  0
LINE
  5
76
330
1F
100
AcDbEntity
  8
SLD-0
  6
Continuous
 62
   179
100
AcDbLine
 10
308.6606295898
 20
151.8400662941
 30
0.0
 11
363.9606295898
 21
151.8400662941
 31
0.0
  0
LINE
  5
77
330
1F
100
AcDbEntity
  8
SLD-0
  6
Continuous
 62
   179
100
AcDbLine
 10
92.3606295898
 20
194.8400662941
 30
0.0
 11
92.8606295898
 21
195.3400662941
 31
0.0
  0
LINE
  5
78
330
1F
100
AcDbEntity
  8
SLD-0
  6
Continuous
 62
   179
100
AcDbLine
 10
363.9606295898
 20
151.8400662941
 30
0.0
 11
364.4606295898
 21
151.3400662941
 31
0.0
  0
LINE
  5
79
330
1F
100
AcDbEntity
  8
SLD-0
  6
Continuous
 62
   179
100
AcDbLine
 10
371.6506295898
 20
181.3400662941
 30
0.0
 11
372.1506295898
 21
180.8400662941
 31
0.0
  0
LINE
  5
7A
330
1F
100
AcDbEntity
  8
SLD-0
  6
Continuous
 62
   179
100
AcDbLine
 10
308.6606295898
 20
180.8400662941
 30
0.0
 11
363.9606295898
 21
180.8400662941
 31
0.0
  0
LINE
  5
7B
330
1F
100
AcDbEntity
  8
SLD-0
  6
Continuous
 62
   179
100
AcDbLine
 10
363.9606295898
 20
180.8400662941
 30
0.0
 11
363.9606295898
 21
151.8400662941
 31
0.0
  0
LINE
  5
7C
330
1F
100
AcDbEntity
  8
SLD-0
  6
Continuous
 62
   179
100
AcDbLine
 10
228.6606295898
 20
183.3400662941
 30
0.0
 11
264.1606295898
 21
183.3400662941
 31
0.0
  0
LINE
  5
7D
330
1F
100
AcDbEntity
  8
SLD-0
  6
Continuous
 62
   179
100
AcDbLine
 10
264.1606295898
 20
149.3400662941
 30
0.0
 11
264.6606295898
 21
149.8400662941
 31
0.0
  0
LINE
  5
7E
330
1F
100
AcDbEntity
  8
SLD-0
  6
Continuous
 62
   179
100
AcDbLine
 10
228.6606295898
 20
149.3400662941
 30
0.0
 11
264.1606295898
 21
149.3400662941
 31
0.0
  0
LINE
  5
7F
330
1F
100
AcDbEntity
  8
SLD-0
  6
Continuous
 62
   179
100
AcDbLine
 10
213.6606295898
 20
195.3400662941
 30
0.0
 11
213.6606295898
 21
137.3400662941
 31
0.0
  0
LINE
  5
80
330
1F
100
AcDbEntity
  8
SLD-0
  6
Continuous
 62
   179
100
AcDbLine
 10
221.6606295898
 20
195.3400662941
 30
0.0
 11
228.6606295898
 21
188.3400662941
 31
0.0
  0
LINE
  5
81
330
1F
100
AcDbEntity
  8
SLD-0
  6
Continuous
 62
   179
100
AcDbLine
 10
228.6606295898
 20
188.3400662941
 30
0.0
 11
228.6606295898
 21
144.3400662941
 31
0.0
  0
LINE
  5
82
330
1F
100
AcDbEntity
  8
SLD-0
  6
Continuous
 62
   179
100
AcDbLine
 10
213.6606295898
 20
195.3400662941
 30
0.0
 11
221.6606295898
 21
195.3400662941
 31
0.0
  0
LINE
  5
83
330
1F
100
AcDbEntity
  8
SLD-0
  6
Continuous
 62
   179
100
AcDbLine
 10
92.8606295898
 20
137.3400662941
 30
0.0
 11
213.6606295898
 21
137.3400662941
 31
0.0
  0
LINE
  5
84
330
1F
100
AcDbEntity
  8
SLD-0
  6
Continuous
 62
   179
100
AcDbLine
 10
92.8606295898
 20
195.3400662941
 30
0.0
 11
213.6606295898
 21
195.3400662941
 31
0.0
  0
LINE
  5
85
330
1F
100
AcDbEntity
  8
SLD-0
  6
Continuous
 62
   179
100
AcDbLine
 10
221.6606295898
 20
137.3400662941
 30
0.0
 11
228.6606295898
 21
144.3400662941
 31
0.0
  0
LINE
  5
86
330
1F
100
AcDbEntity
  8
SLD-0
  6
Continuous
 62
   179
100
AcDbLine
 10
213.6606295898
 20
137.3400662941
 30
0.0
 11
221.6606295898
 21
137.3400662941
 31
0.0
  0
LINE
  5
87
330
1F
100
AcDbEntity
  8
SLD-0
  6
Continuous
 62
   179
100
AcDbLine
 10
371.6506295898
 20
151.3400662941
 30
0.0
 11
372.1506295898
 21
151.8400662941
 31
0.0
  0
LINE
  5
88
330
1F
100
AcDbEntity
  8
SLD-0
  6
CENTER
 62
   179
100
AcDbLine
 10
389.6766295898
 20
168.9241315529
 30
0.0
 11
389.6766295898
 21
164.3984083203
 31
0.0
  0
LINE
  5
89
330
1F
100
AcDbEntity
  8
SLD-0
  6
Continuous
 62
     4
100
AcDbLine
 10
364.4606295898
 20
181.3400662941
 30
0.0
 11
364.4606295898
 21
151.3400662941
 31
0.0
  0
LINE
  5
8A
330
1F
100
AcDbEntity
  8
SLD-0
  6
Continuous
 62
     4
100
AcDbLine
 10
371.6506295898
 20
181.3400662941
 30
0.0
 11
371.6506295898
 21
151.3400662941
 31
0.0
  0
LINE
  5
8B
330
1F
100
AcDbEntity
  8
SLD-0
  6
Continuous
 62
     4
100
AcDbLine
 10
221.6606295898
 20
195.3400662941
 30
0.0
 11
221.6606295898
 21
137.3400662941
 31
0.0
  0
LINE
  5
8C
330
1F
100
AcDbEntity
  8
SLD-0
  6
Continuous
 62
     4
100
AcDbLine
 10
264.1606295898
 20
183.3400662941
 30
0.0
 11
264.1606295898
 21
149.3400662941
 31
0.0
  0
LINE
  5
8D
330
1F
100
AcDbEntity
  8
SLD-0
  6
Continuous
 62
     4
100
AcDbLine
 10
92.8606295898
 20
195.3400662941
 30
0.0
 11
92.8606295898
 21
137.3400662941
 31
0.0
  0
LINE
  5
8E
330
1F
100
AcDbEntity
  8
SLD-0
  6
Continuous
 62
     4
100
AcDbLine
 10
271.6606295898
 20
121.8400662941
 30
0.0
 11
289.6606295898
 21
121.8400662941
 31
0.0
  0
LINE
  5
8F
330
1F
100
AcDbEntity
  8
SLD-0
  6
Continuous
 62
   179
100
AcDbLine
 10
309.0606295898
 20
151.8400662941
 30
0.0
 11
309.0606295898
 21
180.8400662941
 31
0.0
  0
LINE
  5
90
330
1F
100
AcDbEntity
  8
SLD-0
  6
Continuous
 62
   179
100
AcDbLine
 10
92.3606295898
 20
137.8400662941
 30
0.0
 11
92.8606295898
 21
137.3400662941
 31
0.0
  0
LINE
  5
91
330
1F
100
AcDbEntity
  8
0
  6
Continuous
 62
     7
370
    15
100
AcDbLine
 10
161.0
 20
15.0
 30
0.0
 11
21.0
 21
15.0
 31
0.0
  0
LINE
  5
92
330
1F
100
AcDbEntity
  8
0
  6
Continuous
 62
     7
370
    15
100
AcDbLine
 10
21.0
 20
15.0
 30
0.0
 11
21.0
 21
275.5
 31
0.0
  0
LINE
  5
93
330
1F
100
AcDbEntity
  8
0
  6
Continuous
 62
     7
370
    15
100
AcDbLine
 10
294.5020114515
 20
19.2729041081
 30
0.0
 11
297.5020114515
 21
19.2729041081
 31
0.0
  0
LINE
  5
94
330
1F
100
AcDbEntity
  8
0
  6
Continuous
 62
     7
370
    15
100
AcDbLine
 10
297.5020114515
 20
19.2729041081
 30
0.0
 11
296.0020114515
 21
16.6748278967
 31
0.0
  0
LINE
  5
95
330
1F
100
AcDbEntity
  8
0
  6
Continuous
 62
     7
370
    15
100
AcDbLine
 10
294.5020114515
 20
19.2729041081
 30
0.0
 11
296.0020114515
 21
16.6748278967
 31
0.0
  0
LINE
  5
96
330
1F
100
AcDbEntity
  8
0
  6
Continuous
 62
     7
370
    15
100
AcDbLine
 10
280.5463005651
 20
19.2729041081
 30
0.0
 11
283.5463005651
 21
19.2729041081
 31
0.0
  0
LINE
  5
97
330
1F
100
AcDbEntity
  8
0
  6
Continuous
 62
     7
370
    15
100
AcDbLine
 10
283.5463005651
 20
19.2729041081
 30
0.0
 11
282.0463005651
 21
16.6748278967
 31
0.0
  0
LINE
  5
98
330
1F
100
AcDbEntity
  8
0
  6
Continuous
 62
     7
370
    15
100
AcDbLine
 10
266.455201517
 20
19.4082922699
 30
0.0
 11
269.455201517
 21
19.4082922699
 31
0.0
  0
LINE
  5
99
330
1F
100
AcDbEntity
  8
0
  6
Continuous
 62
     7
370
    15
100
AcDbLine
 10
269.455201517
 20
19.4082922699
 30
0.0
 11
267.955201517
 21
16.8102160585
 31
0.0
  0
LINE
  5
9A
330
1F
100
AcDbEntity
  8
0
  6
Continuous
 62
     7
370
    15
100
AcDbLine
 10
266.455201517
 20
19.4082922699
 30
0.0
 11
267.955201517
 21
16.8102160585
 31
0.0
  0
LINE
  5
9B
330
1F
100
AcDbEntity
  8
0
  6
CENTER
 62
     7
370
    15
100
AcDbLine
 10
269.455201517
 20
19.4082922699
 30
0.0
 11
272.455201517
 21
19.4082922699
 31
0.0
  0
LINE
  5
9C
330
1F
100
AcDbEntity
  8
0
  6
Continuous
 62
     7
370
     0
100
AcDbLine
 10
315.0
 20
45.3958482586
 30
0.0
 11
404.0
 21
45.3958482586
 31
0.0
  0
LINE
  5
9D
330
1F
100
AcDbEntity
  8
0
  6
Continuous
 62
     7
370
    15
100
AcDbLine
 10
383.333333352
 20
15.021439657
 30
0.0
 11
374.333333352
 21
15.0214474823
 31
0.0
  0
LINE
  5
9E
330
1F
100
AcDbEntity
  8
0
  6
Continuous
 62
     7
370
     0
100
AcDbLine
 10
383.3682386859
 20
14.9998887542
 30
0.0
 11
383.3682386859
 21
21.0876824782
 31
0.0
  0
LINE
  5
9F
330
1F
100
AcDbEntity
  8
0
  6
Continuous
 62
     7
370
     0
100
AcDbLine
 10
315.0
 20
60.0
 30
0.0
 11
404.0
 21
60.0
 31
0.0
  0
LINE
  5
A0
330
1F
100
AcDbEntity
  8
0
  6
Continuous
 62
     7
370
    15
100
AcDbLine
 10
374.3333333333
 20
15.0
 30
0.0
 11
353.6666666667
 21
15.0
 31
0.0
  0
LINE
  5
A1
330
1F
100
AcDbEntity
  8
0
  6
Continuous
 62
     7
370
     0
100
AcDbLine
 10
374.3682386859
 20
14.9998887542
 30
0.0
 11
374.3682386859
 21
21.0876824782
 31
0.0
  0
LINE
  5
A2
330
1F
100
AcDbEntity
  8
0
  6
Continuous
 62
     7
370
    15
100
AcDbLine
 10
353.6666666667
 20
15.0
 30
0.0
 11
344.6666666667
 21
15.0
 31
0.0
  0
LINE
  5
A3
330
1F
100
AcDbEntity
  8
0
  6
Continuous
 62
     7
370
     0
100
AcDbLine
 10
353.7015720006
 20
14.9998887542
 30
0.0
 11
353.7015720006
 21
21.0876824782
 31
0.0
  0
LINE
  5
A4
330
1F
100
AcDbEntity
  8
0
  6
Continuous
 62
     7
370
    15
100
AcDbLine
 10
344.6666666667
 20
15.0
 30
0.0
 11
324.0
 21
15.0
 31
0.0
  0
LINE
  5
A5
330
1F
100
AcDbEntity
  8
0
  6
Continuous
 62
     7
370
     0
100
AcDbLine
 10
344.7015720006
 20
21.0876824782
 30
0.0
 11
344.7015720006
 21
14.9998887542
 31
0.0
  0
LINE
  5
A6
330
1F
100
AcDbEntity
  8
0
  6
Continuous
 62
     7
370
    15
100
AcDbLine
 10
324.0
 20
15.0
 30
0.0
 11
315.0
 21
15.0
 31
0.0
  0
LINE
  5
A7
330
1F
100
AcDbEntity
  8
0
  6
Continuous
 62
     7
370
     0
100
AcDbLine
 10
324.0349088287
 20
21.0876824782
 30
0.0
 11
324.040266797
 21
15.0078225008
 31
0.0
  0
LINE
  5
A8
330
1F
100
AcDbEntity
  8
0
  6
Continuous
 62
     7
370
     0
100
AcDbLine
 10
390.0012900053
 20
26.5638223943
 30
0.0
 11
390.0012900053
 21
21.0876824782
 31
0.0
  0
LINE
  5
A9
330
1F
100
AcDbEntity
  8
0
  6
Continuous
 62
     7
370
     0
100
AcDbLine
 10
379.5
 20
26.5638223943
 30
0.0
 11
379.5
 21
21.0876824782
 31
0.0
  0
LINE
  5
AA
330
1F
100
AcDbEntity
  8
0
  6
Continuous
 62
     7
370
     0
100
AcDbLine
 10
369.5
 20
26.5638223943
 30
0.0
 11
369.5
 21
21.0876824782
 31
0.0
  0
LINE
  5
AB
330
1F
100
AcDbEntity
  8
0
  6
Continuous
 62
     7
370
     0
100
AcDbLine
 10
358.0006399239
 20
26.5638223943
 30
0.0
 11
358.0006399239
 21
21.0876824782
 31
0.0
  0
LINE
  5
AC
330
1F
100
AcDbEntity
  8
0
  6
Continuous
 62
     7
370
     0
100
AcDbLine
 10
348.0004367734
 20
26.5638223943
 30
0.0
 11
348.0004367734
 21
21.0876824782
 31
0.0
  0
LINE
  5
AD
330
1F
100
AcDbEntity
  8
0
  6
Continuous
 62
     7
370
     0
100
AcDbLine
 10
334.0243421727
 20
26.5638223943
 30
0.0
 11
334.0243421727
 21
21.0876824782
 31
0.0
  0
LINE
  5
AE
330
1F
100
AcDbEntity
  8
0
  6
Continuous
 62
     7
370
     0
100
AcDbLine
 10
326.5349053339
 20
26.5638223943
 30
0.0
 11
326.5349053339
 21
21.0876824782
 31
0.0
  0
LINE
  5
AF
330
1F
100
AcDbEntity
  8
0
  6
Continuous
 62
     7
370
     0
100
AcDbLine
 10
366.6
 20
26.5638223943
 30
0.0
 11
366.6
 21
45.3958482586
 31
0.0
  0
LINE
  5
B0
330
1F
100
AcDbEntity
  8
0
  6
Continuous
 62
     7
370
    15
100
AcDbLine
 10
404.0
 20
15.0
 30
0.0
 11
404.0
 21
22.25
 31
0.0
  0
LINE
  5
B1
330
1F
100
AcDbEntity
  8
0
  6
Continuous
 62
     7
370
    15
100
AcDbLine
 10
404.0
 20
275.5
 30
0.0
 11
21.0
 21
275.5
 31
0.0
  0
LINE
  5
B2
330
1F
100
AcDbEntity
  8
0
  6
Continuous
 62
     7
370
    15
100
AcDbLine
 10
280.5463005651
 20
19.2729041081
 30
0.0
 11
282.0463005651
 21
16.6748278967
 31
0.0
  0
LINE
  5
B3
330
1F
100
AcDbEntity
  8
0
  6
Continuous
 62
     7
370
     0
100
AcDbLine
 10
161.0
 20
60.0
 30
0.0
 11
171.0
 21
60.0
 31
0.0
  0
LINE
  5
B4
330
1F
100
AcDbEntity
  8
0
  6
Continuous
 62
     7
370
     0
100
AcDbLine
 10
161.0
 20
60.0
 30
0.0
 11
161.0
 21
52.5
 31
0.0
  0
LINE
  5
B5
330
1F
100
AcDbEntity
  8
0
  6
Continuous
 62
     7
370
     0
100
AcDbLine
 10
265.0
 20
60.0
 30
0.0
 11
265.0
 21
56.0
 31
0.0
  0
LINE
  5
B6
330
1F
100
AcDbEntity
  8
0
  6
Continuous
 62
     7
370
    15
100
AcDbLine
 10
265.0
 20
15.0
 30
0.0
 11
277.5
 21
15.0
 31
0.0
  0
LINE
  5
B7
330
1F
100
AcDbEntity
  8
0
  6
Continuous
 62
     7
370
     0
100
AcDbLine
 10
265.0
 20
22.5
 30
0.0
 11
232.9735538908
 21
22.5
 31
0.0
  0
LINE
  5
B8
330
1F
100
AcDbEntity
  8
0
  6
Continuous
 62
     7
370
     0
100
AcDbLine
 10
265.0
 20
22.5
 30
0.0
 11
265.0
 21
15.0
 31
0.0
  0
LINE
  5
B9
330
1F
100
AcDbEntity
  8
0
  6
Continuous
 62
     7
370
     0
100
AcDbLine
 10
161.0
 20
22.5
 30
0.0
 11
161.0
 21
15.0
 31
0.0
  0
LINE
  5
BA
330
1F
100
AcDbEntity
  8
0
  6
Continuous
 62
     7
370
     0
100
AcDbLine
 10
265.0
 20
60.0
 30
0.0
 11
315.0
 21
60.0
 31
0.0
  0
LINE
  5
BB
330
1F
100
AcDbEntity
  8
0
  6
Continuous
 62
     7
370
    15
100
AcDbLine
 10
404.0
 20
60.0
 30
0.0
 11
404.0
 21
275.5
 31
0.0
  0
LINE
  5
BC
330
1F
100
AcDbEntity
  8
0
  6
Continuous
 62
     7
370
     0
100
AcDbLine
 10
315.0
 20
60.0
 30
0.0
 11
315.0
 21
56.0
 31
0.0
  0
LINE
  5
BD
330
1F
100
AcDbEntity
  8
0
  6
Continuous
 62
     7
370
     0
100
AcDbLine
 10
251.7569070807
 20
60.0
 30
0.0
 11
251.7569070807
 21
22.5
 31
0.0
  0
LINE
  5
BE
330
1F
100
AcDbEntity
  8
0
  6
Continuous
 62
     7
370
     0
100
AcDbLine
 10
251.7569070807
 20
60.0
 30
0.0
 11
265.0
 21
60.0
 31
0.0
  0
LINE
  5
BF
330
1F
100
AcDbEntity
  8
0
  6
Continuous
 62
     7
370
     0
100
AcDbLine
 10
191.0
 20
60.0
 30
0.0
 11
191.0
 21
22.5
 31
0.0
  0
LINE
  5
C0
330
1F
100
AcDbEntity
  8
0
  6
Continuous
 62
     7
370
     0
100
AcDbLine
 10
191.0
 20
60.0
 30
0.0
 11
251.7569070807
 21
60.0
 31
0.0
  0
LINE
  5
C1
330
1F
100
AcDbEntity
  8
0
  6
Continuous
 62
     7
370
     0
100
AcDbLine
 10
265.0
 20
56.0
 30
0.0
 11
284.5
 21
56.0
 31
0.0
  0
LINE
  5
C2
330
1F
100
AcDbEntity
  8
0
  6
Continuous
 62
     7
370
     0
100
AcDbLine
 10
265.0
 20
56.0
 30
0.0
 11
265.0
 21
52.5
 31
0.0
  0
LINE
  5
C3
330
1F
100
AcDbEntity
  8
0
  6
Continuous
 62
     7
370
     0
100
AcDbLine
 10
315.0
 20
56.0
 30
0.0
 11
315.0
 21
52.0
 31
0.0
  0
LINE
  5
C4
330
1F
100
AcDbEntity
  8
0
  6
Continuous
 62
     7
370
     0
100
AcDbLine
 10
265.0
 20
32.0
 30
0.0
 11
284.5
 21
32.0
 31
0.0
  0
LINE
  5
C5
330
1F
100
AcDbEntity
  8
0
  6
Continuous
 62
     7
370
     0
100
AcDbLine
 10
265.0
 20
32.0
 30
0.0
 11
265.0
 21
30.0
 31
0.0
  0
LINE
  5
C6
330
1F
100
AcDbEntity
  8
0
  6
Continuous
 62
     7
370
     0
100
AcDbLine
 10
315.0
 20
32.0
 30
0.0
 11
315.0
 21
29.5
 31
0.0
  0
LINE
  5
C7
330
1F
100
AcDbEntity
  8
0
  6
Continuous
 62
     7
370
     0
100
AcDbLine
 10
265.0
 20
27.5
 30
0.0
 11
277.5
 21
27.5
 31
0.0
  0
LINE
  5
C8
330
1F
100
AcDbEntity
  8
0
  6
Continuous
 62
     7
370
     0
100
AcDbLine
 10
265.0
 20
27.5
 30
0.0
 11
265.0
 21
23.0
 31
0.0
  0
LINE
  5
C9
330
1F
100
AcDbEntity
  8
0
  6
Continuous
 62
     7
370
     0
100
AcDbLine
 10
315.0
 20
27.5
 30
0.0
 11
315.0
 21
20.6872385251
 31
0.0
  0
LINE
  5
CA
330
1F
100
AcDbEntity
  8
0
  6
Continuous
 62
     7
370
    15
100
AcDbLine
 10
404.0
 20
49.3
 30
0.0
 11
404.0
 21
60.0
 31
0.0
  0
LINE
  5
CB
330
1F
100
AcDbEntity
  8
0
  6
Continuous
 62
     7
370
     0
100
AcDbLine
 10
315.0
 20
49.3
 30
0.0
 11
315.0
 21
48.0
 31
0.0
  0
LINE
  5
CC
330
1F
100
AcDbEntity
  8
0
  6
Continuous
 62
     7
370
     0
100
AcDbLine
 10
265.0349053339
 20
21.0876824782
 30
0.0
 11
315.0349053339
 21
21.0876824782
 31
0.0
  0
LINE
  5
CD
330
1F
100
AcDbEntity
  8
0
  6
Continuous
 62
     7
370
     0
100
AcDbLine
 10
265.0
 20
23.0
 30
0.0
 11
265.0
 21
22.5
 31
0.0
  0
LINE
  5
CE
330
1F
100
AcDbEntity
  8
0
  6
Continuous
 62
     7
370
     0
100
AcDbLine
 10
315.0
 20
23.0
 30
0.0
 11
315.0
 21
22.25
 31
0.0
  0
LINE
  5
CF
330
1F
100
AcDbEntity
  8
0
  6
Continuous
 62
     7
370
    15
100
AcDbLine
 10
404.0
 20
29.5
 30
0.0
 11
404.0
 21
39.4
 31
0.0
  0
LINE
  5
D0
330
1F
100
AcDbEntity
  8
0
  6
Continuous
 62
     7
370
     0
100
AcDbLine
 10
315.0
 20
29.5
 30
0.0
 11
315.0
 21
27.5
 31
0.0
  0
LINE
  5
D1
330
1F
100
AcDbEntity
  8
0
  6
Continuous
 62
     7
370
     0
100
AcDbLine
 10
277.5
 20
27.5
 30
0.0
 11
277.5
 21
15.0
 31
0.0
  0
LINE
  5
D2
330
1F
100
AcDbEntity
  8
0
  6
Continuous
 62
     7
370
     0
100
AcDbLine
 10
277.5
 20
27.5
 30
0.0
 11
290.0
 21
27.5
 31
0.0
  0
LINE
  5
D3
330
1F
100
AcDbEntity
  8
0
  6
Continuous
 62
     7
370
    15
100
AcDbLine
 10
277.5
 20
15.0
 30
0.0
 11
290.0
 21
15.0
 31
0.0
  0
LINE
  5
D4
330
1F
100
AcDbEntity
  8
0
  6
Continuous
 62
     7
370
     0
100
AcDbLine
 10
290.0
 20
15.0
 30
0.0
 11
290.0
 21
27.5
 31
0.0
  0
LINE
  5
D5
330
1F
100
AcDbEntity
  8
0
  6
Continuous
 62
     7
370
    15
100
AcDbLine
 10
290.0
 20
15.0
 30
0.0
 11
302.5
 21
15.0
 31
0.0
  0
LINE
  5
D6
330
1F
100
AcDbEntity
  8
0
  6
Continuous
 62
     7
370
     0
100
AcDbLine
 10
290.0
 20
27.5
 30
0.0
 11
302.5
 21
27.5
 31
0.0
  0
LINE
  5
D7
330
1F
100
AcDbEntity
  8
0
  6
Continuous
 62
     7
370
     0
100
AcDbLine
 10
302.5
 20
27.5
 30
0.0
 11
302.5
 21
15.0
 31
0.0
  0
LINE
  5
D8
330
1F
100
AcDbEntity
  8
0
  6
Continuous
 62
     7
370
     0
100
AcDbLine
 10
302.5
 20
27.5
 30
0.0
 11
315.0
 21
27.5
 31
0.0
  0
LINE
  5
D9
330
1F
100
AcDbEntity
  8
0
  6
Continuous
 62
     7
370
    15
100
AcDbLine
 10
302.5
 20
15.0
 30
0.0
 11
315.0
 21
15.0
 31
0.0
  0
LINE
  5
DA
330
1F
100
AcDbEntity
  8
0
  6
Continuous
 62
     7
370
    15
100
AcDbLine
 10
404.0
 20
22.25
 30
0.0
 11
404.0
 21
29.5
 31
0.0
  0
LINE
  5
DB
330
1F
100
AcDbEntity
  8
0
  6
Continuous
 62
     7
370
     0
100
AcDbLine
 10
315.0000335724
 20
22.3233033671
 30
0.0
 11
314.999884801
 21
15.0733033671
 31
0.0
  0
LINE
  5
DC
330
1F
100
AcDbEntity
  8
0
  6
Continuous
 62
     7
370
     0
100
AcDbLine
 10
315.0
 20
37.0011514006
 30
0.0
 11
404.0
 21
37.0011514006
 31
0.0
  0
LINE
  5
DD
330
1F
100
AcDbEntity
  8
0
  6
Continuous
 62
     7
370
     0
100
AcDbLine
 10
315.0
 20
39.4
 30
0.0
 11
315.0
 21
36.0
 31
0.0
  0
LINE
  5
DE
330
1F
100
AcDbEntity
  8
0
  6
Continuous
 62
     7
370
    15
100
AcDbLine
 10
404.0
 20
39.4
 30
0.0
 11
404.0
 21
49.3
 31
0.0
  0
LINE
  5
DF
330
1F
100
AcDbEntity
  8
0
  6
Continuous
 62
     7
370
     0
100
AcDbLine
 10
404.0015438052
 20
26.5638223943
 30
0.0
 11
315.0
 21
26.5638223943
 31
0.0
  0
LINE
  5
E0
330
1F
100
AcDbEntity
  8
0
  6
Continuous
 62
     7
370
     0
100
AcDbLine
 10
404.0349388151
 20
21.0876824782
 30
0.0
 11
315.0349053339
 21
21.0876824782
 31
0.0
  0
LINE
  5
E1
330
1F
100
AcDbEntity
  8
0
  6
Continuous
 62
     7
370
    15
100
AcDbLine
 10
404.0000000186
 20
15.0214216877
 30
0.0
 11
383.333333352
 21
15.021439657
 31
0.0
  0
LINE
  5
E2
330
1F
100
AcDbEntity
  8
0
  6
Continuous
 62
     7
370
     0
100
AcDbLine
 10
330.5
 20
45.3958482586
 30
0.0
 11
330.5
 21
26.5638223943
 31
0.0
  0
LINE
  5
E3
330
1F
100
AcDbEntity
  8
0
  6
Continuous
 62
     7
370
     0
100
AcDbLine
 10
382.0
 20
45.3958482586
 30
0.0
 11
382.0
 21
26.5638223943
 31
0.0
  0
LINE
  5
E4
330
1F
100
AcDbEntity
  8
0
  6
Continuous
 62
     7
370
     0
100
AcDbLine
 10
284.5
 20
56.0
 30
0.0
 11
284.5
 21
32.0
 31
0.0
  0
LINE
  5
E5
330
1F
100
AcDbEntity
  8
0
  6
Continuous
 62
     7
370
     0
100
AcDbLine
 10
284.5
 20
56.0
 30
0.0
 11
294.6666666667
 21
56.0
 31
0.0
  0
LINE
  5
E6
330
1F
100
AcDbEntity
  8
0
  6
Continuous
 62
     7
370
     0
100
AcDbLine
 10
284.5
 20
32.0
 30
0.0
 11
294.6666666667
 21
32.0
 31
0.0
  0
LINE
  5
E7
330
1F
100
AcDbEntity
  8
0
  6
Continuous
 62
     7
370
     0
100
AcDbLine
 10
294.6666666667
 20
32.0
 30
0.0
 11
294.6666666667
 21
56.0
 31
0.0
  0
LINE
  5
E8
330
1F
100
AcDbEntity
  8
0
  6
Continuous
 62
     7
370
     0
100
AcDbLine
 10
294.6666666667
 20
32.0
 30
0.0
 11
304.8333333333
 21
32.0
 31
0.0
  0
LINE
  5
E9
330
1F
100
AcDbEntity
  8
0
  6
Continuous
 62
     7
370
     0
100
AcDbLine
 10
294.6666666667
 20
56.0
 30
0.0
 11
304.8333333333
 21
56.0
 31
0.0
  0
LINE
  5
EA
330
1F
100
AcDbEntity
  8
0
  6
Continuous
 62
     7
370
     0
100
AcDbLine
 10
304.8333333333
 20
56.0
 30
0.0
 11
304.8333333333
 21
32.0
 31
0.0
  0
LINE
  5
EB
330
1F
100
AcDbEntity
  8
0
  6
Continuous
 62
     7
370
     0
100
AcDbLine
 10
304.8333333333
 20
56.0
 30
0.0
 11
315.0
 21
56.0
 31
0.0
  0
LINE
  5
EC
330
1F
100
AcDbEntity
  8
0
  6
Continuous
 62
     7
370
     0
100
AcDbLine
 10
304.8333333333
 20
32.0
 30
0.0
 11
315.0
 21
32.0
 31
0.0
  0
LINE
  5
ED
330
1F
100
AcDbEntity
  8
0
  6
Continuous
 62
     7
370
     0
100
AcDbLine
 10
171.0
 20
60.0
 30
0.0
 11
171.0
 21
22.5
 31
0.0
  0
LINE
  5
EE
330
1F
100
AcDbEntity
  8
0
  6
Continuous
 62
     7
370
     0
100
AcDbLine
 10
171.0
 20
60.0
 30
0.0
 11
191.0
 21
60.0
 31
0.0
  0
LINE
  5
EF
330
1F
100
AcDbEntity
  8
0
  6
Continuous
 62
     7
370
    15
100
AcDbLine
 10
161.0
 20
15.0
 30
0.0
 11
173.9503430537
 21
15.0
 31
0.0
  0
LINE
  5
F0
330
1F
100
AcDbEntity
  8
0
  6
Continuous
 62
     7
370
     0
100
AcDbLine
 10
161.0
 20
52.5
 30
0.0
 11
265.0
 21
52.5
 31
0.0
  0
LINE
  5
F1
330
1F
100
AcDbEntity
  8
0
  6
Continuous
 62
     7
370
     0
100
AcDbLine
 10
161.0
 20
52.5
 30
0.0
 11
161.0
 21
45.0
 31
0.0
  0
LINE
  5
F2
330
1F
100
AcDbEntity
  8
0
  6
Continuous
 62
     7
370
     0
100
AcDbLine
 10
265.0
 20
52.5
 30
0.0
 11
265.0
 21
52.0
 31
0.0
  0
LINE
  5
F3
330
1F
100
AcDbEntity
  8
0
  6
Continuous
 62
     7
370
     0
100
AcDbLine
 10
265.0
 20
45.0
 30
0.0
 11
161.0
 21
45.0
 31
0.0
  0
LINE
  5
F4
330
1F
100
AcDbEntity
  8
0
  6
Continuous
 62
     7
370
     0
100
AcDbLine
 10
265.0
 20
45.0
 30
0.0
 11
265.0
 21
44.0
 31
0.0
  0
LINE
  5
F5
330
1F
100
AcDbEntity
  8
0
  6
Continuous
 62
     7
370
     0
100
AcDbLine
 10
161.0
 20
45.0
 30
0.0
 11
161.0
 21
37.5
 31
0.0
  0
LINE
  5
F6
330
1F
100
AcDbEntity
  8
0
  6
Continuous
 62
     7
370
     0
100
AcDbLine
 10
161.0
 20
37.5
 30
0.0
 11
265.0
 21
37.5
 31
0.0
  0
LINE
  5
F7
330
1F
100
AcDbEntity
  8
0
  6
Continuous
 62
     7
370
     0
100
AcDbLine
 10
161.0
 20
37.5
 30
0.0
 11
161.0
 21
30.0
 31
0.0
  0
LINE
  5
F8
330
1F
100
AcDbEntity
  8
0
  6
Continuous
 62
     7
370
     0
100
AcDbLine
 10
265.0
 20
37.5
 30
0.0
 11
265.0
 21
36.0
 31
0.0
  0
LINE
  5
F9
330
1F
100
AcDbEntity
  8
0
  6
Continuous
 62
     7
370
     0
100
AcDbLine
 10
161.0
 20
30.0
 30
0.0
 11
265.0
 21
30.0
 31
0.0
  0
LINE
  5
FA
330
1F
100
AcDbEntity
  8
0
  6
Continuous
 62
     7
370
     0
100
AcDbLine
 10
161.0
 20
30.0
 30
0.0
 11
161.0
 21
22.5
 31
0.0
  0
LINE
  5
FB
330
1F
100
AcDbEntity
  8
0
  6
Continuous
 62
     7
370
     0
100
AcDbLine
 10
265.0
 20
30.0
 30
0.0
 11
265.0
 21
27.5
 31
0.0
  0
LINE
  5
FC
330
1F
100
AcDbEntity
  8
0
  6
Continuous
 62
     7
370
     0
100
AcDbLine
 10
315.0
 20
52.0
 30
0.0
 11
265.0
 21
52.0
 31
0.0
  0
LINE
  5
FD
330
1F
100
AcDbEntity
  8
0
  6
Continuous
 62
     7
370
     0
100
AcDbLine
 10
315.0
 20
52.0
 30
0.0
 11
315.0
 21
49.3
 31
0.0
  0
LINE
  5
FE
330
1F
100
AcDbEntity
  8
0
  6
Continuous
 62
     7
370
     0
100
AcDbLine
 10
265.0
 20
52.0
 30
0.0
 11
265.0
 21
48.0
 31
0.0
  0
LINE
  5
FF
330
1F
100
AcDbEntity
  8
0
  6
Continuous
 62
     7
370
     0
100
AcDbLine
 10
315.0
 20
48.0
 30
0.0
 11
265.0
 21
48.0
 31
0.0
  0
LINE
  5
100
330
1F
100
AcDbEntity
  8
0
  6
Continuous
 62
     7
370
     0
100
AcDbLine
 10
315.0
 20
48.0
 30
0.0
 11
315.0
 21
44.0
 31
0.0
  0
LINE
  5
101
330
1F
100
AcDbEntity
  8
0
  6
Continuous
 62
     7
370
     0
100
AcDbLine
 10
265.0
 20
48.0
 30
0.0
 11
265.0
 21
45.0
 31
0.0
  0
LINE
  5
102
330
1F
100
AcDbEntity
  8
0
  6
Continuous
 62
     7
370
     0
100
AcDbLine
 10
265.0
 20
44.0
 30
0.0
 11
315.0
 21
44.0
 31
0.0
  0
LINE
  5
103
330
1F
100
AcDbEntity
  8
0
  6
Continuous
 62
     7
370
     0
100
AcDbLine
 10
265.0
 20
44.0
 30
0.0
 11
265.0
 21
40.0
 31
0.0
  0
LINE
  5
104
330
1F
100
AcDbEntity
  8
0
  6
Continuous
 62
     7
370
     0
100
AcDbLine
 10
315.0
 20
44.0
 30
0.0
 11
315.0
 21
40.0
 31
0.0
  0
LINE
  5
105
330
1F
100
AcDbEntity
  8
0
  6
Continuous
 62
     7
370
     0
100
AcDbLine
 10
315.0
 20
40.0
 30
0.0
 11
265.0
 21
40.0
 31
0.0
  0
LINE
  5
106
330
1F
100
AcDbEntity
  8
0
  6
Continuous
 62
     7
370
     0
100
AcDbLine
 10
315.0
 20
40.0
 30
0.0
 11
315.0
 21
39.4
 31
0.0
  0
LINE
  5
107
330
1F
100
AcDbEntity
  8
0
  6
Continuous
 62
     7
370
     0
100
AcDbLine
 10
265.0
 20
40.0
 30
0.0
 11
265.0
 21
37.5
 31
0.0
  0
LINE
  5
108
330
1F
100
AcDbEntity
  8
0
  6
Continuous
 62
     7
370
     0
100
AcDbLine
 10
265.0
 20
36.0
 30
0.0
 11
315.0
 21
36.0
 31
0.0
  0
LINE
  5
109
330
1F
100
AcDbEntity
  8
0
  6
Continuous
 62
     7
370
     0
100
AcDbLine
 10
265.0
 20
36.0
 30
0.0
 11
265.0
 21
32.0
 31
0.0
  0
LINE
  5
10A
330
1F
100
AcDbEntity
  8
0
  6
Continuous
 62
     7
370
     0
100
AcDbLine
 10
315.0
 20
36.0
 30
0.0
 11
315.0
 21
32.0
 31
0.0
  0
LINE
  5
10B
330
1F
100
AcDbEntity
  8
0
  6
Continuous
 62
     7
370
     0
100
AcDbLine
 10
173.9503430537
 20
15.0
 30
0.0
 11
173.9503430537
 21
22.5
 31
0.0
  0
LINE
  5
10C
330
1F
100
AcDbEntity
  8
0
  6
Continuous
 62
     7
370
    15
100
AcDbLine
 10
173.9503430537
 20
15.0
 30
0.0
 11
186.7632108866
 21
15.0
 31
0.0
  0
LINE
  5
10D
330
1F
100
AcDbEntity
  8
0
  6
Continuous
 62
     7
370
     0
100
AcDbLine
 10
173.9503430537
 20
22.5
 30
0.0
 11
161.0
 21
22.5
 31
0.0
  0
LINE
  5
10E
330
1F
100
AcDbEntity
  8
0
  6
Continuous
 62
     7
370
     0
100
AcDbLine
 10
186.7632108866
 20
22.5
 30
0.0
 11
186.7632108866
 21
15.0
 31
0.0
  0
LINE
  5
10F
330
1F
100
AcDbEntity
  8
0
  6
Continuous
 62
     7
370
     0
100
AcDbLine
 10
186.7632108866
 20
22.5
 30
0.0
 11
173.9503430537
 21
22.5
 31
0.0
  0
LINE
  5
110
330
1F
100
AcDbEntity
  8
0
  6
Continuous
 62
     7
370
    15
100
AcDbLine
 10
186.7632108866
 20
15.0
 30
0.0
 11
221.6310151534
 21
15.0
 31
0.0
  0
LINE
  5
111
330
1F
100
AcDbEntity
  8
0
  6
Continuous
 62
     7
370
     0
100
AcDbLine
 10
221.6310151534
 20
22.5
 30
0.0
 11
221.6310151534
 21
15.0
 31
0.0
  0
LINE
  5
112
330
1F
100
AcDbEntity
  8
0
  6
Continuous
 62
     7
370
     0
100
AcDbLine
 10
221.6310151534
 20
22.5
 30
0.0
 11
186.7632108866
 21
22.5
 31
0.0
  0
LINE
  5
113
330
1F
100
AcDbEntity
  8
0
  6
Continuous
 62
     7
370
    15
100
AcDbLine
 10
221.6310151534
 20
15.0
 30
0.0
 11
232.9735538908
 21
15.0
 31
0.0
  0
LINE
  5
114
330
1F
100
AcDbEntity
  8
0
  6
Continuous
 62
     7
370
     0
100
AcDbLine
 10
232.9735538908
 20
22.5
 30
0.0
 11
232.9735538908
 21
15.0
 31
0.0
  0
LINE
  5
115
330
1F
100
AcDbEntity
  8
0
  6
Continuous
 62
     7
370
     0
100
AcDbLine
 10
232.9735538908
 20
22.5
 30
0.0
 11
221.6310151534
 21
22.5
 31
0.0
  0
LINE
  5
116
330
1F
100
AcDbEntity
  8
0
  6
Continuous
 62
     7
370
    15
100
AcDbLine
 10
232.9735538908
 20
15.0
 30
0.0
 11
265.0
 21
15.0
 31
0.0
  0
LINE
  5
117
330
1F
100
AcDbEntity
  8
0
  6
CENTER
 62
     7
370
    15
100
AcDbLine
 10
269.455201517
 20
19.4082922699
 30
0.0
 11
270.955201517
 21
16.8102160585
 31
0.0
  0
LINE
  5
118
330
1F
100
AcDbEntity
  8
0
  6
CENTER
 62
     7
370
    15
100
AcDbLine
 10
272.455201517
 20
19.4082922699
 30
0.0
 11
270.955201517
 21
16.8102160585
 31
0.0
  0
LINE
  5
119
330
1F
100
AcDbEntity
  8
0
  6
CENTER
 62
     7
370
    15
100
AcDbLine
 10
272.455201517
 20
19.4082922699
 30
0.0
 11
275.455201517
 21
19.4082922699
 31
0.0
  0
LINE
  5
11A
330
1F
100
AcDbEntity
  8
0
  6
CENTER
 62
     7
370
    15
100
AcDbLine
 10
272.455201517
 20
19.4082922699
 30
0.0
 11
273.955201517
 21
16.8102160585
 31
0.0
  0
LINE
  5
11B
330
1F
100
AcDbEntity
  8
0
  6
CENTER
 62
     7
370
    15
100
AcDbLine
 10
275.455201517
 20
19.4082922699
 30
0.0
 11
273.955201517
 21
16.8102160585
 31
0.0
  0
LINE
  5
11C
330
1F
100
AcDbEntity
  8
0
  6
CENTER
 62
     7
370
    15
100
AcDbLine
 10
283.5463005651
 20
19.2729041081
 30
0.0
 11
286.5463005651
 21
19.2729041081
 31
0.0
  0
LINE
  5
11D
330
1F
100
AcDbEntity
  8
0
  6
CENTER
 62
     7
370
    15
100
AcDbLine
 10
286.5463005651
 20
19.2729041081
 30
0.0
 11
285.0463005651
 21
16.6748278967
 31
0.0
  0
LINE
  5
11E
330
1F
100
AcDbEntity
  8
0
  6
CENTER
 62
     7
370
    15
100
AcDbLine
 10
283.5463005651
 20
19.2729041081
 30
0.0
 11
285.0463005651
 21
16.6748278967
 31
0.0
  0
LINE
  5
11F
330
1F
100
AcDbEntity
  8
0
  6
Continuous
 62
     7
370
    15
100
AcDbLine
 10
297.5020114515
 20
24.492264999
 30
0.0
 11
296.0020114515
 21
21.8950048289
 31
0.0
  0
LINE
  5
120
330
1F
100
AcDbEntity
  8
0
  6
Continuous
 62
     7
370
    15
100
AcDbLine
 10
294.5020114515
 20
24.6435617079
 30
0.0
 11
296.0020114515
 21
21.8950048289
 31
0.0
  0
LINE
  5
121
330
1F
100
AcDbEntity
  8
0
  6
Continuous
 62
     7
370
    15
100
AcDbLine
 10
285.0463005651
 20
24.6435617079
 30
0.0
 11
283.5463005651
 21
21.6516027322
 31
0.0
  0
LINE
  5
122
330
1F
100
AcDbEntity
  8
0
  6
Continuous
 62
     7
370
    15
100
AcDbLine
 10
282.0463005651
 20
24.6435617079
 30
0.0
 11
283.5463005651
 21
21.6516027322
 31
0.0
  0
LINE
  5
123
330
1F
100
AcDbEntity
  8
0
  6
Continuous
 62
     7
370
    15
100
AcDbLine
 10
272.455201517
 20
24.492264999
 30
0.0
 11
270.955201517
 21
21.6516027322
 31
0.0
  0
LINE
  5
124
330
1F
100
AcDbEntity
  8
0
  6
Continuous
 62
     7
370
    15
100
AcDbLine
 10
269.455201517
 20
24.492264999
 30
0.0
 11
270.955201517
 21
21.6516027322
 31
0.0
  0
LINE
  5
125
330
1F
100
AcDbEntity
  8
0
  6
Continuous
 62
     7
370
    15
100
AcDbLine
 10
310.2556415815
 20
24.2496789436
 30
0.0
 11
308.7556415815
 21
21.6516027322
 31
0.0
  0
LINE
  5
126
330
1F
100
AcDbEntity
  8
0
  6
Continuous
 62
     7
370
    15
100
AcDbLine
 10
307.2556415815
 20
24.2496789436
 30
0.0
 11
308.7556415815
 21
21.6516027322
 31
0.0
  0
CIRCLE
  5
127
330
1F
100
AcDbEntity
  8
SLD-0
  6
Continuous
 62
     4
100
AcDbCircle
 10
31.107776981
 20
166.3400662941
 30
0.0
 40
0.7499999999999964
  0
CIRCLE
  5
128
330
1F
100
AcDbEntity
  8
SLD-0
  6
Continuous
 62
     4
100
AcDbCircle
 10
314.0606295898
 20
166.3400662941
 30
0.0
 40
1.500000000000057
  0
CIRCLE
  5
129
330
1F
100
AcDbEntity
  8
SLD-0
  6
Continuous
 62
     4
100
AcDbCircle
 10
280.6606295898
 20
125.3400662941
 30
0.0
 40
1.500000000000057
  0
CIRCLE
  5
12A
330
1F
100
AcDbEntity
  8
SLD-0
  6
Continuous
 62
   179
100
AcDbCircle
 10
280.6606295898
 20
125.3400662941
 30
0.0
 40
1.249999999999943
  0
CIRCLE
  5
12B
330
1F
100
AcDbEntity
  8
SLD-0
  6
Continuous
 62
     4
100
AcDbCircle
 10
389.6766295898
 20
166.3400662941
 30
0.0
 40
0.75
  0
SPLINE
  5
12C
330
1F
100
AcDbEntity
  8
0
  6
Continuous
 62
     5
370
    15
100
AcDbSpline
210
0.0
220
0.0
230
1.0
 70
     8
 71
     3
 72
    11
 73
     7
 74
     0
 42
0.00000001
 43
0.00000001
 40
0.0
 40
0.0
 40
0.0
 40
0.0
 40
0.2830912462189067
 40
0.5136186913771202
 40
0.7601132866708679
 40
1.0
 40
1.0
 40
1.0
 40
1.0
 10
306.630478438881
 20
17.45001966776254
 30
0.0
 10
307.0501883639263
 20
17.95352984885982
 30
0.0
 10
307.8116773373193
 20
18.86705947495874
 30
0.0
 10
308.5913055166637
 20
17.39481303194207
 30
0.0
 10
309.620932424426
 20
16.16249475486696
 30
0.0
 10
310.2469742761478
 20
17.02474950530411
 30
0.0
 10
310.5557425605238
 20
17.45001966776254
 30
0.0
  0
DIMENSION
  5
12D
330
1F
100
AcDbEntity
  8
SLD-0
100
AcDbDimension
  2
*D2
 10
92.3606295898
 20
215.3434897382
 30
0.0
 11
61.5066180845
 21
215.3434897382
 31
0.0
 70
   160
  1
WD=800
 71
     1
 42
-1.0
  3
SLDDIMSTYLE0
100
AcDbAlignedDimension
 13
31.107776981
 23
169.6272302351
 33
0.0
 14
92.3606295898
 24
194.8400662941
 34
0.0
 50
0.0
100
AcDbRotatedDimension
  0
DIMENSION
  5
13F
330
1F
100
AcDbEntity
  8
SLD-0
100
AcDbDimension
  2
*D3
 10
81.5670731707
 20
137.3400662941
 30
0.0
 11
81.5670731707
 21
167.7652874647
 31
0.0
 70
   160
  1
%%c<>
 71
     1
 42
-1.0
  3
SLDDIMSTYLE1
100
AcDbAlignedDimension
 13
92.8606295898
 23
195.3400662941
 33
0.0
 14
92.8606295898
 24
137.3400662941
 34
0.0
 50
90.0
100
AcDbRotatedDimension
  0
DIMENSION
  5
14E
330
1F
100
AcDbEntity
  8
SLD-0
100
AcDbDimension
  2
*D4
 10
255.6762492564
 20
121.3400662941
 30
0.0
 11
255.6762492564
 21
141.956998547
 31
0.0
 70
   160
 71
     1
 42
-1.0
  3
SLDDIMSTYLE2
100
AcDbAlignedDimension
 13
391.8047841758
 23
166.3400662941
 33
0.0
 14
272.1606295898
 24
121.3400662941
 34
0.0
 50
90.0
100
AcDbRotatedDimension
  0
DIMENSION
  5
158
330
1F
100
AcDbEntity
  8
SLD-0
100
AcDbDimension
  2
*D5
 10
284.6606295898
 20
113.8898033597
 30
0.0
 11
279.9317481549
 21
113.8898033597
 31
0.0
 70
   160
  1
%%c<>
 71
     1
 42
-1.0
  3
SLDDIMSTYLE2
100
AcDbAlignedDimension
 13
276.6606295898
 23
121.3400662941
 33
0.0
 14
284.6606295898
 24
121.3400662941
 34
0.0
100
AcDbRotatedDimension
  0
DIMENSION
  5
165
330
1F
100
AcDbEntity
  8
SLD-0
100
AcDbDimension
  2
*D6
 10
289.6606295898
 20
107.1010623425
 30
0.0
 11
280.8917710132
 21
107.1010623425
 31
0.0
 70
   160
  1
%%c<>
 71
     1
 42
-1.0
  3
SLDDIMSTYLE2
100
AcDbAlignedDimension
 13
271.6606295898
 23
121.8400662941
 33
0.0
 14
289.6606295898
 24
121.8400662941
 34
0.0
 50
0.0
100
AcDbRotatedDimension
  0
DIMENSION
  5
170
330
1F
100
AcDbEntity
  8
SLD-0
100
AcDbDimension
  2
*D7
 10
31.107776981
 20
224.1178020774
 30
0.0
 11
211.7080145747
 21
224.1178020774
 31
0.0
 70
   160
  1
O/I 1092.32
 71
     1
 42
-1.0
  3
SLDDIMSTYLE0
100
AcDbAlignedDimension
 13
389.6766295898
 23
168.9241315529
 33
0.0
 14
31.107776981
 24
169.6272302351
 34
0.0
100
AcDbRotatedDimension
  0
DIMENSION
  5
17A
330
1F
100
AcDbEntity
  8
SLD-0
100
AcDbDimension
  2
*D8
 10
92.3606295898
 20
206.2001133925
 30
0.0
 11
154.2531210365
 21
206.2001133925
 31
0.0
 70
   160
 71
     1
 42
-1.0
  3
SLDDIMSTYLE3
100
AcDbAlignedDimension
 13
213.6606295898
 23
195.3400662941
 33
0.0
 14
92.3606295898
 24
194.8400662941
 34
0.0
 50
0.0
100
AcDbRotatedDimension
  0
DIMENSION
  5
185
330
1F
100
AcDbEntity
  8
SLD-0
100
AcDbDimension
  2
*D9
 10
228.6606295898
 20
206.2001133925
 30
0.0
 11
220.3908201963
 21
206.2001133925
 31
0.0
 70
   160
 71
     1
 42
-1.0
  3
SLDDIMSTYLE2
100
AcDbAlignedDimension
 13
213.6606295898
 23
195.3400662941
 33
0.0
 14
228.6606295898
 24
188.3400662941
 34
0.0
 50
0.0
100
AcDbRotatedDimension
  0
DIMENSION
  5
18F
330
1F
100
AcDbEntity
  8
SLD-0
100
AcDbDimension
  2
*D10
 10
264.6606295898
 20
206.2001133923
 30
0.0
 11
245.7026546698
 21
206.2001133924
 31
0.0
 70
   160
 71
     1
 42
-1.0
  3
SLDDIMSTYLE2
100
AcDbAlignedDimension
 13
228.6606295898
 23
188.3400662941
 33
0.0
 14
264.6606295898
 24
182.8400662941
 34
0.0
 50
0.0
100
AcDbRotatedDimension
  0
DIMENSION
  5
199
330
1F
100
AcDbEntity
  8
SLD-0
100
AcDbDimension
  2
*D11
 10
294.6606295898
 20
206.2001133922
 30
0.0
 11
280.0368270375
 21
206.2001133922
 31
0.0
 70
   160
 71
     1
 42
-1.0
  3
SLDDIMSTYLE2
100
AcDbAlignedDimension
 13
264.6606295898
 23
182.8400662941
 33
0.0
 14
294.6606295898
 24
180.8400662941
 34
0.0
 50
0.0
100
AcDbRotatedDimension
  0
DIMENSION
  5
1A3
330
1F
100
AcDbEntity
  8
SLD-0
100
AcDbDimension
  2
*D12
 10
309.0606295898
 20
206.2001133922
 30
0.0
 11
301.5800034392
 21
206.2001133922
 31
0.0
 70
   160
 71
     1
 42
-1.0
  3
SLDDIMSTYLE3
100
AcDbAlignedDimension
 13
294.6606295898
 23
180.8400662941
 33
0.0
 14
309.0606295898
 24
180.8400662941
 34
0.0
 50
0.0
100
AcDbRotatedDimension
  0
DIMENSION
  5
1AD
330
1F
100
AcDbEntity
  8
SLD-0
100
AcDbDimension
  2
*D13
 10
372.1506295898
 20
143.3226268903
 30
0.0
 11
373.9291793474
 21
143.3226268903
 31
0.0
 70
   160
 71
     1
 42
-1.0
  3
SLDDIMSTYLE2
100
AcDbAlignedDimension
 13
376.1506295898
 23
154.0400662941
 33
0.0
 14
372.1506295898
 24
151.8400662941
 34
0.0
 50
0.0
100
AcDbRotatedDimension
  0
DIMENSION
  5
1B9
330
1F
100
AcDbEntity
  8
SLD-0
100
AcDbDimension
  2
*D14
 10
280.6606295898
 20
102.0321281975
 30
0.0
 11
175.2558113395
 21
102.0321281975
 31
0.0
 70
   160
 71
     1
 42
-1.0
  3
SLDDIMSTYLE3
100
AcDbAlignedDimension
 13
92.3606295898
 23
137.8400662941
 33
0.0
 14
280.6606295898
 24
119.6136043743
 34
0.0
 50
0.0
100
AcDbRotatedDimension
  0
DIMENSION
  5
1C3
330
1F
100
AcDbEntity
  8
SLD-0
100
AcDbDimension
  2
*D15
 10
249.9665853659
 20
183.3400662941
 30
0.0
 11
249.9665853659
 21
171.7772605593
 31
0.0
 70
   160
  1
%%c<>
 71
     1
 42
-1.0
  3
SLDDIMSTYLE2
100
AcDbAlignedDimension
 13
264.1606295898
 23
149.3400662941
 33
0.0
 14
264.1606295898
 24
183.3400662941
 34
0.0
 50
90.0
100
AcDbRotatedDimension
  0
DIMENSION
  5
1CC
330
1F
100
AcDbEntity
  8
SLD-0
100
AcDbDimension
  2
*D16
 10
304.3228083173
 20
151.8400662941
 30
0.0
 11
304.3228083173
 21
171.7772605592
 31
0.0
 70
   160
  1
%%c<>
 71
     1
 42
-1.0
  3
SLDDIMSTYLE2
100
AcDbAlignedDimension
 13
308.6606295898
 23
180.8400662941
 33
0.0
 14
308.6606295898
 24
151.8400662941
 34
0.0
 50
90.0
100
AcDbRotatedDimension
  0
DIMENSION
  5
1D5
330
1F
100
AcDbEntity
  8
SLD-0
100
AcDbDimension
  2
*D17
 10
309.0606295898
 20
206.2001133922
 30
0.0
 11
336.1578747769
 21
206.2001133922
 31
0.0
 70
   160
 71
     1
 42
-1.0
  3
SLDDIMSTYLE3
100
AcDbAlignedDimension
 13
363.9606295898
 23
180.8400662941
 33
0.0
 14
309.0606295898
 24
180.8400662941
 34
0.0
 50
0.0
100
AcDbRotatedDimension
  0
DIMENSION
  5
1DF
330
1F
100
AcDbEntity
  8
SLD-0
100
AcDbDimension
  2
*D18
 10
372.1506295898
 20
215.342796319
 30
0.0
 11
368.1739894408
 21
215.342796319
 31
0.0
 70
   160
 71
     1
 42
-1.0
  3
SLDDIMSTYLE4
100
AcDbAlignedDimension
 13
363.9606295898
 23
180.8400662941
 33
0.0
 14
372.1506295898
 24
180.8400662941
 34
0.0
 50
0.0
100
AcDbRotatedDimension
  0
DIMENSION
  5
1EC
330
1F
100
AcDbEntity
  8
SLD-0
100
AcDbDimension
  2
*D19
 10
372.1506295898
 20
215.342796319
 30
0.0
 11
380.4271490185
 21
215.342796319
 31
0.0
 70
   160
 71
     1
 42
-1.0
  3
SLDDIMSTYLE4
100
AcDbAlignedDimension
 13
389.6766295898
 23
168.9241315529
 33
0.0
 14
372.1506295898
 24
180.8400662941
 34
0.0
 50
0.0
100
AcDbRotatedDimension
  0
DIMENSION
  5
1F6
330
1F
100
AcDbEntity
  8
SLD-0
100
AcDbDimension
  2
*D20
 10
363.9606295898
 20
215.3434897382
 30
0.0
 11
211.7080145747
 21
215.3434897382
 31
0.0
 70
   160
  1
271.61
 71
     1
 42
-1.0
  3
SLDDIMSTYLE0
100
AcDbAlignedDimension
 13
92.3606295898
 23
194.8400662941
 33
0.0
 14
363.9606295898
 24
180.8400662941
 34
0.0
 50
0.0
100
AcDbRotatedDimension
  0
DIMENSION
  5
200
330
1F
100
AcDbEntity
  8
SLD-0
100
AcDbDimension
  2
*D21
 10
398.2215779298
 20
151.3400662941
 30
0.0
 11
398.2215779298
 21
166.3296420156
 31
0.0
 70
   160
  1
%%c<>
 71
     1
 42
-1.0
  3
SLDDIMSTYLE1
100
AcDbAlignedDimension
 13
371.6506295898
 23
181.3400662941
 33
0.0
 14
371.6506295898
 24
151.3400662941
 34
0.0
 50
90.0
100
AcDbRotatedDimension
  0
DIMENSION
  5
20E
330
1F
100
AcDbEntity
  8
SLD-0
100
AcDbDimension
  2
*D22
 10
383.2671094169
 20
153.6400662941
 30
0.0
 11
383.2671094169
 21
166.3296420156
 31
0.0
 70
   160
  1
M<> UNC1
 71
     1
 42
-1.0
  3
SLDDIMSTYLE3
100
AcDbAlignedDimension
 13
375.7506295898
 23
179.0400662941
 33
0.0
 14
375.7506295898
 24
153.6400662941
 34
0.0
 50
90.0
100
AcDbRotatedDimension
  0
MTEXT
  5
21B
330
1F
100
AcDbEntity
  8
0
  6
Continuous
 62
     7
370
     0
100
AcDbMText
 10
398.1606687645
 20
13.8404330982
 30
0.0
 40
3.5
 41
0.0
 71
     1
 72
     1
  1
A3
  7
SLDTEXTSTYLE1
 73
     1
 44
1.0
  0
MTEXT
  5
21C
330
1F
100
AcDbEntity
  8
0
  6
Continuous
 62
     7
370
     0
100
AcDbMText
 10
370.5589626647
 20
13.6315990709
 30
0.0
 40
3.5
 41
0.0
 71
     1
 72
     1
  1
〔ｍｍ〕
  7
SLDTEXTSTYLE1
 73
     1
 44
1.0
  0
MTEXT
  5
21D
330
1F
100
AcDbEntity
  8
0
  6
Continuous
 62
     7
370
     0
100
AcDbMText
 10
360.5533901809
 20
25.2789140611
 30
0.0
 40
3.0
 41
0.0
 71
     1
 72
     1
  1
仕上
  7
SLDTEXTSTYLE1
 73
     1
 44
1.0
  0
MTEXT
  5
21F
330
1F
100
AcDbEntity
  8
0
  6
Continuous
 62
     7
370
     0
100
AcDbMText
 10
276.7345323148
 20
31.1710043023
 30
0.0
 40
3.0
 41
0.0
 71
     1
 72
     1
  1
仕         上
  7
SLDTEXTSTYLE2
 73
     1
 44
1.0
  0
MTEXT
  5
220
330
1F
100
AcDbEntity
  8
0
  6
Continuous
 62
     7
370
     0
100
AcDbMText
 10
162.4376543937
 20
27.3812966666
 30
0.0
 40
3.0
 41
0.0
 71
     1
 72
     1
  1
符号
  7
SLDTEXTSTYLE1
 73
     1
 44
1.0
  0
MTEXT
  5
221
330
1F
100
AcDbEntity
  8
0
  6
Continuous
 62
     7
370
     0
100
AcDbMText
 10
171.8192414679
 20
27.3534799816
 30
0.0
 40
3.0
 41
0.0
 71
     1
 72
     1
  1
年　月　日
  7
SLDTEXTSTYLE1
 73
     1
 44
1.0
  0
MTEXT
  5
223
330
1F
100
AcDbEntity
  8
0
  6
Continuous
 62
     7
370
     0
100
AcDbMText
 10
205.2524169639
 20
27.3102880661
 30
0.0
 40
3.0
 41
0.0
 71
     1
 72
     1
  1
変   更   内   容
  7
SLDTEXTSTYLE3
 73
     1
 44
1.0
  0
MTEXT
  5
224
330
1F
100
AcDbEntity
  8
0
  6
Continuous
 62
     7
370
     0
100
AcDbMText
 10
254.7476428436
 20
27.3102880661
 30
0.0
 40
3.0
 41
0.0
 71
     1
 72
     1
  1
担 当
  7
SLDTEXTSTYLE1
 73
     1
 44
1.0
  0
MTEXT
  5
226
330
1F
100
AcDbEntity
  8
0
  6
Continuous
 62
     7
370
     0
100
AcDbMText
 10
206.3418650732
 20
35.5549382443
 30
0.0
 40
3.5
 41
0.0
 71
     1
 72
     1
  1
図  面  登  録
  7
SLDTEXTSTYLE4
 73
     1
 44
1.0
  0
MTEXT
  5
227
330
1F
100
AcDbEntity
  8
0
  6
Continuous
 62
     7
370
     0
100
AcDbMText
 10
275.6384298402
 20
59.2593473392
 30
0.0
 40
2.5
 41
0.0
 71
     1
 72
     1
  1
一  般  公  差
  7
SLDTEXTSTYLE4
 73
     1
 44
1.0
  0
MTEXT
  5
228
330
1F
100
AcDbEntity
  8
0
  6
Continuous
 62
     7
370
     0
100
AcDbMText
 10
265.6855419582
 20
55.2732889271
 30
0.0
 40
2.5
 41
0.0
 71
     1
 72
     1
  1
呼び寸法区分
  7
SLDTEXTSTYLE1
 73
     1
 44
1.0
  0
MTEXT
  5
22A
330
1F
100
AcDbEntity
  8
0
  6
Continuous
 62
     7
370
     0
100
AcDbMText
 10
267.0279122674
 20
43.2570923087
 30
0.0
 40
2.5
 41
0.0
 71
     1
 72
     1
  1
63をこえ250以下
  7
SLDTEXTSTYLE5
 73
     1
 44
1.0
  0
MTEXT
  5
22B
330
1F
100
AcDbEntity
  8
0
  6
Continuous
 62
     7
370
     0
100
AcDbMText
 10
265.7873906708
 20
39.2224660086
 30
0.0
 40
2.5
 41
0.0
 71
     1
 72
     1
  1
250をこえ500以下
  7
SLDTEXTSTYLE5
 73
     1
 44
1.0
  0
MTEXT
  5
22C
330
1F
100
AcDbEntity
  8
0
  6
Continuous
 62
     7
370
     0
100
AcDbMText
 10
268.0786997474
 20
47.3646934888
 30
0.0
 40
2.5
 41
0.0
 71
     1
 72
     1
  1
16をこえ63以下
  7
SLDTEXTSTYLE5
 73
     1
 44
1.0
  0
MTEXT
  5
22E
330
1F
100
AcDbEntity
  8
0
  6
Continuous
 62
     7
370
     0
100
AcDbMText
 10
265.6571779143
 20
35.2468206455
 30
0.0
 40
2.5
 41
0.0
 71
     1
 72
     1
  1
500をこえ1000以下
  7
SLDTEXTSTYLE6
 73
     1
 44
1.0
  0
MTEXT
  5
230
330
1F
100
AcDbEntity
  8
0
  6
Continuous
 62
     7
370
     0
100
AcDbMText
 10
286.0933026879
 20
55.277150895
 30
0.0
 40
2.5
 41
0.0
 71
     1
 72
     1
  1
Ａ　級
  7
SLDTEXTSTYLE7
 73
     1
 44
1.0
  0
MTEXT
  5
231
330
1F
100
AcDbEntity
  8
0
  6
Continuous
 62
     7
370
     0
100
AcDbMText
 10
296.3123513361
 20
55.277150895
 30
0.0
 40
2.5
 41
0.0
 71
     1
 72
     1
  1
Ｂ　級
  7
SLDTEXTSTYLE7
 73
     1
 44
1.0
  0
MTEXT
  5
232
330
1F
100
AcDbEntity
  8
0
  6
Continuous
 62
     7
370
     0
100
AcDbMText
 10
306.4527919177
 20
55.2807392727
 30
0.0
 40
2.5
 41
0.0
 71
     1
 72
     1
  1
Ｃ　級
  7
SLDTEXTSTYLE7
 73
     1
 44
1.0
  0
MTEXT
  5
233
330
1F
100
AcDbEntity
  8
0
  6
Continuous
 62
     7
370
     0
100
AcDbMText
 10
317.9204905445
 20
44.7443753584
 30
0.0
 40
3.0
 41
0.0
 71
     1
 72
     1
  1
図　面
  7
SLDTEXTSTYLE1
 73
     1
 44
1.0
  0
MTEXT
  5
234
330
1F
100
AcDbEntity
  8
0
  6
Continuous
 62
     7
370
     0
100
AcDbMText
 10
317.9204905445
 20
40.6347138747
 30
0.0
 40
3.0
 41
0.0
 71
     1
 72
     1
  1
番  号
  7
SLDTEXTSTYLE2
 73
     1
 44
1.0
  0
MTEXT
  5
235
330
1F
100
AcDbEntity
  8
0
  6
Continuous
 62
     7
370
     0
100
AcDbMText
 10
318.0741752743
 20
33.4190651829
 30
0.0
 40
3.0
 41
0.0
 71
     1
 72
     1
  1
製品名
  7
SLDTEXTSTYLE1
 73
     1
 44
1.0
  0
MTEXT
  5
236
330
1F
100
AcDbEntity
  8
0
  6
Continuous
 62
     7
370
     0
100
AcDbMText
 10
317.0347583093
 20
25.2789140611
 30
0.0
 40
3.0
 41
0.0
 71
     1
 72
     1
  1
個数
  7
SLDTEXTSTYLE1
 73
     1
 44
1.0
  0
MTEXT
  5
237
330
1F
100
AcDbEntity
  8
0
  6
Continuous
 62
     7
370
     0
100
AcDbMText
 10
316.2870137697
 20
19.7057248728
 30
0.0
 40
3.0
 41
0.0
 71
     1
 72
     1
  1
設計
  7
SLDTEXTSTYLE1
 73
     1
 44
1.0
  0
MTEXT
  5
238
330
1F
100
AcDbEntity
  8
0
  6
Continuous
 62
     7
370
     0
100
AcDbMText
 10
346.523444356
 20
19.7057248728
 30
0.0
 40
3.0
 41
0.0
 71
     1
 72
     1
  1
製図
  7
SLDTEXTSTYLE1
 73
     1
 44
1.0
  0
MTEXT
  5
239
330
1F
100
AcDbEntity
  8
0
  6
Continuous
 62
     7
370
     0
100
AcDbMText
 10
375.929793114
 20
19.5908850166
 30
0.0
 40
3.0
 41
0.0
 71
     1
 72
     1
  1
承認
  7
SLDTEXTSTYLE1
 73
     1
 44
1.0
  0
MTEXT
  5
23A
330
1F
100
AcDbEntity
  8
0
  6
Continuous
 62
     7
370
     0
100
AcDbMText
 10
370.7990016056
 20
43.4661644287
 30
0.0
 40
3.0
 41
0.0
 71
     1
 72
     1
  1
材料
  7
SLDTEXTSTYLE1
 73
     1
 44
1.0
  0
MTEXT
  5
23B
330
1F
100
AcDbEntity
  8
0
  6
Continuous
 62
     7
370
     0
100
AcDbMText
 10
369.25200849
 20
35.2064850541
 30
0.0
 40
3.0
 41
0.0
 71
     1
 72
     1
  1
表　面
  7
SLDTEXTSTYLE1
 73
     1
 44
1.0
  0
MTEXT
  5
23C
330
1F
100
AcDbEntity
  8
0
  6
Continuous
 62
     7
370
     0
100
AcDbMText
 10
369.1570089307
 20
30.968581065
 30
0.0
 40
3.0
 41
0.0
 71
     1
 72
     1
  1
処　理
  7
SLDTEXTSTYLE1
 73
     1
 44
1.0
  0
MTEXT
  5
23D
330
1F
100
AcDbEntity
  8
0
  6
Continuous
 62
     7
370
     0
100
AcDbMText
 10
381.680228164
 20
25.2789140611
 30
0.0
 40
3.0
 41
0.0
 71
     1
 72
     1
  1
尺度
  7
SLDTEXTSTYLE1
 73
     1
 44
1.0
  0
MTEXT
  5
23E
330
1F
100
AcDbEntity
  8
0
  6
Continuous
 62
     7
370
     0
100
AcDbMText
 10
164.2797777341
 20
20.1580183471
 30
0.0
 40
3.5
 41
0.0
 71
     1
 72
     1
  1
原型
  7
SLDTEXTSTYLE1
 73
     1
 44
1.0
  0
MTEXT
  5
23F
330
1F
100
AcDbEntity
  8
0
  6
Continuous
 62
     7
370
     0
100
AcDbMText
 10
176.2608602039
 20
20.1169123537
 30
0.0
 40
3.5
 41
0.0
 71
     1
 72
     1
  1
機種
  7
SLDTEXTSTYLE1
 73
     1
 44
1.0
  0
MTEXT
  5
240
330
1F
100
AcDbEntity
  8
0
  6
Continuous
 62
     7
370
     0
100
AcDbMText
 10
222.9963207422
 20
20.1169123537
 30
0.0
 40
3.5
 41
0.0
 71
     1
 72
     1
  1
番号
  7
SLDTEXTSTYLE1
 73
     1
 44
1.0
  0
MTEXT
  5
241
330
1F
100
AcDbEntity
  8
0
  6
Continuous
 62
     7
370
     0
100
AcDbMText
 10
277.3926927284
 20
51.2532741857
 30
0.0
 40
2.5
 41
0.0
 71
     1
 72
     1
  1
16以下
  7
SLDTEXTSTYLE5
 73
     1
 44
1.0
  0
MTEXT
  5
242
330
1F
100
AcDbEntity
  8
0
  6
Continuous
 62
     7
370
     0
100
AcDbMText
 10
334.5260707683
 20
25.2789140611
 30
0.0
 40
3.0
 41
0.0
 71
     1
 72
     1
  1
一般公差
  7
SLDTEXTSTYLE1
 73
     1
 44
1.0
  0
MTEXT
  5
243
330
1F
100
AcDbEntity
  8
0
  6
Continuous
 62
     7
370
     0
100
AcDbMText
 10
384.6595093175
 20
13.6315990709
 30
0.0
 40
3.5
 41
0.0
 71
     1
 72
     1
  1
三角法
  7
SLDTEXTSTYLE1
 73
     1
 44
1.0
  0
MTEXT
  5
244
330
1F
100
AcDbEntity
  8
0
  6
Continuous
 62
     7
370
     0
100
AcDbMText
 10
305.6607146333
 20
35.095441108
 30
0.0
 40
1.8520833333
 41
0.0
 71
     1
 72
     1
  1
± ４
  7
SLDTEXTSTYLE0
 73
     1
 44
1.0
  0
MTEXT
  5
245
330
1F
100
AcDbEntity
  8
0
  6
Continuous
 62
     7
370
     0
100
AcDbMText
 10
305.8093557327
 20
39.07691621
 30
0.0
 40
1.8520833333
 41
0.0
 71
     1
 72
     1
  1
± ３
  7
SLDTEXTSTYLE0
 73
     1
 44
1.0
  0
MTEXT
  5
246
330
1F
100
AcDbEntity
  8
0
  6
Continuous
 62
     7
370
     0
100
AcDbMText
 10
305.7443852475
 20
42.7309988091
 30
0.0
 40
1.8520833333
 41
0.0
 71
     1
 72
     1
  1
± ２
  7
SLDTEXTSTYLE0
 73
     1
 44
1.0
  0
MTEXT
  5
247
330
1F
100
AcDbEntity
  8
0
  6
Continuous
 62
     7
370
     0
100
AcDbMText
 10
295.556531117
 20
35.0168572454
 30
0.0
 40
1.8520833333
 41
0.0
 71
     1
 72
     1
  1
± ２
  7
SLDTEXTSTYLE0
 73
     1
 44
1.0
  0
MTEXT
  5
248
330
1F
100
AcDbEntity
  8
0
  6
Continuous
 62
     7
370
     0
100
AcDbMText
 10
295.4849318251
 20
38.8697374231
 30
0.0
 40
1.8520833333
 41
0.0
 71
     1
 72
     1
  1
±１.２
  7
SLDTEXTSTYLE0
 73
     1
 44
1.0
  0
MTEXT
  5
249
330
1F
100
AcDbEntity
  8
0
  6
Continuous
 62
     7
370
     0
100
AcDbMText
 10
295.2680178314
 20
42.7923707568
 30
0.0
 40
1.8520833333
 41
0.0
 71
     1
 72
     1
  1
±０.８
  7
SLDTEXTSTYLE0
 73
     1
 44
1.0
  0
MTEXT
  5
24A
330
1F
100
AcDbEntity
  8
0
  6
Continuous
 62
     7
370
     0
100
AcDbMText
 10
305.6398675168
 20
46.8808261147
 30
0.0
 40
1.8520833333
 41
0.0
 71
     1
 72
     1
  1
±１.５
  7
SLDTEXTSTYLE0
 73
     1
 44
1.0
  0
MTEXT
  5
24B
330
1F
100
AcDbEntity
  8
0
  6
Continuous
 62
     7
370
     0
100
AcDbMText
 10
285.1379307997
 20
34.8229981805
 30
0.0
 40
1.8520833333
 41
0.0
 71
     1
 72
     1
  1
±０.８
  7
SLDTEXTSTYLE0
 73
     1
 44
1.0
  0
MTEXT
  5
24C
330
1F
100
AcDbEntity
  8
0
  6
Continuous
 62
     7
370
     0
100
AcDbMText
 10
295.4830775576
 20
46.8477871983
 30
0.0
 40
1.8520833333
 41
0.0
 71
     1
 72
     1
  1
±０.５
  7
SLDTEXTSTYLE0
 73
     1
 44
1.0
  0
MTEXT
  5
24D
330
1F
100
AcDbEntity
  8
0
  6
Continuous
 62
     7
370
     0
100
AcDbMText
 10
285.2818816018
 20
42.7855412518
 30
0.0
 40
1.8520833333
 41
0.0
 71
     1
 72
     1
  1
±０.３
  7
SLDTEXTSTYLE0
 73
     1
 44
1.0
  0
MTEXT
  5
24E
330
1F
100
AcDbEntity
  8
0
  6
Continuous
 62
     7
370
     0
100
AcDbMText
 10
285.0523217969
 20
46.8556372643
 30
0.0
 40
1.8520833333
 41
0.0
 71
     1
 72
     1
  1
±０.２
  7
SLDTEXTSTYLE0
 73
     1
 44
1.0
  0
MTEXT
  5
24F
330
1F
100
AcDbEntity
  8
0
  6
Continuous
 62
     7
370
     0
100
AcDbMText
 10
285.1408900573
 20
38.7629603774
 30
0.0
 40
1.8520833333
 41
0.0
 71
     1
 72
     1
  1
±０.５
  7
SLDTEXTSTYLE0
 73
     1
 44
1.0
  0
MTEXT
  5
250
330
1F
100
AcDbEntity
  8
0
  6
Continuous
 62
     7
370
     0
100
AcDbMText
 10
305.652943184
 20
50.4350429429
 30
0.0
 40
1.8520833333
 41
0.0
 71
     1
 72
     1
  1
± １
  7
SLDTEXTSTYLE0
 73
     1
 44
1.0
  0
MTEXT
  5
251
330
1F
100
AcDbEntity
  8
0
  6
Continuous
 62
     7
370
     0
100
AcDbMText
 10
295.4079716829
 20
50.9126972879
 30
0.0
 40
1.8520833333
 41
0.0
 71
     1
 72
     1
  1
±０.３
  7
SLDTEXTSTYLE0
 73
     1
 44
1.0
  0
MTEXT
  5
252
330
1F
100
AcDbEntity
  8
0
  6
Continuous
 62
     7
370
     0
100
AcDbMText
 10
285.0746433972
 20
50.6531398517
 30
0.0
 40
1.8520833333
 41
0.0
 71
     1
 72
     1
  1
±０.１
  7
SLDTEXTSTYLE0
 73
     1
 44
1.0
  0
MTEXT
  5
253
330
1F
100
AcDbEntity
  8
0
  6
Continuous
 62
     7
370
     0
100
AcDbMText
 10
192.3785173192
 20
19.7184990659
 30
0.0
 40
3.175
 41
0.0
 71
     1
 72
     1
  1
KCM-05D-800
  7
SLDTEXTSTYLE1
 73
     1
 44
1.0
  0
MTEXT
  5
254
330
1F
100
AcDbEntity
  8
0
  6
Continuous
 62
     7
370
     0
100
AcDbMText
 10
171.6174468649
 20
35.5549382443
 30
0.0
 40
3.5
 41
0.0
 71
     1
 72
     1
  1
Apr/26/2013
  7
SLDTEXTSTYLE1
 73
     1
 44
1.0
  0
MTEXT
  5
255
330
1F
100
AcDbEntity
  8
0
  6
Continuous
 62
     7
370
     0
100
AcDbMText
 10
394.6060132447
 20
25.7787877889
 30
0.0
 40
3.5
 41
0.0
 71
     1
 72
     1
  1
1/1
  7
SLDTEXTSTYLE1
 73
     1
 44
1.0
  0
MTEXT
  5
256
330
1F
100
AcDbEntity
  8
0
  6
Continuous
 62
     7
370
     0
100
AcDbMText
 10
255.6615324566
 20
34.9395820398
 30
0.0
 40
3.5
 41
0.0
 71
     1
 72
     1
  1
桑名
  7
SLDTEXTSTYLE1
 73
     1
 44
1.0
  0
MTEXT
  5
257
330
1F
100
AcDbEntity
  8
0
  6
Continuous
 62
     7
370
     0
100
AcDbMText
 10
329.6040429591
 20
25.3690516115
 30
0.0
 40
3.5
 41
0.0
 71
     1
 72
     1
  1
1
  7
SLDTEXTSTYLE1
 73
     1
 44
1.0
  0
MTEXT
  5
258
330
1F
100
AcDbEntity
  8
0
  6
Continuous
 62
     7
370
     0
100
AcDbMText
 10
307.2001501664
 20
26.9342937933
 30
0.0
 40
2.1166666667
 41
0.0
 71
     1
 72
     1
  1
100
  7
SLDTEXTSTYLE0
 73
     1
 44
1.0
  0
MTEXT
  5
259
330
1F
100
AcDbEntity
  8
0
  6
Continuous
 62
     7
370
     0
100
AcDbMText
 10
295.0301057197
 20
26.978959917
 30
0.0
 40
2.1166666667
 41
0.0
 71
     1
 72
     1
  1
25
  7
SLDTEXTSTYLE0
 73
     1
 44
1.0
  0
MTEXT
  5
25A
330
1F
100
AcDbEntity
  8
0
  6
Continuous
 62
     7
370
     0
100
AcDbMText
 10
282.0145875665
 20
26.8430803499
 30
0.0
 40
2.1166666667
 41
0.0
 71
     1
 72
     1
  1
6.3
  7
SLDTEXTSTYLE0
 73
     1
 44
1.0
  0
INSERT
  5
260
330
1F
100
AcDbEntity
  8
0
  6
Continuous
 62
     7
370
     0
100
AcDbBlockReference
  2
SW_NOTE_0
 10
269.7950910071
 20
24.4542905517
 30
0.0
  0
MTEXT
  5
261
330
1F
100
AcDbEntity
  8
DIMENSION
100
AcDbMText
 10
335.8964668299
 20
32.716299527
 30
0.0
 40
3.7041666667
 41
0.0
 71
     1
 72
     1
  1
KCM-05D-800
  7
SLDTEXTSTYLE1
 73
     1
 44
1.0
  0
MTEXT
  5
262
330
1F
100
AcDbEntity
  8
SLD-0
100
AcDbMText
 10
335.894845249
 20
42.4175522003
 30
0.0
 40
3.7041666667
 41
0.0
 71
     1
 72
     1
  1
TSTM-222
  7
SLDTEXTSTYLE1
 73
     1
 44
1.0
  0
MTEXT
  5
263
330
1F
100
AcDbEntity
  8
SLD-0
100
AcDbMText
 10
360.7144499827
 20
19.7626841455
 30
0.0
 40
3.5
 41
0.0
 71
     1
 72
     1
  1
桑名
  7
SLDTEXTSTYLE0
 73
     1
 44
1.0
  0
MTEXT
  5
264
330
1F
100
AcDbEntity
  8
SLD-0
100
AcDbMText
 10
389.5659987122
 20
20.0907587444
 30
0.0
 40
3.5
 41
0.0
 71
     1
 72
     1
  1
斉藤
  7
SLDTEXTSTYLE0
 73
     1
 44
1.0
  0
MTEXT
  5
265
330
1F
100
AcDbEntity
  8
SLD-0
100
AcDbMText
 10
324.2330031625
 20
52.3736861506
 30
0.0
 40
3.7041666667
 41
0.0
 71
     1
 72
     1
  1
株式会社
  7
SLDTEXTSTYLE0
 73
     1
 44
1.0
  0
MTEXT
  5
266
330
1F
100
AcDbEntity
  8
SLD-0
100
AcDbMText
 10
346.2886297682
 20
53.9240375251
 30
0.0
 40
5.2916666667
 41
0.0
 71
     1
 72
     1
  1
ケンコ-・トキナ-
  7
SLDTEXTSTYLE0
 73
     1
 44
1.0
  0
INSERT
  5
288
330
1F
100
AcDbEntity
  8
SLD-0
100
AcDbBlockReference
  2
SW_TABLEANNOTATION_0
 10
31.5
 20
90.5963414634
 30
0.0
  0
ENDSEC
  0
SECTION
  2
OBJECTS
  0
DICTIONARY
  5
C
330
0
100
AcDbDictionary
281
     1
  3
ACAD_GROUP
350
D
  3
ACAD_LAYOUT
350
1A
  3
ACAD_MLINESTYLE
350
17
  3
ACAD_PLOTSETTINGS
350
19
  3
ACAD_PLOTSTYLENAME
350
E
  0
DICTIONARY
  5
D
102
{ACAD_REACTORS
330
C
102
}
330
C
100
AcDbDictionary
281
     1
  0
DICTIONARY
  5
1A
102
{ACAD_REACTORS
330
C
102
}
330
C
100
AcDbDictionary
281
     1
  3
Layout1
350
1E
  3
Layout2
350
26
  3
Model
350
22
  0
DICTIONARY
  5
17
102
{ACAD_REACTORS
330
C
102
}
330
C
100
AcDbDictionary
281
     1
  3
Standard
350
18
  0
DICTIONARY
  5
19
102
{ACAD_REACTORS
330
C
102
}
330
C
100
AcDbDictionary
281
     1
  0
ACDBDICTIONARYWDFLT
  5
E
102
{ACAD_REACTORS
330
C
102
}
330
C
100
AcDbDictionary
281
     1
  3
Normal
350
F
100
AcDbDictionaryWithDefault
340
F
  0
LAYOUT
  5
1E
102
{ACAD_REACTORS
330
1A
102
}
330
1A
100
AcDbPlotSettings
  1

  2
none_device
  4

  6

 40
0.0
 41
0.0
 42
0.0
 43
0.0
 44
0.0
 45
0.0
 46
0.0
 47
0.0
 48
0.0
 49
0.0
140
0.0
141
0.0
142
1.0
143
1.0
 70
   688
 72
     0
 73
     0
 74
     5
  7

 75
    16
147
1.0
148
0.0
149
0.0
100
AcDbLayout
  1
Layout1
 70
     1
 71
     1
 10
0.0
 20
0.0
 11
420.0
 21
297.0
 12
0.0
 22
0.0
 32
0.0
 14
1.0000000000E+20
 24
1.0000000000E+20
 34
1.0000000000E+20
 15
-1.0000000000E+20
 25
-1.0000000000E+20
 35
-1.0000000000E+20
146
0.0
 13
0.0
 23
0.0
 33
0.0
 16
1.0
 26
0.0
 36
0.0
 17
0.0
 27
1.0
 37
0.0
 76
     0
330
1B
  0
LAYOUT
  5
26
102
{ACAD_REACTORS
330
1A
102
}
330
1A
100
AcDbPlotSettings
  1

  2
none_device
  4

  6

 40
0.0
 41
0.0
 42
0.0
 43
0.0
 44
0.0
 45
0.0
 46
0.0
 47
0.0
 48
0.0
 49
0.0
140
0.0
141
0.0
142
1.0
143
1.0
 70
   688
 72
     0
 73
     0
 74
     5
  7

 75
    16
147
1.0
148
0.0
149
0.0
100
AcDbLayout
  1
Layout2
 70
     1
 71
     2
 10
0.0
 20
0.0
 11
0.0
 21
0.0
 12
0.0
 22
0.0
 32
0.0
 14
0.0
 24
0.0
 34
0.0
 15
0.0
 25
0.0
 35
0.0
146
0.0
 13
0.0
 23
0.0
 33
0.0
 16
1.0
 26
0.0
 36
0.0
 17
0.0
 27
1.0
 37
0.0
 76
     0
330
23
  0
LAYOUT
  5
22
102
{ACAD_REACTORS
330
1A
102
}
330
1A
100
AcDbPlotSettings
  1

  2
none_device
  4

  6

 40
0.0
 41
0.0
 42
0.0
 43
0.0
 44
0.0
 45
0.0
 46
0.0
 47
0.0
 48
0.0
 49
0.0
140
0.0
141
0.0
142
1.0
143
1.0
 70
  1712
 72
     0
 73
     0
 74
     0
  7

 75
     0
147
1.0
148
0.0
149
0.0
100
AcDbLayout
  1
Model
 70
     1
 71
     0
 10
0.0
 20
0.0
 11
0.0
 21
0.0
 12
0.0
 22
0.0
 32
0.0
 14
0.0
 24
0.0
 34
0.0
 15
420.0
 25
297.0
 35
0.0
146
0.0
 13
0.0
 23
0.0
 33
0.0
 16
1.0
 26
0.0
 36
0.0
 17
0.0
 27
1.0
 37
0.0
 76
     0
330
1F
  0
MLINESTYLE
  5
18
102
{ACAD_REACTORS
330
17
102
}
330
17
100
AcDbMlineStyle
  2
Standard
 70
     0
  3

 62
   256
 51
90.0
 52
90.0
 71
     2
 49
0.5
 62
   256
  6
BYLAYER
 49
-0.5
 62
   256
  6
BYLAYER
  0
ACDBPLACEHOLDER
  5
F
102
{ACAD_REACTORS
330
E
102
}
330
E
  0
ENDSEC
  0
EOF
