  0
SECTION
  2
HEADER
  9
$ACADVER
  1
AC1015
  9
$ACADMAINTVER
 70
     6
  9
$DWGCODEPAGE
  3
DOS932
  9
$INSBASE
 10
0.0
 20
0.0
 30
0.0
  9
$EXTMIN
 10
0.0
 20
0.0
 30
0.0
  9
$EXTMAX
 10
420.0
 20
297.0
 30
0.0
  9
$LIMMIN
 10
0.0
 20
0.0
  9
$LIMMAX
 10
0.0
 20
0.0
  9
$ORTHOMODE
 70
     0
  9
$REGENMODE
 70
     1
  9
$FILLMODE
 70
     1
  9
$QTEXTMODE
 70
     0
  9
$MIRRTEXT
 70
     1
  9
$LTSCALE
 40
1.0
  9
$ATTMODE
 70
     1
  9
$TEXTSIZE
 40
3.5
  9
$TRACEWID
 40
1.0
  9
$TEXTSTYLE
  7
Standard
  9
$CLAYER
  8
0
  9
$CELTYPE
  6
ByLayer
  9
$CECOLOR
 62
   256
  9
$CELTSCALE
 40
1.0
  9
$DISPSILH
 70
     0
  9
$DIMSCALE
 40
1.0
  9
$DIMASZ
 40
3.0
  9
$DIMEXO
 40
1.0
  9
$DIMDLI
 40
3.75
  9
$DIMRND
 40
0.0
  9
$DIMDLE
 40
0.0
  9
$DIMEXE
 40
1.0
  9
$DIMTP
 40
0.0
  9
$DIMTM
 40
0.0
  9
$DIMTXT
 40
3.5
  9
$DIMCEN
 40
2.5
  9
$DIMTSZ
 40
0.0
  9
$DIMTOL
 70
     0
  9
$DIMLIM
 70
     0
  9
$DIMTIH
 70
     1
  9
$DIMTOH
 70
     1
  9
$DIMSE1
 70
     0
  9
$DIMSE2
 70
     0
  9
$DIMTAD
 70
     1
  9
$DIMZIN
 70
     1
  9
$DIMBLK
  1

  9
$DIMASO
 70
     1
  9
$DIMSHO
 70
     1
  9
$DIMPOST
  1

  9
$DIMAPOST
  1

  9
$DIMALT
 70
     0
  9
$DIMALTD
 70
     3
  9
$DIMALTF
 40
0.0393700787
  9
$DIMLFAC
 40
1.0
  9
$DIMTOFL
 70
     1
  9
$DIMTVP
 40
0.0
  9
$DIMTIX
 70
     0
  9
$DIMSOXD
 70
     0
  9
$DIMSAH
 70
     0
  9
$DIMBLK1
  1

  9
$DIMBLK2
  1

  9
$DIMSTYLE
  2
ISO-25
  9
$DIMCLRD
 70
     0
  9
$DIMCLRE
 70
     0
  9
$DIMCLRT
 70
     0
  9
$DIMTFAC
 40
1.0
  9
$DIMGAP
 40
1.524
  9
$DIMJUST
 70
     0
  9
$DIMSD1
 70
     0
  9
$DIMSD2
 70
     0
  9
$DIMTOLJ
 70
     0
  9
$DIMTZIN
 70
     1
  9
$DIMALTZ
 70
     0
  9
$DIMALTTZ
 70
     0
  9
$DIMUPT
 70
     0
  9
$DIMDEC
 70
     2
  9
$DIMTDEC
 70
     2
  9
$DIMALTU
 70
     2
  9
$DIMALTTD
 70
     3
  9
$DIMTXSTY
  7
Standard
  9
$DIMAUNIT
 70
     0
  9
$DIMADEC
 70
     0
  9
$DIMALTRND
 40
0.0
  9
$DIMAZIN
 70
     0
  9
$DIMDSEP
 70
    44
  9
$DIMATFIT
 70
     3
  9
$DIMFRAC
 70
     0
  9
$DIMLDRBLK
  1

  9
$DIMLUNIT
 70
     2
  9
$DIMLWD
 70
    -2
  9
$DIMLWE
 70
    -2
  9
$DIMTMOVE
 70
     0
  9
$LUNITS
 70
     2
  9
$LUPREC
 70
     4
  9
$SKETCHINC
 40
1.0
  9
$FILLETRAD
 40
10.0
  9
$AUNITS
 70
     0
  9
$AUPREC
 70
     0
  9
$MENU
  1
.
  9
$ELEVATION
 40
0.0
  9
$PELEVATION
 40
0.0
  9
$THICKNESS
 40
0.0
  9
$LIMCHECK
 70
     0
  9
$CHAMFERA
 40
10.0
  9
$CHAMFERB
 40
10.0
  9
$CHAMFERC
 40
20.0
  9
$CHAMFERD
 40
0.0
  9
$SKPOLY
 70
     0
  9
$TDCREATE
 40
2456409.498853796
  9
$TDUCREATE
 40
2456409.123853796
  9
$TDUPDATE
 40
2456409.498853808
  9
$TDUUPDATE
 40
2456409.123853808
  9
$TDINDWG
 40
0.0000000116
  9
$TDUSRTIMER
 40
0.0000000116
  9
$USRTIMER
 70
     1
  9
$ANGBASE
 50
0.0
  9
$ANGDIR
 70
     0
  9
$PDMODE
 70
     0
  9
$PDSIZE
 40
-1.0
  9
$PLINEWID
 40
0.0
  9
$SPLFRAME
 70
     0
  9
$SPLINETYPE
 70
     6
  9
$SPLINESEGS
 70
     8
  9
$HANDSEED
  5
24D
  9
$SURFTAB1
 70
     6
  9
$SURFTAB2
 70
     6
  9
$SURFTYPE
 70
     6
  9
$SURFU
 70
     6
  9
$SURFV
 70
     6
  9
$UCSBASE
  2

  9
$UCSNAME
  2

  9
$UCSORG
 10
0.0
 20
0.0
 30
0.0
  9
$UCSXDIR
 10
1.0
 20
0.0
 30
0.0
  9
$UCSYDIR
 10
0.0
 20
1.0
 30
0.0
  9
$UCSORTHOREF
  2

  9
$UCSORTHOVIEW
 70
     0
  9
$UCSORGTOP
 10
0.0
 20
0.0
 30
0.0
  9
$UCSORGBOTTOM
 10
0.0
 20
0.0
 30
0.0
  9
$UCSORGLEFT
 10
0.0
 20
0.0
 30
0.0
  9
$UCSORGRIGHT
 10
0.0
 20
0.0
 30
0.0
  9
$UCSORGFRONT
 10
0.0
 20
0.0
 30
0.0
  9
$UCSORGBACK
 10
0.0
 20
0.0
 30
0.0
  9
$PUCSBASE
  2

  9
$PUCSNAME
  2

  9
$PUCSORG
 10
0.0
 20
0.0
 30
0.0
  9
$PUCSXDIR
 10
1.0
 20
0.0
 30
0.0
  9
$PUCSYDIR
 10
0.0
 20
1.0
 30
0.0
  9
$PUCSORTHOREF
  2

  9
$PUCSORTHOVIEW
 70
     0
  9
$PUCSORGTOP
 10
0.0
 20
0.0
 30
0.0
  9
$PUCSORGBOTTOM
 10
0.0
 20
0.0
 30
0.0
  9
$PUCSORGLEFT
 10
0.0
 20
0.0
 30
0.0
  9
$PUCSORGRIGHT
 10
0.0
 20
0.0
 30
0.0
  9
$PUCSORGFRONT
 10
0.0
 20
0.0
 30
0.0
  9
$PUCSORGBACK
 10
0.0
 20
0.0
 30
0.0
  9
$USERI1
 70
     0
  9
$USERI2
 70
     0
  9
$USERI3
 70
     0
  9
$USERI4
 70
     0
  9
$USERI5
 70
     0
  9
$USERR1
 40
0.0
  9
$USERR2
 40
0.0
  9
$USERR3
 40
0.0
  9
$USERR4
 40
0.0
  9
$USERR5
 40
0.0
  9
$WORLDVIEW
 70
     1
  9
$SHADEDGE
 70
     3
  9
$SHADEDIF
 70
    70
  9
$TILEMODE
 70
     1
  9
$MAXACTVP
 70
    64
  9
$PINSBASE
 10
0.0
 20
0.0
 30
0.0
  9
$PLIMCHECK
 70
     0
  9
$PEXTMIN
 10
1.0000000000E+20
 20
1.0000000000E+20
 30
1.0000000000E+20
  9
$PEXTMAX
 10
-1.0000000000E+20
 20
-1.0000000000E+20
 30
-1.0000000000E+20
  9
$PLIMMIN
 10
0.0
 20
0.0
  9
$PLIMMAX
 10
420.0
 20
297.0
  9
$UNITMODE
 70
     0
  9
$VISRETAIN
 70
     1
  9
$PLINEGEN
 70
     0
  9
$PSLTSCALE
 70
     1
  9
$TREEDEPTH
 70
  3020
  9
$CMLSTYLE
  2
Standard
  9
$CMLJUST
 70
     0
  9
$CMLSCALE
 40
20.0
  9
$PROXYGRAPHICS
 70
     1
  9
$MEASUREMENT
 70
     1
  9
$CELWEIGHT
370
    -1
  9
$ENDCAPS
280
     0
  9
$JOINSTYLE
280
     0
  9
$LWDISPLAY
290
     1
  9
$INSUNITS
 70
     4
  9
$HYPERLINKBASE
  1

  9
$STYLESHEET
  1

  9
$XEDIT
290
     1
  9
$CEPSNTYPE
380
     0
  9
$PSTYLEMODE
290
     1
  9
$FINGERPRINTGUID
  2
{8C526ACD-623A-4F82-80B9-E1E60B2DB2E0}
  9
$VERSIONGUID
  2
{FAEB1C32-E019-11D5-929B-00C0DF256EC4}
  9
$EXTNAMES
290
     1
  9
$PSVPSCALE
 40
0.0
  9
$OLESTARTUP
290
     0
  0
ENDSEC
  0
SECTION
  2
CLASSES
  0
CLASS
  1
ACDBDICTIONARYWDFLT
  2
AcDbDictionaryWithDefault
  3
ObjectDBX Classes
 90
        0
280
     0
281
     0
  0
CLASS
  1
ACDBPLACEHOLDER
  2
AcDbPlaceHolder
  3
ObjectDBX Classes
 90
        0
280
     0
281
     0
  0
CLASS
  1
LAYOUT
  2
AcDbLayout
  3
ObjectDBX Classes
 90
        0
280
     0
281
     0
  0
ENDSEC
  0
SECTION
  2
TABLES
  0
TABLE
  2
VPORT
  5
8
330
0
100
AcDbSymbolTable
 70
     1
  0
VPORT
  5
29
330
8
100
AcDbSymbolTableRecord
100
AcDbViewportTableRecord
  2
*Active
 70
     0
 10
0.0
 20
0.0
 11
1.0
 21
1.0
 12
210.0
 22
148.5
 13
0.0
 23
0.0
 14
10.0
 24
10.0
 15
10.0
 25
10.0
 16
0.0
 26
0.0
 36
1.0
 17
0.0
 27
0.0
 37
0.0
 40
297.0
 41
1.4141414141
 42
50.0
 43
0.0
 44
0.0
 50
0.0
 51
0.0
 71
     0
 72
  2000
 73
     1
 74
     3
 75
     0
 76
     0
 77
     0
 78
     0
281
     0
 65
     1
110
0.0
120
0.0
130
0.0
111
1.0
121
0.0
131
0.0
112
0.0
122
1.0
132
0.0
 79
     0
146
0.0
  0
ENDTAB
  0
TABLE
  2
LTYPE
  5
5
330
0
100
AcDbSymbolTable
 70
     6
  0
LTYPE
  5
14
330
5
100
AcDbSymbolTableRecord
100
AcDbLinetypeTableRecord
  2
ByBlock
 70
     0
  3

 72
    65
 73
     0
 40
0.0
  0
LTYPE
  5
15
330
5
100
AcDbSymbolTableRecord
100
AcDbLinetypeTableRecord
  2
ByLayer
 70
     0
  3

 72
    65
 73
     0
 40
0.0
  0
LTYPE
  5
16
330
5
100
AcDbSymbolTableRecord
100
AcDbLinetypeTableRecord
  2
Continuous
 70
     0
  3
Solid line
 72
    65
 73
     0
 40
0.0
  0
LTYPE
  5
2A
330
5
100
AcDbSymbolTableRecord
100
AcDbLinetypeTableRecord
  2
HIDDEN
 70
     0
  3
Hidden __ __ __ __ __ __ __ __ __ __ __ __ __ __
 72
    65
 73
     2
 40
1.905
 49
1.27
 74
     0
 49
-0.635
 74
     0
  0
LTYPE
  5
2B
330
5
100
AcDbSymbolTableRecord
100
AcDbLinetypeTableRecord
  2
PHANTOM
 70
     0
  3
Phantom ______  __  __  ______  __  __  ______
 72
    65
 73
     6
 40
12.7
 49
6.35
 74
     0
 49
-1.27
 74
     0
 49
1.27
 74
     0
 49
-1.27
 74
     0
 49
1.27
 74
     0
 49
-1.27
 74
     0
  0
LTYPE
  5
2C
330
5
100
AcDbSymbolTableRecord
100
AcDbLinetypeTableRecord
  2
CENTER
 70
     0
  3
Center ____ _ ____ _ ____ _ ____ _ ____ _ ____
 72
    65
 73
     4
 40
10.16
 49
6.35
 74
     0
 49
-1.27
 74
     0
 49
1.27
 74
     0
 49
-1.27
 74
     0
  0
LTYPE
  5
2D
330
5
100
AcDbSymbolTableRecord
100
AcDbLinetypeTableRecord
  2
CENTERX2
 70
     0
  3
Center (2x) ________  __  ________  __  _____
 72
    65
 73
     4
 40
20.32
 49
12.7
 74
     0
 49
-2.54
 74
     0
 49
2.54
 74
     0
 49
-2.54
 74
     0
  0
LTYPE
  5
2E
330
5
100
AcDbSymbolTableRecord
100
AcDbLinetypeTableRecord
  2
DOT2
 70
     0
  3
Dot (.5x) ........................................
 72
    65
 73
     2
 40
0.635
 49
0.0
 74
     0
 49
-0.635
 74
     0
  0
ENDTAB
  0
TABLE
  2
LAYER
  5
2
330
0
100
AcDbSymbolTable
 70
    30
  0
LAYER
  5
10
330
2
100
AcDbSymbolTableRecord
100
AcDbLayerTableRecord
  2
0
 70
     0
 62
     7
  6
Continuous
370
    -3
390
F
  0
LAYER
  5
2F
330
2
100
AcDbSymbolTableRecord
100
AcDbLayerTableRecord
  2
SLD-0
 70
     0
 62
   179
  6
Continuous
370
    -3
390
F
  0
LAYER
  5
30
330
2
100
AcDbSymbolTableRecord
100
AcDbLayerTableRecord
  2
1
 70
     0
 62
   179
  6
Continuous
370
    -3
390
F
  0
LAYER
  5
31
330
2
100
AcDbSymbolTableRecord
100
AcDbLayerTableRecord
  2
2
 70
     0
 62
   179
  6
Continuous
370
    -3
390
F
  0
LAYER
  5
32
330
2
100
AcDbSymbolTableRecord
100
AcDbLayerTableRecord
  2
3
 70
     0
 62
   179
  6
Continuous
370
    -3
390
F
  0
LAYER
  5
33
330
2
100
AcDbSymbolTableRecord
100
AcDbLayerTableRecord
  2
4
 70
     0
 62
   179
  6
Continuous
370
    -3
390
F
  0
LAYER
  5
34
330
2
100
AcDbSymbolTableRecord
100
AcDbLayerTableRecord
  2
5
 70
     0
 62
   179
  6
Continuous
370
    -3
390
F
  0
LAYER
  5
35
330
2
100
AcDbSymbolTableRecord
100
AcDbLayerTableRecord
  2
SLD-DEFPOINTS
 70
     0
 62
   179
  6
Continuous
370
    -3
390
F
  0
LAYER
  5
36
330
2
100
AcDbSymbolTableRecord
100
AcDbLayerTableRecord
  2
$DDT_AUDIT_GENERATED_(30)
 70
     0
 62
     7
  6
Continuous
370
    -3
390
F
  0
LAYER
  5
37
330
2
100
AcDbSymbolTableRecord
100
AcDbLayerTableRecord
  2
シリズムカグー
 70
     0
 62
     7
  6
Continuous
370
    -3
390
F
  0
LAYER
  5
38
330
2
100
AcDbSymbolTableRecord
100
AcDbLayerTableRecord
  2
ﾌﾟﾘ_ﾞﾑﾎﾙﾀﾞｰ
 70
     0
 62
     7
  6
Continuous
370
    -3
390
F
  0
LAYER
  5
39
330
2
100
AcDbSymbolTableRecord
100
AcDbLayerTableRecord
  2
シリズム2
 70
     0
 62
     7
  6
Continuous
370
    -3
390
F
  0
LAYER
  5
3A
330
2
100
AcDbSymbolTableRecord
100
AcDbLayerTableRecord
  2
光源_LED_
 70
     0
 62
     7
  6
Continuous
370
    -3
390
F
  0
LAYER
  5
3B
330
2
100
AcDbSymbolTableRecord
100
AcDbLayerTableRecord
  2
LAYER1
 70
     0
 62
     7
  6
Continuous
370
    -3
390
F
  0
LAYER
  5
3C
330
2
100
AcDbSymbolTableRecord
100
AcDbLayerTableRecord
  2
$DDT_AUDIT_GENERATED_(36)
 70
     0
 62
     7
  6
Continuous
370
    -3
390
F
  0
LAYER
  5
3D
330
2
100
AcDbSymbolTableRecord
100
AcDbLayerTableRecord
  2
カグー板
 70
     0
 62
     7
  6
Continuous
370
    -3
390
F
  0
LAYER
  5
3E
330
2
100
AcDbSymbolTableRecord
100
AcDbLayerTableRecord
  2
DIMENSION
 70
     0
 62
     7
  6
Continuous
370
    -3
390
F
  0
LAYER
  5
3F
330
2
100
AcDbSymbolTableRecord
100
AcDbLayerTableRecord
  2
$DDT_AUDIT_GENERATED_(39)
 70
     0
 62
     7
  6
Continuous
370
    -3
390
F
  0
LAYER
  5
40
330
2
100
AcDbSymbolTableRecord
100
AcDbLayerTableRecord
  2
KCM-4
 70
     0
 62
     7
  6
Continuous
370
    -3
390
F
  0
LAYER
  5
41
330
2
100
AcDbSymbolTableRecord
100
AcDbLayerTableRecord
  2
LAYER7
 70
     0
 62
     7
  6
Continuous
370
    -3
390
F
  0
LAYER
  5
42
330
2
100
AcDbSymbolTableRecord
100
AcDbLayerTableRecord
  2
LAYER4
 70
     0
 62
     7
  6
Continuous
370
    -3
390
F
  0
LAYER
  5
43
330
2
100
AcDbSymbolTableRecord
100
AcDbLayerTableRecord
  2
LAYER6
 70
     0
 62
     7
  6
Continuous
370
    -3
390
F
  0
LAYER
  5
44
330
2
100
AcDbSymbolTableRecord
100
AcDbLayerTableRecord
  2
LAYER5
 70
     0
 62
     7
  6
Continuous
370
    -3
390
F
  0
LAYER
  5
45
330
2
100
AcDbSymbolTableRecord
100
AcDbLayerTableRecord
  2
LAYER11
 70
     0
 62
     7
  6
Continuous
370
    -3
390
F
  0
LAYER
  5
46
330
2
100
AcDbSymbolTableRecord
100
AcDbLayerTableRecord
  2
LAYER12
 70
     0
 62
     7
  6
Continuous
370
    -3
390
F
  0
LAYER
  5
47
330
2
100
AcDbSymbolTableRecord
100
AcDbLayerTableRecord
  2
LAYER2
 70
     0
 62
     7
  6
Continuous
370
    -3
390
F
  0
LAYER
  5
48
330
2
100
AcDbSymbolTableRecord
100
AcDbLayerTableRecord
  2
LAYER9
 70
     0
 62
     7
  6
Continuous
370
    -3
390
F
  0
LAYER
  5
49
330
2
100
AcDbSymbolTableRecord
100
AcDbLayerTableRecord
  2
LAYER3
 70
     0
 62
     7
  6
Continuous
370
    -3
390
F
  0
LAYER
  5
4A
330
2
100
AcDbSymbolTableRecord
100
AcDbLayerTableRecord
  2
$CONSTRUCTION
 70
     0
 62
    -9
  6
CENTERX2
370
    -3
390
F
  0
LAYER
  5
4B
330
2
100
AcDbSymbolTableRecord
100
AcDbLayerTableRecord
  2
99
 70
     0
 62
    -3
  6
Continuous
370
    -3
390
F
  0
ENDTAB
  0
TABLE
  2
STYLE
  5
3
330
0
100
AcDbSymbolTable
 70
     9
  0
STYLE
  5
11
330
3
100
AcDbSymbolTableRecord
100
AcDbTextStyleTableRecord
  2
Standard
 70
     0
 40
0.0
 41
1.0
 50
0.0
 71
     0
 42
2.5
  3
txt
  4
bigfont
  0
STYLE
  5
11D
330
3
100
AcDbSymbolTableRecord
100
AcDbTextStyleTableRecord
  2
SLDTEXTSTYLE0
 70
     0
 40
0.0
 41
0.7
 50
0.0
 71
     0
 42
0.2
  3
TXT
  4
bigfont
  0
STYLE
  5
1DE
330
3
100
AcDbSymbolTableRecord
100
AcDbTextStyleTableRecord
  2
SLDTEXTSTYLE1
 70
     0
 40
0.0
 41
0.63
 50
0.0
 71
     0
 42
0.2
  3
TXT
  4
bigfont
  0
STYLE
  5
1E2
330
3
100
AcDbSymbolTableRecord
100
AcDbTextStyleTableRecord
  2
SLDTEXTSTYLE2
 70
     0
 40
0.0
 41
0.315
 50
0.0
 71
     0
 42
0.2
  3
TXT
  4
bigfont
  0
STYLE
  5
1E6
330
3
100
AcDbSymbolTableRecord
100
AcDbTextStyleTableRecord
  2
SLDTEXTSTYLE3
 70
     0
 40
0.0
 41
0.3722727273
 50
0.0
 71
     0
 42
0.2
  3
TXT
  4
bigfont
  0
STYLE
  5
1E9
330
3
100
AcDbSymbolTableRecord
100
AcDbTextStyleTableRecord
  2
SLDTEXTSTYLE4
 70
     0
 40
0.0
 41
0.39375
 50
0.0
 71
     0
 42
0.2
  3
TXT
  4
bigfont
  0
STYLE
  5
1ED
330
3
100
AcDbSymbolTableRecord
100
AcDbTextStyleTableRecord
  2
SLDTEXTSTYLE5
 70
     0
 40
0.0
 41
0.4725
 50
0.0
 71
     0
 42
0.2
  3
TXT
  4
bigfont
  0
STYLE
  5
1F1
330
3
100
AcDbSymbolTableRecord
100
AcDbTextStyleTableRecord
  2
SLDTEXTSTYLE6
 70
     0
 40
0.0
 41
0.441
 50
0.0
 71
     0
 42
0.2
  3
TXT
  4
bigfont
  0
STYLE
  5
1F3
330
3
100
AcDbSymbolTableRecord
100
AcDbTextStyleTableRecord
  2
SLDTEXTSTYLE7
 70
     0
 40
0.0
 41
0.441
 50
0.0
 71
     0
 42
0.2
  3
TXT
  4
bigfont
  0
ENDTAB
  0
TABLE
  2
VIEW
  5
6
330
0
100
AcDbSymbolTable
 70
     0
  0
ENDTAB
  0
TABLE
  2
UCS
  5
7
330
0
100
AcDbSymbolTable
 70
     0
  0
ENDTAB
  0
TABLE
  2
APPID
  5
9
330
0
100
AcDbSymbolTable
 70
     1
  0
APPID
  5
12
330
9
100
AcDbSymbolTableRecord
100
AcDbRegAppTableRecord
  2
ACAD
 70
     0
  0
ENDTAB
  0
TABLE
  2
DIMSTYLE
  5
A
330
0
100
AcDbSymbolTable
 70
     6
100
AcDbDimStyleTable
  0
DIMSTYLE
105
27
330
A
100
AcDbSymbolTableRecord
100
AcDbDimStyleTableRecord
  2
ISO-25
 70
     0
 41
2.5
 42
0.625
 43
3.75
 44
1.25
 73
     0
 74
     0
 77
     1
 78
     8
140
2.5
141
2.5
143
0.0393700787
147
0.625
171
     3
172
     1
271
     2
272
     2
274
     3
278
    44
283
     0
284
     8
340
11
  0
DIMSTYLE
105
11E
102
{ACAD_REACTORS
330
11C
330
19F
102
}
330
A
100
AcDbSymbolTableRecord
100
AcDbDimStyleTableRecord
  2
SLDDIMSTYLE0
 70
     0
 41
3.0
 44
0.0
 73
     0
 74
     0
 77
     3
 78
    12
140
3.5
147
0.875
173
     1
284
    12
340
11D
341
11F
343
11F
344
11F
  0
DIMSTYLE
105
12F
102
{ACAD_REACTORS
330
12E
330
16A
330
174
330
195
330
1C6
102
}
330
A
100
AcDbSymbolTableRecord
100
AcDbDimStyleTableRecord
  2
SLDDIMSTYLE1
 70
     0
 41
3.0
 44
0.0
 73
     0
 74
     0
 77
     3
 78
    12
140
3.5
147
0.875
173
     1
271
     1
272
     1
284
    12
340
11D
341
11F
343
11F
344
11F
  0
DIMSTYLE
105
13A
102
{ACAD_REACTORS
330
139
330
143
330
14C
330
156
330
160
330
1D2
102
}
330
A
100
AcDbSymbolTableRecord
100
AcDbDimStyleTableRecord
  2
SLDDIMSTYLE2
 70
     0
 41
3.0
 44
0.0
 73
     0
 74
     0
 77
     3
 78
    12
140
3.5
147
0.875
173
     1
271
     0
272
     0
284
    12
340
11D
341
11F
343
11F
344
11F
  0
DIMSTYLE
105
17F
102
{ACAD_REACTORS
330
17E
330
18B
102
}
330
A
100
AcDbSymbolTableRecord
100
AcDbDimStyleTableRecord
  2
SLDDIMSTYLE3
 70
     0
 41
3.0
 44
0.0
 73
     0
 74
     0
 77
     3
 78
    12
140
3.5
147
0.875
173
     1
271
     2
272
     2
284
    12
340
11D
341
11F
343
11F
344
11F
  0
DIMSTYLE
105
1AA
102
{ACAD_REACTORS
330
1A9
330
1B8
102
}
330
A
100
AcDbSymbolTableRecord
100
AcDbDimStyleTableRecord
  2
SLDDIMSTYLE4
 70
     0
 41
3.0
 44
0.0
 48
0.1
 71
     1
 73
     0
 74
     0
 77
     3
 78
    12
140
3.5
147
0.875
173
     1
271
     0
272
     1
340
11D
341
11F
343
11F
344
11F
  0
ENDTAB
  0
TABLE
  2
BLOCK_RECORD
  5
1
330
0
100
AcDbSymbolTable
 70
    21
  0
BLOCK_RECORD
  5
1F
330
1
100
AcDbSymbolTableRecord
100
AcDbBlockTableRecord
  2
*Model_Space
340
22
  0
BLOCK_RECORD
  5
1B
330
1
100
AcDbSymbolTableRecord
100
AcDbBlockTableRecord
  2
*Paper_Space
340
1E
  0
BLOCK_RECORD
  5
23
330
1
100
AcDbSymbolTableRecord
100
AcDbBlockTableRecord
  2
*Paper_Space0
340
26
  0
BLOCK_RECORD
  5
11F
330
1
100
AcDbSymbolTableRecord
100
AcDbBlockTableRecord
  2
_Open30
340
0
102
{BLKREFS
331
128
331
129
331
133
331
134
331
13E
331
13F
331
147
331
148
331
150
331
151
331
15A
331
15B
331
164
331
165
331
16E
331
16F
331
178
331
179
331
183
331
184
331
18F
331
190
331
199
331
19A
331
1A3
331
1A4
331
1AE
331
1AF
331
1BC
331
1BD
331
1CA
331
1CB
331
1D6
331
1D7
102
}
1001
ACAD
1000
DesignCenter Data
1002
{
1070
     1
1070
     0
1002
}
  0
BLOCK_RECORD
  5
125
330
1
100
AcDbSymbolTableRecord
100
AcDbBlockTableRecord
  2
*D2
340
0
  0
BLOCK_RECORD
  5
130
330
1
100
AcDbSymbolTableRecord
100
AcDbBlockTableRecord
  2
*D3
340
0
  0
BLOCK_RECORD
  5
13B
330
1
100
AcDbSymbolTableRecord
100
AcDbBlockTableRecord
  2
*D4
340
0
  0
BLOCK_RECORD
  5
144
330
1
100
AcDbSymbolTableRecord
100
AcDbBlockTableRecord
  2
*D5
340
0
  0
BLOCK_RECORD
  5
14D
330
1
100
AcDbSymbolTableRecord
100
AcDbBlockTableRecord
  2
*D6
340
0
  0
BLOCK_RECORD
  5
157
330
1
100
AcDbSymbolTableRecord
100
AcDbBlockTableRecord
  2
*D7
340
0
  0
BLOCK_RECORD
  5
161
330
1
100
AcDbSymbolTableRecord
100
AcDbBlockTableRecord
  2
*D8
340
0
  0
BLOCK_RECORD
  5
16B
330
1
100
AcDbSymbolTableRecord
100
AcDbBlockTableRecord
  2
*D9
340
0
  0
BLOCK_RECORD
  5
175
330
1
100
AcDbSymbolTableRecord
100
AcDbBlockTableRecord
  2
*D10
340
0
  0
BLOCK_RECORD
  5
180
330
1
100
AcDbSymbolTableRecord
100
AcDbBlockTableRecord
  2
*D11
340
0
  0
BLOCK_RECORD
  5
18C
330
1
100
AcDbSymbolTableRecord
100
AcDbBlockTableRecord
  2
*D12
340
0
  0
BLOCK_RECORD
  5
196
330
1
100
AcDbSymbolTableRecord
100
AcDbBlockTableRecord
  2
*D13
340
0
  0
BLOCK_RECORD
  5
1A0
330
1
100
AcDbSymbolTableRecord
100
AcDbBlockTableRecord
  2
*D14
340
0
  0
BLOCK_RECORD
  5
1AB
330
1
100
AcDbSymbolTableRecord
100
AcDbBlockTableRecord
  2
*D15
340
0
  0
BLOCK_RECORD
  5
1B9
330
1
100
AcDbSymbolTableRecord
100
AcDbBlockTableRecord
  2
*D16
340
0
  0
BLOCK_RECORD
  5
1C7
330
1
100
AcDbSymbolTableRecord
100
AcDbBlockTableRecord
  2
*D17
340
0
  0
BLOCK_RECORD
  5
1D3
330
1
100
AcDbSymbolTableRecord
100
AcDbBlockTableRecord
  2
*D18
340
0
  0
BLOCK_RECORD
  5
21F
330
1
100
AcDbSymbolTableRecord
100
AcDbBlockTableRecord
  2
SW_NOTE_0
340
0
102
{BLKREFS
331
224
102
}
1001
ACAD
1000
DesignCenter Data
1002
{
1070
     1
1070
     0
1002
}
  0
BLOCK_RECORD
  5
22B
330
1
100
AcDbSymbolTableRecord
100
AcDbBlockTableRecord
  2
SW_TABLEANNOTATION_0
340
0
102
{BLKREFS
331
24C
102
}
1001
ACAD
1000
DesignCenter Data
1002
{
1070
     1
1070
     0
1002
}
  0
ENDTAB
  0
ENDSEC
  0
SECTION
  2
BLOCKS
  0
BLOCK
  5
20
330
1F
100
AcDbEntity
  8
0
100
AcDbBlockBegin
  2
*Model_Space
 70
     0
 71
     0
 10
0.0
 20
0.0
 30
0.0
  3
*Model_Space
  1

  0
ENDBLK
  5
21
330
1F
100
AcDbEntity
  8
0
100
AcDbBlockEnd
  0
BLOCK
  5
1C
330
1B
100
AcDbEntity
 67
     1
  8
0
100
AcDbBlockBegin
  2
*Paper_Space
 70
     0
 71
     0
 10
0.0
 20
0.0
 30
0.0
  3
*Paper_Space
  1

  0
ENDBLK
  5
1D
330
1B
100
AcDbEntity
 67
     1
  8
0
100
AcDbBlockEnd
  0
BLOCK
  5
24
330
23
100
AcDbEntity
  8
0
100
AcDbBlockBegin
  2
*Paper_Space0
 70
     0
 71
     0
 10
0.0
 20
0.0
 30
0.0
  3
*Paper_Space0
  1

  0
ENDBLK
  5
25
330
23
100
AcDbEntity
  8
0
100
AcDbBlockEnd
  0
BLOCK
  5
120
330
11F
100
AcDbEntity
  8
0
100
AcDbBlockBegin
  2
_Open30
 70
     0
 71
     0
 10
0.0
 20
0.0
 30
0.0
  3
_Open30
  1

  0
LINE
  5
122
330
11F
100
AcDbEntity
  8
0
  6
ByBlock
 62
     0
370
    -2
100
AcDbLine
 10
-1.0
 20
0.267949
 30
0.0
 11
0.0
 21
0.0
 31
0.0
  0
LINE
  5
123
330
11F
100
AcDbEntity
  8
0
  6
ByBlock
 62
     0
370
    -2
100
AcDbLine
 10
0.0
 20
0.0
 30
0.0
 11
-1.0
 21
-0.267949
 31
0.0
  0
LINE
  5
124
330
11F
100
AcDbEntity
  8
0
  6
ByBlock
 62
     0
370
    -2
100
AcDbLine
 10
0.0
 20
0.0
 30
0.0
 11
-1.0
 21
0.0
 31
0.0
  0
ENDBLK
  5
121
330
11F
100
AcDbEntity
  8
0
100
AcDbBlockEnd
  0
BLOCK
  5
126
330
125
100
AcDbEntity
  8
0
100
AcDbBlockBegin
  2
*D2
 70
     1
 71
     0
 10
0.0
 20
0.0
 30
0.0
  3
*D2
  1

  0
INSERT
  5
128
330
125
100
AcDbEntity
  8
SLD-0
100
AcDbBlockReference
  2
_Open30
 10
36.0995864155
 20
223.397501661
 30
0.1
 41
3.0
 42
3.0
 50
180.0
  0
INSERT
  5
129
330
125
100
AcDbEntity
  8
SLD-0
100
AcDbBlockReference
  2
_Open30
 10
389.6684390244
 20
223.397501661
 30
0.1
 41
3.0
 42
3.0
 50
0.0
  0
LINE
  5
12A
330
125
100
AcDbEntity
  8
SLD-0
100
AcDbLine
 10
36.0995864155
 20
170.6371639409
 30
0.0
 11
36.0995864155
 21
224.397501661
 31
0.0
  0
LINE
  5
12B
330
125
100
AcDbEntity
  8
SLD-0
100
AcDbLine
 10
389.6684390244
 20
169.9340652588
 30
0.0
 11
389.6684390244
 21
224.397501661
 31
0.0
  0
LINE
  5
12C
330
125
100
AcDbEntity
  8
SLD-0
100
AcDbLine
 10
36.0995864155
 20
223.397501661
 30
0.0
 11
389.6684390244
 21
223.397501661
 31
0.0
  0
MTEXT
  5
12D
330
125
100
AcDbEntity
  8
SLD-0
100
AcDbMText
 10
204.6885365854
 20
227.4702287009
 30
0.0
 40
3.5
 41
0.0
 71
     1
 72
     1
  1
O/I 1092.32
  7
SLDTEXTSTYLE0
 73
     1
 44
1.0
  0
ENDBLK
  5
127
330
125
100
AcDbEntity
  8
0
100
AcDbBlockEnd
  0
BLOCK
  5
131
330
130
100
AcDbEntity
  8
0
100
AcDbBlockBegin
  2
*D3
 70
     1
 71
     0
 10
0.0
 20
0.0
 30
0.0
  3
*D3
  1

  0
INSERT
  5
133
330
130
100
AcDbEntity
  8
SLD-0
100
AcDbBlockReference
  2
_Open30
 10
363.9524390244
 20
215.342796319
 30
0.1
 41
3.0
 42
3.0
 50
360.0
  0
INSERT
  5
134
330
130
100
AcDbEntity
  8
SLD-0
100
AcDbBlockReference
  2
_Open30
 10
97.3524390244
 20
215.3427963191
 30
0.1
 41
3.0
 42
3.0
 50
180.0
  0
LINE
  5
135
330
130
100
AcDbEntity
  8
SLD-0
100
AcDbLine
 10
363.9524390244
 20
181.85
 30
0.0
 11
363.9524390244
 21
216.342796319
 31
0.0
  0
LINE
  5
136
330
130
100
AcDbEntity
  8
SLD-0
100
AcDbLine
 10
97.3524390244
 20
195.8500000005
 30
0.0
 11
97.3524390244
 21
216.3427963191
 31
0.0
  0
LINE
  5
137
330
130
100
AcDbEntity
  8
SLD-0
100
AcDbLine
 10
363.9524390244
 20
215.342796319
 30
0.0
 11
97.3524390244
 21
215.3427963191
 31
0.0
  0
MTEXT
  5
138
330
130
100
AcDbEntity
  8
SLD-0
100
AcDbMText
 10
178.1412541642
 20
219.4155233589
 30
0.0
 40
3.5
 41
0.0
 71
     1
 72
     1
  1
266.6
  7
SLDTEXTSTYLE0
 73
     1
 44
1.0
  0
ENDBLK
  5
132
330
130
100
AcDbEntity
  8
0
100
AcDbBlockEnd
  0
BLOCK
  5
13C
330
13B
100
AcDbEntity
  8
0
100
AcDbBlockBegin
  2
*D4
 70
     1
 71
     0
 10
0.0
 20
0.0
 30
0.0
  3
*D4
  1

  0
INSERT
  5
13E
330
13B
100
AcDbEntity
  8
SLD-0
100
AcDbBlockReference
  2
_Open30
 10
260.0912306663
 20
183.3500000002
 30
0.1
 41
3.0
 42
3.0
 50
90.0
  0
INSERT
  5
13F
330
13B
100
AcDbEntity
  8
SLD-0
100
AcDbBlockReference
  2
_Open30
 10
260.0912306663
 20
149.3500000002
 30
0.1
 41
3.0
 42
3.0
 50
270.0
  0
LINE
  5
140
330
13B
100
AcDbEntity
  8
SLD-0
100
AcDbLine
 10
260.0912306663
 20
183.3500000002
 30
0.0
 11
260.0912306663
 21
149.3500000002
 31
0.0
  0
MTEXT
  5
141
330
13B
100
AcDbEntity
  8
SLD-0
100
AcDbMText
 10
256.0185036264
 20
167.8089008033
 30
0.0
 40
3.5
 41
0.0
 71
     1
 72
     1
  1
%%c
  7
SLDTEXTSTYLE0
 11
2.034540884290198E-13
 21
1.0
 31
0.0
 73
     1
 44
1.0
  0
MTEXT
  5
142
330
13B
100
AcDbEntity
  8
SLD-0
100
AcDbMText
 10
256.0185036264
 20
171.6749495837
 30
0.0
 40
3.5
 41
0.0
 71
     1
 72
     1
  1
34
  7
SLDTEXTSTYLE0
 11
2.034540884290198E-13
 21
1.0
 31
0.0
 73
     1
 44
1.0
  0
ENDBLK
  5
13D
330
13B
100
AcDbEntity
  8
0
100
AcDbBlockEnd
  0
BLOCK
  5
145
330
144
100
AcDbEntity
  8
0
100
AcDbBlockBegin
  2
*D5
 70
     1
 71
     0
 10
0.0
 20
0.0
 30
0.0
  3
*D5
  1

  0
INSERT
  5
147
330
144
100
AcDbEntity
  8
SLD-0
100
AcDbBlockReference
  2
_Open30
 10
286.1412403331
 20
180.85
 30
0.1
 41
3.0
 42
3.0
 50
90.0
  0
INSERT
  5
148
330
144
100
AcDbEntity
  8
SLD-0
100
AcDbBlockReference
  2
_Open30
 10
286.1412403331
 20
151.85
 30
0.1
 41
3.0
 42
3.0
 50
270.0
  0
LINE
  5
149
330
144
100
AcDbEntity
  8
SLD-0
100
AcDbLine
 10
286.1412403331
 20
180.85
 30
0.0
 11
286.1412403331
 21
151.85
 31
0.0
  0
MTEXT
  5
14A
330
144
100
AcDbEntity
  8
SLD-0
100
AcDbMText
 10
282.0685132932
 20
167.8089008031
 30
0.0
 40
3.5
 41
0.0
 71
     1
 72
     1
  1
%%c
  7
SLDTEXTSTYLE0
 11
2.043422668487199E-13
 21
1.0
 31
0.0
 73
     1
 44
1.0
  0
MTEXT
  5
14B
330
144
100
AcDbEntity
  8
SLD-0
100
AcDbMText
 10
282.0685132932
 20
171.6749495836
 30
0.0
 40
3.5
 41
0.0
 71
     1
 72
     1
  1
29
  7
SLDTEXTSTYLE0
 11
2.043422668487199E-13
 21
1.0
 31
0.0
 73
     1
 44
1.0
  0
ENDBLK
  5
146
330
144
100
AcDbEntity
  8
0
100
AcDbBlockEnd
  0
BLOCK
  5
14E
330
14D
100
AcDbEntity
  8
0
100
AcDbBlockBegin
  2
*D6
 70
     1
 71
     0
 10
0.0
 20
0.0
 30
0.0
  3
*D6
  1

  0
INSERT
  5
150
330
14D
100
AcDbEntity
  8
SLD-0
100
AcDbBlockReference
  2
_Open30
 10
218.6524390244
 20
206.2001133926
 30
0.1
 41
3.0
 42
3.0
 50
180.0
  0
INSERT
  5
151
330
14D
100
AcDbEntity
  8
SLD-0
100
AcDbBlockReference
  2
_Open30
 10
233.6524390244
 20
206.2001133926
 30
0.1
 41
3.0
 42
3.0
 50
360.0
  0
LINE
  5
152
330
14D
100
AcDbEntity
  8
SLD-0
100
AcDbLine
 10
218.6524390244
 20
196.3500000004
 30
0.0
 11
218.6524390244
 21
207.2001133926
 31
0.0
  0
LINE
  5
153
330
14D
100
AcDbEntity
  8
SLD-0
100
AcDbLine
 10
233.6524390244
 20
189.3500000002
 30
0.0
 11
233.6524390244
 21
207.2001133926
 31
0.0
  0
LINE
  5
154
330
14D
100
AcDbEntity
  8
SLD-0
100
AcDbLine
 10
218.6524390244
 20
206.2001133926
 30
0.0
 11
233.6524390244
 21
206.2001133926
 31
0.0
  0
MTEXT
  5
155
330
14D
100
AcDbEntity
  8
SLD-0
100
AcDbMText
 10
223.9228182122
 20
210.2728404325
 30
0.0
 40
3.5
 41
0.0
 71
     1
 72
     1
  1
15
  7
SLDTEXTSTYLE0
 73
     1
 44
1.0
  0
ENDBLK
  5
14F
330
14D
100
AcDbEntity
  8
0
100
AcDbBlockEnd
  0
BLOCK
  5
158
330
157
100
AcDbEntity
  8
0
100
AcDbBlockBegin
  2
*D7
 70
     1
 71
     0
 10
0.0
 20
0.0
 30
0.0
  3
*D7
  1

  0
INSERT
  5
15A
330
157
100
AcDbEntity
  8
SLD-0
100
AcDbBlockReference
  2
_Open30
 10
233.6524390244
 20
206.2001133924
 30
0.1
 41
3.0
 42
3.0
 50
180.0
  0
INSERT
  5
15B
330
157
100
AcDbEntity
  8
SLD-0
100
AcDbBlockReference
  2
_Open30
 10
269.6524390244
 20
206.2001133924
 30
0.1
 41
3.0
 42
3.0
 50
360.0
  0
LINE
  5
15C
330
157
100
AcDbEntity
  8
SLD-0
100
AcDbLine
 10
233.6524390244
 20
189.3500000002
 30
0.0
 11
233.6524390244
 21
207.2001133924
 31
0.0
  0
LINE
  5
15D
330
157
100
AcDbEntity
  8
SLD-0
100
AcDbLine
 10
269.6524390244
 20
183.8500000002
 30
0.0
 11
269.6524390244
 21
207.2001133924
 31
0.0
  0
LINE
  5
15E
330
157
100
AcDbEntity
  8
SLD-0
100
AcDbLine
 10
233.6524390244
 20
206.2001133924
 30
0.0
 11
269.6524390244
 21
206.2001133924
 31
0.0
  0
MTEXT
  5
15F
330
157
100
AcDbEntity
  8
SLD-0
100
AcDbMText
 10
247.93125
 20
210.2728404323
 30
0.0
 40
3.5
 41
0.0
 71
     1
 72
     1
  1
36
  7
SLDTEXTSTYLE0
 73
     1
 44
1.0
  0
ENDBLK
  5
159
330
157
100
AcDbEntity
  8
0
100
AcDbBlockEnd
  0
BLOCK
  5
162
330
161
100
AcDbEntity
  8
0
100
AcDbBlockBegin
  2
*D8
 70
     1
 71
     0
 10
0.0
 20
0.0
 30
0.0
  3
*D8
  1

  0
INSERT
  5
164
330
161
100
AcDbEntity
  8
SLD-0
100
AcDbBlockReference
  2
_Open30
 10
294.6524390244
 20
206.2001133922
 30
0.1
 41
3.0
 42
3.0
 50
360.0
  0
INSERT
  5
165
330
161
100
AcDbEntity
  8
SLD-0
100
AcDbBlockReference
  2
_Open30
 10
269.6524390244
 20
206.2001133922
 30
0.1
 41
3.0
 42
3.0
 50
180.0
  0
LINE
  5
166
330
161
100
AcDbEntity
  8
SLD-0
100
AcDbLine
 10
294.6524390244
 20
181.85
 30
0.0
 11
294.6524390244
 21
207.2001133922
 31
0.0
  0
LINE
  5
167
330
161
100
AcDbEntity
  8
SLD-0
100
AcDbLine
 10
269.6524390244
 20
183.8500000002
 30
0.0
 11
269.6524390244
 21
207.2001133922
 31
0.0
  0
LINE
  5
168
330
161
100
AcDbEntity
  8
SLD-0
100
AcDbLine
 10
294.6524390244
 20
206.2001133922
 30
0.0
 11
269.6524390244
 21
206.2001133922
 31
0.0
  0
MTEXT
  5
169
330
161
100
AcDbEntity
  8
SLD-0
100
AcDbMText
 10
279.9938213861
 20
210.2728404321
 30
0.0
 40
3.5
 41
0.0
 71
     1
 72
     1
  1
25
  7
SLDTEXTSTYLE0
 73
     1
 44
1.0
  0
ENDBLK
  5
163
330
161
100
AcDbEntity
  8
0
100
AcDbBlockEnd
  0
BLOCK
  5
16C
330
16B
100
AcDbEntity
  8
0
100
AcDbBlockBegin
  2
*D9
 70
     1
 71
     0
 10
0.0
 20
0.0
 30
0.0
  3
*D9
  1

  0
INSERT
  5
16E
330
16B
100
AcDbEntity
  8
SLD-0
100
AcDbBlockReference
  2
_Open30
 10
294.6524390244
 20
206.2001133922
 30
0.1
 41
3.0
 42
3.0
 50
180.0
  0
INSERT
  5
16F
330
16B
100
AcDbEntity
  8
SLD-0
100
AcDbBlockReference
  2
_Open30
 10
309.0524390244
 20
206.2001133922
 30
0.1
 41
3.0
 42
3.0
 50
360.0
  0
LINE
  5
170
330
16B
100
AcDbEntity
  8
SLD-0
100
AcDbLine
 10
294.6524390244
 20
181.85
 30
0.0
 11
294.6524390244
 21
207.2001133922
 31
0.0
  0
LINE
  5
171
330
16B
100
AcDbEntity
  8
SLD-0
100
AcDbLine
 10
309.0524390244
 20
181.85
 30
0.0
 11
309.0524390244
 21
207.2001133922
 31
0.0
  0
LINE
  5
172
330
16B
100
AcDbEntity
  8
SLD-0
100
AcDbLine
 10
294.6524390244
 20
206.2001133922
 30
0.0
 11
309.0524390244
 21
206.2001133922
 31
0.0
  0
MTEXT
  5
173
330
16B
100
AcDbEntity
  8
SLD-0
100
AcDbMText
 10
298.1123144148
 20
210.2728404321
 30
0.0
 40
3.5
 41
0.0
 71
     1
 72
     1
  1
14.4
  7
SLDTEXTSTYLE0
 73
     1
 44
1.0
  0
ENDBLK
  5
16D
330
16B
100
AcDbEntity
  8
0
100
AcDbBlockEnd
  0
BLOCK
  5
176
330
175
100
AcDbEntity
  8
0
100
AcDbBlockBegin
  2
*D10
 70
     1
 71
     0
 10
0.0
 20
0.0
 30
0.0
  3
*D10
  1

  0
INSERT
  5
178
330
175
100
AcDbEntity
  8
SLD-0
100
AcDbBlockReference
  2
_Open30
 10
363.9524390244
 20
206.2001133922
 30
0.1
 41
3.0
 42
3.0
 50
360.0
  0
INSERT
  5
179
330
175
100
AcDbEntity
  8
SLD-0
100
AcDbBlockReference
  2
_Open30
 10
309.0524390244
 20
206.2001133922
 30
0.1
 41
3.0
 42
3.0
 50
180.0
  0
LINE
  5
17A
330
175
100
AcDbEntity
  8
SLD-0
100
AcDbLine
 10
363.9524390244
 20
181.85
 30
0.0
 11
363.9524390244
 21
207.2001133922
 31
0.0
  0
LINE
  5
17B
330
175
100
AcDbEntity
  8
SLD-0
100
AcDbLine
 10
309.0524390244
 20
181.85
 30
0.0
 11
309.0524390244
 21
207.2001133922
 31
0.0
  0
LINE
  5
17C
330
175
100
AcDbEntity
  8
SLD-0
100
AcDbLine
 10
363.9524390244
 20
206.2001133922
 30
0.0
 11
309.0524390244
 21
206.2001133922
 31
0.0
  0
MTEXT
  5
17D
330
175
100
AcDbEntity
  8
SLD-0
100
AcDbMText
 10
333.0247950153
 20
210.2728404321
 30
0.0
 40
3.5
 41
0.0
 71
     1
 72
     1
  1
54.9
  7
SLDTEXTSTYLE0
 73
     1
 44
1.0
  0
ENDBLK
  5
177
330
175
100
AcDbEntity
  8
0
100
AcDbBlockEnd
  0
BLOCK
  5
181
330
180
100
AcDbEntity
  8
0
100
AcDbBlockBegin
  2
*D11
 70
     1
 71
     0
 10
0.0
 20
0.0
 30
0.0
  3
*D11
  1

  0
INSERT
  5
183
330
180
100
AcDbEntity
  8
SLD-0
100
AcDbBlockReference
  2
_Open30
 10
363.9524390244
 20
215.342796319
 30
0.1
 41
3.0
 42
3.0
 50
360.0
  0
INSERT
  5
184
330
180
100
AcDbEntity
  8
SLD-0
100
AcDbBlockReference
  2
_Open30
 10
372.1424390244
 20
215.342796319
 30
0.1
 41
3.0
 42
3.0
 50
180.0
  0
LINE
  5
185
330
180
100
AcDbEntity
  8
SLD-0
100
AcDbLine
 10
363.9524390244
 20
181.85
 30
0.0
 11
363.9524390244
 21
216.342796319
 31
0.0
  0
LINE
  5
186
330
180
100
AcDbEntity
  8
SLD-0
100
AcDbLine
 10
372.1424390244
 20
181.85
 30
0.0
 11
372.1424390244
 21
216.342796319
 31
0.0
  0
LINE
  5
187
330
180
100
AcDbEntity
  8
SLD-0
100
AcDbLine
 10
363.9524390244
 20
215.342796319
 30
0.0
 11
357.9524390244
 21
215.342796319
 31
0.0
  0
LINE
  5
188
330
180
100
AcDbEntity
  8
SLD-0
100
AcDbLine
 10
363.9524390244
 20
215.342796319
 30
0.0
 11
372.1424390244
 21
215.342796319
 31
0.0
  0
LINE
  5
189
330
180
100
AcDbEntity
  8
SLD-0
100
AcDbLine
 10
372.1424390244
 20
215.342796319
 30
0.0
 11
378.1424390244
 21
215.342796319
 31
0.0
  0
MTEXT
  5
18A
330
180
100
AcDbEntity
  8
SLD-0
100
AcDbMText
 10
364.7063004164
 20
219.4155233589
 30
0.0
 40
3.5
 41
0.0
 71
     1
 72
     1
  1
8.19
  7
SLDTEXTSTYLE0
 73
     1
 44
1.0
  0
ENDBLK
  5
182
330
180
100
AcDbEntity
  8
0
100
AcDbBlockEnd
  0
BLOCK
  5
18D
330
18C
100
AcDbEntity
  8
0
100
AcDbBlockBegin
  2
*D12
 70
     1
 71
     0
 10
0.0
 20
0.0
 30
0.0
  3
*D12
  1

  0
INSERT
  5
18F
330
18C
100
AcDbEntity
  8
SLD-0
100
AcDbBlockReference
  2
_Open30
 10
389.6684390244
 20
215.342796319
 30
0.1
 41
3.0
 42
3.0
 50
360.0
  0
INSERT
  5
190
330
18C
100
AcDbEntity
  8
SLD-0
100
AcDbBlockReference
  2
_Open30
 10
372.1424390244
 20
215.342796319
 30
0.1
 41
3.0
 42
3.0
 50
180.0
  0
LINE
  5
191
330
18C
100
AcDbEntity
  8
SLD-0
100
AcDbLine
 10
389.6684390244
 20
169.9340652588
 30
0.0
 11
389.6684390244
 21
216.342796319
 31
0.0
  0
LINE
  5
192
330
18C
100
AcDbEntity
  8
SLD-0
100
AcDbLine
 10
372.1424390244
 20
181.85
 30
0.0
 11
372.1424390244
 21
216.342796319
 31
0.0
  0
LINE
  5
193
330
18C
100
AcDbEntity
  8
SLD-0
100
AcDbLine
 10
389.6684390244
 20
215.342796319
 30
0.0
 11
372.1424390244
 21
215.342796319
 31
0.0
  0
MTEXT
  5
194
330
18C
100
AcDbEntity
  8
SLD-0
100
AcDbMText
 10
375.9407038965
 20
219.4155233589
 30
0.0
 40
3.5
 41
0.0
 71
     1
 72
     1
  1
17.53
  7
SLDTEXTSTYLE0
 73
     1
 44
1.0
  0
ENDBLK
  5
18E
330
18C
100
AcDbEntity
  8
0
100
AcDbBlockEnd
  0
BLOCK
  5
197
330
196
100
AcDbEntity
  8
0
100
AcDbBlockBegin
  2
*D13
 70
     1
 71
     0
 10
0.0
 20
0.0
 30
0.0
  3
*D13
  1

  0
INSERT
  5
199
330
196
100
AcDbEntity
  8
SLD-0
100
AcDbBlockReference
  2
_Open30
 10
218.6524390244
 20
206.2001133926
 30
0.1
 41
3.0
 42
3.0
 50
360.0
  0
INSERT
  5
19A
330
196
100
AcDbEntity
  8
SLD-0
100
AcDbBlockReference
  2
_Open30
 10
97.3524390244
 20
206.2001133926
 30
0.1
 41
3.0
 42
3.0
 50
180.0
  0
LINE
  5
19B
330
196
100
AcDbEntity
  8
SLD-0
100
AcDbLine
 10
218.6524390244
 20
196.3500000004
 30
0.0
 11
218.6524390244
 21
207.2001133926
 31
0.0
  0
LINE
  5
19C
330
196
100
AcDbEntity
  8
SLD-0
100
AcDbLine
 10
97.3524390244
 20
195.8500000005
 30
0.0
 11
97.3524390244
 21
207.2001133926
 31
0.0
  0
LINE
  5
19D
330
196
100
AcDbEntity
  8
SLD-0
100
AcDbLine
 10
218.6524390244
 20
206.2001133926
 30
0.0
 11
97.3524390244
 21
206.2001133926
 31
0.0
  0
MTEXT
  5
19E
330
196
100
AcDbEntity
  8
SLD-0
100
AcDbMText
 10
149.0126465464
 20
210.2728404325
 30
0.0
 40
3.5
 41
0.0
 71
     1
 72
     1
  1
121.3
  7
SLDTEXTSTYLE0
 73
     1
 44
1.0
  0
ENDBLK
  5
198
330
196
100
AcDbEntity
  8
0
100
AcDbBlockEnd
  0
BLOCK
  5
1A1
330
1A0
100
AcDbEntity
  8
0
100
AcDbBlockBegin
  2
*D14
 70
     1
 71
     0
 10
0.0
 20
0.0
 30
0.0
  3
*D14
  1

  0
INSERT
  5
1A3
330
1A0
100
AcDbEntity
  8
SLD-0
100
AcDbBlockReference
  2
_Open30
 10
36.0995864155
 20
215.3434897383
 30
0.1
 41
3.0
 42
3.0
 50
180.0
  0
INSERT
  5
1A4
330
1A0
100
AcDbEntity
  8
SLD-0
100
AcDbBlockReference
  2
_Open30
 10
97.3524390244
 20
215.3434897382
 30
0.1
 41
3.0
 42
3.0
 50
360.0
  0
LINE
  5
1A5
330
1A0
100
AcDbEntity
  8
SLD-0
100
AcDbLine
 10
36.0995864155
 20
170.6371639409
 30
0.0
 11
36.0995864155
 21
216.3434897383
 31
0.0
  0
LINE
  5
1A6
330
1A0
100
AcDbEntity
  8
SLD-0
100
AcDbLine
 10
97.3524390244
 20
195.8500000005
 30
0.0
 11
97.3524390244
 21
216.3434897382
 31
0.0
  0
LINE
  5
1A7
330
1A0
100
AcDbEntity
  8
SLD-0
100
AcDbLine
 10
36.0995864155
 20
215.3434897383
 30
0.0
 11
97.3524390244
 21
215.3434897382
 31
0.0
  0
MTEXT
  5
1A8
330
1A0
100
AcDbEntity
  8
SLD-0
100
AcDbMText
 10
61.6463245092
 20
219.4162167781
 30
0.0
 40
3.5
 41
0.0
 71
     1
 72
     1
  1
WD=800
  7
SLDTEXTSTYLE0
 73
     1
 44
1.0
  0
ENDBLK
  5
1A2
330
1A0
100
AcDbEntity
  8
0
100
AcDbBlockEnd
  0
BLOCK
  5
1AC
330
1AB
100
AcDbEntity
  8
0
100
AcDbBlockBegin
  2
*D15
 70
     1
 71
     0
 10
0.0
 20
0.0
 30
0.0
  3
*D15
  1

  0
INSERT
  5
1AE
330
1AB
100
AcDbEntity
  8
SLD-0
100
AcDbBlockReference
  2
_Open30
 10
398.2215779298
 20
181.35
 30
0.1
 41
3.0
 42
3.0
 50
90.0
  0
INSERT
  5
1AF
330
1AB
100
AcDbEntity
  8
SLD-0
100
AcDbBlockReference
  2
_Open30
 10
398.2215779298
 20
151.35
 30
0.1
 41
3.0
 42
3.0
 50
270.0
  0
LINE
  5
1B0
330
1AB
100
AcDbEntity
  8
SLD-0
100
AcDbLine
 10
372.6424390244
 20
181.35
 30
0.0
 11
399.2215779298
 21
181.35
 31
0.0
  0
LINE
  5
1B1
330
1AB
100
AcDbEntity
  8
SLD-0
100
AcDbLine
 10
372.7564390244
 20
151.35
 30
0.0
 11
399.2215779298
 21
151.35
 31
0.0
  0
LINE
  5
1B2
330
1AB
100
AcDbEntity
  8
SLD-0
100
AcDbLine
 10
398.2215779298
 20
181.35
 30
0.0
 11
398.2215779298
 21
151.35
 31
0.0
  0
MTEXT
  5
1B3
330
1AB
100
AcDbEntity
  8
SLD-0
100
AcDbMText
 10
394.1488508899
 20
159.5031054302
 30
0.0
 40
3.5
 41
0.0
 71
     1
 72
     1
  1
%%c
  7
SLDTEXTSTYLE0
 11
2.016777315896195E-13
 21
1.0
 31
0.0
 73
     1
 44
1.0
  0
MTEXT
  5
1B4
330
1AB
100
AcDbEntity
  8
SLD-0
100
AcDbMText
 10
394.1488508899
 20
163.3691542107
 30
0.0
 40
3.5
 41
0.0
 71
     1
 72
     1
  1
30
  7
SLDTEXTSTYLE0
 11
2.016777315896195E-13
 21
1.0
 31
0.0
 73
     1
 44
1.0
  0
MTEXT
  5
1B5
330
1AB
100
AcDbEntity
  8
SLD-0
100
AcDbMText
 10
395.2008760687
 20
168.3062029912
 30
0.0
 40
2.45
 41
0.0
 71
     1
 72
     1
  1
-
  7
SLDTEXTSTYLE0
 11
2.016777315896195E-13
 21
1.0
 31
0.0
 73
     1
 44
1.0
  0
MTEXT
  5
1B6
330
1AB
100
AcDbEntity
  8
SLD-0
100
AcDbMText
 10
395.2008760687
 20
169.7298493327
 30
0.0
 40
2.45
 41
0.0
 71
     1
 72
     1
  1
0.1
  7
SLDTEXTSTYLE0
 11
2.016777315896195E-13
 21
1.0
 31
0.0
 73
     1
 44
1.0
  0
MTEXT
  5
1B7
330
1AB
100
AcDbEntity
  8
SLD-0
100
AcDbMText
 10
392.3535833857
 20
169.7298493327
 30
0.0
 40
2.45
 41
0.0
 71
     1
 72
     1
  1
0.0
  7
SLDTEXTSTYLE0
 11
2.016777315896195E-13
 21
1.0
 31
0.0
 73
     1
 44
1.0
  0
ENDBLK
  5
1AD
330
1AB
100
AcDbEntity
  8
0
100
AcDbBlockEnd
  0
BLOCK
  5
1BA
330
1B9
100
AcDbEntity
  8
0
100
AcDbBlockBegin
  2
*D16
 70
     1
 71
     0
 10
0.0
 20
0.0
 30
0.0
  3
*D16
  1

  0
INSERT
  5
1BC
330
1B9
100
AcDbEntity
  8
SLD-0
100
AcDbBlockReference
  2
_Open30
 10
86.3937053838
 20
195.3500000005
 30
0.1
 41
3.0
 42
3.0
 50
90.0
  0
INSERT
  5
1BD
330
1B9
100
AcDbEntity
  8
SLD-0
100
AcDbBlockReference
  2
_Open30
 10
86.3937053837
 20
137.3500000005
 30
0.1
 41
3.0
 42
3.0
 50
270.0
  0
LINE
  5
1BE
330
1B9
100
AcDbEntity
  8
SLD-0
100
AcDbLine
 10
96.8524390244
 20
195.3500000005
 30
0.0
 11
85.3937053838
 21
195.3500000005
 31
0.0
  0
LINE
  5
1BF
330
1B9
100
AcDbEntity
  8
SLD-0
100
AcDbLine
 10
96.8524390244
 20
137.3500000005
 30
0.0
 11
85.3937053837
 21
137.3500000005
 31
0.0
  0
LINE
  5
1C0
330
1B9
100
AcDbEntity
  8
SLD-0
100
AcDbLine
 10
86.3937053838
 20
195.3500000005
 30
0.0
 11
86.3937053837
 21
137.3500000005
 31
0.0
  0
MTEXT
  5
1C1
330
1B9
100
AcDbEntity
  8
SLD-0
100
AcDbMText
 10
82.3209783439
 20
160.9387508795
 30
0.0
 40
3.5
 41
0.0
 71
     1
 72
     1
  1
%%c
  7
SLDTEXTSTYLE0
 11
2.034540884290198E-13
 21
1.0
 31
0.0
 73
     1
 44
1.0
  0
MTEXT
  5
1C2
330
1B9
100
AcDbEntity
  8
SLD-0
100
AcDbMText
 10
82.3209783439
 20
164.80479966
 30
0.0
 40
3.5
 41
0.0
 71
     1
 72
     1
  1
58
  7
SLDTEXTSTYLE0
 11
2.034540884290198E-13
 21
1.0
 31
0.0
 73
     1
 44
1.0
  0
MTEXT
  5
1C3
330
1B9
100
AcDbEntity
  8
SLD-0
100
AcDbMText
 10
83.3730035226
 20
169.7418484404
 30
0.0
 40
2.45
 41
0.0
 71
     1
 72
     1
  1
-
  7
SLDTEXTSTYLE0
 11
2.034540884290198E-13
 21
1.0
 31
0.0
 73
     1
 44
1.0
  0
MTEXT
  5
1C4
330
1B9
100
AcDbEntity
  8
SLD-0
100
AcDbMText
 10
83.3730035226
 20
171.1654947819
 30
0.0
 40
2.45
 41
0.0
 71
     1
 72
     1
  1
0.1
  7
SLDTEXTSTYLE0
 11
2.034540884290198E-13
 21
1.0
 31
0.0
 73
     1
 44
1.0
  0
MTEXT
  5
1C5
330
1B9
100
AcDbEntity
  8
SLD-0
100
AcDbMText
 10
80.5257108397
 20
171.1654947819
 30
0.0
 40
2.45
 41
0.0
 71
     1
 72
     1
  1
0.0
  7
SLDTEXTSTYLE0
 11
2.034540884290198E-13
 21
1.0
 31
0.0
 73
     1
 44
1.0
  0
ENDBLK
  5
1BB
330
1B9
100
AcDbEntity
  8
0
100
AcDbBlockEnd
  0
BLOCK
  5
1C8
330
1C7
100
AcDbEntity
  8
0
100
AcDbBlockBegin
  2
*D17
 70
     1
 71
     0
 10
0.0
 20
0.0
 30
0.0
  3
*D17
  1

  0
INSERT
  5
1CA
330
1C7
100
AcDbEntity
  8
SLD-0
100
AcDbBlockReference
  2
_Open30
 10
383.1599227379
 20
179.05
 30
0.1
 41
3.0
 42
3.0
 50
90.0
  0
INSERT
  5
1CB
330
1C7
100
AcDbEntity
  8
SLD-0
100
AcDbBlockReference
  2
_Open30
 10
383.1599227379
 20
153.65
 30
0.1
 41
3.0
 42
3.0
 50
270.0
  0
LINE
  5
1CC
330
1C7
100
AcDbEntity
  8
SLD-0
100
AcDbLine
 10
376.7424390244
 20
179.05
 30
0.0
 11
384.1599227379
 21
179.05
 31
0.0
  0
LINE
  5
1CD
330
1C7
100
AcDbEntity
  8
SLD-0
100
AcDbLine
 10
376.7424390244
 20
153.65
 30
0.0
 11
384.1599227379
 21
153.65
 31
0.0
  0
LINE
  5
1CE
330
1C7
100
AcDbEntity
  8
SLD-0
100
AcDbLine
 10
383.1599227379
 20
179.05
 30
0.0
 11
383.1599227379
 21
153.65
 31
0.0
  0
MTEXT
  5
1CF
330
1C7
100
AcDbEntity
  8
SLD-0
100
AcDbMText
 10
379.087195698
 20
155.752428601
 30
0.0
 40
3.5
 41
0.0
 71
     1
 72
     1
  1
M
  7
SLDTEXTSTYLE0
 11
2.007895531699194E-13
 21
1.0
 31
0.0
 73
     1
 44
1.0
  0
MTEXT
  5
1D0
330
1C7
100
AcDbEntity
  8
SLD-0
100
AcDbMText
 10
379.087195698
 20
158.7738676253
 30
0.0
 40
3.5
 41
0.0
 71
     1
 72
     1
  1
25.4
  7
SLDTEXTSTYLE0
 11
2.007895531699194E-13
 21
1.0
 31
0.0
 73
     1
 44
1.0
  0
MTEXT
  5
1D1
330
1C7
100
AcDbEntity
  8
SLD-0
100
AcDbMText
 10
379.087195698
 20
165.7092456741
 30
0.0
 40
3.5
 41
0.0
 71
     1
 72
     1
  1
 UNC1
  7
SLDTEXTSTYLE0
 11
2.007895531699194E-13
 21
1.0
 31
0.0
 73
     1
 44
1.0
  0
ENDBLK
  5
1C9
330
1C7
100
AcDbEntity
  8
0
100
AcDbBlockEnd
  0
BLOCK
  5
1D4
330
1D3
100
AcDbEntity
  8
0
100
AcDbBlockBegin
  2
*D18
 70
     1
 71
     0
 10
0.0
 20
0.0
 30
0.0
  3
*D18
  1

  0
INSERT
  5
1D6
330
1D3
100
AcDbEntity
  8
SLD-0
100
AcDbBlockReference
  2
_Open30
 10
376.1424390244
 20
141.9275415032
 30
0.1
 41
3.0
 42
3.0
 50
180.0
  0
INSERT
  5
1D7
330
1D3
100
AcDbEntity
  8
SLD-0
100
AcDbBlockReference
  2
_Open30
 10
372.1424390244
 20
141.9275415032
 30
0.1
 41
3.0
 42
3.0
 50
360.0
  0
LINE
  5
1D8
330
1D3
100
AcDbEntity
  8
SLD-0
100
AcDbLine
 10
376.1424390244
 20
153.05
 30
0.0
 11
376.1424390244
 21
140.9275415032
 31
0.0
  0
LINE
  5
1D9
330
1D3
100
AcDbEntity
  8
SLD-0
100
AcDbLine
 10
372.1424390244
 20
150.85
 30
0.0
 11
372.1424390244
 21
140.9275415032
 31
0.0
  0
LINE
  5
1DA
330
1D3
100
AcDbEntity
  8
SLD-0
100
AcDbLine
 10
376.1424390244
 20
141.9275415032
 30
0.0
 11
382.1424390244
 21
141.9275415032
 31
0.0
  0
LINE
  5
1DB
330
1D3
100
AcDbEntity
  8
SLD-0
100
AcDbLine
 10
376.1424390244
 20
141.9275415032
 30
0.0
 11
372.1424390244
 21
141.9275415032
 31
0.0
  0
LINE
  5
1DC
330
1D3
100
AcDbEntity
  8
SLD-0
100
AcDbLine
 10
372.1424390244
 20
141.9275415032
 30
0.0
 11
366.1424390244
 21
141.9275415032
 31
0.0
  0
MTEXT
  5
1DD
330
1D3
100
AcDbEntity
  8
SLD-0
100
AcDbMText
 10
373.1809648775
 20
146.0002685431
 30
0.0
 40
3.5
 41
0.0
 71
     1
 72
     1
  1
4
  7
SLDTEXTSTYLE0
 73
     1
 44
1.0
  0
ENDBLK
  5
1D5
330
1D3
100
AcDbEntity
  8
0
100
AcDbBlockEnd
  0
BLOCK
  5
220
330
21F
100
AcDbEntity
  8
0
100
AcDbBlockBegin
  2
SW_NOTE_0
 70
     0
 71
     0
 10
0.0
 20
0.0
 30
0.0
  3
SW_NOTE_0
  1

  0
MTEXT
  5
222
330
21F
100
AcDbEntity
  8
0
  6
Continuous
 62
     0
370
     0
100
AcDbMText
 10
0.0
 20
2.463030303
 30
0.0
 40
2.1166666667
 41
0.0
 71
     1
 72
     1
  1
1
  7
SLDTEXTSTYLE0
 73
     1
 44
1.0
  0
MTEXT
  5
223
330
21F
100
AcDbEntity
  8
0
  6
Continuous
 62
     0
370
     0
100
AcDbMText
 10
1.4111110941
 20
2.463030303
 30
0.0
 40
2.1166666667
 41
0.0
 71
     1
 72
     1
  1
.6
  7
SLDTEXTSTYLE0
 73
     1
 44
1.0
  0
ENDBLK
  5
221
330
21F
100
AcDbEntity
  8
0
100
AcDbBlockEnd
  0
BLOCK
  5
22C
330
22B
100
AcDbEntity
  8
0
100
AcDbBlockBegin
  2
SW_TABLEANNOTATION_0
 70
     0
 71
     0
 10
0.0
 20
0.0
 30
0.0
  3
SW_TABLEANNOTATION_0
  1

  0
LINE
  5
22E
330
22B
100
AcDbEntity
  8
SLD-0
 62
     0
100
AcDbLine
 10
0.0
 20
0.0
 30
0.0
 11
0.0
 21
-65.7796136663
 31
0.0
  0
LINE
  5
22F
330
22B
100
AcDbEntity
  8
SLD-0
 62
     0
100
AcDbLine
 10
0.0
 20
-65.7796136663
 30
0.0
 11
84.441441417
 21
-65.7796136663
 31
0.0
  0
LINE
  5
230
330
22B
100
AcDbEntity
  8
SLD-0
 62
     0
100
AcDbLine
 10
84.441441417
 20
-65.7796136663
 30
0.0
 11
84.441441417
 21
0.0
 31
0.0
  0
LINE
  5
231
330
22B
100
AcDbEntity
  8
SLD-0
 62
     0
100
AcDbLine
 10
84.441441417
 20
0.0
 30
0.0
 11
0.0
 21
0.0
 31
0.0
  0
LINE
  5
232
330
22B
100
AcDbEntity
  8
SLD-0
 62
     0
100
AcDbLine
 10
59.6774243076
 20
-8.0158700669
 30
0.0
 11
59.6774243076
 21
-65.7796136663
 31
0.0
  0
LINE
  5
233
330
22B
100
AcDbEntity
  8
SLD-0
 62
     0
100
AcDbLine
 10
0.0
 20
-14.1734712463
 30
0.0
 11
84.441441417
 21
-14.1734712463
 31
0.0
  0
LINE
  5
234
330
22B
100
AcDbEntity
  8
SLD-0
 62
     0
100
AcDbLine
 10
0.0
 20
-20.90480681
 30
0.0
 11
84.441441417
 21
-20.90480681
 31
0.0
  0
LINE
  5
235
330
22B
100
AcDbEntity
  8
SLD-0
 62
     0
100
AcDbLine
 10
0.0
 20
-28.4561096551
 30
0.0
 11
84.441441417
 21
-28.4561096551
 31
0.0
  0
LINE
  5
236
330
22B
100
AcDbEntity
  8
SLD-0
 62
     0
100
AcDbLine
 10
0.0
 20
-35.0782780563
 30
0.0
 11
84.441441417
 21
-35.0782780563
 31
0.0
  0
LINE
  5
237
330
22B
100
AcDbEntity
  8
SLD-0
 62
     0
100
AcDbLine
 10
0.0
 20
-42.72801938
 30
0.0
 11
84.441441417
 21
-42.72801938
 31
0.0
  0
LINE
  5
238
330
22B
100
AcDbEntity
  8
SLD-0
 62
     0
100
AcDbLine
 10
0.0
 20
-50.3777607036
 30
0.0
 11
84.441441417
 21
-50.3777607036
 31
0.0
  0
LINE
  5
239
330
22B
100
AcDbEntity
  8
SLD-0
 62
     0
100
AcDbLine
 10
0.0
 20
-58.0717819202
 30
0.0
 11
84.441441417
 21
-58.0717819202
 31
0.0
  0
LINE
  5
23A
330
22B
100
AcDbEntity
  8
SLD-0
 62
     0
100
AcDbLine
 10
0.0
 20
-8.0158700669
 30
0.0
 11
84.441441417
 21
-8.0158700669
 31
0.0
  0
MTEXT
  5
23B
330
22B
100
AcDbEntity
  8
SLD-0
 62
     0
100
AcDbMText
 10
34.0734987186
 20
-2.221708613
 30
0.0
 40
3.5
 41
0.0
 71
     1
 72
     1
  1
光学仕様
  7
SLDTEXTSTYLE0
 73
     1
 44
1.0
  0
MTEXT
  5
23C
330
22B
100
AcDbEntity
  8
SLD-0
 62
     0
100
AcDbMText
 10
25.7651011588
 20
-9.3084442362
 30
0.0
 40
3.5
 41
0.0
 71
     1
 72
     1
  1
倍率
  7
SLDTEXTSTYLE0
 73
     1
 44
1.0
  0
MTEXT
  5
23D
330
22B
100
AcDbEntity
  8
SLD-0
 62
     0
100
AcDbMText
 10
70.0226273648
 20
-9.3084442362
 30
0.0
 40
3.5
 41
0.0
 71
     1
 72
     1
  1
x5
  7
SLDTEXTSTYLE0
 73
     1
 44
1.0
  0
MTEXT
  5
23E
330
22B
100
AcDbEntity
  8
SLD-0
 62
     0
100
AcDbMText
 10
17.6178796345
 20
-15.7529126077
 30
0.0
 40
3.5
 41
0.0
 71
     1
 72
     1
  1
WD(作動距離)
  7
SLDTEXTSTYLE0
 73
     1
 44
1.0
  0
MTEXT
  5
23F
330
22B
100
AcDbEntity
  8
SLD-0
 62
     0
100
AcDbMText
 10
66.967419235
 20
-15.7529126077
 30
0.0
 40
3.5
 41
0.0
 71
     1
 72
     1
  1
800mm
  7
SLDTEXTSTYLE0
 73
     1
 44
1.0
  0
MTEXT
  5
240
330
22B
100
AcDbEntity
  8
SLD-0
 62
     0
100
AcDbMText
 10
19.6546848992
 20
-22.8942318121
 30
0.0
 40
3.5
 41
0.0
 71
     1
 72
     1
  1
被写界深度
  7
SLDTEXTSTYLE0
 73
     1
 44
1.0
  0
MTEXT
  5
241
330
22B
100
AcDbEntity
  8
SLD-0
 62
     0
100
AcDbMText
 10
65.9490166027
 20
-22.8942318121
 30
0.0
 40
3.5
 41
0.0
 71
     1
 72
     1
  1
3.89mm
  7
SLDTEXTSTYLE0
 73
     1
 44
1.0
  0
MTEXT
  5
242
330
22B
100
AcDbEntity
  8
SLD-0
 62
     0
100
AcDbMText
 10
25.7651011588
 20
-29.9809674352
 30
0.0
 40
3.5
 41
0.0
 71
     1
 72
     1
  1
ＮＡ
  7
SLDTEXTSTYLE0
 73
     1
 44
1.0
  0
MTEXT
  5
243
330
22B
100
AcDbEntity
  8
SLD-0
 62
     0
100
AcDbMText
 10
66.967419235
 20
-29.9809674352
 30
0.0
 40
3.5
 41
0.0
 71
     1
 72
     1
  1
0.015
  7
SLDTEXTSTYLE0
 73
     1
 44
1.0
  0
MTEXT
  5
244
330
22B
100
AcDbEntity
  8
SLD-0
 62
     0
100
AcDbMText
 10
17.6178796345
 20
-37.1169222977
 30
0.0
 40
3.5
 41
0.0
 71
     1
 72
     1
  1
光学的分解能
  7
SLDTEXTSTYLE0
 73
     1
 44
1.0
  0
MTEXT
  5
245
330
22B
100
AcDbEntity
  8
SLD-0
 62
     0
100
AcDbMText
 10
64.9306135047
 20
-37.1169222977
 30
0.0
 40
3.5
 41
0.0
 71
     1
 72
     1
  1
22.4μm
  7
SLDTEXTSTYLE0
 73
     1
 44
1.0
  0
MTEXT
  5
246
330
22B
100
AcDbEntity
  8
SLD-0
 62
     0
100
AcDbMText
 10
21.6914901639
 20
-44.7666636213
 30
0.0
 40
3.5
 41
0.0
 71
     1
 72
     1
  1
有効Ｆ値
  7
SLDTEXTSTYLE0
 73
     1
 44
1.0
  0
MTEXT
  5
247
330
22B
100
AcDbEntity
  8
SLD-0
 62
     0
100
AcDbMText
 10
67.9858218673
 20
-44.7666636213
 30
0.0
 40
3.5
 41
0.0
 71
     1
 72
     1
  1
16.7
  7
SLDTEXTSTYLE0
 73
     1
 44
1.0
  0
MTEXT
  5
248
330
22B
100
AcDbEntity
  8
SLD-0
 62
     0
100
AcDbMText
 10
14.5626712719
 20
-52.4385448915
 30
0.0
 40
3.5
 41
0.0
 71
     1
 72
     1
  1
視野(水平x垂直)
  7
SLDTEXTSTYLE0
 73
     1
 44
1.0
  0
MTEXT
  5
249
330
22B
100
AcDbEntity
  8
SLD-0
 62
     0
100
AcDbMText
 10
61.8754046764
 20
-52.4385448915
 30
0.0
 40
3.5
 41
0.0
 71
     1
 72
     1
  1
14.28x10.7
  7
SLDTEXTSTYLE0
 73
     1
 44
1.0
  0
MTEXT
  5
24A
330
22B
100
AcDbEntity
  8
SLD-0
 62
     0
100
AcDbMText
 10
3.360237194
 20
-60.1394713728
 30
0.0
 40
3.5
 41
0.0
 71
     1
 72
     1
  1
ディストーション％(対角値)
  7
SLDTEXTSTYLE0
 73
     1
 44
1.0
  0
MTEXT
  5
24B
330
22B
100
AcDbEntity
  8
SLD-0
 62
     0
100
AcDbMText
 10
66.967419235
 20
-60.1394713728
 30
0.0
 40
3.5
 41
0.0
 71
     1
 72
     1
  1
0.04%
  7
SLDTEXTSTYLE0
 73
     1
 44
1.0
  0
ENDBLK
  5
22D
330
22B
100
AcDbEntity
  8
0
100
AcDbBlockEnd
  0
ENDSEC
  0
SECTION
  2
ENTITIES
  0
LINE
  5
4C
330
1F
100
AcDbEntity
  8
SLD-0
  6
CENTER
 62
   179
100
AcDbLine
 10
36.0995864155
 20
169.6371639409
 30
0.0
 11
36.0995864155
 21
163.3020009061
 31
0.0
  0
LINE
  5
4D
330
1F
100
AcDbEntity
  8
SLD-0
  6
CENTER
 62
   179
100
AcDbLine
 10
93.9120688847
 20
166.35
 30
0.0
 11
392.0247437876
 21
166.35
 31
0.0
  0
LINE
  5
4E
330
1F
100
AcDbEntity
  8
SLD-0
  6
CENTER
 62
   179
100
AcDbLine
 10
32.9972878276
 20
166.35
 30
0.0
 11
69.5788354504
 21
166.35
 31
0.0
  0
LINE
  5
4F
330
1F
100
AcDbEntity
  8
SLD-0
  6
Continuous
 62
   179
100
AcDbLine
 10
372.9424390244
 20
179.05
 30
0.0
 11
375.7424390244
 21
179.05
 31
0.0
  0
LINE
  5
50
330
1F
100
AcDbEntity
  8
SLD-0
  6
Continuous
 62
   179
100
AcDbLine
 10
372.1424390244
 20
178.65
 30
0.0
 11
372.9424390244
 21
178.65
 31
0.0
  0
LINE
  5
51
330
1F
100
AcDbEntity
  8
SLD-0
  6
Continuous
 62
   179
100
AcDbLine
 10
372.1424390244
 20
180.85
 30
0.0
 11
372.1424390244
 21
151.85
 31
0.0
  0
LINE
  5
52
330
1F
100
AcDbEntity
  8
SLD-0
  6
Continuous
 62
   179
100
AcDbLine
 10
363.9524390244
 20
180.85
 30
0.0
 11
364.4524390244
 21
181.35
 31
0.0
  0
LINE
  5
53
330
1F
100
AcDbEntity
  8
SLD-0
  6
Continuous
 62
   179
100
AcDbLine
 10
375.7424390244
 20
153.65
 30
0.0
 11
376.1424390244
 21
154.05
 31
0.0
  0
LINE
  5
54
330
1F
100
AcDbEntity
  8
SLD-0
  6
Continuous
 62
   179
100
AcDbLine
 10
375.7424390244
 20
179.05
 30
0.0
 11
376.1424390244
 21
178.65
 31
0.0
  0
LINE
  5
55
330
1F
100
AcDbEntity
  8
SLD-0
  6
Continuous
 62
     4
100
AcDbLine
 10
372.9424390244
 20
154.05
 30
0.0
 11
376.1424390244
 21
154.05
 31
0.0
  0
LINE
  5
56
330
1F
100
AcDbEntity
  8
SLD-0
  6
Continuous
 62
   179
100
AcDbLine
 10
372.1424390244
 20
154.05
 30
0.0
 11
372.9424390244
 21
154.05
 31
0.0
  0
LINE
  5
57
330
1F
100
AcDbEntity
  8
SLD-0
  6
Continuous
 62
   179
100
AcDbLine
 10
294.6524390244
 20
151.85
 30
0.0
 11
309.0524390244
 21
151.85
 31
0.0
  0
LINE
  5
58
330
1F
100
AcDbEntity
  8
SLD-0
  6
Continuous
 62
     4
100
AcDbLine
 10
372.9424390244
 20
178.65
 30
0.0
 11
376.1424390244
 21
178.65
 31
0.0
  0
LINE
  5
59
330
1F
100
AcDbEntity
  8
SLD-0
  6
Continuous
 62
   179
100
AcDbLine
 10
294.6524390244
 20
151.85
 30
0.0
 11
294.6524390244
 21
180.85
 31
0.0
  0
LINE
  5
5A
330
1F
100
AcDbEntity
  8
SLD-0
  6
Continuous
 62
   179
100
AcDbLine
 10
372.9424390244
 20
154.05
 30
0.0
 11
372.9424390244
 21
153.65
 31
0.0
  0
LINE
  5
5B
330
1F
100
AcDbEntity
  8
SLD-0
  6
Continuous
 62
   179
100
AcDbLine
 10
372.9424390244
 20
179.05
 30
0.0
 11
372.9424390244
 21
154.05
 31
0.0
  0
LINE
  5
5C
330
1F
100
AcDbEntity
  8
SLD-0
  6
Continuous
 62
   179
100
AcDbLine
 10
294.6524390244
 20
180.85
 30
0.0
 11
309.0524390244
 21
180.85
 31
0.0
  0
LINE
  5
5D
330
1F
100
AcDbEntity
  8
SLD-0
  6
Continuous
 62
   179
100
AcDbLine
 10
97.3524390244
 20
194.8500000005
 30
0.0
 11
97.3524390244
 21
137.8500000005
 31
0.0
  0
LINE
  5
5E
330
1F
100
AcDbEntity
  8
SLD-0
  6
Continuous
 62
   179
100
AcDbLine
 10
364.4524390244
 20
181.35
 30
0.0
 11
371.6424390244
 21
181.35
 31
0.0
  0
LINE
  5
5F
330
1F
100
AcDbEntity
  8
SLD-0
  6
Continuous
 62
   179
100
AcDbLine
 10
269.6524390243
 20
151.85
 30
0.0
 11
294.7524390243
 21
151.85
 31
0.0
  0
LINE
  5
60
330
1F
100
AcDbEntity
  8
SLD-0
  6
Continuous
 62
   179
100
AcDbLine
 10
269.6524390244
 20
182.8500000002
 30
0.0
 11
269.6524390244
 21
149.8500000002
 31
0.0
  0
LINE
  5
61
330
1F
100
AcDbEntity
  8
SLD-0
  6
Continuous
 62
   179
100
AcDbLine
 10
269.6524390244
 20
180.85
 30
0.0
 11
294.6524390244
 21
180.85
 31
0.0
  0
LINE
  5
62
330
1F
100
AcDbEntity
  8
SLD-0
  6
Continuous
 62
   179
100
AcDbLine
 10
372.9424390244
 20
153.65
 30
0.0
 11
375.7424390244
 21
153.65
 31
0.0
  0
LINE
  5
63
330
1F
100
AcDbEntity
  8
SLD-0
  6
Continuous
 62
   179
100
AcDbLine
 10
376.1424390244
 20
178.65
 30
0.0
 11
376.1424390244
 21
154.05
 31
0.0
  0
LINE
  5
64
330
1F
100
AcDbEntity
  8
SLD-0
  6
Continuous
 62
   179
100
AcDbLine
 10
97.3524390244
 20
137.8500000005
 30
0.0
 11
97.8524390244
 21
137.3500000005
 31
0.0
  0
LINE
  5
65
330
1F
100
AcDbEntity
  8
SLD-0
  6
Continuous
 62
   179
100
AcDbLine
 10
364.4524390244
 20
151.35
 30
0.0
 11
371.7564390244
 21
151.35
 31
0.0
  0
LINE
  5
66
330
1F
100
AcDbEntity
  8
SLD-0
  6
Continuous
 62
   179
100
AcDbLine
 10
269.1524390244
 20
183.3500000002
 30
0.0
 11
269.6524390244
 21
182.8500000002
 31
0.0
  0
LINE
  5
67
330
1F
100
AcDbEntity
  8
SLD-0
  6
Continuous
 62
   179
100
AcDbLine
 10
309.0524390244
 20
151.85
 30
0.0
 11
363.9524390244
 21
151.85
 31
0.0
  0
LINE
  5
68
330
1F
100
AcDbEntity
  8
SLD-0
  6
Continuous
 62
   179
100
AcDbLine
 10
97.3524390244
 20
194.8500000005
 30
0.0
 11
97.8524390244
 21
195.3500000005
 31
0.0
  0
LINE
  5
69
330
1F
100
AcDbEntity
  8
SLD-0
  6
Continuous
 62
   179
100
AcDbLine
 10
363.9524390244
 20
151.85
 30
0.0
 11
364.4524390244
 21
151.35
 31
0.0
  0
LINE
  5
6A
330
1F
100
AcDbEntity
  8
SLD-0
  6
Continuous
 62
   179
100
AcDbLine
 10
371.6424390244
 20
181.35
 30
0.0
 11
372.1424390244
 21
180.85
 31
0.0
  0
LINE
  5
6B
330
1F
100
AcDbEntity
  8
SLD-0
  6
Continuous
 62
   179
100
AcDbLine
 10
309.0524390244
 20
180.85
 30
0.0
 11
363.9524390244
 21
180.85
 31
0.0
  0
LINE
  5
6C
330
1F
100
AcDbEntity
  8
SLD-0
  6
Continuous
 62
   179
100
AcDbLine
 10
363.9524390244
 20
180.85
 30
0.0
 11
363.9524390244
 21
151.85
 31
0.0
  0
LINE
  5
6D
330
1F
100
AcDbEntity
  8
SLD-0
  6
Continuous
 62
   179
100
AcDbLine
 10
233.6524390244
 20
183.3500000002
 30
0.0
 11
269.1524390244
 21
183.3500000002
 31
0.0
  0
LINE
  5
6E
330
1F
100
AcDbEntity
  8
SLD-0
  6
Continuous
 62
   179
100
AcDbLine
 10
269.1524390244
 20
149.3500000002
 30
0.0
 11
269.6524390244
 21
149.8500000002
 31
0.0
  0
LINE
  5
6F
330
1F
100
AcDbEntity
  8
SLD-0
  6
Continuous
 62
   179
100
AcDbLine
 10
233.6524390244
 20
149.3500000002
 30
0.0
 11
269.1524390244
 21
149.3500000002
 31
0.0
  0
LINE
  5
70
330
1F
100
AcDbEntity
  8
SLD-0
  6
Continuous
 62
   179
100
AcDbLine
 10
218.6524390244
 20
195.3500000004
 30
0.0
 11
218.6524390244
 21
137.3500000004
 31
0.0
  0
LINE
  5
71
330
1F
100
AcDbEntity
  8
SLD-0
  6
Continuous
 62
   179
100
AcDbLine
 10
226.6524390244
 20
195.3500000004
 30
0.0
 11
233.6524390244
 21
188.3500000002
 31
0.0
  0
LINE
  5
72
330
1F
100
AcDbEntity
  8
SLD-0
  6
Continuous
 62
   179
100
AcDbLine
 10
233.6524390244
 20
188.3500000002
 30
0.0
 11
233.6524390244
 21
144.3500000002
 31
0.0
  0
LINE
  5
73
330
1F
100
AcDbEntity
  8
SLD-0
  6
Continuous
 62
   179
100
AcDbLine
 10
218.6524390244
 20
195.3500000004
 30
0.0
 11
226.6524390244
 21
195.3500000004
 31
0.0
  0
LINE
  5
74
330
1F
100
AcDbEntity
  8
SLD-0
  6
Continuous
 62
   179
100
AcDbLine
 10
97.8524390244
 20
137.3500000005
 30
0.0
 11
218.6524390244
 21
137.3500000004
 31
0.0
  0
LINE
  5
75
330
1F
100
AcDbEntity
  8
SLD-0
  6
Continuous
 62
   179
100
AcDbLine
 10
97.8524390244
 20
195.3500000005
 30
0.0
 11
218.6524390244
 21
195.3500000004
 31
0.0
  0
LINE
  5
76
330
1F
100
AcDbEntity
  8
SLD-0
  6
Continuous
 62
   179
100
AcDbLine
 10
226.6524390244
 20
137.3500000004
 30
0.0
 11
233.6524390244
 21
144.3500000002
 31
0.0
  0
LINE
  5
77
330
1F
100
AcDbEntity
  8
SLD-0
  6
Continuous
 62
   179
100
AcDbLine
 10
218.6524390244
 20
137.3500000004
 30
0.0
 11
226.6524390244
 21
137.3500000004
 31
0.0
  0
LINE
  5
78
330
1F
100
AcDbEntity
  8
SLD-0
  6
Continuous
 62
   179
100
AcDbLine
 10
371.6424390244
 20
151.35
 30
0.0
 11
372.1424390244
 21
151.85
 31
0.0
  0
LINE
  5
79
330
1F
100
AcDbEntity
  8
SLD-0
  6
CENTER
 62
   179
100
AcDbLine
 10
389.6684390244
 20
168.9340652588
 30
0.0
 11
389.6684390244
 21
164.4083420262
 31
0.0
  0
LINE
  5
7A
330
1F
100
AcDbEntity
  8
SLD-0
  6
Continuous
 62
     4
100
AcDbLine
 10
364.4524390244
 20
181.35
 30
0.0
 11
364.4524390244
 21
151.35
 31
0.0
  0
LINE
  5
7B
330
1F
100
AcDbEntity
  8
SLD-0
  6
Continuous
 62
     4
100
AcDbLine
 10
371.6424390244
 20
181.35
 30
0.0
 11
371.6424390244
 21
151.35
 31
0.0
  0
LINE
  5
7C
330
1F
100
AcDbEntity
  8
SLD-0
  6
Continuous
 62
     4
100
AcDbLine
 10
226.6524390244
 20
195.3500000004
 30
0.0
 11
226.6524390244
 21
137.3500000004
 31
0.0
  0
LINE
  5
7D
330
1F
100
AcDbEntity
  8
SLD-0
  6
Continuous
 62
     4
100
AcDbLine
 10
269.1524390244
 20
183.3500000002
 30
0.0
 11
269.1524390244
 21
149.3500000002
 31
0.0
  0
LINE
  5
7E
330
1F
100
AcDbEntity
  8
SLD-0
  6
Continuous
 62
     4
100
AcDbLine
 10
97.8524390244
 20
195.3500000005
 30
0.0
 11
97.8524390244
 21
137.3500000005
 31
0.0
  0
LINE
  5
7F
330
1F
100
AcDbEntity
  8
SLD-0
  6
Continuous
 62
   179
100
AcDbLine
 10
309.0524390244
 20
151.85
 30
0.0
 11
309.0524390244
 21
180.85
 31
0.0
  0
LINE
  5
80
330
1F
100
AcDbEntity
  8
SLD-0
  6
CENTER
 62
   179
100
AcDbLine
 10
314.0524390244
 20
169.2176642876
 30
0.0
 11
314.0524390244
 21
163.3822437514
 31
0.0
  0
LINE
  5
81
330
1F
100
AcDbEntity
  8
0
  6
Continuous
 62
     7
370
    15
100
AcDbLine
 10
161.0
 20
15.0
 30
0.0
 11
21.0
 21
15.0
 31
0.0
  0
LINE
  5
82
330
1F
100
AcDbEntity
  8
0
  6
Continuous
 62
     7
370
    15
100
AcDbLine
 10
21.0
 20
15.0
 30
0.0
 11
21.0
 21
275.5
 31
0.0
  0
LINE
  5
83
330
1F
100
AcDbEntity
  8
0
  6
Continuous
 62
     7
370
    15
100
AcDbLine
 10
294.5020114515
 20
19.2729041081
 30
0.0
 11
297.5020114515
 21
19.2729041081
 31
0.0
  0
LINE
  5
84
330
1F
100
AcDbEntity
  8
0
  6
Continuous
 62
     7
370
    15
100
AcDbLine
 10
297.5020114515
 20
19.2729041081
 30
0.0
 11
296.0020114515
 21
16.6748278967
 31
0.0
  0
LINE
  5
85
330
1F
100
AcDbEntity
  8
0
  6
Continuous
 62
     7
370
    15
100
AcDbLine
 10
294.5020114515
 20
19.2729041081
 30
0.0
 11
296.0020114515
 21
16.6748278967
 31
0.0
  0
LINE
  5
86
330
1F
100
AcDbEntity
  8
0
  6
Continuous
 62
     7
370
    15
100
AcDbLine
 10
280.5463005651
 20
19.2729041081
 30
0.0
 11
283.5463005651
 21
19.2729041081
 31
0.0
  0
LINE
  5
87
330
1F
100
AcDbEntity
  8
0
  6
Continuous
 62
     7
370
    15
100
AcDbLine
 10
283.5463005651
 20
19.2729041081
 30
0.0
 11
282.0463005651
 21
16.6748278967
 31
0.0
  0
LINE
  5
88
330
1F
100
AcDbEntity
  8
0
  6
Continuous
 62
     7
370
    15
100
AcDbLine
 10
266.455201517
 20
19.4082922699
 30
0.0
 11
269.455201517
 21
19.4082922699
 31
0.0
  0
LINE
  5
89
330
1F
100
AcDbEntity
  8
0
  6
Continuous
 62
     7
370
    15
100
AcDbLine
 10
269.455201517
 20
19.4082922699
 30
0.0
 11
267.955201517
 21
16.8102160585
 31
0.0
  0
LINE
  5
8A
330
1F
100
AcDbEntity
  8
0
  6
Continuous
 62
     7
370
    15
100
AcDbLine
 10
266.455201517
 20
19.4082922699
 30
0.0
 11
267.955201517
 21
16.8102160585
 31
0.0
  0
LINE
  5
8B
330
1F
100
AcDbEntity
  8
0
  6
CENTER
 62
     7
370
    15
100
AcDbLine
 10
269.455201517
 20
19.4082922699
 30
0.0
 11
272.455201517
 21
19.4082922699
 31
0.0
  0
LINE
  5
8C
330
1F
100
AcDbEntity
  8
0
  6
Continuous
 62
     7
370
     0
100
AcDbLine
 10
315.0
 20
45.3958482586
 30
0.0
 11
404.0
 21
45.3958482586
 31
0.0
  0
LINE
  5
8D
330
1F
100
AcDbEntity
  8
0
  6
Continuous
 62
     7
370
    15
100
AcDbLine
 10
383.333333352
 20
15.021439657
 30
0.0
 11
374.333333352
 21
15.0214474823
 31
0.0
  0
LINE
  5
8E
330
1F
100
AcDbEntity
  8
0
  6
Continuous
 62
     7
370
     0
100
AcDbLine
 10
383.3682386859
 20
14.9998887542
 30
0.0
 11
383.3682386859
 21
21.0876824782
 31
0.0
  0
LINE
  5
8F
330
1F
100
AcDbEntity
  8
0
  6
Continuous
 62
     7
370
     0
100
AcDbLine
 10
315.0
 20
60.0
 30
0.0
 11
404.0
 21
60.0
 31
0.0
  0
LINE
  5
90
330
1F
100
AcDbEntity
  8
0
  6
Continuous
 62
     7
370
    15
100
AcDbLine
 10
374.3333333333
 20
15.0
 30
0.0
 11
353.6666666667
 21
15.0
 31
0.0
  0
LINE
  5
91
330
1F
100
AcDbEntity
  8
0
  6
Continuous
 62
     7
370
     0
100
AcDbLine
 10
374.3682386859
 20
14.9998887542
 30
0.0
 11
374.3682386859
 21
21.0876824782
 31
0.0
  0
LINE
  5
92
330
1F
100
AcDbEntity
  8
0
  6
Continuous
 62
     7
370
    15
100
AcDbLine
 10
353.6666666667
 20
15.0
 30
0.0
 11
344.6666666667
 21
15.0
 31
0.0
  0
LINE
  5
93
330
1F
100
AcDbEntity
  8
0
  6
Continuous
 62
     7
370
     0
100
AcDbLine
 10
353.7015720006
 20
14.9998887542
 30
0.0
 11
353.7015720006
 21
21.0876824782
 31
0.0
  0
LINE
  5
94
330
1F
100
AcDbEntity
  8
0
  6
Continuous
 62
     7
370
    15
100
AcDbLine
 10
344.6666666667
 20
15.0
 30
0.0
 11
324.0
 21
15.0
 31
0.0
  0
LINE
  5
95
330
1F
100
AcDbEntity
  8
0
  6
Continuous
 62
     7
370
     0
100
AcDbLine
 10
344.7015720006
 20
21.0876824782
 30
0.0
 11
344.7015720006
 21
14.9998887542
 31
0.0
  0
LINE
  5
96
330
1F
100
AcDbEntity
  8
0
  6
Continuous
 62
     7
370
    15
100
AcDbLine
 10
324.0
 20
15.0
 30
0.0
 11
315.0
 21
15.0
 31
0.0
  0
LINE
  5
97
330
1F
100
AcDbEntity
  8
0
  6
Continuous
 62
     7
370
     0
100
AcDbLine
 10
324.0349088287
 20
21.0876824782
 30
0.0
 11
324.040266797
 21
15.0078225008
 31
0.0
  0
LINE
  5
98
330
1F
100
AcDbEntity
  8
0
  6
Continuous
 62
     7
370
     0
100
AcDbLine
 10
390.0012900053
 20
26.5638223943
 30
0.0
 11
390.0012900053
 21
21.0876824782
 31
0.0
  0
LINE
  5
99
330
1F
100
AcDbEntity
  8
0
  6
Continuous
 62
     7
370
     0
100
AcDbLine
 10
379.5
 20
26.5638223943
 30
0.0
 11
379.5
 21
21.0876824782
 31
0.0
  0
LINE
  5
9A
330
1F
100
AcDbEntity
  8
0
  6
Continuous
 62
     7
370
     0
100
AcDbLine
 10
369.5
 20
26.5638223943
 30
0.0
 11
369.5
 21
21.0876824782
 31
0.0
  0
LINE
  5
9B
330
1F
100
AcDbEntity
  8
0
  6
Continuous
 62
     7
370
     0
100
AcDbLine
 10
358.0006399239
 20
26.5638223943
 30
0.0
 11
358.0006399239
 21
21.0876824782
 31
0.0
  0
LINE
  5
9C
330
1F
100
AcDbEntity
  8
0
  6
Continuous
 62
     7
370
     0
100
AcDbLine
 10
348.0004367734
 20
26.5638223943
 30
0.0
 11
348.0004367734
 21
21.0876824782
 31
0.0
  0
LINE
  5
9D
330
1F
100
AcDbEntity
  8
0
  6
Continuous
 62
     7
370
     0
100
AcDbLine
 10
334.0243421727
 20
26.5638223943
 30
0.0
 11
334.0243421727
 21
21.0876824782
 31
0.0
  0
LINE
  5
9E
330
1F
100
AcDbEntity
  8
0
  6
Continuous
 62
     7
370
     0
100
AcDbLine
 10
326.5349053339
 20
26.5638223943
 30
0.0
 11
326.5349053339
 21
21.0876824782
 31
0.0
  0
LINE
  5
9F
330
1F
100
AcDbEntity
  8
0
  6
Continuous
 62
     7
370
     0
100
AcDbLine
 10
366.6
 20
26.5638223943
 30
0.0
 11
366.6
 21
45.3958482586
 31
0.0
  0
LINE
  5
A0
330
1F
100
AcDbEntity
  8
0
  6
Continuous
 62
     7
370
    15
100
AcDbLine
 10
404.0
 20
15.0
 30
0.0
 11
404.0
 21
22.25
 31
0.0
  0
LINE
  5
A1
330
1F
100
AcDbEntity
  8
0
  6
Continuous
 62
     7
370
    15
100
AcDbLine
 10
404.0
 20
275.5
 30
0.0
 11
21.0
 21
275.5
 31
0.0
  0
LINE
  5
A2
330
1F
100
AcDbEntity
  8
0
  6
Continuous
 62
     7
370
    15
100
AcDbLine
 10
280.5463005651
 20
19.2729041081
 30
0.0
 11
282.0463005651
 21
16.6748278967
 31
0.0
  0
LINE
  5
A3
330
1F
100
AcDbEntity
  8
0
  6
Continuous
 62
     7
370
     0
100
AcDbLine
 10
161.0
 20
60.0
 30
0.0
 11
171.0
 21
60.0
 31
0.0
  0
LINE
  5
A4
330
1F
100
AcDbEntity
  8
0
  6
Continuous
 62
     7
370
     0
100
AcDbLine
 10
161.0
 20
60.0
 30
0.0
 11
161.0
 21
52.5
 31
0.0
  0
LINE
  5
A5
330
1F
100
AcDbEntity
  8
0
  6
Continuous
 62
     7
370
     0
100
AcDbLine
 10
265.0
 20
60.0
 30
0.0
 11
265.0
 21
56.0
 31
0.0
  0
LINE
  5
A6
330
1F
100
AcDbEntity
  8
0
  6
Continuous
 62
     7
370
    15
100
AcDbLine
 10
265.0
 20
15.0
 30
0.0
 11
277.5
 21
15.0
 31
0.0
  0
LINE
  5
A7
330
1F
100
AcDbEntity
  8
0
  6
Continuous
 62
     7
370
     0
100
AcDbLine
 10
265.0
 20
22.5
 30
0.0
 11
232.9735538908
 21
22.5
 31
0.0
  0
LINE
  5
A8
330
1F
100
AcDbEntity
  8
0
  6
Continuous
 62
     7
370
     0
100
AcDbLine
 10
265.0
 20
22.5
 30
0.0
 11
265.0
 21
15.0
 31
0.0
  0
LINE
  5
A9
330
1F
100
AcDbEntity
  8
0
  6
Continuous
 62
     7
370
     0
100
AcDbLine
 10
161.0
 20
22.5
 30
0.0
 11
161.0
 21
15.0
 31
0.0
  0
LINE
  5
AA
330
1F
100
AcDbEntity
  8
0
  6
Continuous
 62
     7
370
     0
100
AcDbLine
 10
265.0
 20
60.0
 30
0.0
 11
315.0
 21
60.0
 31
0.0
  0
LINE
  5
AB
330
1F
100
AcDbEntity
  8
0
  6
Continuous
 62
     7
370
    15
100
AcDbLine
 10
404.0
 20
60.0
 30
0.0
 11
404.0
 21
275.5
 31
0.0
  0
LINE
  5
AC
330
1F
100
AcDbEntity
  8
0
  6
Continuous
 62
     7
370
     0
100
AcDbLine
 10
315.0
 20
60.0
 30
0.0
 11
315.0
 21
56.0
 31
0.0
  0
LINE
  5
AD
330
1F
100
AcDbEntity
  8
0
  6
Continuous
 62
     7
370
     0
100
AcDbLine
 10
251.7569070807
 20
60.0
 30
0.0
 11
251.7569070807
 21
22.5
 31
0.0
  0
LINE
  5
AE
330
1F
100
AcDbEntity
  8
0
  6
Continuous
 62
     7
370
     0
100
AcDbLine
 10
251.7569070807
 20
60.0
 30
0.0
 11
265.0
 21
60.0
 31
0.0
  0
LINE
  5
AF
330
1F
100
AcDbEntity
  8
0
  6
Continuous
 62
     7
370
     0
100
AcDbLine
 10
191.0
 20
60.0
 30
0.0
 11
191.0
 21
22.5
 31
0.0
  0
LINE
  5
B0
330
1F
100
AcDbEntity
  8
0
  6
Continuous
 62
     7
370
     0
100
AcDbLine
 10
191.0
 20
60.0
 30
0.0
 11
251.7569070807
 21
60.0
 31
0.0
  0
LINE
  5
B1
330
1F
100
AcDbEntity
  8
0
  6
Continuous
 62
     7
370
     0
100
AcDbLine
 10
265.0
 20
56.0
 30
0.0
 11
284.5
 21
56.0
 31
0.0
  0
LINE
  5
B2
330
1F
100
AcDbEntity
  8
0
  6
Continuous
 62
     7
370
     0
100
AcDbLine
 10
265.0
 20
56.0
 30
0.0
 11
265.0
 21
52.5
 31
0.0
  0
LINE
  5
B3
330
1F
100
AcDbEntity
  8
0
  6
Continuous
 62
     7
370
     0
100
AcDbLine
 10
315.0
 20
56.0
 30
0.0
 11
315.0
 21
52.0
 31
0.0
  0
LINE
  5
B4
330
1F
100
AcDbEntity
  8
0
  6
Continuous
 62
     7
370
     0
100
AcDbLine
 10
265.0
 20
32.0
 30
0.0
 11
284.5
 21
32.0
 31
0.0
  0
LINE
  5
B5
330
1F
100
AcDbEntity
  8
0
  6
Continuous
 62
     7
370
     0
100
AcDbLine
 10
265.0
 20
32.0
 30
0.0
 11
265.0
 21
30.0
 31
0.0
  0
LINE
  5
B6
330
1F
100
AcDbEntity
  8
0
  6
Continuous
 62
     7
370
     0
100
AcDbLine
 10
315.0
 20
32.0
 30
0.0
 11
315.0
 21
29.5
 31
0.0
  0
LINE
  5
B7
330
1F
100
AcDbEntity
  8
0
  6
Continuous
 62
     7
370
     0
100
AcDbLine
 10
265.0
 20
27.5
 30
0.0
 11
277.5
 21
27.5
 31
0.0
  0
LINE
  5
B8
330
1F
100
AcDbEntity
  8
0
  6
Continuous
 62
     7
370
     0
100
AcDbLine
 10
265.0
 20
27.5
 30
0.0
 11
265.0
 21
23.0
 31
0.0
  0
LINE
  5
B9
330
1F
100
AcDbEntity
  8
0
  6
Continuous
 62
     7
370
     0
100
AcDbLine
 10
315.0
 20
27.5
 30
0.0
 11
315.0
 21
20.6872385251
 31
0.0
  0
LINE
  5
BA
330
1F
100
AcDbEntity
  8
0
  6
Continuous
 62
     7
370
    15
100
AcDbLine
 10
404.0
 20
49.3
 30
0.0
 11
404.0
 21
60.0
 31
0.0
  0
LINE
  5
BB
330
1F
100
AcDbEntity
  8
0
  6
Continuous
 62
     7
370
     0
100
AcDbLine
 10
315.0
 20
49.3
 30
0.0
 11
315.0
 21
48.0
 31
0.0
  0
LINE
  5
BC
330
1F
100
AcDbEntity
  8
0
  6
Continuous
 62
     7
370
     0
100
AcDbLine
 10
265.0349053339
 20
21.0876824782
 30
0.0
 11
315.0349053339
 21
21.0876824782
 31
0.0
  0
LINE
  5
BD
330
1F
100
AcDbEntity
  8
0
  6
Continuous
 62
     7
370
     0
100
AcDbLine
 10
265.0
 20
23.0
 30
0.0
 11
265.0
 21
22.5
 31
0.0
  0
LINE
  5
BE
330
1F
100
AcDbEntity
  8
0
  6
Continuous
 62
     7
370
     0
100
AcDbLine
 10
315.0
 20
23.0
 30
0.0
 11
315.0
 21
22.25
 31
0.0
  0
LINE
  5
BF
330
1F
100
AcDbEntity
  8
0
  6
Continuous
 62
     7
370
    15
100
AcDbLine
 10
404.0
 20
29.5
 30
0.0
 11
404.0
 21
39.4
 31
0.0
  0
LINE
  5
C0
330
1F
100
AcDbEntity
  8
0
  6
Continuous
 62
     7
370
     0
100
AcDbLine
 10
315.0
 20
29.5
 30
0.0
 11
315.0
 21
27.5
 31
0.0
  0
LINE
  5
C1
330
1F
100
AcDbEntity
  8
0
  6
Continuous
 62
     7
370
     0
100
AcDbLine
 10
277.5
 20
27.5
 30
0.0
 11
277.5
 21
15.0
 31
0.0
  0
LINE
  5
C2
330
1F
100
AcDbEntity
  8
0
  6
Continuous
 62
     7
370
     0
100
AcDbLine
 10
277.5
 20
27.5
 30
0.0
 11
290.0
 21
27.5
 31
0.0
  0
LINE
  5
C3
330
1F
100
AcDbEntity
  8
0
  6
Continuous
 62
     7
370
    15
100
AcDbLine
 10
277.5
 20
15.0
 30
0.0
 11
290.0
 21
15.0
 31
0.0
  0
LINE
  5
C4
330
1F
100
AcDbEntity
  8
0
  6
Continuous
 62
     7
370
     0
100
AcDbLine
 10
290.0
 20
15.0
 30
0.0
 11
290.0
 21
27.5
 31
0.0
  0
LINE
  5
C5
330
1F
100
AcDbEntity
  8
0
  6
Continuous
 62
     7
370
    15
100
AcDbLine
 10
290.0
 20
15.0
 30
0.0
 11
302.5
 21
15.0
 31
0.0
  0
LINE
  5
C6
330
1F
100
AcDbEntity
  8
0
  6
Continuous
 62
     7
370
     0
100
AcDbLine
 10
290.0
 20
27.5
 30
0.0
 11
302.5
 21
27.5
 31
0.0
  0
LINE
  5
C7
330
1F
100
AcDbEntity
  8
0
  6
Continuous
 62
     7
370
     0
100
AcDbLine
 10
302.5
 20
27.5
 30
0.0
 11
302.5
 21
15.0
 31
0.0
  0
LINE
  5
C8
330
1F
100
AcDbEntity
  8
0
  6
Continuous
 62
     7
370
     0
100
AcDbLine
 10
302.5
 20
27.5
 30
0.0
 11
315.0
 21
27.5
 31
0.0
  0
LINE
  5
C9
330
1F
100
AcDbEntity
  8
0
  6
Continuous
 62
     7
370
    15
100
AcDbLine
 10
302.5
 20
15.0
 30
0.0
 11
315.0
 21
15.0
 31
0.0
  0
LINE
  5
CA
330
1F
100
AcDbEntity
  8
0
  6
Continuous
 62
     7
370
    15
100
AcDbLine
 10
404.0
 20
22.25
 30
0.0
 11
404.0
 21
29.5
 31
0.0
  0
LINE
  5
CB
330
1F
100
AcDbEntity
  8
0
  6
Continuous
 62
     7
370
     0
100
AcDbLine
 10
315.0000335724
 20
22.3233033671
 30
0.0
 11
314.999884801
 21
15.0733033671
 31
0.0
  0
LINE
  5
CC
330
1F
100
AcDbEntity
  8
0
  6
Continuous
 62
     7
370
     0
100
AcDbLine
 10
315.0
 20
37.0011514006
 30
0.0
 11
404.0
 21
37.0011514006
 31
0.0
  0
LINE
  5
CD
330
1F
100
AcDbEntity
  8
0
  6
Continuous
 62
     7
370
     0
100
AcDbLine
 10
315.0
 20
39.4
 30
0.0
 11
315.0
 21
36.0
 31
0.0
  0
LINE
  5
CE
330
1F
100
AcDbEntity
  8
0
  6
Continuous
 62
     7
370
    15
100
AcDbLine
 10
404.0
 20
39.4
 30
0.0
 11
404.0
 21
49.3
 31
0.0
  0
LINE
  5
CF
330
1F
100
AcDbEntity
  8
0
  6
Continuous
 62
     7
370
     0
100
AcDbLine
 10
404.0015438052
 20
26.5638223943
 30
0.0
 11
315.0
 21
26.5638223943
 31
0.0
  0
LINE
  5
D0
330
1F
100
AcDbEntity
  8
0
  6
Continuous
 62
     7
370
     0
100
AcDbLine
 10
404.0349388151
 20
21.0876824782
 30
0.0
 11
315.0349053339
 21
21.0876824782
 31
0.0
  0
LINE
  5
D1
330
1F
100
AcDbEntity
  8
0
  6
Continuous
 62
     7
370
    15
100
AcDbLine
 10
404.0000000186
 20
15.0214216877
 30
0.0
 11
383.333333352
 21
15.021439657
 31
0.0
  0
LINE
  5
D2
330
1F
100
AcDbEntity
  8
0
  6
Continuous
 62
     7
370
     0
100
AcDbLine
 10
330.5
 20
45.3958482586
 30
0.0
 11
330.5
 21
26.5638223943
 31
0.0
  0
LINE
  5
D3
330
1F
100
AcDbEntity
  8
0
  6
Continuous
 62
     7
370
     0
100
AcDbLine
 10
382.0
 20
45.3958482586
 30
0.0
 11
382.0
 21
26.5638223943
 31
0.0
  0
LINE
  5
D4
330
1F
100
AcDbEntity
  8
0
  6
Continuous
 62
     7
370
     0
100
AcDbLine
 10
284.5
 20
56.0
 30
0.0
 11
284.5
 21
32.0
 31
0.0
  0
LINE
  5
D5
330
1F
100
AcDbEntity
  8
0
  6
Continuous
 62
     7
370
     0
100
AcDbLine
 10
284.5
 20
56.0
 30
0.0
 11
294.6666666667
 21
56.0
 31
0.0
  0
LINE
  5
D6
330
1F
100
AcDbEntity
  8
0
  6
Continuous
 62
     7
370
     0
100
AcDbLine
 10
284.5
 20
32.0
 30
0.0
 11
294.6666666667
 21
32.0
 31
0.0
  0
LINE
  5
D7
330
1F
100
AcDbEntity
  8
0
  6
Continuous
 62
     7
370
     0
100
AcDbLine
 10
294.6666666667
 20
32.0
 30
0.0
 11
294.6666666667
 21
56.0
 31
0.0
  0
LINE
  5
D8
330
1F
100
AcDbEntity
  8
0
  6
Continuous
 62
     7
370
     0
100
AcDbLine
 10
294.6666666667
 20
32.0
 30
0.0
 11
304.8333333333
 21
32.0
 31
0.0
  0
LINE
  5
D9
330
1F
100
AcDbEntity
  8
0
  6
Continuous
 62
     7
370
     0
100
AcDbLine
 10
294.6666666667
 20
56.0
 30
0.0
 11
304.8333333333
 21
56.0
 31
0.0
  0
LINE
  5
DA
330
1F
100
AcDbEntity
  8
0
  6
Continuous
 62
     7
370
     0
100
AcDbLine
 10
304.8333333333
 20
56.0
 30
0.0
 11
304.8333333333
 21
32.0
 31
0.0
  0
LINE
  5
DB
330
1F
100
AcDbEntity
  8
0
  6
Continuous
 62
     7
370
     0
100
AcDbLine
 10
304.8333333333
 20
56.0
 30
0.0
 11
315.0
 21
56.0
 31
0.0
  0
LINE
  5
DC
330
1F
100
AcDbEntity
  8
0
  6
Continuous
 62
     7
370
     0
100
AcDbLine
 10
304.8333333333
 20
32.0
 30
0.0
 11
315.0
 21
32.0
 31
0.0
  0
LINE
  5
DD
330
1F
100
AcDbEntity
  8
0
  6
Continuous
 62
     7
370
     0
100
AcDbLine
 10
171.0
 20
60.0
 30
0.0
 11
171.0
 21
22.5
 31
0.0
  0
LINE
  5
DE
330
1F
100
AcDbEntity
  8
0
  6
Continuous
 62
     7
370
     0
100
AcDbLine
 10
171.0
 20
60.0
 30
0.0
 11
191.0
 21
60.0
 31
0.0
  0
LINE
  5
DF
330
1F
100
AcDbEntity
  8
0
  6
Continuous
 62
     7
370
    15
100
AcDbLine
 10
161.0
 20
15.0
 30
0.0
 11
173.9503430537
 21
15.0
 31
0.0
  0
LINE
  5
E0
330
1F
100
AcDbEntity
  8
0
  6
Continuous
 62
     7
370
     0
100
AcDbLine
 10
161.0
 20
52.5
 30
0.0
 11
265.0
 21
52.5
 31
0.0
  0
LINE
  5
E1
330
1F
100
AcDbEntity
  8
0
  6
Continuous
 62
     7
370
     0
100
AcDbLine
 10
161.0
 20
52.5
 30
0.0
 11
161.0
 21
45.0
 31
0.0
  0
LINE
  5
E2
330
1F
100
AcDbEntity
  8
0
  6
Continuous
 62
     7
370
     0
100
AcDbLine
 10
265.0
 20
52.5
 30
0.0
 11
265.0
 21
52.0
 31
0.0
  0
LINE
  5
E3
330
1F
100
AcDbEntity
  8
0
  6
Continuous
 62
     7
370
     0
100
AcDbLine
 10
265.0
 20
45.0
 30
0.0
 11
161.0
 21
45.0
 31
0.0
  0
LINE
  5
E4
330
1F
100
AcDbEntity
  8
0
  6
Continuous
 62
     7
370
     0
100
AcDbLine
 10
265.0
 20
45.0
 30
0.0
 11
265.0
 21
44.0
 31
0.0
  0
LINE
  5
E5
330
1F
100
AcDbEntity
  8
0
  6
Continuous
 62
     7
370
     0
100
AcDbLine
 10
161.0
 20
45.0
 30
0.0
 11
161.0
 21
37.5
 31
0.0
  0
LINE
  5
E6
330
1F
100
AcDbEntity
  8
0
  6
Continuous
 62
     7
370
     0
100
AcDbLine
 10
161.0
 20
37.5
 30
0.0
 11
265.0
 21
37.5
 31
0.0
  0
LINE
  5
E7
330
1F
100
AcDbEntity
  8
0
  6
Continuous
 62
     7
370
     0
100
AcDbLine
 10
161.0
 20
37.5
 30
0.0
 11
161.0
 21
30.0
 31
0.0
  0
LINE
  5
E8
330
1F
100
AcDbEntity
  8
0
  6
Continuous
 62
     7
370
     0
100
AcDbLine
 10
265.0
 20
37.5
 30
0.0
 11
265.0
 21
36.0
 31
0.0
  0
LINE
  5
E9
330
1F
100
AcDbEntity
  8
0
  6
Continuous
 62
     7
370
     0
100
AcDbLine
 10
161.0
 20
30.0
 30
0.0
 11
265.0
 21
30.0
 31
0.0
  0
LINE
  5
EA
330
1F
100
AcDbEntity
  8
0
  6
Continuous
 62
     7
370
     0
100
AcDbLine
 10
161.0
 20
30.0
 30
0.0
 11
161.0
 21
22.5
 31
0.0
  0
LINE
  5
EB
330
1F
100
AcDbEntity
  8
0
  6
Continuous
 62
     7
370
     0
100
AcDbLine
 10
265.0
 20
30.0
 30
0.0
 11
265.0
 21
27.5
 31
0.0
  0
LINE
  5
EC
330
1F
100
AcDbEntity
  8
0
  6
Continuous
 62
     7
370
     0
100
AcDbLine
 10
315.0
 20
52.0
 30
0.0
 11
265.0
 21
52.0
 31
0.0
  0
LINE
  5
ED
330
1F
100
AcDbEntity
  8
0
  6
Continuous
 62
     7
370
     0
100
AcDbLine
 10
315.0
 20
52.0
 30
0.0
 11
315.0
 21
49.3
 31
0.0
  0
LINE
  5
EE
330
1F
100
AcDbEntity
  8
0
  6
Continuous
 62
     7
370
     0
100
AcDbLine
 10
265.0
 20
52.0
 30
0.0
 11
265.0
 21
48.0
 31
0.0
  0
LINE
  5
EF
330
1F
100
AcDbEntity
  8
0
  6
Continuous
 62
     7
370
     0
100
AcDbLine
 10
315.0
 20
48.0
 30
0.0
 11
265.0
 21
48.0
 31
0.0
  0
LINE
  5
F0
330
1F
100
AcDbEntity
  8
0
  6
Continuous
 62
     7
370
     0
100
AcDbLine
 10
315.0
 20
48.0
 30
0.0
 11
315.0
 21
44.0
 31
0.0
  0
LINE
  5
F1
330
1F
100
AcDbEntity
  8
0
  6
Continuous
 62
     7
370
     0
100
AcDbLine
 10
265.0
 20
48.0
 30
0.0
 11
265.0
 21
45.0
 31
0.0
  0
LINE
  5
F2
330
1F
100
AcDbEntity
  8
0
  6
Continuous
 62
     7
370
     0
100
AcDbLine
 10
265.0
 20
44.0
 30
0.0
 11
315.0
 21
44.0
 31
0.0
  0
LINE
  5
F3
330
1F
100
AcDbEntity
  8
0
  6
Continuous
 62
     7
370
     0
100
AcDbLine
 10
265.0
 20
44.0
 30
0.0
 11
265.0
 21
40.0
 31
0.0
  0
LINE
  5
F4
330
1F
100
AcDbEntity
  8
0
  6
Continuous
 62
     7
370
     0
100
AcDbLine
 10
315.0
 20
44.0
 30
0.0
 11
315.0
 21
40.0
 31
0.0
  0
LINE
  5
F5
330
1F
100
AcDbEntity
  8
0
  6
Continuous
 62
     7
370
     0
100
AcDbLine
 10
315.0
 20
40.0
 30
0.0
 11
265.0
 21
40.0
 31
0.0
  0
LINE
  5
F6
330
1F
100
AcDbEntity
  8
0
  6
Continuous
 62
     7
370
     0
100
AcDbLine
 10
315.0
 20
40.0
 30
0.0
 11
315.0
 21
39.4
 31
0.0
  0
LINE
  5
F7
330
1F
100
AcDbEntity
  8
0
  6
Continuous
 62
     7
370
     0
100
AcDbLine
 10
265.0
 20
40.0
 30
0.0
 11
265.0
 21
37.5
 31
0.0
  0
LINE
  5
F8
330
1F
100
AcDbEntity
  8
0
  6
Continuous
 62
     7
370
     0
100
AcDbLine
 10
265.0
 20
36.0
 30
0.0
 11
315.0
 21
36.0
 31
0.0
  0
LINE
  5
F9
330
1F
100
AcDbEntity
  8
0
  6
Continuous
 62
     7
370
     0
100
AcDbLine
 10
265.0
 20
36.0
 30
0.0
 11
265.0
 21
32.0
 31
0.0
  0
LINE
  5
FA
330
1F
100
AcDbEntity
  8
0
  6
Continuous
 62
     7
370
     0
100
AcDbLine
 10
315.0
 20
36.0
 30
0.0
 11
315.0
 21
32.0
 31
0.0
  0
LINE
  5
FB
330
1F
100
AcDbEntity
  8
0
  6
Continuous
 62
     7
370
     0
100
AcDbLine
 10
173.9503430537
 20
15.0
 30
0.0
 11
173.9503430537
 21
22.5
 31
0.0
  0
LINE
  5
FC
330
1F
100
AcDbEntity
  8
0
  6
Continuous
 62
     7
370
    15
100
AcDbLine
 10
173.9503430537
 20
15.0
 30
0.0
 11
186.7632108866
 21
15.0
 31
0.0
  0
LINE
  5
FD
330
1F
100
AcDbEntity
  8
0
  6
Continuous
 62
     7
370
     0
100
AcDbLine
 10
173.9503430537
 20
22.5
 30
0.0
 11
161.0
 21
22.5
 31
0.0
  0
LINE
  5
FE
330
1F
100
AcDbEntity
  8
0
  6
Continuous
 62
     7
370
     0
100
AcDbLine
 10
186.7632108866
 20
22.5
 30
0.0
 11
186.7632108866
 21
15.0
 31
0.0
  0
LINE
  5
FF
330
1F
100
AcDbEntity
  8
0
  6
Continuous
 62
     7
370
     0
100
AcDbLine
 10
186.7632108866
 20
22.5
 30
0.0
 11
173.9503430537
 21
22.5
 31
0.0
  0
LINE
  5
100
330
1F
100
AcDbEntity
  8
0
  6
Continuous
 62
     7
370
    15
100
AcDbLine
 10
186.7632108866
 20
15.0
 30
0.0
 11
221.6310151534
 21
15.0
 31
0.0
  0
LINE
  5
101
330
1F
100
AcDbEntity
  8
0
  6
Continuous
 62
     7
370
     0
100
AcDbLine
 10
221.6310151534
 20
22.5
 30
0.0
 11
221.6310151534
 21
15.0
 31
0.0
  0
LINE
  5
102
330
1F
100
AcDbEntity
  8
0
  6
Continuous
 62
     7
370
     0
100
AcDbLine
 10
221.6310151534
 20
22.5
 30
0.0
 11
186.7632108866
 21
22.5
 31
0.0
  0
LINE
  5
103
330
1F
100
AcDbEntity
  8
0
  6
Continuous
 62
     7
370
    15
100
AcDbLine
 10
221.6310151534
 20
15.0
 30
0.0
 11
232.9735538908
 21
15.0
 31
0.0
  0
LINE
  5
104
330
1F
100
AcDbEntity
  8
0
  6
Continuous
 62
     7
370
     0
100
AcDbLine
 10
232.9735538908
 20
22.5
 30
0.0
 11
232.9735538908
 21
15.0
 31
0.0
  0
LINE
  5
105
330
1F
100
AcDbEntity
  8
0
  6
Continuous
 62
     7
370
     0
100
AcDbLine
 10
232.9735538908
 20
22.5
 30
0.0
 11
221.6310151534
 21
22.5
 31
0.0
  0
LINE
  5
106
330
1F
100
AcDbEntity
  8
0
  6
Continuous
 62
     7
370
    15
100
AcDbLine
 10
232.9735538908
 20
15.0
 30
0.0
 11
265.0
 21
15.0
 31
0.0
  0
LINE
  5
107
330
1F
100
AcDbEntity
  8
0
  6
CENTER
 62
     7
370
    15
100
AcDbLine
 10
269.455201517
 20
19.4082922699
 30
0.0
 11
270.955201517
 21
16.8102160585
 31
0.0
  0
LINE
  5
108
330
1F
100
AcDbEntity
  8
0
  6
CENTER
 62
     7
370
    15
100
AcDbLine
 10
272.455201517
 20
19.4082922699
 30
0.0
 11
270.955201517
 21
16.8102160585
 31
0.0
  0
LINE
  5
109
330
1F
100
AcDbEntity
  8
0
  6
CENTER
 62
     7
370
    15
100
AcDbLine
 10
272.455201517
 20
19.4082922699
 30
0.0
 11
275.455201517
 21
19.4082922699
 31
0.0
  0
LINE
  5
10A
330
1F
100
AcDbEntity
  8
0
  6
CENTER
 62
     7
370
    15
100
AcDbLine
 10
272.455201517
 20
19.4082922699
 30
0.0
 11
273.955201517
 21
16.8102160585
 31
0.0
  0
LINE
  5
10B
330
1F
100
AcDbEntity
  8
0
  6
CENTER
 62
     7
370
    15
100
AcDbLine
 10
275.455201517
 20
19.4082922699
 30
0.0
 11
273.955201517
 21
16.8102160585
 31
0.0
  0
LINE
  5
10C
330
1F
100
AcDbEntity
  8
0
  6
CENTER
 62
     7
370
    15
100
AcDbLine
 10
283.5463005651
 20
19.2729041081
 30
0.0
 11
286.5463005651
 21
19.2729041081
 31
0.0
  0
LINE
  5
10D
330
1F
100
AcDbEntity
  8
0
  6
CENTER
 62
     7
370
    15
100
AcDbLine
 10
286.5463005651
 20
19.2729041081
 30
0.0
 11
285.0463005651
 21
16.6748278967
 31
0.0
  0
LINE
  5
10E
330
1F
100
AcDbEntity
  8
0
  6
CENTER
 62
     7
370
    15
100
AcDbLine
 10
283.5463005651
 20
19.2729041081
 30
0.0
 11
285.0463005651
 21
16.6748278967
 31
0.0
  0
LINE
  5
10F
330
1F
100
AcDbEntity
  8
0
  6
Continuous
 62
     7
370
    15
100
AcDbLine
 10
297.5020114515
 20
24.492264999
 30
0.0
 11
296.0020114515
 21
21.8950048289
 31
0.0
  0
LINE
  5
110
330
1F
100
AcDbEntity
  8
0
  6
Continuous
 62
     7
370
    15
100
AcDbLine
 10
294.5020114515
 20
24.6435617079
 30
0.0
 11
296.0020114515
 21
21.8950048289
 31
0.0
  0
LINE
  5
111
330
1F
100
AcDbEntity
  8
0
  6
Continuous
 62
     7
370
    15
100
AcDbLine
 10
285.0463005651
 20
24.6435617079
 30
0.0
 11
283.5463005651
 21
21.6516027322
 31
0.0
  0
LINE
  5
112
330
1F
100
AcDbEntity
  8
0
  6
Continuous
 62
     7
370
    15
100
AcDbLine
 10
282.0463005651
 20
24.6435617079
 30
0.0
 11
283.5463005651
 21
21.6516027322
 31
0.0
  0
LINE
  5
113
330
1F
100
AcDbEntity
  8
0
  6
Continuous
 62
     7
370
    15
100
AcDbLine
 10
272.455201517
 20
24.492264999
 30
0.0
 11
270.955201517
 21
21.6516027322
 31
0.0
  0
LINE
  5
114
330
1F
100
AcDbEntity
  8
0
  6
Continuous
 62
     7
370
    15
100
AcDbLine
 10
269.455201517
 20
24.492264999
 30
0.0
 11
270.955201517
 21
21.6516027322
 31
0.0
  0
LINE
  5
115
330
1F
100
AcDbEntity
  8
0
  6
Continuous
 62
     7
370
    15
100
AcDbLine
 10
310.2556415815
 20
24.2496789436
 30
0.0
 11
308.7556415815
 21
21.6516027322
 31
0.0
  0
LINE
  5
116
330
1F
100
AcDbEntity
  8
0
  6
Continuous
 62
     7
370
    15
100
AcDbLine
 10
307.2556415815
 20
24.2496789436
 30
0.0
 11
308.7556415815
 21
21.6516027322
 31
0.0
  0
CIRCLE
  5
117
330
1F
100
AcDbEntity
  8
SLD-0
  6
Continuous
 62
     4
100
AcDbCircle
 10
36.0995864155
 20
166.35
 30
0.0
 40
0.7499999999999961
  0
CIRCLE
  5
118
330
1F
100
AcDbEntity
  8
SLD-0
  6
Continuous
 62
     4
100
AcDbCircle
 10
314.0524390244
 20
166.35
 30
0.0
 40
1.499999999999987
  0
CIRCLE
  5
119
330
1F
100
AcDbEntity
  8
SLD-0
  6
Continuous
 62
   179
100
AcDbCircle
 10
314.0524390244
 20
166.35
 30
0.0
 40
1.249999999999952
  0
CIRCLE
  5
11A
330
1F
100
AcDbEntity
  8
SLD-0
  6
Continuous
 62
     4
100
AcDbCircle
 10
389.6684390244
 20
166.35
 30
0.0
 40
0.7499999999999893
  0
SPLINE
  5
11B
330
1F
100
AcDbEntity
  8
0
  6
Continuous
 62
     8
370
    15
100
AcDbSpline
210
0.0
220
0.0
230
1.0
 70
     8
 71
     3
 72
    11
 73
     7
 74
     0
 42
0.00000001
 43
0.00000001
 40
0.0
 40
0.0
 40
0.0
 40
0.0
 40
0.2830912462189067
 40
0.5136186913771202
 40
0.7601132866708679
 40
1.0
 40
1.0
 40
1.0
 40
1.0
 10
306.630478438881
 20
17.45001966776254
 30
0.0
 10
307.0501883639263
 20
17.95352984885982
 30
0.0
 10
307.8116773373193
 20
18.86705947495874
 30
0.0
 10
308.5913055166637
 20
17.39481303194207
 30
0.0
 10
309.620932424426
 20
16.16249475486696
 30
0.0
 10
310.2469742761478
 20
17.02474950530411
 30
0.0
 10
310.5557425605238
 20
17.45001966776254
 30
0.0
  0
DIMENSION
  5
11C
330
1F
100
AcDbEntity
  8
SLD-0
100
AcDbDimension
  2
*D2
 10
389.6684390244
 20
223.397501661
 30
0.0
 11
214.7890243902
 21
223.397501661
 31
0.0
 70
   160
  1
O/I 1092.32
 71
     1
 42
-1.0
  3
SLDDIMSTYLE0
100
AcDbAlignedDimension
 13
36.0995864155
 23
169.6371639409
 33
0.0
 14
389.6684390244
 24
168.9340652588
 34
0.0
100
AcDbRotatedDimension
  0
DIMENSION
  5
12E
330
1F
100
AcDbEntity
  8
SLD-0
100
AcDbDimension
  2
*D3
 10
97.3524390244
 20
215.3427963191
 30
0.0
 11
182.6276992861
 21
215.342796319
 31
0.0
 70
   160
 71
     1
 42
-1.0
  3
SLDDIMSTYLE1
100
AcDbAlignedDimension
 13
363.9524390244
 23
180.85
 33
0.0
 14
97.3524390244
 24
194.8500000005
 34
0.0
 50
0.0
100
AcDbRotatedDimension
  0
DIMENSION
  5
139
330
1F
100
AcDbEntity
  8
SLD-0
100
AcDbDimension
  2
*D4
 10
260.0912306663
 20
149.3500000002
 30
0.0
 11
260.0912306663
 21
171.7772605594
 31
0.0
 70
   160
  1
%%c<>
 71
     1
 42
-1.0
  3
SLDDIMSTYLE2
100
AcDbAlignedDimension
 13
269.1524390244
 23
183.3500000002
 33
0.0
 14
269.1524390244
 24
149.3500000002
 34
0.0
 50
90.0
100
AcDbRotatedDimension
  0
DIMENSION
  5
143
330
1F
100
AcDbEntity
  8
SLD-0
100
AcDbDimension
  2
*D5
 10
286.1412403331
 20
151.85
 30
0.0
 11
286.1412403331
 21
171.7772605592
 31
0.0
 70
   160
  1
%%c<>
 71
     1
 42
-1.0
  3
SLDDIMSTYLE2
100
AcDbAlignedDimension
 13
294.6524390244
 23
180.85
 33
0.0
 14
294.7524390243
 24
151.85
 34
0.0
 50
90.0
100
AcDbRotatedDimension
  0
DIMENSION
  5
14C
330
1F
100
AcDbEntity
  8
SLD-0
100
AcDbDimension
  2
*D6
 10
233.6524390244
 20
206.2001133926
 30
0.0
 11
225.9581535781
 21
206.2001133926
 31
0.0
 70
   160
 71
     1
 42
-1.0
  3
SLDDIMSTYLE2
100
AcDbAlignedDimension
 13
218.6524390244
 23
195.3500000004
 33
0.0
 14
233.6524390244
 24
188.3500000002
 34
0.0
 50
0.0
100
AcDbRotatedDimension
  0
DIMENSION
  5
156
330
1F
100
AcDbEntity
  8
SLD-0
100
AcDbDimension
  2
*D7
 10
269.6524390244
 20
206.2001133924
 30
0.0
 11
249.9665853659
 21
206.2001133924
 31
0.0
 70
   160
 71
     1
 42
-1.0
  3
SLDDIMSTYLE2
100
AcDbAlignedDimension
 13
233.6524390244
 23
188.3500000002
 33
0.0
 14
269.6524390244
 24
182.8500000002
 34
0.0
 50
0.0
100
AcDbRotatedDimension
  0
DIMENSION
  5
160
330
1F
100
AcDbEntity
  8
SLD-0
100
AcDbDimension
  2
*D8
 10
269.6524390244
 20
206.2001133922
 30
0.0
 11
282.0291567519
 21
206.2001133922
 31
0.0
 70
   160
 71
     1
 42
-1.0
  3
SLDDIMSTYLE2
100
AcDbAlignedDimension
 13
294.6524390244
 23
180.85
 33
0.0
 14
269.6524390244
 24
182.8500000002
 34
0.0
 50
0.0
100
AcDbRotatedDimension
  0
DIMENSION
  5
16A
330
1F
100
AcDbEntity
  8
SLD-0
100
AcDbDimension
  2
*D9
 10
309.0524390244
 20
206.2001133922
 30
0.0
 11
301.5800034392
 21
206.2001133922
 31
0.0
 70
   160
 71
     1
 42
-1.0
  3
SLDDIMSTYLE1
100
AcDbAlignedDimension
 13
294.6524390244
 23
180.85
 33
0.0
 14
309.0524390244
 24
180.85
 34
0.0
 50
0.0
100
AcDbRotatedDimension
  0
DIMENSION
  5
174
330
1F
100
AcDbEntity
  8
SLD-0
100
AcDbDimension
  2
*D10
 10
309.0524390244
 20
206.2001133922
 30
0.0
 11
336.4924840397
 21
206.2001133922
 31
0.0
 70
   160
 71
     1
 42
-1.0
  3
SLDDIMSTYLE1
100
AcDbAlignedDimension
 13
363.9524390244
 23
180.85
 33
0.0
 14
309.0524390244
 24
180.85
 34
0.0
 50
0.0
100
AcDbRotatedDimension
  0
DIMENSION
  5
17E
330
1F
100
AcDbEntity
  8
SLD-0
100
AcDbDimension
  2
*D11
 10
372.1424390244
 20
215.342796319
 30
0.0
 11
368.1739894408
 21
215.342796319
 31
0.0
 70
   160
 71
     1
 42
-1.0
  3
SLDDIMSTYLE3
100
AcDbAlignedDimension
 13
363.9524390244
 23
180.85
 33
0.0
 14
372.1424390244
 24
180.85
 34
0.0
 50
0.0
100
AcDbRotatedDimension
  0
DIMENSION
  5
18B
330
1F
100
AcDbEntity
  8
SLD-0
100
AcDbDimension
  2
*D12
 10
372.1424390244
 20
215.342796319
 30
0.0
 11
380.4271490185
 21
215.342796319
 31
0.0
 70
   160
 71
     1
 42
-1.0
  3
SLDDIMSTYLE3
100
AcDbAlignedDimension
 13
389.6684390244
 23
168.9340652588
 33
0.0
 14
372.1424390244
 24
180.85
 34
0.0
 50
0.0
100
AcDbRotatedDimension
  0
DIMENSION
  5
195
330
1F
100
AcDbEntity
  8
SLD-0
100
AcDbDimension
  2
*D13
 10
97.3524390244
 20
206.2001133926
 30
0.0
 11
153.4990916684
 21
206.2001133926
 31
0.0
 70
   160
 71
     1
 42
-1.0
  3
SLDDIMSTYLE1
100
AcDbAlignedDimension
 13
218.6524390244
 23
195.3500000004
 33
0.0
 14
97.3524390244
 24
194.8500000005
 34
0.0
 50
0.0
100
AcDbRotatedDimension
  0
DIMENSION
  5
19F
330
1F
100
AcDbEntity
  8
SLD-0
100
AcDbDimension
  2
*D14
 10
97.3524390244
 20
215.3434897382
 30
0.0
 11
68.5512269483
 21
215.3434897382
 31
0.0
 70
   160
  1
WD=800
 71
     1
 42
-1.0
  3
SLDDIMSTYLE0
100
AcDbAlignedDimension
 13
36.0995864155
 23
169.6371639409
 33
0.0
 14
97.3524390244
 24
194.8500000005
 34
0.0
 50
0.0
100
AcDbRotatedDimension
  0
DIMENSION
  5
1A9
330
1F
100
AcDbEntity
  8
SLD-0
100
AcDbDimension
  2
*D15
 10
398.2215779298
 20
151.35
 30
0.0
 11
398.2215779298
 21
166.3296420156
 31
0.0
 70
   160
  1
%%c<>
 71
     1
 42
-1.0
  3
SLDDIMSTYLE4
100
AcDbAlignedDimension
 13
371.6424390244
 23
181.35
 33
0.0
 14
371.7564390244
 24
151.35
 34
0.0
 50
90.0
100
AcDbRotatedDimension
  0
DIMENSION
  5
1B8
330
1F
100
AcDbEntity
  8
SLD-0
100
AcDbDimension
  2
*D16
 10
86.3937053837
 20
137.3500000005
 30
0.0
 11
86.3937053838
 21
167.7652874648
 31
0.0
 70
   160
  1
%%c<>
 71
     1
 42
-1.0
  3
SLDDIMSTYLE4
100
AcDbAlignedDimension
 13
97.8524390244
 23
195.3500000005
 33
0.0
 14
97.8524390244
 24
137.3500000005
 34
0.0
 50
90.0
100
AcDbRotatedDimension
  0
DIMENSION
  5
1C6
330
1F
100
AcDbEntity
  8
SLD-0
100
AcDbDimension
  2
*D17
 10
383.1599227379
 20
153.65
 30
0.0
 11
383.1599227379
 21
166.3296420156
 31
0.0
 70
   160
  1
M<> UNC1
 71
     1
 42
-1.0
  3
SLDDIMSTYLE1
100
AcDbAlignedDimension
 13
375.7424390244
 23
179.05
 33
0.0
 14
375.7424390244
 24
153.65
 34
0.0
 50
90.0
100
AcDbRotatedDimension
  0
DIMENSION
  5
1D2
330
1F
100
AcDbEntity
  8
SLD-0
100
AcDbDimension
  2
*D18
 10
372.1424390244
 20
141.9275415032
 30
0.0
 11
374.1975441458
 21
141.9275415032
 31
0.0
 70
   160
 71
     1
 42
-1.0
  3
SLDDIMSTYLE2
100
AcDbAlignedDimension
 13
376.1424390244
 23
154.05
 33
0.0
 14
372.1424390244
 24
151.85
 34
0.0
 50
0.0
100
AcDbRotatedDimension
  0
MTEXT
  5
1DF
330
1F
100
AcDbEntity
  8
0
  6
Continuous
 62
     7
370
     0
100
AcDbMText
 10
398.1606687645
 20
13.8404330982
 30
0.0
 40
3.5
 41
0.0
 71
     1
 72
     1
  1
A3
  7
SLDTEXTSTYLE1
 73
     1
 44
1.0
  0
MTEXT
  5
1E0
330
1F
100
AcDbEntity
  8
0
  6
Continuous
 62
     7
370
     0
100
AcDbMText
 10
370.5589626647
 20
13.6315990709
 30
0.0
 40
3.5
 41
0.0
 71
     1
 72
     1
  1
〔ｍｍ〕
  7
SLDTEXTSTYLE1
 73
     1
 44
1.0
  0
MTEXT
  5
1E1
330
1F
100
AcDbEntity
  8
0
  6
Continuous
 62
     7
370
     0
100
AcDbMText
 10
360.5533901809
 20
25.2789140611
 30
0.0
 40
3.0
 41
0.0
 71
     1
 72
     1
  1
仕上
  7
SLDTEXTSTYLE1
 73
     1
 44
1.0
  0
MTEXT
  5
1E3
330
1F
100
AcDbEntity
  8
0
  6
Continuous
 62
     7
370
     0
100
AcDbMText
 10
276.7345323148
 20
31.1710043023
 30
0.0
 40
3.0
 41
0.0
 71
     1
 72
     1
  1
仕         上
  7
SLDTEXTSTYLE2
 73
     1
 44
1.0
  0
MTEXT
  5
1E4
330
1F
100
AcDbEntity
  8
0
  6
Continuous
 62
     7
370
     0
100
AcDbMText
 10
162.4376543937
 20
27.3812966666
 30
0.0
 40
3.0
 41
0.0
 71
     1
 72
     1
  1
符号
  7
SLDTEXTSTYLE1
 73
     1
 44
1.0
  0
MTEXT
  5
1E5
330
1F
100
AcDbEntity
  8
0
  6
Continuous
 62
     7
370
     0
100
AcDbMText
 10
171.8192414679
 20
27.3534799816
 30
0.0
 40
3.0
 41
0.0
 71
     1
 72
     1
  1
年　月　日
  7
SLDTEXTSTYLE1
 73
     1
 44
1.0
  0
MTEXT
  5
1E7
330
1F
100
AcDbEntity
  8
0
  6
Continuous
 62
     7
370
     0
100
AcDbMText
 10
205.2524169639
 20
27.3102880661
 30
0.0
 40
3.0
 41
0.0
 71
     1
 72
     1
  1
変   更   内   容
  7
SLDTEXTSTYLE3
 73
     1
 44
1.0
  0
MTEXT
  5
1E8
330
1F
100
AcDbEntity
  8
0
  6
Continuous
 62
     7
370
     0
100
AcDbMText
 10
254.7476428436
 20
27.3102880661
 30
0.0
 40
3.0
 41
0.0
 71
     1
 72
     1
  1
担 当
  7
SLDTEXTSTYLE1
 73
     1
 44
1.0
  0
MTEXT
  5
1EA
330
1F
100
AcDbEntity
  8
0
  6
Continuous
 62
     7
370
     0
100
AcDbMText
 10
206.3418650732
 20
35.5549382443
 30
0.0
 40
3.5
 41
0.0
 71
     1
 72
     1
  1
図  面  登  録
  7
SLDTEXTSTYLE4
 73
     1
 44
1.0
  0
MTEXT
  5
1EB
330
1F
100
AcDbEntity
  8
0
  6
Continuous
 62
     7
370
     0
100
AcDbMText
 10
275.6384298402
 20
59.2593473392
 30
0.0
 40
2.5
 41
0.0
 71
     1
 72
     1
  1
一  般  公  差
  7
SLDTEXTSTYLE4
 73
     1
 44
1.0
  0
MTEXT
  5
1EC
330
1F
100
AcDbEntity
  8
0
  6
Continuous
 62
     7
370
     0
100
AcDbMText
 10
265.6855419582
 20
55.2732889271
 30
0.0
 40
2.5
 41
0.0
 71
     1
 72
     1
  1
呼び寸法区分
  7
SLDTEXTSTYLE1
 73
     1
 44
1.0
  0
MTEXT
  5
1EE
330
1F
100
AcDbEntity
  8
0
  6
Continuous
 62
     7
370
     0
100
AcDbMText
 10
267.0279122674
 20
43.2570923087
 30
0.0
 40
2.5
 41
0.0
 71
     1
 72
     1
  1
63をこえ250以下
  7
SLDTEXTSTYLE5
 73
     1
 44
1.0
  0
MTEXT
  5
1EF
330
1F
100
AcDbEntity
  8
0
  6
Continuous
 62
     7
370
     0
100
AcDbMText
 10
265.7873906708
 20
39.2224660086
 30
0.0
 40
2.5
 41
0.0
 71
     1
 72
     1
  1
250をこえ500以下
  7
SLDTEXTSTYLE5
 73
     1
 44
1.0
  0
MTEXT
  5
1F0
330
1F
100
AcDbEntity
  8
0
  6
Continuous
 62
     7
370
     0
100
AcDbMText
 10
268.0786997474
 20
47.3646934888
 30
0.0
 40
2.5
 41
0.0
 71
     1
 72
     1
  1
16をこえ63以下
  7
SLDTEXTSTYLE5
 73
     1
 44
1.0
  0
MTEXT
  5
1F2
330
1F
100
AcDbEntity
  8
0
  6
Continuous
 62
     7
370
     0
100
AcDbMText
 10
265.6571779143
 20
35.2468206455
 30
0.0
 40
2.5
 41
0.0
 71
     1
 72
     1
  1
500をこえ1000以下
  7
SLDTEXTSTYLE6
 73
     1
 44
1.0
  0
MTEXT
  5
1F4
330
1F
100
AcDbEntity
  8
0
  6
Continuous
 62
     7
370
     0
100
AcDbMText
 10
286.0933026879
 20
55.277150895
 30
0.0
 40
2.5
 41
0.0
 71
     1
 72
     1
  1
Ａ　級
  7
SLDTEXTSTYLE7
 73
     1
 44
1.0
  0
MTEXT
  5
1F5
330
1F
100
AcDbEntity
  8
0
  6
Continuous
 62
     7
370
     0
100
AcDbMText
 10
296.3123513361
 20
55.277150895
 30
0.0
 40
2.5
 41
0.0
 71
     1
 72
     1
  1
Ｂ　級
  7
SLDTEXTSTYLE7
 73
     1
 44
1.0
  0
MTEXT
  5
1F6
330
1F
100
AcDbEntity
  8
0
  6
Continuous
 62
     7
370
     0
100
AcDbMText
 10
306.4527919177
 20
55.2807392727
 30
0.0
 40
2.5
 41
0.0
 71
     1
 72
     1
  1
Ｃ　級
  7
SLDTEXTSTYLE7
 73
     1
 44
1.0
  0
MTEXT
  5
1F7
330
1F
100
AcDbEntity
  8
0
  6
Continuous
 62
     7
370
     0
100
AcDbMText
 10
317.9204905445
 20
44.7443753584
 30
0.0
 40
3.0
 41
0.0
 71
     1
 72
     1
  1
図　面
  7
SLDTEXTSTYLE1
 73
     1
 44
1.0
  0
MTEXT
  5
1F8
330
1F
100
AcDbEntity
  8
0
  6
Continuous
 62
     7
370
     0
100
AcDbMText
 10
317.9204905445
 20
40.6347138747
 30
0.0
 40
3.0
 41
0.0
 71
     1
 72
     1
  1
番  号
  7
SLDTEXTSTYLE2
 73
     1
 44
1.0
  0
MTEXT
  5
1F9
330
1F
100
AcDbEntity
  8
0
  6
Continuous
 62
     7
370
     0
100
AcDbMText
 10
318.0741752743
 20
33.4190651829
 30
0.0
 40
3.0
 41
0.0
 71
     1
 72
     1
  1
製品名
  7
SLDTEXTSTYLE1
 73
     1
 44
1.0
  0
MTEXT
  5
1FA
330
1F
100
AcDbEntity
  8
0
  6
Continuous
 62
     7
370
     0
100
AcDbMText
 10
317.0347583093
 20
25.2789140611
 30
0.0
 40
3.0
 41
0.0
 71
     1
 72
     1
  1
個数
  7
SLDTEXTSTYLE1
 73
     1
 44
1.0
  0
MTEXT
  5
1FB
330
1F
100
AcDbEntity
  8
0
  6
Continuous
 62
     7
370
     0
100
AcDbMText
 10
316.2870137697
 20
19.7057248728
 30
0.0
 40
3.0
 41
0.0
 71
     1
 72
     1
  1
設計
  7
SLDTEXTSTYLE1
 73
     1
 44
1.0
  0
MTEXT
  5
1FC
330
1F
100
AcDbEntity
  8
0
  6
Continuous
 62
     7
370
     0
100
AcDbMText
 10
346.523444356
 20
19.7057248728
 30
0.0
 40
3.0
 41
0.0
 71
     1
 72
     1
  1
製図
  7
SLDTEXTSTYLE1
 73
     1
 44
1.0
  0
MTEXT
  5
1FD
330
1F
100
AcDbEntity
  8
0
  6
Continuous
 62
     7
370
     0
100
AcDbMText
 10
375.929793114
 20
19.5908850166
 30
0.0
 40
3.0
 41
0.0
 71
     1
 72
     1
  1
承認
  7
SLDTEXTSTYLE1
 73
     1
 44
1.0
  0
MTEXT
  5
1FE
330
1F
100
AcDbEntity
  8
0
  6
Continuous
 62
     7
370
     0
100
AcDbMText
 10
370.7990016056
 20
43.4661644287
 30
0.0
 40
3.0
 41
0.0
 71
     1
 72
     1
  1
材料
  7
SLDTEXTSTYLE1
 73
     1
 44
1.0
  0
MTEXT
  5
1FF
330
1F
100
AcDbEntity
  8
0
  6
Continuous
 62
     7
370
     0
100
AcDbMText
 10
369.25200849
 20
35.2064850541
 30
0.0
 40
3.0
 41
0.0
 71
     1
 72
     1
  1
表　面
  7
SLDTEXTSTYLE1
 73
     1
 44
1.0
  0
MTEXT
  5
200
330
1F
100
AcDbEntity
  8
0
  6
Continuous
 62
     7
370
     0
100
AcDbMText
 10
369.1570089307
 20
30.968581065
 30
0.0
 40
3.0
 41
0.0
 71
     1
 72
     1
  1
処　理
  7
SLDTEXTSTYLE1
 73
     1
 44
1.0
  0
MTEXT
  5
201
330
1F
100
AcDbEntity
  8
0
  6
Continuous
 62
     7
370
     0
100
AcDbMText
 10
381.680228164
 20
25.2789140611
 30
0.0
 40
3.0
 41
0.0
 71
     1
 72
     1
  1
尺度
  7
SLDTEXTSTYLE1
 73
     1
 44
1.0
  0
MTEXT
  5
202
330
1F
100
AcDbEntity
  8
0
  6
Continuous
 62
     7
370
     0
100
AcDbMText
 10
164.2797777341
 20
20.1580183471
 30
0.0
 40
3.5
 41
0.0
 71
     1
 72
     1
  1
原型
  7
SLDTEXTSTYLE1
 73
     1
 44
1.0
  0
MTEXT
  5
203
330
1F
100
AcDbEntity
  8
0
  6
Continuous
 62
     7
370
     0
100
AcDbMText
 10
176.2608602039
 20
20.1169123537
 30
0.0
 40
3.5
 41
0.0
 71
     1
 72
     1
  1
機種
  7
SLDTEXTSTYLE1
 73
     1
 44
1.0
  0
MTEXT
  5
204
330
1F
100
AcDbEntity
  8
0
  6
Continuous
 62
     7
370
     0
100
AcDbMText
 10
222.9963207422
 20
20.1169123537
 30
0.0
 40
3.5
 41
0.0
 71
     1
 72
     1
  1
番号
  7
SLDTEXTSTYLE1
 73
     1
 44
1.0
  0
MTEXT
  5
205
330
1F
100
AcDbEntity
  8
0
  6
Continuous
 62
     7
370
     0
100
AcDbMText
 10
277.3926927284
 20
51.2532741857
 30
0.0
 40
2.5
 41
0.0
 71
     1
 72
     1
  1
16以下
  7
SLDTEXTSTYLE5
 73
     1
 44
1.0
  0
MTEXT
  5
206
330
1F
100
AcDbEntity
  8
0
  6
Continuous
 62
     7
370
     0
100
AcDbMText
 10
334.5260707683
 20
25.2789140611
 30
0.0
 40
3.0
 41
0.0
 71
     1
 72
     1
  1
一般公差
  7
SLDTEXTSTYLE1
 73
     1
 44
1.0
  0
MTEXT
  5
207
330
1F
100
AcDbEntity
  8
0
  6
Continuous
 62
     7
370
     0
100
AcDbMText
 10
384.6595093175
 20
13.6315990709
 30
0.0
 40
3.5
 41
0.0
 71
     1
 72
     1
  1
三角法
  7
SLDTEXTSTYLE1
 73
     1
 44
1.0
  0
MTEXT
  5
208
330
1F
100
AcDbEntity
  8
0
  6
Continuous
 62
     7
370
     0
100
AcDbMText
 10
305.6607146333
 20
35.095441108
 30
0.0
 40
1.8520833333
 41
0.0
 71
     1
 72
     1
  1
± ４
  7
SLDTEXTSTYLE0
 73
     1
 44
1.0
  0
MTEXT
  5
209
330
1F
100
AcDbEntity
  8
0
  6
Continuous
 62
     7
370
     0
100
AcDbMText
 10
305.8093557327
 20
39.07691621
 30
0.0
 40
1.8520833333
 41
0.0
 71
     1
 72
     1
  1
± ３
  7
SLDTEXTSTYLE0
 73
     1
 44
1.0
  0
MTEXT
  5
20A
330
1F
100
AcDbEntity
  8
0
  6
Continuous
 62
     7
370
     0
100
AcDbMText
 10
305.7443852475
 20
42.7309988091
 30
0.0
 40
1.8520833333
 41
0.0
 71
     1
 72
     1
  1
± ２
  7
SLDTEXTSTYLE0
 73
     1
 44
1.0
  0
MTEXT
  5
20B
330
1F
100
AcDbEntity
  8
0
  6
Continuous
 62
     7
370
     0
100
AcDbMText
 10
295.556531117
 20
35.0168572454
 30
0.0
 40
1.8520833333
 41
0.0
 71
     1
 72
     1
  1
± ２
  7
SLDTEXTSTYLE0
 73
     1
 44
1.0
  0
MTEXT
  5
20C
330
1F
100
AcDbEntity
  8
0
  6
Continuous
 62
     7
370
     0
100
AcDbMText
 10
295.4849318251
 20
38.8697374231
 30
0.0
 40
1.8520833333
 41
0.0
 71
     1
 72
     1
  1
±１.２
  7
SLDTEXTSTYLE0
 73
     1
 44
1.0
  0
MTEXT
  5
20D
330
1F
100
AcDbEntity
  8
0
  6
Continuous
 62
     7
370
     0
100
AcDbMText
 10
295.2680178314
 20
42.7923707568
 30
0.0
 40
1.8520833333
 41
0.0
 71
     1
 72
     1
  1
±０.８
  7
SLDTEXTSTYLE0
 73
     1
 44
1.0
  0
MTEXT
  5
20E
330
1F
100
AcDbEntity
  8
0
  6
Continuous
 62
     7
370
     0
100
AcDbMText
 10
305.6398675168
 20
46.8808261147
 30
0.0
 40
1.8520833333
 41
0.0
 71
     1
 72
     1
  1
±１.５
  7
SLDTEXTSTYLE0
 73
     1
 44
1.0
  0
MTEXT
  5
20F
330
1F
100
AcDbEntity
  8
0
  6
Continuous
 62
     7
370
     0
100
AcDbMText
 10
285.1379307997
 20
34.8229981805
 30
0.0
 40
1.8520833333
 41
0.0
 71
     1
 72
     1
  1
±０.８
  7
SLDTEXTSTYLE0
 73
     1
 44
1.0
  0
MTEXT
  5
210
330
1F
100
AcDbEntity
  8
0
  6
Continuous
 62
     7
370
     0
100
AcDbMText
 10
295.4830775576
 20
46.8477871983
 30
0.0
 40
1.8520833333
 41
0.0
 71
     1
 72
     1
  1
±０.５
  7
SLDTEXTSTYLE0
 73
     1
 44
1.0
  0
MTEXT
  5
211
330
1F
100
AcDbEntity
  8
0
  6
Continuous
 62
     7
370
     0
100
AcDbMText
 10
285.2818816018
 20
42.7855412518
 30
0.0
 40
1.8520833333
 41
0.0
 71
     1
 72
     1
  1
±０.３
  7
SLDTEXTSTYLE0
 73
     1
 44
1.0
  0
MTEXT
  5
212
330
1F
100
AcDbEntity
  8
0
  6
Continuous
 62
     7
370
     0
100
AcDbMText
 10
285.0523217969
 20
46.8556372643
 30
0.0
 40
1.8520833333
 41
0.0
 71
     1
 72
     1
  1
±０.２
  7
SLDTEXTSTYLE0
 73
     1
 44
1.0
  0
MTEXT
  5
213
330
1F
100
AcDbEntity
  8
0
  6
Continuous
 62
     7
370
     0
100
AcDbMText
 10
285.1408900573
 20
38.7629603774
 30
0.0
 40
1.8520833333
 41
0.0
 71
     1
 72
     1
  1
±０.５
  7
SLDTEXTSTYLE0
 73
     1
 44
1.0
  0
MTEXT
  5
214
330
1F
100
AcDbEntity
  8
0
  6
Continuous
 62
     7
370
     0
100
AcDbMText
 10
305.652943184
 20
50.4350429429
 30
0.0
 40
1.8520833333
 41
0.0
 71
     1
 72
     1
  1
± １
  7
SLDTEXTSTYLE0
 73
     1
 44
1.0
  0
MTEXT
  5
215
330
1F
100
AcDbEntity
  8
0
  6
Continuous
 62
     7
370
     0
100
AcDbMText
 10
295.4079716829
 20
50.9126972879
 30
0.0
 40
1.8520833333
 41
0.0
 71
     1
 72
     1
  1
±０.３
  7
SLDTEXTSTYLE0
 73
     1
 44
1.0
  0
MTEXT
  5
216
330
1F
100
AcDbEntity
  8
0
  6
Continuous
 62
     7
370
     0
100
AcDbMText
 10
285.0746433972
 20
50.6531398517
 30
0.0
 40
1.8520833333
 41
0.0
 71
     1
 72
     1
  1
±０.１
  7
SLDTEXTSTYLE0
 73
     1
 44
1.0
  0
MTEXT
  5
217
330
1F
100
AcDbEntity
  8
0
  6
Continuous
 62
     7
370
     0
100
AcDbMText
 10
192.3785173192
 20
19.7184990659
 30
0.0
 40
3.175
 41
0.0
 71
     1
 72
     1
  1
KCM-05-800
  7
SLDTEXTSTYLE1
 73
     1
 44
1.0
  0
MTEXT
  5
218
330
1F
100
AcDbEntity
  8
0
  6
Continuous
 62
     7
370
     0
100
AcDbMText
 10
171.6174468649
 20
35.5549382443
 30
0.0
 40
3.5
 41
0.0
 71
     1
 72
     1
  1
Apr/26/2013
  7
SLDTEXTSTYLE1
 73
     1
 44
1.0
  0
MTEXT
  5
219
330
1F
100
AcDbEntity
  8
0
  6
Continuous
 62
     7
370
     0
100
AcDbMText
 10
394.6060132447
 20
25.7787877889
 30
0.0
 40
3.5
 41
0.0
 71
     1
 72
     1
  1
1/1
  7
SLDTEXTSTYLE1
 73
     1
 44
1.0
  0
MTEXT
  5
21A
330
1F
100
AcDbEntity
  8
0
  6
Continuous
 62
     7
370
     0
100
AcDbMText
 10
255.6615324566
 20
34.9395820398
 30
0.0
 40
3.5
 41
0.0
 71
     1
 72
     1
  1
桑名
  7
SLDTEXTSTYLE1
 73
     1
 44
1.0
  0
MTEXT
  5
21B
330
1F
100
AcDbEntity
  8
0
  6
Continuous
 62
     7
370
     0
100
AcDbMText
 10
329.6040429591
 20
25.3690516115
 30
0.0
 40
3.5
 41
0.0
 71
     1
 72
     1
  1
1
  7
SLDTEXTSTYLE1
 73
     1
 44
1.0
  0
MTEXT
  5
21C
330
1F
100
AcDbEntity
  8
0
  6
Continuous
 62
     7
370
     0
100
AcDbMText
 10
307.2001501664
 20
26.9342937933
 30
0.0
 40
2.1166666667
 41
0.0
 71
     1
 72
     1
  1
100
  7
SLDTEXTSTYLE0
 73
     1
 44
1.0
  0
MTEXT
  5
21D
330
1F
100
AcDbEntity
  8
0
  6
Continuous
 62
     7
370
     0
100
AcDbMText
 10
295.0301057197
 20
26.978959917
 30
0.0
 40
2.1166666667
 41
0.0
 71
     1
 72
     1
  1
25
  7
SLDTEXTSTYLE0
 73
     1
 44
1.0
  0
MTEXT
  5
21E
330
1F
100
AcDbEntity
  8
0
  6
Continuous
 62
     7
370
     0
100
AcDbMText
 10
282.0145875665
 20
26.8430803499
 30
0.0
 40
2.1166666667
 41
0.0
 71
     1
 72
     1
  1
6.3
  7
SLDTEXTSTYLE0
 73
     1
 44
1.0
  0
INSERT
  5
224
330
1F
100
AcDbEntity
  8
0
  6
Continuous
 62
     7
370
     0
100
AcDbBlockReference
  2
SW_NOTE_0
 10
269.7950910071
 20
24.4542905517
 30
0.0
  0
MTEXT
  5
225
330
1F
100
AcDbEntity
  8
DIMENSION
100
AcDbMText
 10
335.8964668299
 20
32.716299527
 30
0.0
 40
3.7041666667
 41
0.0
 71
     1
 72
     1
  1
KCM-05-800
  7
SLDTEXTSTYLE1
 73
     1
 44
1.0
  0
MTEXT
  5
226
330
1F
100
AcDbEntity
  8
SLD-0
100
AcDbMText
 10
335.8056701812
 20
42.4175522003
 30
0.0
 40
3.7041666667
 41
0.0
 71
     1
 72
     1
  1
TSTM-221
  7
SLDTEXTSTYLE1
 73
     1
 44
1.0
  0
MTEXT
  5
227
330
1F
100
AcDbEntity
  8
SLD-0
100
AcDbMText
 10
360.7144499827
 20
19.7626841455
 30
0.0
 40
3.5
 41
0.0
 71
     1
 72
     1
  1
桑名
  7
SLDTEXTSTYLE0
 73
     1
 44
1.0
  0
MTEXT
  5
228
330
1F
100
AcDbEntity
  8
SLD-0
100
AcDbMText
 10
389.5659987122
 20
20.0907587444
 30
0.0
 40
3.5
 41
0.0
 71
     1
 72
     1
  1
斉藤
  7
SLDTEXTSTYLE0
 73
     1
 44
1.0
  0
MTEXT
  5
229
330
1F
100
AcDbEntity
  8
SLD-0
100
AcDbMText
 10
324.2330031625
 20
52.3736861506
 30
0.0
 40
3.7041666667
 41
0.0
 71
     1
 72
     1
  1
株式会社
  7
SLDTEXTSTYLE0
 73
     1
 44
1.0
  0
MTEXT
  5
22A
330
1F
100
AcDbEntity
  8
SLD-0
100
AcDbMText
 10
346.2886297682
 20
53.9240375251
 30
0.0
 40
5.2916666667
 41
0.0
 71
     1
 72
     1
  1
ケンコ-・トキナ-
  7
SLDTEXTSTYLE0
 73
     1
 44
1.0
  0
INSERT
  5
24C
330
1F
100
AcDbEntity
  8
SLD-0
100
AcDbBlockReference
  2
SW_TABLEANNOTATION_0
 10
31.5
 20
90.5963414634
 30
0.0
  0
ENDSEC
  0
SECTION
  2
OBJECTS
  0
DICTIONARY
  5
C
330
0
100
AcDbDictionary
281
     1
  3
ACAD_GROUP
350
D
  3
ACAD_LAYOUT
350
1A
  3
ACAD_MLINESTYLE
350
17
  3
ACAD_PLOTSETTINGS
350
19
  3
ACAD_PLOTSTYLENAME
350
E
  0
DICTIONARY
  5
D
102
{ACAD_REACTORS
330
C
102
}
330
C
100
AcDbDictionary
281
     1
  0
DICTIONARY
  5
1A
102
{ACAD_REACTORS
330
C
102
}
330
C
100
AcDbDictionary
281
     1
  3
Layout1
350
1E
  3
Layout2
350
26
  3
Model
350
22
  0
DICTIONARY
  5
17
102
{ACAD_REACTORS
330
C
102
}
330
C
100
AcDbDictionary
281
     1
  3
Standard
350
18
  0
DICTIONARY
  5
19
102
{ACAD_REACTORS
330
C
102
}
330
C
100
AcDbDictionary
281
     1
  0
ACDBDICTIONARYWDFLT
  5
E
102
{ACAD_REACTORS
330
C
102
}
330
C
100
AcDbDictionary
281
     1
  3
Normal
350
F
100
AcDbDictionaryWithDefault
340
F
  0
LAYOUT
  5
1E
102
{ACAD_REACTORS
330
1A
102
}
330
1A
100
AcDbPlotSettings
  1

  2
none_device
  4

  6

 40
0.0
 41
0.0
 42
0.0
 43
0.0
 44
0.0
 45
0.0
 46
0.0
 47
0.0
 48
0.0
 49
0.0
140
0.0
141
0.0
142
1.0
143
1.0
 70
   688
 72
     0
 73
     0
 74
     5
  7

 75
    16
147
1.0
148
0.0
149
0.0
100
AcDbLayout
  1
Layout1
 70
     1
 71
     1
 10
0.0
 20
0.0
 11
420.0
 21
297.0
 12
0.0
 22
0.0
 32
0.0
 14
1.0000000000E+20
 24
1.0000000000E+20
 34
1.0000000000E+20
 15
-1.0000000000E+20
 25
-1.0000000000E+20
 35
-1.0000000000E+20
146
0.0
 13
0.0
 23
0.0
 33
0.0
 16
1.0
 26
0.0
 36
0.0
 17
0.0
 27
1.0
 37
0.0
 76
     0
330
1B
  0
LAYOUT
  5
26
102
{ACAD_REACTORS
330
1A
102
}
330
1A
100
AcDbPlotSettings
  1

  2
none_device
  4

  6

 40
0.0
 41
0.0
 42
0.0
 43
0.0
 44
0.0
 45
0.0
 46
0.0
 47
0.0
 48
0.0
 49
0.0
140
0.0
141
0.0
142
1.0
143
1.0
 70
   688
 72
     0
 73
     0
 74
     5
  7

 75
    16
147
1.0
148
0.0
149
0.0
100
AcDbLayout
  1
Layout2
 70
     1
 71
     2
 10
0.0
 20
0.0
 11
0.0
 21
0.0
 12
0.0
 22
0.0
 32
0.0
 14
0.0
 24
0.0
 34
0.0
 15
0.0
 25
0.0
 35
0.0
146
0.0
 13
0.0
 23
0.0
 33
0.0
 16
1.0
 26
0.0
 36
0.0
 17
0.0
 27
1.0
 37
0.0
 76
     0
330
23
  0
LAYOUT
  5
22
102
{ACAD_REACTORS
330
1A
102
}
330
1A
100
AcDbPlotSettings
  1

  2
none_device
  4

  6

 40
0.0
 41
0.0
 42
0.0
 43
0.0
 44
0.0
 45
0.0
 46
0.0
 47
0.0
 48
0.0
 49
0.0
140
0.0
141
0.0
142
1.0
143
1.0
 70
  1712
 72
     0
 73
     0
 74
     0
  7

 75
     0
147
1.0
148
0.0
149
0.0
100
AcDbLayout
  1
Model
 70
     1
 71
     0
 10
0.0
 20
0.0
 11
0.0
 21
0.0
 12
0.0
 22
0.0
 32
0.0
 14
0.0
 24
0.0
 34
0.0
 15
420.0
 25
297.0
 35
0.0
146
0.0
 13
0.0
 23
0.0
 33
0.0
 16
1.0
 26
0.0
 36
0.0
 17
0.0
 27
1.0
 37
0.0
 76
     0
330
1F
  0
MLINESTYLE
  5
18
102
{ACAD_REACTORS
330
17
102
}
330
17
100
AcDbMlineStyle
  2
Standard
 70
     0
  3

 62
   256
 51
90.0
 52
90.0
 71
     2
 49
0.5
 62
   256
  6
BYLAYER
 49
-0.5
 62
   256
  6
BYLAYER
  0
ACDBPLACEHOLDER
  5
F
102
{ACAD_REACTORS
330
E
102
}
330
E
  0
ENDSEC
  0
EOF
