  0
SECTION
  2
HEADER
  9
$ACADVER
  1
AC1015
  9
$ACADMAINTVER
 70
     6
  9
$DWGCODEPAGE
  3
DOS932
  9
$INSBASE
 10
0.0
 20
0.0
 30
0.0
  9
$EXTMIN
 10
0.0
 20
0.0
 30
0.0
  9
$EXTMAX
 10
420.0
 20
297.0
 30
0.0
  9
$LIMMIN
 10
0.0
 20
0.0
  9
$LIMMAX
 10
0.0
 20
0.0
  9
$ORTHOMODE
 70
     0
  9
$REGENMODE
 70
     1
  9
$FILLMODE
 70
     1
  9
$QTEXTMODE
 70
     0
  9
$MIRRTEXT
 70
     1
  9
$LTSCALE
 40
1.0
  9
$ATTMODE
 70
     1
  9
$TEXTSIZE
 40
3.5
  9
$TRACEWID
 40
1.0
  9
$TEXTSTYLE
  7
Standard
  9
$CLAYER
  8
0
  9
$CELTYPE
  6
ByLayer
  9
$CECOLOR
 62
   256
  9
$CELTSCALE
 40
1.0
  9
$DISPSILH
 70
     0
  9
$DIMSCALE
 40
1.0
  9
$DIMASZ
 40
3.0
  9
$DIMEXO
 40
1.0
  9
$DIMDLI
 40
3.75
  9
$DIMRND
 40
0.0
  9
$DIMDLE
 40
0.0
  9
$DIMEXE
 40
1.0
  9
$DIMTP
 40
0.0
  9
$DIMTM
 40
0.0
  9
$DIMTXT
 40
3.5
  9
$DIMCEN
 40
2.5
  9
$DIMTSZ
 40
0.0
  9
$DIMTOL
 70
     0
  9
$DIMLIM
 70
     0
  9
$DIMTIH
 70
     1
  9
$DIMTOH
 70
     1
  9
$DIMSE1
 70
     0
  9
$DIMSE2
 70
     0
  9
$DIMTAD
 70
     1
  9
$DIMZIN
 70
     1
  9
$DIMBLK
  1

  9
$DIMASO
 70
     1
  9
$DIMSHO
 70
     1
  9
$DIMPOST
  1

  9
$DIMAPOST
  1

  9
$DIMALT
 70
     0
  9
$DIMALTD
 70
     3
  9
$DIMALTF
 40
0.0393700787
  9
$DIMLFAC
 40
1.0
  9
$DIMTOFL
 70
     1
  9
$DIMTVP
 40
0.0
  9
$DIMTIX
 70
     0
  9
$DIMSOXD
 70
     0
  9
$DIMSAH
 70
     0
  9
$DIMBLK1
  1

  9
$DIMBLK2
  1

  9
$DIMSTYLE
  2
ISO-25
  9
$DIMCLRD
 70
     0
  9
$DIMCLRE
 70
     0
  9
$DIMCLRT
 70
     0
  9
$DIMTFAC
 40
1.0
  9
$DIMGAP
 40
1.524
  9
$DIMJUST
 70
     0
  9
$DIMSD1
 70
     0
  9
$DIMSD2
 70
     0
  9
$DIMTOLJ
 70
     0
  9
$DIMTZIN
 70
     1
  9
$DIMALTZ
 70
     0
  9
$DIMALTTZ
 70
     0
  9
$DIMUPT
 70
     0
  9
$DIMDEC
 70
     2
  9
$DIMTDEC
 70
     2
  9
$DIMALTU
 70
     2
  9
$DIMALTTD
 70
     3
  9
$DIMTXSTY
  7
Standard
  9
$DIMAUNIT
 70
     0
  9
$DIMADEC
 70
     0
  9
$DIMALTRND
 40
0.0
  9
$DIMAZIN
 70
     0
  9
$DIMDSEP
 70
    44
  9
$DIMATFIT
 70
     3
  9
$DIMFRAC
 70
     0
  9
$DIMLDRBLK
  1

  9
$DIMLUNIT
 70
     2
  9
$DIMLWD
 70
    -2
  9
$DIMLWE
 70
    -2
  9
$DIMTMOVE
 70
     0
  9
$LUNITS
 70
     2
  9
$LUPREC
 70
     4
  9
$SKETCHINC
 40
1.0
  9
$FILLETRAD
 40
10.0
  9
$AUNITS
 70
     0
  9
$AUPREC
 70
     0
  9
$MENU
  1
.
  9
$ELEVATION
 40
0.0
  9
$PELEVATION
 40
0.0
  9
$THICKNESS
 40
0.0
  9
$LIMCHECK
 70
     0
  9
$CHAMFERA
 40
10.0
  9
$CHAMFERB
 40
10.0
  9
$CHAMFERC
 40
20.0
  9
$CHAMFERD
 40
0.0
  9
$SKPOLY
 70
     0
  9
$TDCREATE
 40
2456328.615944364
  9
$TDUCREATE
 40
2456328.240944364
  9
$TDUPDATE
 40
2456328.615944375
  9
$TDUUPDATE
 40
2456328.240944375
  9
$TDINDWG
 40
0.0000000116
  9
$TDUSRTIMER
 40
0.0000000116
  9
$USRTIMER
 70
     1
  9
$ANGBASE
 50
0.0
  9
$ANGDIR
 70
     0
  9
$PDMODE
 70
     0
  9
$PDSIZE
 40
-1.0
  9
$PLINEWID
 40
0.0
  9
$SPLFRAME
 70
     0
  9
$SPLINETYPE
 70
     6
  9
$SPLINESEGS
 70
     8
  9
$HANDSEED
  5
26E
  9
$SURFTAB1
 70
     6
  9
$SURFTAB2
 70
     6
  9
$SURFTYPE
 70
     6
  9
$SURFU
 70
     6
  9
$SURFV
 70
     6
  9
$UCSBASE
  2

  9
$UCSNAME
  2

  9
$UCSORG
 10
0.0
 20
0.0
 30
0.0
  9
$UCSXDIR
 10
1.0
 20
0.0
 30
0.0
  9
$UCSYDIR
 10
0.0
 20
1.0
 30
0.0
  9
$UCSORTHOREF
  2

  9
$UCSORTHOVIEW
 70
     0
  9
$UCSORGTOP
 10
0.0
 20
0.0
 30
0.0
  9
$UCSORGBOTTOM
 10
0.0
 20
0.0
 30
0.0
  9
$UCSORGLEFT
 10
0.0
 20
0.0
 30
0.0
  9
$UCSORGRIGHT
 10
0.0
 20
0.0
 30
0.0
  9
$UCSORGFRONT
 10
0.0
 20
0.0
 30
0.0
  9
$UCSORGBACK
 10
0.0
 20
0.0
 30
0.0
  9
$PUCSBASE
  2

  9
$PUCSNAME
  2

  9
$PUCSORG
 10
0.0
 20
0.0
 30
0.0
  9
$PUCSXDIR
 10
1.0
 20
0.0
 30
0.0
  9
$PUCSYDIR
 10
0.0
 20
1.0
 30
0.0
  9
$PUCSORTHOREF
  2

  9
$PUCSORTHOVIEW
 70
     0
  9
$PUCSORGTOP
 10
0.0
 20
0.0
 30
0.0
  9
$PUCSORGBOTTOM
 10
0.0
 20
0.0
 30
0.0
  9
$PUCSORGLEFT
 10
0.0
 20
0.0
 30
0.0
  9
$PUCSORGRIGHT
 10
0.0
 20
0.0
 30
0.0
  9
$PUCSORGFRONT
 10
0.0
 20
0.0
 30
0.0
  9
$PUCSORGBACK
 10
0.0
 20
0.0
 30
0.0
  9
$USERI1
 70
     0
  9
$USERI2
 70
     0
  9
$USERI3
 70
     0
  9
$USERI4
 70
     0
  9
$USERI5
 70
     0
  9
$USERR1
 40
0.0
  9
$USERR2
 40
0.0
  9
$USERR3
 40
0.0
  9
$USERR4
 40
0.0
  9
$USERR5
 40
0.0
  9
$WORLDVIEW
 70
     1
  9
$SHADEDGE
 70
     3
  9
$SHADEDIF
 70
    70
  9
$TILEMODE
 70
     1
  9
$MAXACTVP
 70
    64
  9
$PINSBASE
 10
0.0
 20
0.0
 30
0.0
  9
$PLIMCHECK
 70
     0
  9
$PEXTMIN
 10
1.0000000000E+20
 20
1.0000000000E+20
 30
1.0000000000E+20
  9
$PEXTMAX
 10
-1.0000000000E+20
 20
-1.0000000000E+20
 30
-1.0000000000E+20
  9
$PLIMMIN
 10
0.0
 20
0.0
  9
$PLIMMAX
 10
420.0
 20
297.0
  9
$UNITMODE
 70
     0
  9
$VISRETAIN
 70
     1
  9
$PLINEGEN
 70
     0
  9
$PSLTSCALE
 70
     1
  9
$TREEDEPTH
 70
  3020
  9
$CMLSTYLE
  2
Standard
  9
$CMLJUST
 70
     0
  9
$CMLSCALE
 40
20.0
  9
$PROXYGRAPHICS
 70
     1
  9
$MEASUREMENT
 70
     1
  9
$CELWEIGHT
370
    -1
  9
$ENDCAPS
280
     0
  9
$JOINSTYLE
280
     0
  9
$LWDISPLAY
290
     1
  9
$INSUNITS
 70
     4
  9
$HYPERLINKBASE
  1

  9
$STYLESHEET
  1

  9
$XEDIT
290
     1
  9
$CEPSNTYPE
380
     0
  9
$PSTYLEMODE
290
     1
  9
$FINGERPRINTGUID
  2
{9E9EBA38-D401-48BD-A637-7188892BD557}
  9
$VERSIONGUID
  2
{FAEB1C32-E019-11D5-929B-00C0DF256EC4}
  9
$EXTNAMES
290
     1
  9
$PSVPSCALE
 40
0.0
  9
$OLESTARTUP
290
     0
  0
ENDSEC
  0
SECTION
  2
CLASSES
  0
CLASS
  1
ACDBDICTIONARYWDFLT
  2
AcDbDictionaryWithDefault
  3
ObjectDBX Classes
 90
        0
280
     0
281
     0
  0
CLASS
  1
ACDBPLACEHOLDER
  2
AcDbPlaceHolder
  3
ObjectDBX Classes
 90
        0
280
     0
281
     0
  0
CLASS
  1
LAYOUT
  2
AcDbLayout
  3
ObjectDBX Classes
 90
        0
280
     0
281
     0
  0
ENDSEC
  0
SECTION
  2
TABLES
  0
TABLE
  2
VPORT
  5
8
330
0
100
AcDbSymbolTable
 70
     1
  0
VPORT
  5
29
330
8
100
AcDbSymbolTableRecord
100
AcDbViewportTableRecord
  2
*Active
 70
     0
 10
0.0
 20
0.0
 11
1.0
 21
1.0
 12
210.0
 22
148.5
 13
0.0
 23
0.0
 14
10.0
 24
10.0
 15
10.0
 25
10.0
 16
0.0
 26
0.0
 36
1.0
 17
0.0
 27
0.0
 37
0.0
 40
297.0
 41
1.4141414141
 42
50.0
 43
0.0
 44
0.0
 50
0.0
 51
0.0
 71
     0
 72
  2000
 73
     1
 74
     3
 75
     0
 76
     0
 77
     0
 78
     0
281
     0
 65
     1
110
0.0
120
0.0
130
0.0
111
1.0
121
0.0
131
0.0
112
0.0
122
1.0
132
0.0
 79
     0
146
0.0
  0
ENDTAB
  0
TABLE
  2
LTYPE
  5
5
330
0
100
AcDbSymbolTable
 70
     6
  0
LTYPE
  5
14
330
5
100
AcDbSymbolTableRecord
100
AcDbLinetypeTableRecord
  2
ByBlock
 70
     0
  3

 72
    65
 73
     0
 40
0.0
  0
LTYPE
  5
15
330
5
100
AcDbSymbolTableRecord
100
AcDbLinetypeTableRecord
  2
ByLayer
 70
     0
  3

 72
    65
 73
     0
 40
0.0
  0
LTYPE
  5
16
330
5
100
AcDbSymbolTableRecord
100
AcDbLinetypeTableRecord
  2
Continuous
 70
     0
  3
Solid line
 72
    65
 73
     0
 40
0.0
  0
LTYPE
  5
2A
330
5
100
AcDbSymbolTableRecord
100
AcDbLinetypeTableRecord
  2
HIDDEN
 70
     0
  3
Hidden __ __ __ __ __ __ __ __ __ __ __ __ __ __
 72
    65
 73
     2
 40
1.905
 49
1.27
 74
     0
 49
-0.635
 74
     0
  0
LTYPE
  5
2B
330
5
100
AcDbSymbolTableRecord
100
AcDbLinetypeTableRecord
  2
PHANTOM
 70
     0
  3
Phantom ______  __  __  ______  __  __  ______
 72
    65
 73
     6
 40
12.7
 49
6.35
 74
     0
 49
-1.27
 74
     0
 49
1.27
 74
     0
 49
-1.27
 74
     0
 49
1.27
 74
     0
 49
-1.27
 74
     0
  0
LTYPE
  5
2C
330
5
100
AcDbSymbolTableRecord
100
AcDbLinetypeTableRecord
  2
CENTER
 70
     0
  3
Center ____ _ ____ _ ____ _ ____ _ ____ _ ____
 72
    65
 73
     4
 40
10.16
 49
6.35
 74
     0
 49
-1.27
 74
     0
 49
1.27
 74
     0
 49
-1.27
 74
     0
  0
LTYPE
  5
2D
330
5
100
AcDbSymbolTableRecord
100
AcDbLinetypeTableRecord
  2
CENTERX2
 70
     0
  3
Center (2x) ________  __  ________  __  _____
 72
    65
 73
     4
 40
20.32
 49
12.7
 74
     0
 49
-2.54
 74
     0
 49
2.54
 74
     0
 49
-2.54
 74
     0
  0
LTYPE
  5
2E
330
5
100
AcDbSymbolTableRecord
100
AcDbLinetypeTableRecord
  2
DOT2
 70
     0
  3
Dot (.5x) ........................................
 72
    65
 73
     2
 40
0.635
 49
0.0
 74
     0
 49
-0.635
 74
     0
  0
ENDTAB
  0
TABLE
  2
LAYER
  5
2
330
0
100
AcDbSymbolTable
 70
    30
  0
LAYER
  5
10
330
2
100
AcDbSymbolTableRecord
100
AcDbLayerTableRecord
  2
0
 70
     0
 62
     7
  6
Continuous
370
    -3
390
F
  0
LAYER
  5
2F
330
2
100
AcDbSymbolTableRecord
100
AcDbLayerTableRecord
  2
SLD-0
 70
     0
 62
   179
  6
Continuous
370
    -3
390
F
  0
LAYER
  5
30
330
2
100
AcDbSymbolTableRecord
100
AcDbLayerTableRecord
  2
1
 70
     0
 62
   179
  6
Continuous
370
    -3
390
F
  0
LAYER
  5
31
330
2
100
AcDbSymbolTableRecord
100
AcDbLayerTableRecord
  2
2
 70
     0
 62
   179
  6
Continuous
370
    -3
390
F
  0
LAYER
  5
32
330
2
100
AcDbSymbolTableRecord
100
AcDbLayerTableRecord
  2
3
 70
     0
 62
   179
  6
Continuous
370
    -3
390
F
  0
LAYER
  5
33
330
2
100
AcDbSymbolTableRecord
100
AcDbLayerTableRecord
  2
4
 70
     0
 62
   179
  6
Continuous
370
    -3
390
F
  0
LAYER
  5
34
330
2
100
AcDbSymbolTableRecord
100
AcDbLayerTableRecord
  2
5
 70
     0
 62
   179
  6
Continuous
370
    -3
390
F
  0
LAYER
  5
35
330
2
100
AcDbSymbolTableRecord
100
AcDbLayerTableRecord
  2
SLD-DEFPOINTS
 70
     0
 62
   179
  6
Continuous
370
    -3
390
F
  0
LAYER
  5
36
330
2
100
AcDbSymbolTableRecord
100
AcDbLayerTableRecord
  2
$DDT_AUDIT_GENERATED_(30)
 70
     0
 62
     7
  6
Continuous
370
    -3
390
F
  0
LAYER
  5
37
330
2
100
AcDbSymbolTableRecord
100
AcDbLayerTableRecord
  2
シリズムカグー
 70
     0
 62
     7
  6
Continuous
370
    -3
390
F
  0
LAYER
  5
38
330
2
100
AcDbSymbolTableRecord
100
AcDbLayerTableRecord
  2
ﾌﾟﾘ_ﾞﾑﾎﾙﾀﾞｰ
 70
     0
 62
     7
  6
Continuous
370
    -3
390
F
  0
LAYER
  5
39
330
2
100
AcDbSymbolTableRecord
100
AcDbLayerTableRecord
  2
シリズム2
 70
     0
 62
     7
  6
Continuous
370
    -3
390
F
  0
LAYER
  5
3A
330
2
100
AcDbSymbolTableRecord
100
AcDbLayerTableRecord
  2
光源_LED_
 70
     0
 62
     7
  6
Continuous
370
    -3
390
F
  0
LAYER
  5
3B
330
2
100
AcDbSymbolTableRecord
100
AcDbLayerTableRecord
  2
LAYER1
 70
     0
 62
     7
  6
Continuous
370
    -3
390
F
  0
LAYER
  5
3C
330
2
100
AcDbSymbolTableRecord
100
AcDbLayerTableRecord
  2
$DDT_AUDIT_GENERATED_(36)
 70
     0
 62
     7
  6
Continuous
370
    -3
390
F
  0
LAYER
  5
3D
330
2
100
AcDbSymbolTableRecord
100
AcDbLayerTableRecord
  2
カグー板
 70
     0
 62
     7
  6
Continuous
370
    -3
390
F
  0
LAYER
  5
3E
330
2
100
AcDbSymbolTableRecord
100
AcDbLayerTableRecord
  2
DIMENSION
 70
     0
 62
     7
  6
Continuous
370
    -3
390
F
  0
LAYER
  5
3F
330
2
100
AcDbSymbolTableRecord
100
AcDbLayerTableRecord
  2
$DDT_AUDIT_GENERATED_(39)
 70
     0
 62
     7
  6
Continuous
370
    -3
390
F
  0
LAYER
  5
40
330
2
100
AcDbSymbolTableRecord
100
AcDbLayerTableRecord
  2
KCM-4
 70
     0
 62
     7
  6
Continuous
370
    -3
390
F
  0
LAYER
  5
41
330
2
100
AcDbSymbolTableRecord
100
AcDbLayerTableRecord
  2
LAYER7
 70
     0
 62
     7
  6
Continuous
370
    -3
390
F
  0
LAYER
  5
42
330
2
100
AcDbSymbolTableRecord
100
AcDbLayerTableRecord
  2
LAYER4
 70
     0
 62
     7
  6
Continuous
370
    -3
390
F
  0
LAYER
  5
43
330
2
100
AcDbSymbolTableRecord
100
AcDbLayerTableRecord
  2
LAYER6
 70
     0
 62
     7
  6
Continuous
370
    -3
390
F
  0
LAYER
  5
44
330
2
100
AcDbSymbolTableRecord
100
AcDbLayerTableRecord
  2
LAYER5
 70
     0
 62
     7
  6
Continuous
370
    -3
390
F
  0
LAYER
  5
45
330
2
100
AcDbSymbolTableRecord
100
AcDbLayerTableRecord
  2
LAYER11
 70
     0
 62
     7
  6
Continuous
370
    -3
390
F
  0
LAYER
  5
46
330
2
100
AcDbSymbolTableRecord
100
AcDbLayerTableRecord
  2
LAYER12
 70
     0
 62
     7
  6
Continuous
370
    -3
390
F
  0
LAYER
  5
47
330
2
100
AcDbSymbolTableRecord
100
AcDbLayerTableRecord
  2
LAYER2
 70
     0
 62
     7
  6
Continuous
370
    -3
390
F
  0
LAYER
  5
48
330
2
100
AcDbSymbolTableRecord
100
AcDbLayerTableRecord
  2
LAYER9
 70
     0
 62
     7
  6
Continuous
370
    -3
390
F
  0
LAYER
  5
49
330
2
100
AcDbSymbolTableRecord
100
AcDbLayerTableRecord
  2
LAYER3
 70
     0
 62
     7
  6
Continuous
370
    -3
390
F
  0
LAYER
  5
4A
330
2
100
AcDbSymbolTableRecord
100
AcDbLayerTableRecord
  2
$CONSTRUCTION
 70
     0
 62
    -9
  6
CENTERX2
370
    -3
390
F
  0
LAYER
  5
4B
330
2
100
AcDbSymbolTableRecord
100
AcDbLayerTableRecord
  2
99
 70
     0
 62
    -3
  6
Continuous
370
    -3
390
F
  0
ENDTAB
  0
TABLE
  2
STYLE
  5
3
330
0
100
AcDbSymbolTable
 70
     9
  0
STYLE
  5
11
330
3
100
AcDbSymbolTableRecord
100
AcDbTextStyleTableRecord
  2
Standard
 70
     0
 40
0.0
 41
1.0
 50
0.0
 71
     0
 42
2.5
  3
txt
  4
bigfont
  0
STYLE
  5
134
330
3
100
AcDbSymbolTableRecord
100
AcDbTextStyleTableRecord
  2
SLDTEXTSTYLE0
 70
     0
 40
0.0
 41
0.7
 50
0.0
 71
     0
 42
0.2
  3
TXT
  4
bigfont
  0
STYLE
  5
1FF
330
3
100
AcDbSymbolTableRecord
100
AcDbTextStyleTableRecord
  2
SLDTEXTSTYLE1
 70
     0
 40
0.0
 41
0.63
 50
0.0
 71
     0
 42
0.2
  3
TXT
  4
bigfont
  0
STYLE
  5
203
330
3
100
AcDbSymbolTableRecord
100
AcDbTextStyleTableRecord
  2
SLDTEXTSTYLE2
 70
     0
 40
0.0
 41
0.315
 50
0.0
 71
     0
 42
0.2
  3
TXT
  4
bigfont
  0
STYLE
  5
207
330
3
100
AcDbSymbolTableRecord
100
AcDbTextStyleTableRecord
  2
SLDTEXTSTYLE3
 70
     0
 40
0.0
 41
0.3722727273
 50
0.0
 71
     0
 42
0.2
  3
TXT
  4
bigfont
  0
STYLE
  5
20A
330
3
100
AcDbSymbolTableRecord
100
AcDbTextStyleTableRecord
  2
SLDTEXTSTYLE4
 70
     0
 40
0.0
 41
0.39375
 50
0.0
 71
     0
 42
0.2
  3
TXT
  4
bigfont
  0
STYLE
  5
20E
330
3
100
AcDbSymbolTableRecord
100
AcDbTextStyleTableRecord
  2
SLDTEXTSTYLE5
 70
     0
 40
0.0
 41
0.4725
 50
0.0
 71
     0
 42
0.2
  3
TXT
  4
bigfont
  0
STYLE
  5
212
330
3
100
AcDbSymbolTableRecord
100
AcDbTextStyleTableRecord
  2
SLDTEXTSTYLE6
 70
     0
 40
0.0
 41
0.441
 50
0.0
 71
     0
 42
0.2
  3
TXT
  4
bigfont
  0
STYLE
  5
214
330
3
100
AcDbSymbolTableRecord
100
AcDbTextStyleTableRecord
  2
SLDTEXTSTYLE7
 70
     0
 40
0.0
 41
0.441
 50
0.0
 71
     0
 42
0.2
  3
TXT
  4
bigfont
  0
ENDTAB
  0
TABLE
  2
VIEW
  5
6
330
0
100
AcDbSymbolTable
 70
     0
  0
ENDTAB
  0
TABLE
  2
UCS
  5
7
330
0
100
AcDbSymbolTable
 70
     0
  0
ENDTAB
  0
TABLE
  2
APPID
  5
9
330
0
100
AcDbSymbolTable
 70
     1
  0
APPID
  5
12
330
9
100
AcDbSymbolTableRecord
100
AcDbRegAppTableRecord
  2
ACAD
 70
     0
  0
ENDTAB
  0
TABLE
  2
DIMSTYLE
  5
A
330
0
100
AcDbSymbolTable
 70
     8
100
AcDbDimStyleTable
  0
DIMSTYLE
105
27
330
A
100
AcDbSymbolTableRecord
100
AcDbDimStyleTableRecord
  2
ISO-25
 70
     0
 41
2.5
 42
0.625
 43
3.75
 44
1.25
 73
     0
 74
     0
 77
     1
 78
     8
140
2.5
141
2.5
143
0.0393700787
147
0.625
171
     3
172
     1
271
     2
272
     2
274
     3
278
    44
283
     0
284
     8
340
11
  0
DIMSTYLE
105
135
102
{ACAD_REACTORS
330
133
102
}
330
A
100
AcDbSymbolTableRecord
100
AcDbDimStyleTableRecord
  2
SLDDIMSTYLE0
 70
     0
 41
3.0
 44
0.0
 48
0.05
 71
     1
 73
     0
 74
     0
 77
     3
 78
    12
140
4.2443576389
147
1.0610894097
173
     1
271
     0
272
     2
340
134
341
136
343
136
344
136
  0
DIMSTYLE
105
14C
102
{ACAD_REACTORS
330
14B
330
159
330
164
330
17C
330
1B0
330
1DE
102
}
330
A
100
AcDbSymbolTableRecord
100
AcDbDimStyleTableRecord
  2
SLDDIMSTYLE1
 70
     0
 41
3.0
 44
0.0
 73
     0
 74
     0
 77
     3
 78
    12
140
4.2443576389
147
1.0610894097
173
     1
271
     0
284
    12
340
134
341
136
343
136
344
136
  0
DIMSTYLE
105
172
102
{ACAD_REACTORS
330
171
330
186
102
}
330
A
100
AcDbSymbolTableRecord
100
AcDbDimStyleTableRecord
  2
SLDDIMSTYLE2
 70
     0
 41
3.0
 44
0.0
 73
     0
 74
     0
 77
     3
 78
    12
140
4.2443576389
147
1.0610894097
173
     1
271
     1
284
    12
340
134
341
136
343
136
344
136
  0
DIMSTYLE
105
191
102
{ACAD_REACTORS
330
190
102
}
330
A
100
AcDbSymbolTableRecord
100
AcDbDimStyleTableRecord
  2
SLDDIMSTYLE3
 70
     0
 41
3.0
 44
0.0
 73
     0
 74
     0
 77
     3
 78
    12
140
3.6380208333
147
0.9095052083
173
     1
271
     1
284
    12
340
134
341
136
343
136
344
136
  0
DIMSTYLE
105
1A0
102
{ACAD_REACTORS
330
19F
102
}
330
A
100
AcDbSymbolTableRecord
100
AcDbDimStyleTableRecord
  2
SLDDIMSTYLE4
 70
     0
 41
3.0
 44
0.0
 48
0.1
 71
     1
 73
     0
 74
     0
 77
     3
 78
    12
140
4.2443576389
147
1.0610894097
173
     1
271
     0
272
     1
340
134
341
136
343
136
344
136
  0
DIMSTYLE
105
1BD
102
{ACAD_REACTORS
330
1BC
330
1D4
330
1E8
330
1F4
102
}
330
A
100
AcDbSymbolTableRecord
100
AcDbDimStyleTableRecord
  2
SLDDIMSTYLE5
 70
     0
 41
3.0
 44
0.0
 73
     0
 74
     0
 77
     3
 78
    12
140
4.2443576389
147
1.0610894097
173
     1
271
     2
284
    12
340
134
341
136
343
136
344
136
  0
DIMSTYLE
105
1CA
102
{ACAD_REACTORS
330
1C9
102
}
330
A
100
AcDbSymbolTableRecord
100
AcDbDimStyleTableRecord
  2
SLDDIMSTYLE6
 70
     0
 41
3.0
 44
0.0
 73
     0
 74
     0
 77
     3
 78
    12
140
4.8506944444
147
1.2126736111
173
     1
271
     2
284
    12
340
134
341
136
343
136
344
136
  0
ENDTAB
  0
TABLE
  2
BLOCK_RECORD
  5
1
330
0
100
AcDbSymbolTable
 70
    20
  0
BLOCK_RECORD
  5
1F
330
1
100
AcDbSymbolTableRecord
100
AcDbBlockTableRecord
  2
*Model_Space
340
22
  0
BLOCK_RECORD
  5
1B
330
1
100
AcDbSymbolTableRecord
100
AcDbBlockTableRecord
  2
*Paper_Space
340
1E
  0
BLOCK_RECORD
  5
23
330
1
100
AcDbSymbolTableRecord
100
AcDbBlockTableRecord
  2
*Paper_Space0
340
26
  0
BLOCK_RECORD
  5
136
330
1
100
AcDbSymbolTableRecord
100
AcDbBlockTableRecord
  2
_Open30
340
0
102
{BLKREFS
331
13F
331
140
331
150
331
151
331
15D
331
15E
331
168
331
169
331
176
331
177
331
180
331
181
331
18A
331
18B
331
195
331
196
331
1A4
331
1A5
331
1B4
331
1B5
331
1C1
331
1C2
331
1CE
331
1CF
331
1D8
331
1D9
331
1E2
331
1E3
331
1EC
331
1ED
331
1F8
331
1F9
102
}
1001
ACAD
1000
DesignCenter Data
1002
{
1070
     1
1070
     0
1002
}
  0
BLOCK_RECORD
  5
13C
330
1
100
AcDbSymbolTableRecord
100
AcDbBlockTableRecord
  2
*D2
340
0
  0
BLOCK_RECORD
  5
14D
330
1
100
AcDbSymbolTableRecord
100
AcDbBlockTableRecord
  2
*D3
340
0
  0
BLOCK_RECORD
  5
15A
330
1
100
AcDbSymbolTableRecord
100
AcDbBlockTableRecord
  2
*D4
340
0
  0
BLOCK_RECORD
  5
165
330
1
100
AcDbSymbolTableRecord
100
AcDbBlockTableRecord
  2
*D5
340
0
  0
BLOCK_RECORD
  5
173
330
1
100
AcDbSymbolTableRecord
100
AcDbBlockTableRecord
  2
*D6
340
0
  0
BLOCK_RECORD
  5
17D
330
1
100
AcDbSymbolTableRecord
100
AcDbBlockTableRecord
  2
*D7
340
0
  0
BLOCK_RECORD
  5
187
330
1
100
AcDbSymbolTableRecord
100
AcDbBlockTableRecord
  2
*D8
340
0
  0
BLOCK_RECORD
  5
192
330
1
100
AcDbSymbolTableRecord
100
AcDbBlockTableRecord
  2
*D9
340
0
  0
BLOCK_RECORD
  5
1A1
330
1
100
AcDbSymbolTableRecord
100
AcDbBlockTableRecord
  2
*D10
340
0
  0
BLOCK_RECORD
  5
1B1
330
1
100
AcDbSymbolTableRecord
100
AcDbBlockTableRecord
  2
*D11
340
0
  0
BLOCK_RECORD
  5
1BE
330
1
100
AcDbSymbolTableRecord
100
AcDbBlockTableRecord
  2
*D12
340
0
  0
BLOCK_RECORD
  5
1CB
330
1
100
AcDbSymbolTableRecord
100
AcDbBlockTableRecord
  2
*D13
340
0
  0
BLOCK_RECORD
  5
1D5
330
1
100
AcDbSymbolTableRecord
100
AcDbBlockTableRecord
  2
*D14
340
0
  0
BLOCK_RECORD
  5
1DF
330
1
100
AcDbSymbolTableRecord
100
AcDbBlockTableRecord
  2
*D15
340
0
  0
BLOCK_RECORD
  5
1E9
330
1
100
AcDbSymbolTableRecord
100
AcDbBlockTableRecord
  2
*D16
340
0
  0
BLOCK_RECORD
  5
1F5
330
1
100
AcDbSymbolTableRecord
100
AcDbBlockTableRecord
  2
*D17
340
0
  0
BLOCK_RECORD
  5
240
330
1
100
AcDbSymbolTableRecord
100
AcDbBlockTableRecord
  2
SW_NOTE_0
340
0
102
{BLKREFS
331
245
102
}
1001
ACAD
1000
DesignCenter Data
1002
{
1070
     1
1070
     0
1002
}
  0
BLOCK_RECORD
  5
24C
330
1
100
AcDbSymbolTableRecord
100
AcDbBlockTableRecord
  2
SW_TABLEANNOTATION_0
340
0
102
{BLKREFS
331
26D
102
}
1001
ACAD
1000
DesignCenter Data
1002
{
1070
     1
1070
     0
1002
}
  0
ENDTAB
  0
ENDSEC
  0
SECTION
  2
BLOCKS
  0
BLOCK
  5
20
330
1F
100
AcDbEntity
  8
0
100
AcDbBlockBegin
  2
*Model_Space
 70
     0
 71
     0
 10
0.0
 20
0.0
 30
0.0
  3
*Model_Space
  1

  0
ENDBLK
  5
21
330
1F
100
AcDbEntity
  8
0
100
AcDbBlockEnd
  0
BLOCK
  5
1C
330
1B
100
AcDbEntity
 67
     1
  8
0
100
AcDbBlockBegin
  2
*Paper_Space
 70
     0
 71
     0
 10
0.0
 20
0.0
 30
0.0
  3
*Paper_Space
  1

  0
ENDBLK
  5
1D
330
1B
100
AcDbEntity
 67
     1
  8
0
100
AcDbBlockEnd
  0
BLOCK
  5
24
330
23
100
AcDbEntity
  8
0
100
AcDbBlockBegin
  2
*Paper_Space0
 70
     0
 71
     0
 10
0.0
 20
0.0
 30
0.0
  3
*Paper_Space0
  1

  0
ENDBLK
  5
25
330
23
100
AcDbEntity
  8
0
100
AcDbBlockEnd
  0
BLOCK
  5
137
330
136
100
AcDbEntity
  8
0
100
AcDbBlockBegin
  2
_Open30
 70
     0
 71
     0
 10
0.0
 20
0.0
 30
0.0
  3
_Open30
  1

  0
LINE
  5
139
330
136
100
AcDbEntity
  8
0
  6
ByBlock
 62
     0
370
    -2
100
AcDbLine
 10
-1.0
 20
0.267949
 30
0.0
 11
0.0
 21
0.0
 31
0.0
  0
LINE
  5
13A
330
136
100
AcDbEntity
  8
0
  6
ByBlock
 62
     0
370
    -2
100
AcDbLine
 10
0.0
 20
0.0
 30
0.0
 11
-1.0
 21
-0.267949
 31
0.0
  0
LINE
  5
13B
330
136
100
AcDbEntity
  8
0
  6
ByBlock
 62
     0
370
    -2
100
AcDbLine
 10
0.0
 20
0.0
 30
0.0
 11
-1.0
 21
0.0
 31
0.0
  0
ENDBLK
  5
138
330
136
100
AcDbEntity
  8
0
100
AcDbBlockEnd
  0
BLOCK
  5
13D
330
13C
100
AcDbEntity
  8
0
100
AcDbBlockBegin
  2
*D2
 70
     1
 71
     0
 10
0.0
 20
0.0
 30
0.0
  3
*D2
  1

  0
INSERT
  5
13F
330
13C
100
AcDbEntity
  8
SLD-0
 62
   179
100
AcDbBlockReference
  2
_Open30
 10
179.7774603422
 20
153.7677781088
 30
0.1
 41
3.0
 42
3.0
 50
90.0
  0
INSERT
  5
140
330
13C
100
AcDbEntity
  8
SLD-0
 62
   179
100
AcDbBlockReference
  2
_Open30
 10
179.7774603422
 20
187.7677781088
 30
0.1
 41
3.0
 42
3.0
 50
270.0
  0
LINE
  5
141
330
13C
100
AcDbEntity
  8
SLD-0
 62
   179
100
AcDbLine
 10
189.5498000649
 20
153.7677781088
 30
0.0
 11
178.7774603422
 21
153.7677781088
 31
0.0
  0
LINE
  5
142
330
13C
100
AcDbEntity
  8
SLD-0
 62
   179
100
AcDbLine
 10
189.5498000649
 20
187.7677781088
 30
0.0
 11
178.7774603422
 21
187.7677781088
 31
0.0
  0
LINE
  5
143
330
13C
100
AcDbEntity
  8
SLD-0
 62
   179
100
AcDbLine
 10
179.7774603422
 20
153.7677781088
 30
0.0
 11
179.7774603422
 21
147.7677781088
 31
0.0
  0
LINE
  5
144
330
13C
100
AcDbEntity
  8
SLD-0
 62
   179
100
AcDbLine
 10
179.7774603422
 20
153.7677781088
 30
0.0
 11
179.7774603422
 21
187.7677781088
 31
0.0
  0
LINE
  5
145
330
13C
100
AcDbEntity
  8
SLD-0
 62
   179
100
AcDbLine
 10
179.7774603422
 20
187.7677781088
 30
0.0
 11
179.7774603422
 21
193.7677781088
 31
0.0
  0
MTEXT
  5
146
330
13C
100
AcDbEntity
  8
SLD-0
 62
   179
100
AcDbMText
 10
175.4671571954
 20
161.0939488405
 30
0.0
 40
3.7041666667
 41
0.0
 71
     1
 72
     1
  1
%%c
  7
SLDTEXTSTYLE0
 11
6.123031769111886E-17
 21
1.0
 31
0.0
 73
     1
 44
1.0
  0
MTEXT
  5
147
330
13C
100
AcDbEntity
  8
SLD-0
 62
   179
100
AcDbMText
 10
175.4671571954
 20
165.7828390844
 30
0.0
 40
3.7041666667
 41
0.0
 71
     1
 72
     1
  1
34
  7
SLDTEXTSTYLE0
 11
6.123031769111886E-17
 21
1.0
 31
0.0
 73
     1
 44
1.0
  0
MTEXT
  5
148
330
13C
100
AcDbEntity
  8
SLD-0
 62
   179
100
AcDbMText
 10
176.2427692852
 20
171.8997293283
 30
0.0
 40
2.9104166667
 41
0.0
 71
     1
 72
     1
  1
-
  7
SLDTEXTSTYLE0
 11
6.123031769111886E-17
 21
1.0
 31
0.0
 73
     1
 44
1.0
  0
MTEXT
  5
149
330
13C
100
AcDbEntity
  8
SLD-0
 62
   179
100
AcDbMText
 10
176.2427692852
 20
173.8371073771
 30
0.0
 40
2.9104166667
 41
0.0
 71
     1
 72
     1
  1
0.05
  7
SLDTEXTSTYLE0
 11
6.123031769111886E-17
 21
1.0
 31
0.0
 73
     1
 44
1.0
  0
MTEXT
  5
14A
330
13C
100
AcDbEntity
  8
SLD-0
 62
   179
100
AcDbMText
 10
172.3636595291
 20
173.8371073771
 30
0.0
 40
2.9104166667
 41
0.0
 71
     1
 72
     1
  1
0.00
  7
SLDTEXTSTYLE0
 11
6.123031769111886E-17
 21
1.0
 31
0.0
 73
     1
 44
1.0
  0
ENDBLK
  5
13E
330
13C
100
AcDbEntity
  8
0
100
AcDbBlockEnd
  0
BLOCK
  5
14E
330
14D
100
AcDbEntity
  8
0
100
AcDbBlockBegin
  2
*D3
 70
     1
 71
     0
 10
0.0
 20
0.0
 30
0.0
  3
*D3
  1

  0
INSERT
  5
150
330
14D
100
AcDbEntity
  8
SLD-0
 62
   179
100
AcDbBlockReference
  2
_Open30
 10
306.9595342202
 20
116.2516524437
 30
0.1
 41
3.0
 42
3.0
 50
180.0
  0
INSERT
  5
151
330
14D
100
AcDbEntity
  8
SLD-0
 62
   179
100
AcDbBlockReference
  2
_Open30
 10
298.9595342202
 20
116.2516524437
 30
0.1
 41
3.0
 42
3.0
 50
360.0
  0
LINE
  5
152
330
14D
100
AcDbEntity
  8
SLD-0
 62
   179
100
AcDbLine
 10
306.9595342202
 20
125.0177781088
 30
0.0
 11
306.9595342202
 21
115.2516524437
 31
0.0
  0
LINE
  5
153
330
14D
100
AcDbEntity
  8
SLD-0
 62
   179
100
AcDbLine
 10
298.9595342202
 20
125.0177781088
 30
0.0
 11
298.9595342202
 21
115.2516524437
 31
0.0
  0
LINE
  5
154
330
14D
100
AcDbEntity
  8
SLD-0
 62
   179
100
AcDbLine
 10
306.9595342202
 20
116.2516524437
 30
0.0
 11
312.9595342202
 21
116.2516524437
 31
0.0
  0
LINE
  5
155
330
14D
100
AcDbEntity
  8
SLD-0
 62
   179
100
AcDbLine
 10
306.9595342202
 20
116.2516524437
 30
0.0
 11
298.9595342202
 21
116.2516524437
 31
0.0
  0
LINE
  5
156
330
14D
100
AcDbEntity
  8
SLD-0
 62
   179
100
AcDbLine
 10
298.9595342202
 20
116.2516524437
 30
0.0
 11
292.9595342202
 21
116.2516524437
 31
0.0
  0
MTEXT
  5
157
330
14D
100
AcDbEntity
  8
SLD-0
 62
   179
100
AcDbMText
 10
299.3808269032
 20
120.5619555904
 30
0.0
 40
3.7041666667
 41
0.0
 71
     1
 72
     1
  1
%%c
  7
SLDTEXTSTYLE0
 73
     1
 44
1.0
  0
MTEXT
  5
158
330
14D
100
AcDbEntity
  8
SLD-0
 62
   179
100
AcDbMText
 10
304.0697171471
 20
120.5619555904
 30
0.0
 40
3.7041666667
 41
0.0
 71
     1
 72
     1
  1
8
  7
SLDTEXTSTYLE0
 73
     1
 44
1.0
  0
ENDBLK
  5
14F
330
14D
100
AcDbEntity
  8
0
100
AcDbBlockEnd
  0
BLOCK
  5
15B
330
15A
100
AcDbEntity
  8
0
100
AcDbBlockBegin
  2
*D4
 70
     1
 71
     0
 10
0.0
 20
0.0
 30
0.0
  3
*D4
  1

  0
INSERT
  5
15D
330
15A
100
AcDbEntity
  8
SLD-0
 62
   179
100
AcDbBlockReference
  2
_Open30
 10
189.8595342202
 20
213.6528746619
 30
0.1
 41
3.0
 42
3.0
 50
360.0
  0
INSERT
  5
15E
330
15A
100
AcDbEntity
  8
SLD-0
 62
   179
100
AcDbBlockReference
  2
_Open30
 10
60.7339116174
 20
213.6528746619
 30
0.1
 41
3.0
 42
3.0
 50
180.0
  0
LINE
  5
15F
330
15A
100
AcDbEntity
  8
SLD-0
 62
   179
100
AcDbLine
 10
189.8595342202
 20
188.7677781088
 30
0.0
 11
189.8595342202
 21
214.6528746619
 31
0.0
  0
LINE
  5
160
330
15A
100
AcDbEntity
  8
SLD-0
 62
   179
100
AcDbLine
 10
60.7339116174
 20
175.0549420497
 30
0.0
 11
60.7339116174
 21
214.6528746619
 31
0.0
  0
LINE
  5
161
330
15A
100
AcDbEntity
  8
SLD-0
 62
   179
100
AcDbLine
 10
189.8595342202
 20
213.6528746619
 30
0.0
 11
60.7339116174
 21
213.6528746619
 31
0.0
  0
MTEXT
  5
162
330
15A
100
AcDbEntity
  8
SLD-0
 62
   179
100
AcDbMText
 10
117.3621802359
 20
217.9631778086
 30
0.0
 40
3.7041666667
 41
0.0
 71
     1
 72
     1
  1
WD=
  7
SLDTEXTSTYLE0
 73
     1
 44
1.0
  0
MTEXT
  5
163
330
15A
100
AcDbEntity
  8
SLD-0
 62
   179
100
AcDbMText
 10
126.6964241383
 20
217.9631778086
 30
0.0
 40
3.7041666667
 41
0.0
 71
     1
 72
     1
  1
400
  7
SLDTEXTSTYLE0
 73
     1
 44
1.0
  0
ENDBLK
  5
15C
330
15A
100
AcDbEntity
  8
0
100
AcDbBlockEnd
  0
BLOCK
  5
166
330
165
100
AcDbEntity
  8
0
100
AcDbBlockBegin
  2
*D5
 70
     1
 71
     0
 10
0.0
 20
0.0
 30
0.0
  3
*D5
  1

  0
INSERT
  5
168
330
165
100
AcDbEntity
  8
SLD-0
 62
   179
100
AcDbBlockReference
  2
_Open30
 10
311.9595342202
 20
109.4582998999
 30
0.1
 41
3.0
 42
3.0
 50
180.0
  0
INSERT
  5
169
330
165
100
AcDbEntity
  8
SLD-0
 62
   179
100
AcDbBlockReference
  2
_Open30
 10
293.9595342202
 20
109.4582998999
 30
0.1
 41
3.0
 42
3.0
 50
360.0
  0
LINE
  5
16A
330
165
100
AcDbEntity
  8
SLD-0
 62
   179
100
AcDbLine
 10
311.9595342202
 20
125.2677781088
 30
0.0
 11
311.9595342202
 21
108.4582998999
 31
0.0
  0
LINE
  5
16B
330
165
100
AcDbEntity
  8
SLD-0
 62
   179
100
AcDbLine
 10
293.9595342202
 20
125.2677781088
 30
0.0
 11
293.9595342202
 21
108.4582998999
 31
0.0
  0
LINE
  5
16C
330
165
100
AcDbEntity
  8
SLD-0
 62
   179
100
AcDbLine
 10
311.9595342202
 20
109.4582998999
 30
0.0
 11
317.9595342202
 21
109.4582998999
 31
0.0
  0
LINE
  5
16D
330
165
100
AcDbEntity
  8
SLD-0
 62
   179
100
AcDbLine
 10
311.9595342202
 20
109.4582998999
 30
0.0
 11
293.9595342202
 21
109.4582998999
 31
0.0
  0
LINE
  5
16E
330
165
100
AcDbEntity
  8
SLD-0
 62
   179
100
AcDbLine
 10
293.9595342202
 20
109.4582998999
 30
0.0
 11
287.9595342202
 21
109.4582998999
 31
0.0
  0
MTEXT
  5
16F
330
165
100
AcDbEntity
  8
SLD-0
 62
   179
100
AcDbMText
 10
298.146564708
 20
113.7686030466
 30
0.0
 40
3.7041666667
 41
0.0
 71
     1
 72
     1
  1
%%c
  7
SLDTEXTSTYLE0
 73
     1
 44
1.0
  0
MTEXT
  5
170
330
165
100
AcDbEntity
  8
SLD-0
 62
   179
100
AcDbMText
 10
302.8354549519
 20
113.7686030466
 30
0.0
 40
3.7041666667
 41
0.0
 71
     1
 72
     1
  1
18
  7
SLDTEXTSTYLE0
 73
     1
 44
1.0
  0
ENDBLK
  5
167
330
165
100
AcDbEntity
  8
0
100
AcDbBlockEnd
  0
BLOCK
  5
174
330
173
100
AcDbEntity
  8
0
100
AcDbBlockBegin
  2
*D6
 70
     1
 71
     0
 10
0.0
 20
0.0
 30
0.0
  3
*D6
  1

  0
INSERT
  5
176
330
173
100
AcDbEntity
  8
SLD-0
 62
   179
100
AcDbBlockReference
  2
_Open30
 10
286.9595342202
 20
206.5449200861
 30
0.1
 41
3.0
 42
3.0
 50
360.0
  0
INSERT
  5
177
330
173
100
AcDbEntity
  8
SLD-0
 62
   179
100
AcDbBlockReference
  2
_Open30
 10
189.8595342202
 20
206.5449200861
 30
0.1
 41
3.0
 42
3.0
 50
180.0
  0
LINE
  5
178
330
173
100
AcDbEntity
  8
SLD-0
 62
   179
100
AcDbLine
 10
286.9595342202
 20
188.7677781088
 30
0.0
 11
286.9595342202
 21
207.5449200861
 31
0.0
  0
LINE
  5
179
330
173
100
AcDbEntity
  8
SLD-0
 62
   179
100
AcDbLine
 10
189.8595342202
 20
188.4677781088
 30
0.0
 11
189.8595342202
 21
207.5449200861
 31
0.0
  0
LINE
  5
17A
330
173
100
AcDbEntity
  8
SLD-0
 62
   179
100
AcDbLine
 10
286.9595342202
 20
206.5449200861
 30
0.0
 11
189.8595342202
 21
206.5449200861
 31
0.0
  0
MTEXT
  5
17B
330
173
100
AcDbEntity
  8
SLD-0
 62
   179
100
AcDbMText
 10
234.2060769032
 20
210.8552232328
 30
0.0
 40
3.7041666667
 41
0.0
 71
     1
 72
     1
  1
97.1
  7
SLDTEXTSTYLE0
 73
     1
 44
1.0
  0
ENDBLK
  5
175
330
173
100
AcDbEntity
  8
0
100
AcDbBlockEnd
  0
BLOCK
  5
17E
330
17D
100
AcDbEntity
  8
0
100
AcDbBlockBegin
  2
*D7
 70
     1
 71
     0
 10
0.0
 20
0.0
 30
0.0
  3
*D7
  1

  0
INSERT
  5
180
330
17D
100
AcDbEntity
  8
SLD-0
 62
   179
100
AcDbBlockReference
  2
_Open30
 10
316.9595342202
 20
206.5449200861
 30
0.1
 41
3.0
 42
3.0
 50
360.0
  0
INSERT
  5
181
330
17D
100
AcDbEntity
  8
SLD-0
 62
   179
100
AcDbBlockReference
  2
_Open30
 10
286.9595342202
 20
206.5449200861
 30
0.1
 41
3.0
 42
3.0
 50
180.0
  0
LINE
  5
182
330
17D
100
AcDbEntity
  8
SLD-0
 62
   179
100
AcDbLine
 10
316.9595342202
 20
186.2677781088
 30
0.0
 11
316.9595342202
 21
207.5449200861
 31
0.0
  0
LINE
  5
183
330
17D
100
AcDbEntity
  8
SLD-0
 62
   179
100
AcDbLine
 10
286.9595342202
 20
188.7677781088
 30
0.0
 11
286.9595342202
 21
207.5449200861
 31
0.0
  0
LINE
  5
184
330
17D
100
AcDbEntity
  8
SLD-0
 62
   179
100
AcDbLine
 10
316.9595342202
 20
206.5449200861
 30
0.0
 11
286.9595342202
 21
206.5449200861
 31
0.0
  0
MTEXT
  5
185
330
17D
100
AcDbEntity
  8
SLD-0
 62
   179
100
AcDbMText
 10
299.49100983
 20
210.8552232328
 30
0.0
 40
3.7041666667
 41
0.0
 71
     1
 72
     1
  1
30
  7
SLDTEXTSTYLE0
 73
     1
 44
1.0
  0
ENDBLK
  5
17F
330
17D
100
AcDbEntity
  8
0
100
AcDbBlockEnd
  0
BLOCK
  5
188
330
187
100
AcDbEntity
  8
0
100
AcDbBlockBegin
  2
*D8
 70
     1
 71
     0
 10
0.0
 20
0.0
 30
0.0
  3
*D8
  1

  0
INSERT
  5
18A
330
187
100
AcDbEntity
  8
SLD-0
 62
   179
100
AcDbBlockReference
  2
_Open30
 10
302.9595342202
 20
100.8465179034
 30
0.1
 41
3.0
 42
3.0
 50
360.0
  0
INSERT
  5
18B
330
187
100
AcDbEntity
  8
SLD-0
 62
   179
100
AcDbBlockReference
  2
_Open30
 10
189.8595342202
 20
100.8465179034
 30
0.1
 41
3.0
 42
3.0
 50
180.0
  0
LINE
  5
18C
330
187
100
AcDbEntity
  8
SLD-0
 62
   179
100
AcDbLine
 10
302.9595342202
 20
108.4582998999
 30
0.0
 11
302.9595342202
 21
99.8465179034
 31
0.0
  0
LINE
  5
18D
330
187
100
AcDbEntity
  8
SLD-0
 62
   179
100
AcDbLine
 10
189.8595342202
 20
152.7677781088
 30
0.0
 11
189.8595342202
 21
99.8465179034
 31
0.0
  0
LINE
  5
18E
330
187
100
AcDbEntity
  8
SLD-0
 62
   179
100
AcDbLine
 10
302.9595342202
 20
100.8465179034
 30
0.0
 11
189.8595342202
 21
100.8465179034
 31
0.0
  0
MTEXT
  5
18F
330
187
100
AcDbEntity
  8
SLD-0
 62
   179
100
AcDbMText
 10
241.1731271709
 20
105.1568210501
 30
0.0
 40
3.7041666667
 41
0.0
 71
     1
 72
     1
  1
113.1
  7
SLDTEXTSTYLE0
 73
     1
 44
1.0
  0
ENDBLK
  5
189
330
187
100
AcDbEntity
  8
0
100
AcDbBlockEnd
  0
BLOCK
  5
193
330
192
100
AcDbEntity
  8
0
100
AcDbBlockBegin
  2
*D9
 70
     1
 71
     0
 10
0.0
 20
0.0
 30
0.0
  3
*D9
  1

  0
INSERT
  5
195
330
192
100
AcDbEntity
  8
SLD-0
 62
   179
100
AcDbBlockReference
  2
_Open30
 10
372.7008350863
 20
158.0677781088
 30
0.1
 41
3.0
 42
3.0
 50
90.0
  0
INSERT
  5
196
330
192
100
AcDbEntity
  8
SLD-0
 62
   179
100
AcDbBlockReference
  2
_Open30
 10
372.7008350863
 20
183.4677781088
 30
0.1
 41
3.0
 42
3.0
 50
270.0
  0
LINE
  5
197
330
192
100
AcDbEntity
  8
SLD-0
 62
   179
100
AcDbLine
 10
344.1795342202
 20
158.0677781088
 30
0.0
 11
373.7008350863
 21
158.0677781088
 31
0.0
  0
LINE
  5
198
330
192
100
AcDbEntity
  8
SLD-0
 62
   179
100
AcDbLine
 10
344.1795342202
 20
183.4677781088
 30
0.0
 11
373.7008350863
 21
183.4677781088
 31
0.0
  0
LINE
  5
199
330
192
100
AcDbEntity
  8
SLD-0
 62
   179
100
AcDbLine
 10
372.7008350863
 20
158.0677781088
 30
0.0
 11
372.7008350863
 21
152.0677781088
 31
0.0
  0
LINE
  5
19A
330
192
100
AcDbEntity
  8
SLD-0
 62
   179
100
AcDbLine
 10
372.7008350863
 20
158.0677781088
 30
0.0
 11
372.7008350863
 21
183.4677781088
 31
0.0
  0
LINE
  5
19B
330
192
100
AcDbEntity
  8
SLD-0
 62
   179
100
AcDbLine
 10
372.7008350863
 20
183.4677781088
 30
0.0
 11
372.7008350863
 21
189.4677781088
 31
0.0
  0
MTEXT
  5
19C
330
192
100
AcDbEntity
  8
SLD-0
 62
   179
100
AcDbMText
 10
369.0062897482
 20
159.5372344755
 30
0.0
 40
3.175
 41
0.0
 71
     1
 72
     1
  1
M
  7
SLDTEXTSTYLE0
 11
6.123031769111886E-17
 21
1.0
 31
0.0
 73
     1
 44
1.0
  0
MTEXT
  5
19D
330
192
100
AcDbEntity
  8
SLD-0
 62
   179
100
AcDbMText
 10
369.0062897482
 20
162.6762222804
 30
0.0
 40
3.175
 41
0.0
 71
     1
 72
     1
  1
25.4
  7
SLDTEXTSTYLE0
 11
6.123031769111886E-17
 21
1.0
 31
0.0
 73
     1
 44
1.0
  0
MTEXT
  5
19E
330
192
100
AcDbEntity
  8
SLD-0
 62
   179
100
AcDbMText
 10
369.0062897482
 20
169.8815271584
 30
0.0
 40
3.175
 41
0.0
 71
     1
 72
     1
  1
 UNC1
  7
SLDTEXTSTYLE0
 11
6.123031769111886E-17
 21
1.0
 31
0.0
 73
     1
 44
1.0
  0
ENDBLK
  5
194
330
192
100
AcDbEntity
  8
0
100
AcDbBlockEnd
  0
BLOCK
  5
1A2
330
1A1
100
AcDbEntity
  8
0
100
AcDbBlockBegin
  2
*D10
 70
     1
 71
     0
 10
0.0
 20
0.0
 30
0.0
  3
*D10
  1

  0
INSERT
  5
1A4
330
1A1
100
AcDbEntity
  8
SLD-0
 62
   179
100
AcDbBlockReference
  2
_Open30
 10
385.0616126785
 20
155.7677781088
 30
0.1
 41
3.0
 42
3.0
 50
90.0
  0
INSERT
  5
1A5
330
1A1
100
AcDbEntity
  8
SLD-0
 62
   179
100
AcDbBlockReference
  2
_Open30
 10
385.0616126785
 20
185.7677781088
 30
0.1
 41
3.0
 42
3.0
 50
270.0
  0
LINE
  5
1A6
330
1A1
100
AcDbEntity
  8
SLD-0
 62
   179
100
AcDbLine
 10
340.5795342202
 20
155.7677781088
 30
0.0
 11
386.0616126785
 21
155.7677781088
 31
0.0
  0
LINE
  5
1A7
330
1A1
100
AcDbEntity
  8
SLD-0
 62
   179
100
AcDbLine
 10
340.5795342202
 20
185.7677781088
 30
0.0
 11
386.0616126785
 21
185.7677781088
 31
0.0
  0
LINE
  5
1A8
330
1A1
100
AcDbEntity
  8
SLD-0
 62
   179
100
AcDbLine
 10
385.0616126785
 20
155.7677781088
 30
0.0
 11
385.0616126785
 21
149.7677781088
 31
0.0
  0
LINE
  5
1A9
330
1A1
100
AcDbEntity
  8
SLD-0
 62
   179
100
AcDbLine
 10
385.0616126785
 20
155.7677781088
 30
0.0
 11
385.0616126785
 21
185.7677781088
 31
0.0
  0
LINE
  5
1AA
330
1A1
100
AcDbEntity
  8
SLD-0
 62
   179
100
AcDbLine
 10
385.0616126785
 20
185.7677781088
 30
0.0
 11
385.0616126785
 21
191.7677781088
 31
0.0
  0
MTEXT
  5
1AB
330
1A1
100
AcDbEntity
  8
SLD-0
 62
   179
100
AcDbMText
 10
380.7513095317
 20
161.8207283779
 30
0.0
 40
3.7041666667
 41
0.0
 71
     1
 72
     1
  1
%%c
  7
SLDTEXTSTYLE0
 11
6.123031769111886E-17
 21
1.0
 31
0.0
 73
     1
 44
1.0
  0
MTEXT
  5
1AC
330
1A1
100
AcDbEntity
  8
SLD-0
 62
   179
100
AcDbMText
 10
380.7513095317
 20
166.5096186218
 30
0.0
 40
3.7041666667
 41
0.0
 71
     1
 72
     1
  1
30
  7
SLDTEXTSTYLE0
 11
6.123031769111886E-17
 21
1.0
 31
0.0
 73
     1
 44
1.0
  0
MTEXT
  5
1AD
330
1A1
100
AcDbEntity
  8
SLD-0
 62
   179
100
AcDbMText
 10
381.5269216216
 20
172.6265088657
 30
0.0
 40
2.9104166667
 41
0.0
 71
     1
 72
     1
  1
-
  7
SLDTEXTSTYLE0
 11
6.123031769111886E-17
 21
1.0
 31
0.0
 73
     1
 44
1.0
  0
MTEXT
  5
1AE
330
1A1
100
AcDbEntity
  8
SLD-0
 62
   179
100
AcDbMText
 10
381.5269216216
 20
174.5638869145
 30
0.0
 40
2.9104166667
 41
0.0
 71
     1
 72
     1
  1
0.1
  7
SLDTEXTSTYLE0
 11
6.123031769111886E-17
 21
1.0
 31
0.0
 73
     1
 44
1.0
  0
MTEXT
  5
1AF
330
1A1
100
AcDbEntity
  8
SLD-0
 62
   179
100
AcDbMText
 10
377.6478118655
 20
174.5638869145
 30
0.0
 40
2.9104166667
 41
0.0
 71
     1
 72
     1
  1
0.0
  7
SLDTEXTSTYLE0
 11
6.123031769111886E-17
 21
1.0
 31
0.0
 73
     1
 44
1.0
  0
ENDBLK
  5
1A3
330
1A1
100
AcDbEntity
  8
0
100
AcDbBlockEnd
  0
BLOCK
  5
1B2
330
1B1
100
AcDbEntity
  8
0
100
AcDbBlockBegin
  2
*D11
 70
     1
 71
     0
 10
0.0
 20
0.0
 30
0.0
  3
*D11
  1

  0
INSERT
  5
1B4
330
1B1
100
AcDbEntity
  8
SLD-0
 62
   179
100
AcDbBlockReference
  2
_Open30
 10
343.5795342202
 20
137.6667439041
 30
0.1
 41
3.0
 42
3.0
 50
180.0
  0
INSERT
  5
1B5
330
1B1
100
AcDbEntity
  8
SLD-0
 62
   179
100
AcDbBlockReference
  2
_Open30
 10
339.5795342202
 20
137.6667439041
 30
0.1
 41
3.0
 42
3.0
 50
360.0
  0
LINE
  5
1B6
330
1B1
100
AcDbEntity
  8
SLD-0
 62
   179
100
AcDbLine
 10
343.5795342202
 20
157.4677781088
 30
0.0
 11
343.5795342202
 21
136.6667439041
 31
0.0
  0
LINE
  5
1B7
330
1B1
100
AcDbEntity
  8
SLD-0
 62
   179
100
AcDbLine
 10
339.5795342202
 20
155.2677781088
 30
0.0
 11
339.5795342202
 21
136.6667439041
 31
0.0
  0
LINE
  5
1B8
330
1B1
100
AcDbEntity
  8
SLD-0
 62
   179
100
AcDbLine
 10
343.5795342202
 20
137.6667439041
 30
0.0
 11
349.5795342202
 21
137.6667439041
 31
0.0
  0
LINE
  5
1B9
330
1B1
100
AcDbEntity
  8
SLD-0
 62
   179
100
AcDbLine
 10
343.5795342202
 20
137.6667439041
 30
0.0
 11
339.5795342202
 21
137.6667439041
 31
0.0
  0
LINE
  5
1BA
330
1B1
100
AcDbEntity
  8
SLD-0
 62
   179
100
AcDbLine
 10
339.5795342202
 20
137.6667439041
 30
0.0
 11
333.5795342202
 21
137.6667439041
 31
0.0
  0
MTEXT
  5
1BB
330
1B1
100
AcDbEntity
  8
SLD-0
 62
   179
100
AcDbMText
 10
340.1033625382
 20
141.9770470508
 30
0.0
 40
3.7041666667
 41
0.0
 71
     1
 72
     1
  1
4
  7
SLDTEXTSTYLE0
 73
     1
 44
1.0
  0
ENDBLK
  5
1B3
330
1B1
100
AcDbEntity
  8
0
100
AcDbBlockEnd
  0
BLOCK
  5
1BF
330
1BE
100
AcDbEntity
  8
0
100
AcDbBlockBegin
  2
*D12
 70
     1
 71
     0
 10
0.0
 20
0.0
 30
0.0
  3
*D12
  1

  0
INSERT
  5
1C1
330
1BE
100
AcDbEntity
  8
SLD-0
 62
   179
100
AcDbBlockReference
  2
_Open30
 10
356.9695342202
 20
213.6528746619
 30
0.1
 41
3.0
 42
3.0
 50
180.0
  0
INSERT
  5
1C2
330
1BE
100
AcDbEntity
  8
SLD-0
 62
   179
100
AcDbBlockReference
  2
_Open30
 10
339.4435342202
 20
213.6528746619
 30
0.1
 41
3.0
 42
3.0
 50
360.0
  0
LINE
  5
1C3
330
1BE
100
AcDbEntity
  8
SLD-0
 62
   179
100
AcDbLine
 10
356.9695342202
 20
175.0549420497
 30
0.0
 11
356.9695342202
 21
214.6528746619
 31
0.0
  0
LINE
  5
1C4
330
1BE
100
AcDbEntity
  8
SLD-0
 62
   179
100
AcDbLine
 10
339.4435342202
 20
186.7677781088
 30
0.0
 11
339.4435342202
 21
214.6528746619
 31
0.0
  0
LINE
  5
1C5
330
1BE
100
AcDbEntity
  8
SLD-0
 62
   179
100
AcDbLine
 10
356.9695342202
 20
213.6528746619
 30
0.0
 11
362.9695342202
 21
213.6528746619
 31
0.0
  0
LINE
  5
1C6
330
1BE
100
AcDbEntity
  8
SLD-0
 62
   179
100
AcDbLine
 10
356.9695342202
 20
213.6528746619
 30
0.0
 11
339.4435342202
 21
213.6528746619
 31
0.0
  0
LINE
  5
1C7
330
1BE
100
AcDbEntity
  8
SLD-0
 62
   179
100
AcDbLine
 10
339.4435342202
 20
213.6528746619
 30
0.0
 11
333.4435342202
 21
213.6528746619
 31
0.0
  0
MTEXT
  5
1C8
330
1BE
100
AcDbEntity
  8
SLD-0
 62
   179
100
AcDbMText
 10
343.7913935302
 20
217.9631778086
 30
0.0
 40
3.7041666667
 41
0.0
 71
     1
 72
     1
  1
17.53
  7
SLDTEXTSTYLE0
 73
     1
 44
1.0
  0
ENDBLK
  5
1C0
330
1BE
100
AcDbEntity
  8
0
100
AcDbBlockEnd
  0
BLOCK
  5
1CC
330
1CB
100
AcDbEntity
  8
0
100
AcDbBlockBegin
  2
*D13
 70
     1
 71
     0
 10
0.0
 20
0.0
 30
0.0
  3
*D13
  1

  0
INSERT
  5
1CE
330
1CB
100
AcDbEntity
  8
SLD-0
 62
   179
100
AcDbBlockReference
  2
_Open30
 10
356.9695342202
 20
224.9919618118
 30
0.1
 41
3.0
 42
3.0
 50
360.0
  0
INSERT
  5
1CF
330
1CB
100
AcDbEntity
  8
SLD-0
 62
   179
100
AcDbBlockReference
  2
_Open30
 10
60.7339116174
 20
224.9919618118
 30
0.1
 41
3.0
 42
3.0
 50
180.0
  0
LINE
  5
1D0
330
1CB
100
AcDbEntity
  8
SLD-0
 62
   179
100
AcDbLine
 10
356.9695342202
 20
175.0549420497
 30
0.0
 11
356.9695342202
 21
225.9919618118
 31
0.0
  0
LINE
  5
1D1
330
1CB
100
AcDbEntity
  8
SLD-0
 62
   179
100
AcDbLine
 10
60.7339116174
 20
175.0549420497
 30
0.0
 11
60.7339116174
 21
225.9919618118
 31
0.0
  0
LINE
  5
1D2
330
1CB
100
AcDbEntity
  8
SLD-0
 62
   179
100
AcDbLine
 10
356.9695342202
 20
224.9919618118
 30
0.0
 11
60.7339116174
 21
224.9919618118
 31
0.0
  0
MTEXT
  5
1D3
330
1CB
100
AcDbEntity
  8
SLD-0
 62
   179
100
AcDbMText
 10
197.1382046261
 20
229.9180222433
 30
0.0
 40
4.2333333333
 41
0.0
 71
     1
 72
     1
  1
O/I 567.25
  7
SLDTEXTSTYLE0
 73
     1
 44
1.0
  0
ENDBLK
  5
1CD
330
1CB
100
AcDbEntity
  8
0
100
AcDbBlockEnd
  0
BLOCK
  5
1D6
330
1D5
100
AcDbEntity
  8
0
100
AcDbBlockBegin
  2
*D14
 70
     1
 71
     0
 10
0.0
 20
0.0
 30
0.0
  3
*D14
  1

  0
INSERT
  5
1D8
330
1D5
100
AcDbEntity
  8
SLD-0
 62
   179
100
AcDbBlockReference
  2
_Open30
 10
339.5795342202
 20
213.6528746619
 30
0.1
 41
3.0
 42
3.0
 50
360.0
  0
INSERT
  5
1D9
330
1D5
100
AcDbEntity
  8
SLD-0
 62
   179
100
AcDbBlockReference
  2
_Open30
 10
189.8595342202
 20
213.6528746619
 30
0.1
 41
3.0
 42
3.0
 50
180.0
  0
LINE
  5
1DA
330
1D5
100
AcDbEntity
  8
SLD-0
 62
   179
100
AcDbLine
 10
339.5795342202
 20
186.2677781088
 30
0.0
 11
339.5795342202
 21
214.6528746619
 31
0.0
  0
LINE
  5
1DB
330
1D5
100
AcDbEntity
  8
SLD-0
 62
   179
100
AcDbLine
 10
189.8595342202
 20
188.7677781088
 30
0.0
 11
189.8595342202
 21
214.6528746619
 31
0.0
  0
LINE
  5
1DC
330
1D5
100
AcDbEntity
  8
SLD-0
 62
   179
100
AcDbLine
 10
339.5795342202
 20
213.6528746619
 30
0.0
 11
189.8595342202
 21
213.6528746619
 31
0.0
  0
MTEXT
  5
1DD
330
1D5
100
AcDbEntity
  8
SLD-0
 62
   179
100
AcDbMText
 10
258.0453756836
 20
217.9631778086
 30
0.0
 40
3.7041666667
 41
0.0
 71
     1
 72
     1
  1
149.72
  7
SLDTEXTSTYLE0
 73
     1
 44
1.0
  0
ENDBLK
  5
1D7
330
1D5
100
AcDbEntity
  8
0
100
AcDbBlockEnd
  0
BLOCK
  5
1E0
330
1DF
100
AcDbEntity
  8
0
100
AcDbBlockBegin
  2
*D15
 70
     1
 71
     0
 10
0.0
 20
0.0
 30
0.0
  3
*D15
  1

  0
INSERT
  5
1E2
330
1DF
100
AcDbEntity
  8
SLD-0
 62
   179
100
AcDbBlockReference
  2
_Open30
 10
264.7195342202
 20
125.7677781088
 30
0.1
 41
3.0
 42
3.0
 50
270.0
  0
INSERT
  5
1E3
330
1DF
100
AcDbEntity
  8
SLD-0
 62
   179
100
AcDbBlockReference
  2
_Open30
 10
264.7195342202
 20
170.7677781088
 30
0.1
 41
3.0
 42
3.0
 50
90.0
  0
LINE
  5
1E4
330
1DF
100
AcDbEntity
  8
SLD-0
 62
   179
100
AcDbLine
 10
293.4595342202
 20
125.7677781088
 30
0.0
 11
263.7195342202
 21
125.7677781088
 31
0.0
  0
LINE
  5
1E5
330
1DF
100
AcDbEntity
  8
SLD-0
 62
   179
100
AcDbLine
 10
187.1191640805
 20
170.7677781088
 30
0.0
 11
265.7195342202
 21
170.7677781088
 31
0.0
  0
LINE
  5
1E6
330
1DF
100
AcDbEntity
  8
SLD-0
 62
   179
100
AcDbLine
 10
264.7195342202
 20
125.7677781088
 30
0.0
 11
264.7195342202
 21
170.7677781088
 31
0.0
  0
MTEXT
  5
1E7
330
1DF
100
AcDbEntity
  8
SLD-0
 62
   179
100
AcDbMText
 10
260.4092310735
 20
137.6811560945
 30
0.0
 40
3.7041666667
 41
0.0
 71
     1
 72
     1
  1
45
  7
SLDTEXTSTYLE0
 11
6.123031769111886E-17
 21
1.0
 31
0.0
 73
     1
 44
1.0
  0
ENDBLK
  5
1E1
330
1DF
100
AcDbEntity
  8
0
100
AcDbBlockEnd
  0
BLOCK
  5
1EA
330
1E9
100
AcDbEntity
  8
0
100
AcDbBlockBegin
  2
*D16
 70
     1
 71
     0
 10
0.0
 20
0.0
 30
0.0
  3
*D16
  1

  0
INSERT
  5
1EC
330
1E9
100
AcDbEntity
  8
SLD-0
 62
   179
100
AcDbBlockReference
  2
_Open30
 10
331.3895342202
 20
206.5449200861
 30
0.1
 41
3.0
 42
3.0
 50
180.0
  0
INSERT
  5
1ED
330
1E9
100
AcDbEntity
  8
SLD-0
 62
   179
100
AcDbBlockReference
  2
_Open30
 10
316.9595342202
 20
206.5449200861
 30
0.1
 41
3.0
 42
3.0
 50
360.0
  0
LINE
  5
1EE
330
1E9
100
AcDbEntity
  8
SLD-0
 62
   179
100
AcDbLine
 10
331.3895342202
 20
186.2677781088
 30
0.0
 11
331.3895342202
 21
207.5449200861
 31
0.0
  0
LINE
  5
1EF
330
1E9
100
AcDbEntity
  8
SLD-0
 62
   179
100
AcDbLine
 10
316.9595342202
 20
186.2677781088
 30
0.0
 11
316.9595342202
 21
207.5449200861
 31
0.0
  0
LINE
  5
1F0
330
1E9
100
AcDbEntity
  8
SLD-0
 62
   179
100
AcDbLine
 10
331.3895342202
 20
206.5449200861
 30
0.0
 11
337.3895342202
 21
206.5449200861
 31
0.0
  0
LINE
  5
1F1
330
1E9
100
AcDbEntity
  8
SLD-0
 62
   179
100
AcDbLine
 10
331.3895342202
 20
206.5449200861
 30
0.0
 11
316.9595342202
 21
206.5449200861
 31
0.0
  0
LINE
  5
1F2
330
1E9
100
AcDbEntity
  8
SLD-0
 62
   179
100
AcDbLine
 10
316.9595342202
 20
206.5449200861
 30
0.0
 11
310.9595342202
 21
206.5449200861
 31
0.0
  0
MTEXT
  5
1F3
330
1E9
100
AcDbEntity
  8
SLD-0
 62
   179
100
AcDbMText
 10
318.8577694515
 20
210.8552232328
 30
0.0
 40
3.7041666667
 41
0.0
 71
     1
 72
     1
  1
14.43
  7
SLDTEXTSTYLE0
 73
     1
 44
1.0
  0
ENDBLK
  5
1EB
330
1E9
100
AcDbEntity
  8
0
100
AcDbBlockEnd
  0
BLOCK
  5
1F6
330
1F5
100
AcDbEntity
  8
0
100
AcDbBlockBegin
  2
*D17
 70
     1
 71
     0
 10
0.0
 20
0.0
 30
0.0
  3
*D17
  1

  0
INSERT
  5
1F8
330
1F5
100
AcDbEntity
  8
SLD-0
 62
   179
100
AcDbBlockReference
  2
_Open30
 10
339.5795342202
 20
206.5449200861
 30
0.1
 41
3.0
 42
3.0
 50
360.0
  0
INSERT
  5
1F9
330
1F5
100
AcDbEntity
  8
SLD-0
 62
   179
100
AcDbBlockReference
  2
_Open30
 10
331.3895342202
 20
206.5449200861
 30
0.1
 41
3.0
 42
3.0
 50
180.0
  0
LINE
  5
1FA
330
1F5
100
AcDbEntity
  8
SLD-0
 62
   179
100
AcDbLine
 10
339.5795342202
 20
186.2677781088
 30
0.0
 11
339.5795342202
 21
207.5449200861
 31
0.0
  0
LINE
  5
1FB
330
1F5
100
AcDbEntity
  8
SLD-0
 62
   179
100
AcDbLine
 10
331.3895342202
 20
186.2677781088
 30
0.0
 11
331.3895342202
 21
207.5449200861
 31
0.0
  0
LINE
  5
1FC
330
1F5
100
AcDbEntity
  8
SLD-0
 62
   179
100
AcDbLine
 10
339.5795342202
 20
206.5449200861
 30
0.0
 11
353.7647731258
 21
206.5449200861
 31
0.0
  0
LINE
  5
1FD
330
1F5
100
AcDbEntity
  8
SLD-0
 62
   179
100
AcDbLine
 10
339.5795342202
 20
206.5449200861
 30
0.0
 11
331.3895342202
 21
206.5449200861
 31
0.0
  0
MTEXT
  5
1FE
330
1F5
100
AcDbEntity
  8
SLD-0
 62
   179
100
AcDbMText
 10
343.7703584916
 20
210.8552232328
 30
0.0
 40
3.7041666667
 41
0.0
 71
     1
 72
     1
  1
8.19
  7
SLDTEXTSTYLE0
 73
     1
 44
1.0
  0
ENDBLK
  5
1F7
330
1F5
100
AcDbEntity
  8
0
100
AcDbBlockEnd
  0
BLOCK
  5
241
330
240
100
AcDbEntity
  8
0
100
AcDbBlockBegin
  2
SW_NOTE_0
 70
     0
 71
     0
 10
0.0
 20
0.0
 30
0.0
  3
SW_NOTE_0
  1

  0
MTEXT
  5
243
330
240
100
AcDbEntity
  8
0
  6
Continuous
 62
     0
370
     0
100
AcDbMText
 10
0.0
 20
2.463030303
 30
0.0
 40
2.1166666667
 41
0.0
 71
     1
 72
     1
  1
1
  7
SLDTEXTSTYLE0
 73
     1
 44
1.0
  0
MTEXT
  5
244
330
240
100
AcDbEntity
  8
0
  6
Continuous
 62
     0
370
     0
100
AcDbMText
 10
1.4111110941
 20
2.463030303
 30
0.0
 40
2.1166666667
 41
0.0
 71
     1
 72
     1
  1
.6
  7
SLDTEXTSTYLE0
 73
     1
 44
1.0
  0
ENDBLK
  5
242
330
240
100
AcDbEntity
  8
0
100
AcDbBlockEnd
  0
BLOCK
  5
24D
330
24C
100
AcDbEntity
  8
0
100
AcDbBlockBegin
  2
SW_TABLEANNOTATION_0
 70
     0
 71
     0
 10
0.0
 20
0.0
 30
0.0
  3
SW_TABLEANNOTATION_0
  1

  0
LINE
  5
24F
330
24C
100
AcDbEntity
  8
SLD-0
 62
     0
100
AcDbLine
 10
0.0
 20
0.0
 30
0.0
 11
0.0
 21
-65.7353337733
 31
0.0
  0
LINE
  5
250
330
24C
100
AcDbEntity
  8
SLD-0
 62
     0
100
AcDbLine
 10
0.0
 20
-65.7353337733
 30
0.0
 11
84.441441417
 21
-65.7353337733
 31
0.0
  0
LINE
  5
251
330
24C
100
AcDbEntity
  8
SLD-0
 62
     0
100
AcDbLine
 10
84.441441417
 20
-65.7353337733
 30
0.0
 11
84.441441417
 21
0.0
 31
0.0
  0
LINE
  5
252
330
24C
100
AcDbEntity
  8
SLD-0
 62
     0
100
AcDbLine
 10
84.441441417
 20
0.0
 30
0.0
 11
0.0
 21
0.0
 31
0.0
  0
LINE
  5
253
330
24C
100
AcDbEntity
  8
SLD-0
 62
     0
100
AcDbLine
 10
59.6774243076
 20
-8.0158700669
 30
0.0
 11
59.6774243076
 21
-65.7353337733
 31
0.0
  0
LINE
  5
254
330
24C
100
AcDbEntity
  8
SLD-0
 62
     0
100
AcDbLine
 10
0.0
 20
-14.1734712463
 30
0.0
 11
84.441441417
 21
-14.1734712463
 31
0.0
  0
LINE
  5
255
330
24C
100
AcDbEntity
  8
SLD-0
 62
     0
100
AcDbLine
 10
0.0
 20
-20.90480681
 30
0.0
 11
84.441441417
 21
-20.90480681
 31
0.0
  0
LINE
  5
256
330
24C
100
AcDbEntity
  8
SLD-0
 62
     0
100
AcDbLine
 10
0.0
 20
-28.4561096551
 30
0.0
 11
84.441441417
 21
-28.4561096551
 31
0.0
  0
LINE
  5
257
330
24C
100
AcDbEntity
  8
SLD-0
 62
     0
100
AcDbLine
 10
0.0
 20
-35.0782780563
 30
0.0
 11
84.441441417
 21
-35.0782780563
 31
0.0
  0
LINE
  5
258
330
24C
100
AcDbEntity
  8
SLD-0
 62
     0
100
AcDbLine
 10
0.0
 20
-42.72801938
 30
0.0
 11
84.441441417
 21
-42.72801938
 31
0.0
  0
LINE
  5
259
330
24C
100
AcDbEntity
  8
SLD-0
 62
     0
100
AcDbLine
 10
0.0
 20
-50.3777607036
 30
0.0
 11
84.441441417
 21
-50.3777607036
 31
0.0
  0
LINE
  5
25A
330
24C
100
AcDbEntity
  8
SLD-0
 62
     0
100
AcDbLine
 10
0.0
 20
-58.0275020273
 30
0.0
 11
84.441441417
 21
-58.0275020273
 31
0.0
  0
LINE
  5
25B
330
24C
100
AcDbEntity
  8
SLD-0
 62
     0
100
AcDbLine
 10
0.0
 20
-8.0158700669
 30
0.0
 11
84.441441417
 21
-8.0158700669
 31
0.0
  0
MTEXT
  5
25C
330
24C
100
AcDbEntity
  8
SLD-0
 62
     0
100
AcDbMText
 10
34.0734987186
 20
-2.221708613
 30
0.0
 40
3.5
 41
0.0
 71
     1
 72
     1
  1
光学仕様
  7
SLDTEXTSTYLE0
 73
     1
 44
1.0
  0
MTEXT
  5
25D
330
24C
100
AcDbEntity
  8
SLD-0
 62
     0
100
AcDbMText
 10
25.7651011588
 20
-9.3084442362
 30
0.0
 40
3.5
 41
0.0
 71
     1
 72
     1
  1
倍率
  7
SLDTEXTSTYLE0
 73
     1
 44
1.0
  0
MTEXT
  5
25E
330
24C
100
AcDbEntity
  8
SLD-0
 62
     0
100
AcDbMText
 10
67.9858218673
 20
-9.3084442362
 30
0.0
 40
3.5
 41
0.0
 71
     1
 72
     1
  1
x0.5
  7
SLDTEXTSTYLE0
 73
     1
 44
1.0
  0
MTEXT
  5
25F
330
24C
100
AcDbEntity
  8
SLD-0
 62
     0
100
AcDbMText
 10
17.6178796345
 20
-15.7529126077
 30
0.0
 40
3.5
 41
0.0
 71
     1
 72
     1
  1
WD(作動距離)
  7
SLDTEXTSTYLE0
 73
     1
 44
1.0
  0
MTEXT
  5
260
330
24C
100
AcDbEntity
  8
SLD-0
 62
     0
100
AcDbMText
 10
66.967419235
 20
-15.7529126077
 30
0.0
 40
3.5
 41
0.0
 71
     1
 72
     1
  1
400mm
  7
SLDTEXTSTYLE0
 73
     1
 44
1.0
  0
MTEXT
  5
261
330
24C
100
AcDbEntity
  8
SLD-0
 62
     0
100
AcDbMText
 10
19.6546848992
 20
-22.8942318121
 30
0.0
 40
3.5
 41
0.0
 71
     1
 72
     1
  1
被写界深度
  7
SLDTEXTSTYLE0
 73
     1
 44
1.0
  0
MTEXT
  5
262
330
24C
100
AcDbEntity
  8
SLD-0
 62
     0
100
AcDbMText
 10
65.9490166027
 20
-22.8942318121
 30
0.0
 40
3.5
 41
0.0
 71
     1
 72
     1
  1
3.07mm
  7
SLDTEXTSTYLE0
 73
     1
 44
1.0
  0
MTEXT
  5
263
330
24C
100
AcDbEntity
  8
SLD-0
 62
     0
100
AcDbMText
 10
25.7651011588
 20
-29.9809674352
 30
0.0
 40
3.5
 41
0.0
 71
     1
 72
     1
  1
ＮＡ
  7
SLDTEXTSTYLE0
 73
     1
 44
1.0
  0
MTEXT
  5
264
330
24C
100
AcDbEntity
  8
SLD-0
 62
     0
100
AcDbMText
 10
66.967419235
 20
-29.9809674352
 30
0.0
 40
3.5
 41
0.0
 71
     1
 72
     1
  1
0.018
  7
SLDTEXTSTYLE0
 73
     1
 44
1.0
  0
MTEXT
  5
265
330
24C
100
AcDbEntity
  8
SLD-0
 62
     0
100
AcDbMText
 10
17.6178796345
 20
-37.1169222977
 30
0.0
 40
3.5
 41
0.0
 71
     1
 72
     1
  1
光学的分解能
  7
SLDTEXTSTYLE0
 73
     1
 44
1.0
  0
MTEXT
  5
266
330
24C
100
AcDbEntity
  8
SLD-0
 62
     0
100
AcDbMText
 10
64.9306135047
 20
-37.1169222977
 30
0.0
 40
3.5
 41
0.0
 71
     1
 72
     1
  1
18.6μm
  7
SLDTEXTSTYLE0
 73
     1
 44
1.0
  0
MTEXT
  5
267
330
24C
100
AcDbEntity
  8
SLD-0
 62
     0
100
AcDbMText
 10
21.6914901639
 20
-44.7666636213
 30
0.0
 40
3.5
 41
0.0
 71
     1
 72
     1
  1
有効Ｆ値
  7
SLDTEXTSTYLE0
 73
     1
 44
1.0
  0
MTEXT
  5
268
330
24C
100
AcDbEntity
  8
SLD-0
 62
     0
100
AcDbMText
 10
67.9858218673
 20
-44.7666636213
 30
0.0
 40
3.5
 41
0.0
 71
     1
 72
     1
  1
13.9
  7
SLDTEXTSTYLE0
 73
     1
 44
1.0
  0
MTEXT
  5
269
330
24C
100
AcDbEntity
  8
SLD-0
 62
     0
100
AcDbMText
 10
14.5626712719
 20
-52.416404945
 30
0.0
 40
3.5
 41
0.0
 71
     1
 72
     1
  1
視野(水平x垂直)
  7
SLDTEXTSTYLE0
 73
     1
 44
1.0
  0
MTEXT
  5
26A
330
24C
100
AcDbEntity
  8
SLD-0
 62
     0
100
AcDbMText
 10
64.9306139704
 20
-52.416404945
 30
0.0
 40
3.5
 41
0.0
 71
     1
 72
     1
  1
6.4x4.8
  7
SLDTEXTSTYLE0
 73
     1
 44
1.0
  0
MTEXT
  5
26B
330
24C
100
AcDbEntity
  8
SLD-0
 62
     0
100
AcDbMText
 10
3.360237194
 20
-60.0951914799
 30
0.0
 40
3.5
 41
0.0
 71
     1
 72
     1
  1
ディストーション％(対角値)
  7
SLDTEXTSTYLE0
 73
     1
 44
1.0
  0
MTEXT
  5
26C
330
24C
100
AcDbEntity
  8
SLD-0
 62
     0
100
AcDbMText
 10
66.967419235
 20
-60.0951914799
 30
0.0
 40
3.5
 41
0.0
 71
     1
 72
     1
  1
0.52%
  7
SLDTEXTSTYLE0
 73
     1
 44
1.0
  0
ENDBLK
  5
24E
330
24C
100
AcDbEntity
  8
0
100
AcDbBlockEnd
  0
ENDSEC
  0
SECTION
  2
ENTITIES
  0
LINE
  5
4C
330
1F
100
AcDbEntity
  8
SLD-0
  6
CENTER
 62
   179
100
AcDbLine
 10
60.8119168244
 20
173.996084163
 30
0.0
 11
60.8119168244
 21
167.6609211282
 31
0.0
  0
LINE
  5
4D
330
1F
100
AcDbEntity
  8
SLD-0
  6
CENTER
 62
   179
100
AcDbLine
 10
357.1835394273
 20
173.996084163
 30
0.0
 11
357.1835394273
 21
167.6609211282
 31
0.0
  0
LINE
  5
4E
330
1F
100
AcDbEntity
  8
SLD-0
  6
Continuous
 62
   179
100
AcDbLine
 10
343.2575394273
 20
158.0089202221
 30
0.0
 11
343.6575394273
 21
158.4089202221
 31
0.0
  0
LINE
  5
4F
330
1F
100
AcDbEntity
  8
SLD-0
  6
Continuous
 62
   179
100
AcDbLine
 10
343.2575394273
 20
183.4089202221
 30
0.0
 11
343.6575394273
 21
183.0089202221
 31
0.0
  0
LINE
  5
50
330
1F
100
AcDbEntity
  8
SLD-0
  6
CENTER
 62
   179
100
AcDbLine
 10
186.1971692876
 20
170.7089202221
 30
0.0
 11
359.7338966252
 21
170.7089202221
 31
0.0
  0
LINE
  5
51
330
1F
100
AcDbEntity
  8
SLD-0
  6
Continuous
 62
   179
100
AcDbLine
 10
339.6575394273
 20
183.0089202221
 30
0.0
 11
340.4575394273
 21
183.0089202221
 31
0.0
  0
LINE
  5
52
330
1F
100
AcDbEntity
  8
SLD-0
  6
CENTER
 62
   179
100
AcDbLine
 10
57.1367717346
 20
170.7089202221
 30
0.0
 11
161.8639358533
 21
170.7089202221
 31
0.0
  0
LINE
  5
53
330
1F
100
AcDbEntity
  8
SLD-0
  6
Continuous
 62
   179
100
AcDbLine
 10
339.6575394273
 20
158.4089202221
 30
0.0
 11
340.4575394273
 21
158.4089202221
 31
0.0
  0
LINE
  5
54
330
1F
100
AcDbEntity
  8
SLD-0
  6
Continuous
 62
   179
100
AcDbLine
 10
317.0375394273
 20
156.2089202221
 30
0.0
 11
317.0375394273
 21
185.2089202221
 31
0.0
  0
LINE
  5
55
330
1F
100
AcDbEntity
  8
SLD-0
  6
Continuous
 62
   179
100
AcDbLine
 10
367.1938194273
 20
183.4089202221
 30
0.0
 11
369.9938194273
 21
183.4089202221
 31
0.0
  0
LINE
  5
56
330
1F
100
AcDbEntity
  8
SLD-0
  6
Continuous
 62
   179
100
AcDbLine
 10
339.6575394273
 20
185.2089202221
 30
0.0
 11
339.6575394273
 21
156.2089202221
 31
0.0
  0
LINE
  5
57
330
1F
100
AcDbEntity
  8
SLD-0
  6
Continuous
 62
   179
100
AcDbLine
 10
340.4575394273
 20
183.4089202221
 30
0.0
 11
340.4575394273
 21
158.0089202221
 31
0.0
  0
LINE
  5
58
330
1F
100
AcDbEntity
  8
SLD-0
  6
Continuous
 62
     4
100
AcDbLine
 10
190.2375394273
 20
187.7089202221
 30
0.0
 11
190.2375394273
 21
153.7089202221
 31
0.0
  0
LINE
  5
59
330
1F
100
AcDbEntity
  8
SLD-0
  6
Continuous
 62
   179
100
AcDbLine
 10
189.9375394273
 20
154.0089202221
 30
0.0
 11
190.2375394273
 21
153.7089202221
 31
0.0
  0
LINE
  5
5A
330
1F
100
AcDbEntity
  8
SLD-0
  6
Continuous
 62
   179
100
AcDbLine
 10
190.2375394273
 20
187.7089202221
 30
0.0
 11
286.5375394273
 21
187.7089202221
 31
0.0
  0
LINE
  5
5B
330
1F
100
AcDbEntity
  8
SLD-0
  6
Continuous
 62
   179
100
AcDbLine
 10
189.9375394273
 20
187.4089202221
 30
0.0
 11
189.9375394273
 21
154.0089202221
 31
0.0
  0
LINE
  5
5C
330
1F
100
AcDbEntity
  8
SLD-0
  6
Continuous
 62
   179
100
AcDbLine
 10
190.2375394273
 20
153.7089202221
 30
0.0
 11
286.5375394273
 21
153.7089202221
 31
0.0
  0
LINE
  5
5D
330
1F
100
AcDbEntity
  8
SLD-0
  6
Continuous
 62
   179
100
AcDbLine
 10
189.9375394273
 20
187.4089202221
 30
0.0
 11
190.2375394273
 21
187.7089202221
 31
0.0
  0
LINE
  5
5E
330
1F
100
AcDbEntity
  8
SLD-0
  6
Continuous
 62
   179
100
AcDbLine
 10
298.7875394273
 20
125.7089202221
 30
0.0
 11
299.0375394273
 21
125.9589202221
 31
0.0
  0
LINE
  5
5F
330
1F
100
AcDbEntity
  8
SLD-0
  6
Continuous
 62
   179
100
AcDbLine
 10
294.0375394273
 20
126.2089202221
 30
0.0
 11
294.5375394273
 21
125.7089202221
 31
0.0
  0
LINE
  5
60
330
1F
100
AcDbEntity
  8
SLD-0
  6
Continuous
 62
   179
100
AcDbLine
 10
311.5375394273
 20
125.7089202221
 30
0.0
 11
312.0375394273
 21
126.2089202221
 31
0.0
  0
LINE
  5
61
330
1F
100
AcDbEntity
  8
SLD-0
  6
Continuous
 62
   179
100
AcDbLine
 10
307.0375394273
 20
125.9589202221
 30
0.0
 11
307.2875394273
 21
125.7089202221
 31
0.0
  0
LINE
  5
62
330
1F
100
AcDbEntity
  8
SLD-0
  6
Continuous
 62
   179
100
AcDbLine
 10
292.0375394273
 20
156.2089202221
 30
0.0
 11
287.0375394273
 21
156.2089202221
 31
0.0
  0
LINE
  5
63
330
1F
100
AcDbEntity
  8
SLD-0
  6
Continuous
 62
   179
100
AcDbLine
 10
292.0375394273
 20
163.2089202221
 30
0.0
 11
292.0375394273
 21
156.2089202221
 31
0.0
  0
LINE
  5
64
330
1F
100
AcDbEntity
  8
SLD-0
  6
CENTER
 62
   179
100
AcDbLine
 10
300.1913844939
 20
129.7089202221
 30
0.0
 11
305.7617492939
 21
129.7089202221
 31
0.0
  0
LINE
  5
65
330
1F
100
AcDbEntity
  8
SLD-0
  6
Continuous
 62
   179
100
AcDbLine
 10
292.0375394273
 20
163.2089202221
 30
0.0
 11
314.0375394273
 21
163.2089202221
 31
0.0
  0
LINE
  5
66
330
1F
100
AcDbEntity
  8
SLD-0
  6
Continuous
 62
   179
100
AcDbLine
 10
314.0375394273
 20
163.2089202221
 30
0.0
 11
314.0375394273
 21
156.2089202221
 31
0.0
  0
LINE
  5
67
330
1F
100
AcDbEntity
  8
SLD-0
  6
PHANTOM
 62
   179
100
AcDbLine
 10
295.5375394273
 20
178.2089202221
 30
0.0
 11
310.5375394273
 21
163.2089202221
 31
0.0
  0
LINE
  5
68
330
1F
100
AcDbEntity
  8
SLD-0
  6
HIDDEN
 62
   179
100
AcDbLine
 10
307.0375394273
 20
140.7089202221
 30
0.0
 11
307.0375394273
 21
125.9589202221
 31
0.0
  0
LINE
  5
69
330
1F
100
AcDbEntity
  8
SLD-0
  6
HIDDEN
 62
   179
100
AcDbLine
 10
299.0375394273
 20
140.7089202221
 30
0.0
 11
299.0375394273
 21
125.9589202221
 31
0.0
  0
LINE
  5
6A
330
1F
100
AcDbEntity
  8
SLD-0
  6
Continuous
 62
   179
100
AcDbLine
 10
292.0375394273
 20
160.2089202221
 30
0.0
 11
314.0375394273
 21
160.2089202221
 31
0.0
  0
LINE
  5
6B
330
1F
100
AcDbEntity
  8
SLD-0
  6
Continuous
 62
   179
100
AcDbLine
 10
314.0375394273
 20
156.2089202221
 30
0.0
 11
317.1375394273
 21
156.2089202221
 31
0.0
  0
LINE
  5
6C
330
1F
100
AcDbEntity
  8
SLD-0
  6
Continuous
 62
   179
100
AcDbLine
 10
287.0375394273
 20
187.2089202221
 30
0.0
 11
287.0375394273
 21
154.2089202221
 31
0.0
  0
LINE
  5
6D
330
1F
100
AcDbEntity
  8
SLD-0
  6
Continuous
 62
   179
100
AcDbLine
 10
312.0375394273
 20
160.2089202221
 30
0.0
 11
312.0375394273
 21
126.2089202221
 31
0.0
  0
LINE
  5
6E
330
1F
100
AcDbEntity
  8
SLD-0
  6
Continuous
 62
   179
100
AcDbLine
 10
294.5375394273
 20
125.7089202221
 30
0.0
 11
311.5375394273
 21
125.7089202221
 31
0.0
  0
LINE
  5
6F
330
1F
100
AcDbEntity
  8
SLD-0
  6
CENTER
 62
   179
100
AcDbLine
 10
303.0375394273
 20
170.7089202221
 30
0.0
 11
303.0375394273
 21
123.4546299211
 31
0.0
  0
LINE
  5
70
330
1F
100
AcDbEntity
  8
SLD-0
  6
Continuous
 62
   179
100
AcDbLine
 10
287.0375394273
 20
185.2089202221
 30
0.0
 11
317.0375394273
 21
185.2089202221
 31
0.0
  0
LINE
  5
71
330
1F
100
AcDbEntity
  8
SLD-0
  6
Continuous
 62
   179
100
AcDbLine
 10
294.0375394273
 20
160.2089202221
 30
0.0
 11
294.0375394273
 21
126.2089202221
 31
0.0
  0
LINE
  5
72
330
1F
100
AcDbEntity
  8
SLD-0
  6
Continuous
 62
     4
100
AcDbLine
 10
340.4575394273
 20
158.4089202221
 30
0.0
 11
343.2575394273
 21
158.4089202221
 31
0.0
  0
LINE
  5
73
330
1F
100
AcDbEntity
  8
SLD-0
  6
Continuous
 62
     4
100
AcDbLine
 10
340.4575394273
 20
183.0089202221
 30
0.0
 11
343.2575394273
 21
183.0089202221
 31
0.0
  0
LINE
  5
74
330
1F
100
AcDbEntity
  8
SLD-0
  6
Continuous
 62
   179
100
AcDbLine
 10
343.6575394273
 20
183.0089202221
 30
0.0
 11
343.6575394273
 21
158.4089202221
 31
0.0
  0
LINE
  5
75
330
1F
100
AcDbEntity
  8
SLD-0
  6
CENTER
 62
     4
100
AcDbLine
 10
324.0375394273
 20
173.483976314
 30
0.0
 11
324.0375394273
 21
168.4828826803
 31
0.0
  0
LINE
  5
76
330
1F
100
AcDbEntity
  8
SLD-0
  6
Continuous
 62
     4
100
AcDbLine
 10
294.0375394273
 20
126.2089202221
 30
0.0
 11
312.0375394273
 21
126.2089202221
 31
0.0
  0
LINE
  5
77
330
1F
100
AcDbEntity
  8
SLD-0
  6
Continuous
 62
     4
100
AcDbLine
 10
286.5375394273
 20
187.7089202221
 30
0.0
 11
286.5375394273
 21
153.7089202221
 31
0.0
  0
LINE
  5
78
330
1F
100
AcDbEntity
  8
SLD-0
  6
Continuous
 62
   179
100
AcDbLine
 10
286.5375394273
 20
187.7089202221
 30
0.0
 11
287.0375394273
 21
187.2089202221
 31
0.0
  0
LINE
  5
79
330
1F
100
AcDbEntity
  8
SLD-0
  6
Continuous
 62
   179
100
AcDbLine
 10
286.5375394273
 20
153.7089202221
 30
0.0
 11
287.0375394273
 21
154.2089202221
 31
0.0
  0
LINE
  5
7A
330
1F
100
AcDbEntity
  8
SLD-0
  6
Continuous
 62
   179
100
AcDbLine
 10
331.9675394273
 20
155.7089202221
 30
0.0
 11
339.1575394273
 21
155.7089202221
 31
0.0
  0
LINE
  5
7B
330
1F
100
AcDbEntity
  8
SLD-0
  6
Continuous
 62
   179
100
AcDbLine
 10
331.4675394273
 20
156.2089202221
 30
0.0
 11
331.9675394273
 21
155.7089202221
 31
0.0
  0
LINE
  5
7C
330
1F
100
AcDbEntity
  8
SLD-0
  6
Continuous
 62
   179
100
AcDbLine
 10
340.4575394273
 20
183.4089202221
 30
0.0
 11
343.2575394273
 21
183.4089202221
 31
0.0
  0
LINE
  5
7D
330
1F
100
AcDbEntity
  8
SLD-0
  6
Continuous
 62
   179
100
AcDbLine
 10
343.6575394273
 20
183.0089202221
 30
0.0
 11
343.6575394273
 21
182.0089202221
 31
0.0
  0
LINE
  5
7E
330
1F
100
AcDbEntity
  8
SLD-0
  6
Continuous
 62
   179
100
AcDbLine
 10
317.0375394273
 20
185.2089202221
 30
0.0
 11
331.4675394273
 21
185.2089202221
 31
0.0
  0
LINE
  5
7F
330
1F
100
AcDbEntity
  8
SLD-0
  6
Continuous
 62
   179
100
AcDbLine
 10
331.9675394273
 20
185.7089202221
 30
0.0
 11
339.1575394273
 21
185.7089202221
 31
0.0
  0
LINE
  5
80
330
1F
100
AcDbEntity
  8
SLD-0
  6
Continuous
 62
   179
100
AcDbLine
 10
331.4675394273
 20
185.2089202221
 30
0.0
 11
331.4675394273
 21
156.2089202221
 31
0.0
  0
LINE
  5
81
330
1F
100
AcDbEntity
  8
SLD-0
  6
Continuous
 62
   179
100
AcDbLine
 10
331.4675394273
 20
185.2089202221
 30
0.0
 11
331.9675394273
 21
185.7089202221
 31
0.0
  0
LINE
  5
82
330
1F
100
AcDbEntity
  8
SLD-0
  6
Continuous
 62
   179
100
AcDbLine
 10
317.0375394273
 20
156.2089202221
 30
0.0
 11
331.4675394273
 21
156.2089202221
 31
0.0
  0
LINE
  5
83
330
1F
100
AcDbEntity
  8
SLD-0
  6
Continuous
 62
   179
100
AcDbLine
 10
340.4575394273
 20
158.0089202221
 30
0.0
 11
343.2575394273
 21
158.0089202221
 31
0.0
  0
LINE
  5
84
330
1F
100
AcDbEntity
  8
SLD-0
  6
Continuous
 62
     4
100
AcDbLine
 10
331.9675394273
 20
185.7089202221
 30
0.0
 11
331.9675394273
 21
155.7089202221
 31
0.0
  0
LINE
  5
85
330
1F
100
AcDbEntity
  8
SLD-0
  6
Continuous
 62
     4
100
AcDbLine
 10
343.2575394273
 20
183.4089202221
 30
0.0
 11
343.2575394273
 21
158.0089202221
 31
0.0
  0
LINE
  5
86
330
1F
100
AcDbEntity
  8
SLD-0
  6
HIDDEN
 62
   179
100
AcDbLine
 10
297.0375394273
 20
140.7089202221
 30
0.0
 11
309.0375394273
 21
140.7089202221
 31
0.0
  0
LINE
  5
87
330
1F
100
AcDbEntity
  8
SLD-0
  6
HIDDEN
 62
   179
100
AcDbLine
 10
297.0375394273
 20
160.2089202221
 30
0.0
 11
297.0375394273
 21
140.7089202221
 31
0.0
  0
LINE
  5
88
330
1F
100
AcDbEntity
  8
SLD-0
  6
HIDDEN
 62
   179
100
AcDbLine
 10
309.0375394273
 20
160.2089202221
 30
0.0
 11
309.0375394273
 21
140.7089202221
 31
0.0
  0
LINE
  5
89
330
1F
100
AcDbEntity
  8
SLD-0
  6
Continuous
 62
     4
100
AcDbLine
 10
339.1575394273
 20
185.7089202221
 30
0.0
 11
339.1575394273
 21
155.7089202221
 31
0.0
  0
LINE
  5
8A
330
1F
100
AcDbEntity
  8
SLD-0
  6
Continuous
 62
   179
100
AcDbLine
 10
339.1575394273
 20
185.7089202221
 30
0.0
 11
339.6575394273
 21
185.2089202221
 31
0.0
  0
LINE
  5
8B
330
1F
100
AcDbEntity
  8
SLD-0
  6
Continuous
 62
   179
100
AcDbLine
 10
339.1575394273
 20
155.7089202221
 30
0.0
 11
339.6575394273
 21
156.2089202221
 31
0.0
  0
LINE
  5
8C
330
1F
100
AcDbEntity
  8
0
  6
Continuous
 62
     7
370
    15
100
AcDbLine
 10
161.0
 20
15.0
 30
0.0
 11
21.0
 21
15.0
 31
0.0
  0
LINE
  5
8D
330
1F
100
AcDbEntity
  8
0
  6
Continuous
 62
     7
370
    15
100
AcDbLine
 10
21.0
 20
15.0
 30
0.0
 11
21.0
 21
275.5
 31
0.0
  0
LINE
  5
8E
330
1F
100
AcDbEntity
  8
0
  6
Continuous
 62
     7
370
    15
100
AcDbLine
 10
294.5020114515
 20
19.2729041081
 30
0.0
 11
297.5020114515
 21
19.2729041081
 31
0.0
  0
LINE
  5
8F
330
1F
100
AcDbEntity
  8
0
  6
Continuous
 62
     7
370
    15
100
AcDbLine
 10
297.5020114515
 20
19.2729041081
 30
0.0
 11
296.0020114515
 21
16.6748278967
 31
0.0
  0
LINE
  5
90
330
1F
100
AcDbEntity
  8
0
  6
Continuous
 62
     7
370
    15
100
AcDbLine
 10
294.5020114515
 20
19.2729041081
 30
0.0
 11
296.0020114515
 21
16.6748278967
 31
0.0
  0
LINE
  5
91
330
1F
100
AcDbEntity
  8
0
  6
Continuous
 62
     7
370
    15
100
AcDbLine
 10
280.5463005651
 20
19.2729041081
 30
0.0
 11
283.5463005651
 21
19.2729041081
 31
0.0
  0
LINE
  5
92
330
1F
100
AcDbEntity
  8
0
  6
Continuous
 62
     7
370
    15
100
AcDbLine
 10
283.5463005651
 20
19.2729041081
 30
0.0
 11
282.0463005651
 21
16.6748278967
 31
0.0
  0
LINE
  5
93
330
1F
100
AcDbEntity
  8
0
  6
Continuous
 62
     7
370
    15
100
AcDbLine
 10
266.455201517
 20
19.4082922699
 30
0.0
 11
269.455201517
 21
19.4082922699
 31
0.0
  0
LINE
  5
94
330
1F
100
AcDbEntity
  8
0
  6
Continuous
 62
     7
370
    15
100
AcDbLine
 10
269.455201517
 20
19.4082922699
 30
0.0
 11
267.955201517
 21
16.8102160585
 31
0.0
  0
LINE
  5
95
330
1F
100
AcDbEntity
  8
0
  6
Continuous
 62
     7
370
    15
100
AcDbLine
 10
266.455201517
 20
19.4082922699
 30
0.0
 11
267.955201517
 21
16.8102160585
 31
0.0
  0
LINE
  5
96
330
1F
100
AcDbEntity
  8
0
  6
CENTER
 62
     7
370
    15
100
AcDbLine
 10
269.455201517
 20
19.4082922699
 30
0.0
 11
272.455201517
 21
19.4082922699
 31
0.0
  0
LINE
  5
97
330
1F
100
AcDbEntity
  8
0
  6
Continuous
 62
     7
370
     0
100
AcDbLine
 10
315.0
 20
45.3958482586
 30
0.0
 11
404.0
 21
45.3958482586
 31
0.0
  0
LINE
  5
98
330
1F
100
AcDbEntity
  8
0
  6
Continuous
 62
     7
370
    15
100
AcDbLine
 10
383.333333352
 20
15.021439657
 30
0.0
 11
374.333333352
 21
15.0214474823
 31
0.0
  0
LINE
  5
99
330
1F
100
AcDbEntity
  8
0
  6
Continuous
 62
     7
370
     0
100
AcDbLine
 10
383.3682386859
 20
14.9998887542
 30
0.0
 11
383.3682386859
 21
21.0876824782
 31
0.0
  0
LINE
  5
9A
330
1F
100
AcDbEntity
  8
0
  6
Continuous
 62
     7
370
     0
100
AcDbLine
 10
315.0
 20
60.0
 30
0.0
 11
404.0
 21
60.0
 31
0.0
  0
LINE
  5
9B
330
1F
100
AcDbEntity
  8
0
  6
Continuous
 62
     7
370
    15
100
AcDbLine
 10
374.3333333333
 20
15.0
 30
0.0
 11
353.6666666667
 21
15.0
 31
0.0
  0
LINE
  5
9C
330
1F
100
AcDbEntity
  8
0
  6
Continuous
 62
     7
370
     0
100
AcDbLine
 10
374.3682386859
 20
14.9998887542
 30
0.0
 11
374.3682386859
 21
21.0876824782
 31
0.0
  0
LINE
  5
9D
330
1F
100
AcDbEntity
  8
0
  6
Continuous
 62
     7
370
    15
100
AcDbLine
 10
353.6666666667
 20
15.0
 30
0.0
 11
344.6666666667
 21
15.0
 31
0.0
  0
LINE
  5
9E
330
1F
100
AcDbEntity
  8
0
  6
Continuous
 62
     7
370
     0
100
AcDbLine
 10
353.7015720006
 20
14.9998887542
 30
0.0
 11
353.7015720006
 21
21.0876824782
 31
0.0
  0
LINE
  5
9F
330
1F
100
AcDbEntity
  8
0
  6
Continuous
 62
     7
370
    15
100
AcDbLine
 10
344.6666666667
 20
15.0
 30
0.0
 11
324.0
 21
15.0
 31
0.0
  0
LINE
  5
A0
330
1F
100
AcDbEntity
  8
0
  6
Continuous
 62
     7
370
     0
100
AcDbLine
 10
344.7015720006
 20
21.0876824782
 30
0.0
 11
344.7015720006
 21
14.9998887542
 31
0.0
  0
LINE
  5
A1
330
1F
100
AcDbEntity
  8
0
  6
Continuous
 62
     7
370
    15
100
AcDbLine
 10
324.0
 20
15.0
 30
0.0
 11
315.0
 21
15.0
 31
0.0
  0
LINE
  5
A2
330
1F
100
AcDbEntity
  8
0
  6
Continuous
 62
     7
370
     0
100
AcDbLine
 10
324.0349088287
 20
21.0876824782
 30
0.0
 11
324.040266797
 21
15.0078225008
 31
0.0
  0
LINE
  5
A3
330
1F
100
AcDbEntity
  8
0
  6
Continuous
 62
     7
370
     0
100
AcDbLine
 10
390.0012900053
 20
26.5638223943
 30
0.0
 11
390.0012900053
 21
21.0876824782
 31
0.0
  0
LINE
  5
A4
330
1F
100
AcDbEntity
  8
0
  6
Continuous
 62
     7
370
     0
100
AcDbLine
 10
379.5
 20
26.5638223943
 30
0.0
 11
379.5
 21
21.0876824782
 31
0.0
  0
LINE
  5
A5
330
1F
100
AcDbEntity
  8
0
  6
Continuous
 62
     7
370
     0
100
AcDbLine
 10
369.5
 20
26.5638223943
 30
0.0
 11
369.5
 21
21.0876824782
 31
0.0
  0
LINE
  5
A6
330
1F
100
AcDbEntity
  8
0
  6
Continuous
 62
     7
370
     0
100
AcDbLine
 10
358.0006399239
 20
26.5638223943
 30
0.0
 11
358.0006399239
 21
21.0876824782
 31
0.0
  0
LINE
  5
A7
330
1F
100
AcDbEntity
  8
0
  6
Continuous
 62
     7
370
     0
100
AcDbLine
 10
348.0004367734
 20
26.5638223943
 30
0.0
 11
348.0004367734
 21
21.0876824782
 31
0.0
  0
LINE
  5
A8
330
1F
100
AcDbEntity
  8
0
  6
Continuous
 62
     7
370
     0
100
AcDbLine
 10
334.0243421727
 20
26.5638223943
 30
0.0
 11
334.0243421727
 21
21.0876824782
 31
0.0
  0
LINE
  5
A9
330
1F
100
AcDbEntity
  8
0
  6
Continuous
 62
     7
370
     0
100
AcDbLine
 10
326.5349053339
 20
26.5638223943
 30
0.0
 11
326.5349053339
 21
21.0876824782
 31
0.0
  0
LINE
  5
AA
330
1F
100
AcDbEntity
  8
0
  6
Continuous
 62
     7
370
     0
100
AcDbLine
 10
366.6
 20
26.5638223943
 30
0.0
 11
366.6
 21
45.3958482586
 31
0.0
  0
LINE
  5
AB
330
1F
100
AcDbEntity
  8
0
  6
Continuous
 62
     7
370
    15
100
AcDbLine
 10
404.0
 20
15.0
 30
0.0
 11
404.0
 21
22.25
 31
0.0
  0
LINE
  5
AC
330
1F
100
AcDbEntity
  8
0
  6
Continuous
 62
     7
370
    15
100
AcDbLine
 10
404.0
 20
275.5
 30
0.0
 11
21.0
 21
275.5
 31
0.0
  0
LINE
  5
AD
330
1F
100
AcDbEntity
  8
0
  6
Continuous
 62
     7
370
    15
100
AcDbLine
 10
280.5463005651
 20
19.2729041081
 30
0.0
 11
282.0463005651
 21
16.6748278967
 31
0.0
  0
LINE
  5
AE
330
1F
100
AcDbEntity
  8
0
  6
Continuous
 62
     7
370
     0
100
AcDbLine
 10
161.0
 20
60.0
 30
0.0
 11
171.0
 21
60.0
 31
0.0
  0
LINE
  5
AF
330
1F
100
AcDbEntity
  8
0
  6
Continuous
 62
     7
370
     0
100
AcDbLine
 10
161.0
 20
60.0
 30
0.0
 11
161.0
 21
52.5
 31
0.0
  0
LINE
  5
B0
330
1F
100
AcDbEntity
  8
0
  6
Continuous
 62
     7
370
     0
100
AcDbLine
 10
265.0
 20
60.0
 30
0.0
 11
265.0
 21
56.0
 31
0.0
  0
LINE
  5
B1
330
1F
100
AcDbEntity
  8
0
  6
Continuous
 62
     7
370
    15
100
AcDbLine
 10
265.0
 20
15.0
 30
0.0
 11
277.5
 21
15.0
 31
0.0
  0
LINE
  5
B2
330
1F
100
AcDbEntity
  8
0
  6
Continuous
 62
     7
370
     0
100
AcDbLine
 10
265.0
 20
22.5
 30
0.0
 11
232.9735538908
 21
22.5
 31
0.0
  0
LINE
  5
B3
330
1F
100
AcDbEntity
  8
0
  6
Continuous
 62
     7
370
     0
100
AcDbLine
 10
265.0
 20
22.5
 30
0.0
 11
265.0
 21
15.0
 31
0.0
  0
LINE
  5
B4
330
1F
100
AcDbEntity
  8
0
  6
Continuous
 62
     7
370
     0
100
AcDbLine
 10
161.0
 20
22.5
 30
0.0
 11
161.0
 21
15.0
 31
0.0
  0
LINE
  5
B5
330
1F
100
AcDbEntity
  8
0
  6
Continuous
 62
     7
370
     0
100
AcDbLine
 10
265.0
 20
60.0
 30
0.0
 11
315.0
 21
60.0
 31
0.0
  0
LINE
  5
B6
330
1F
100
AcDbEntity
  8
0
  6
Continuous
 62
     7
370
    15
100
AcDbLine
 10
404.0
 20
60.0
 30
0.0
 11
404.0
 21
275.5
 31
0.0
  0
LINE
  5
B7
330
1F
100
AcDbEntity
  8
0
  6
Continuous
 62
     7
370
     0
100
AcDbLine
 10
315.0
 20
60.0
 30
0.0
 11
315.0
 21
56.0
 31
0.0
  0
LINE
  5
B8
330
1F
100
AcDbEntity
  8
0
  6
Continuous
 62
     7
370
     0
100
AcDbLine
 10
251.7569070807
 20
60.0
 30
0.0
 11
251.7569070807
 21
22.5
 31
0.0
  0
LINE
  5
B9
330
1F
100
AcDbEntity
  8
0
  6
Continuous
 62
     7
370
     0
100
AcDbLine
 10
251.7569070807
 20
60.0
 30
0.0
 11
265.0
 21
60.0
 31
0.0
  0
LINE
  5
BA
330
1F
100
AcDbEntity
  8
0
  6
Continuous
 62
     7
370
     0
100
AcDbLine
 10
191.0
 20
60.0
 30
0.0
 11
191.0
 21
22.5
 31
0.0
  0
LINE
  5
BB
330
1F
100
AcDbEntity
  8
0
  6
Continuous
 62
     7
370
     0
100
AcDbLine
 10
191.0
 20
60.0
 30
0.0
 11
251.7569070807
 21
60.0
 31
0.0
  0
LINE
  5
BC
330
1F
100
AcDbEntity
  8
0
  6
Continuous
 62
     7
370
     0
100
AcDbLine
 10
265.0
 20
56.0
 30
0.0
 11
284.5
 21
56.0
 31
0.0
  0
LINE
  5
BD
330
1F
100
AcDbEntity
  8
0
  6
Continuous
 62
     7
370
     0
100
AcDbLine
 10
265.0
 20
56.0
 30
0.0
 11
265.0
 21
52.5
 31
0.0
  0
LINE
  5
BE
330
1F
100
AcDbEntity
  8
0
  6
Continuous
 62
     7
370
     0
100
AcDbLine
 10
315.0
 20
56.0
 30
0.0
 11
315.0
 21
52.0
 31
0.0
  0
LINE
  5
BF
330
1F
100
AcDbEntity
  8
0
  6
Continuous
 62
     7
370
     0
100
AcDbLine
 10
265.0
 20
32.0
 30
0.0
 11
284.5
 21
32.0
 31
0.0
  0
LINE
  5
C0
330
1F
100
AcDbEntity
  8
0
  6
Continuous
 62
     7
370
     0
100
AcDbLine
 10
265.0
 20
32.0
 30
0.0
 11
265.0
 21
30.0
 31
0.0
  0
LINE
  5
C1
330
1F
100
AcDbEntity
  8
0
  6
Continuous
 62
     7
370
     0
100
AcDbLine
 10
315.0
 20
32.0
 30
0.0
 11
315.0
 21
29.5
 31
0.0
  0
LINE
  5
C2
330
1F
100
AcDbEntity
  8
0
  6
Continuous
 62
     7
370
     0
100
AcDbLine
 10
265.0
 20
27.5
 30
0.0
 11
277.5
 21
27.5
 31
0.0
  0
LINE
  5
C3
330
1F
100
AcDbEntity
  8
0
  6
Continuous
 62
     7
370
     0
100
AcDbLine
 10
265.0
 20
27.5
 30
0.0
 11
265.0
 21
23.0
 31
0.0
  0
LINE
  5
C4
330
1F
100
AcDbEntity
  8
0
  6
Continuous
 62
     7
370
     0
100
AcDbLine
 10
315.0
 20
27.5
 30
0.0
 11
315.0
 21
20.6872385251
 31
0.0
  0
LINE
  5
C5
330
1F
100
AcDbEntity
  8
0
  6
Continuous
 62
     7
370
    15
100
AcDbLine
 10
404.0
 20
49.3
 30
0.0
 11
404.0
 21
60.0
 31
0.0
  0
LINE
  5
C6
330
1F
100
AcDbEntity
  8
0
  6
Continuous
 62
     7
370
     0
100
AcDbLine
 10
315.0
 20
49.3
 30
0.0
 11
315.0
 21
48.0
 31
0.0
  0
LINE
  5
C7
330
1F
100
AcDbEntity
  8
0
  6
Continuous
 62
     7
370
     0
100
AcDbLine
 10
265.0349053339
 20
21.0876824782
 30
0.0
 11
315.0349053339
 21
21.0876824782
 31
0.0
  0
LINE
  5
C8
330
1F
100
AcDbEntity
  8
0
  6
Continuous
 62
     7
370
     0
100
AcDbLine
 10
265.0
 20
23.0
 30
0.0
 11
265.0
 21
22.5
 31
0.0
  0
LINE
  5
C9
330
1F
100
AcDbEntity
  8
0
  6
Continuous
 62
     7
370
     0
100
AcDbLine
 10
315.0
 20
23.0
 30
0.0
 11
315.0
 21
22.25
 31
0.0
  0
LINE
  5
CA
330
1F
100
AcDbEntity
  8
0
  6
Continuous
 62
     7
370
    15
100
AcDbLine
 10
404.0
 20
29.5
 30
0.0
 11
404.0
 21
39.4
 31
0.0
  0
LINE
  5
CB
330
1F
100
AcDbEntity
  8
0
  6
Continuous
 62
     7
370
     0
100
AcDbLine
 10
315.0
 20
29.5
 30
0.0
 11
315.0
 21
27.5
 31
0.0
  0
LINE
  5
CC
330
1F
100
AcDbEntity
  8
0
  6
Continuous
 62
     7
370
     0
100
AcDbLine
 10
277.5
 20
27.5
 30
0.0
 11
277.5
 21
15.0
 31
0.0
  0
LINE
  5
CD
330
1F
100
AcDbEntity
  8
0
  6
Continuous
 62
     7
370
     0
100
AcDbLine
 10
277.5
 20
27.5
 30
0.0
 11
290.0
 21
27.5
 31
0.0
  0
LINE
  5
CE
330
1F
100
AcDbEntity
  8
0
  6
Continuous
 62
     7
370
    15
100
AcDbLine
 10
277.5
 20
15.0
 30
0.0
 11
290.0
 21
15.0
 31
0.0
  0
LINE
  5
CF
330
1F
100
AcDbEntity
  8
0
  6
Continuous
 62
     7
370
     0
100
AcDbLine
 10
290.0
 20
15.0
 30
0.0
 11
290.0
 21
27.5
 31
0.0
  0
LINE
  5
D0
330
1F
100
AcDbEntity
  8
0
  6
Continuous
 62
     7
370
    15
100
AcDbLine
 10
290.0
 20
15.0
 30
0.0
 11
302.5
 21
15.0
 31
0.0
  0
LINE
  5
D1
330
1F
100
AcDbEntity
  8
0
  6
Continuous
 62
     7
370
     0
100
AcDbLine
 10
290.0
 20
27.5
 30
0.0
 11
302.5
 21
27.5
 31
0.0
  0
LINE
  5
D2
330
1F
100
AcDbEntity
  8
0
  6
Continuous
 62
     7
370
     0
100
AcDbLine
 10
302.5
 20
27.5
 30
0.0
 11
302.5
 21
15.0
 31
0.0
  0
LINE
  5
D3
330
1F
100
AcDbEntity
  8
0
  6
Continuous
 62
     7
370
     0
100
AcDbLine
 10
302.5
 20
27.5
 30
0.0
 11
315.0
 21
27.5
 31
0.0
  0
LINE
  5
D4
330
1F
100
AcDbEntity
  8
0
  6
Continuous
 62
     7
370
    15
100
AcDbLine
 10
302.5
 20
15.0
 30
0.0
 11
315.0
 21
15.0
 31
0.0
  0
LINE
  5
D5
330
1F
100
AcDbEntity
  8
0
  6
Continuous
 62
     7
370
    15
100
AcDbLine
 10
404.0
 20
22.25
 30
0.0
 11
404.0
 21
29.5
 31
0.0
  0
LINE
  5
D6
330
1F
100
AcDbEntity
  8
0
  6
Continuous
 62
     7
370
     0
100
AcDbLine
 10
315.0000335724
 20
22.3233033671
 30
0.0
 11
314.999884801
 21
15.0733033671
 31
0.0
  0
LINE
  5
D7
330
1F
100
AcDbEntity
  8
0
  6
Continuous
 62
     7
370
     0
100
AcDbLine
 10
315.0
 20
37.0011514006
 30
0.0
 11
404.0
 21
37.0011514006
 31
0.0
  0
LINE
  5
D8
330
1F
100
AcDbEntity
  8
0
  6
Continuous
 62
     7
370
     0
100
AcDbLine
 10
315.0
 20
39.4
 30
0.0
 11
315.0
 21
36.0
 31
0.0
  0
LINE
  5
D9
330
1F
100
AcDbEntity
  8
0
  6
Continuous
 62
     7
370
    15
100
AcDbLine
 10
404.0
 20
39.4
 30
0.0
 11
404.0
 21
49.3
 31
0.0
  0
LINE
  5
DA
330
1F
100
AcDbEntity
  8
0
  6
Continuous
 62
     7
370
     0
100
AcDbLine
 10
404.0015438052
 20
26.5638223943
 30
0.0
 11
315.0
 21
26.5638223943
 31
0.0
  0
LINE
  5
DB
330
1F
100
AcDbEntity
  8
0
  6
Continuous
 62
     7
370
     0
100
AcDbLine
 10
404.0349388151
 20
21.0876824782
 30
0.0
 11
315.0349053339
 21
21.0876824782
 31
0.0
  0
LINE
  5
DC
330
1F
100
AcDbEntity
  8
0
  6
Continuous
 62
     7
370
    15
100
AcDbLine
 10
404.0000000186
 20
15.0214216877
 30
0.0
 11
383.333333352
 21
15.021439657
 31
0.0
  0
LINE
  5
DD
330
1F
100
AcDbEntity
  8
0
  6
Continuous
 62
     7
370
     0
100
AcDbLine
 10
330.5
 20
45.3958482586
 30
0.0
 11
330.5
 21
26.5638223943
 31
0.0
  0
LINE
  5
DE
330
1F
100
AcDbEntity
  8
0
  6
Continuous
 62
     7
370
     0
100
AcDbLine
 10
382.0
 20
45.3958482586
 30
0.0
 11
382.0
 21
26.5638223943
 31
0.0
  0
LINE
  5
DF
330
1F
100
AcDbEntity
  8
0
  6
Continuous
 62
     7
370
     0
100
AcDbLine
 10
284.5
 20
56.0
 30
0.0
 11
284.5
 21
32.0
 31
0.0
  0
LINE
  5
E0
330
1F
100
AcDbEntity
  8
0
  6
Continuous
 62
     7
370
     0
100
AcDbLine
 10
284.5
 20
56.0
 30
0.0
 11
294.6666666667
 21
56.0
 31
0.0
  0
LINE
  5
E1
330
1F
100
AcDbEntity
  8
0
  6
Continuous
 62
     7
370
     0
100
AcDbLine
 10
284.5
 20
32.0
 30
0.0
 11
294.6666666667
 21
32.0
 31
0.0
  0
LINE
  5
E2
330
1F
100
AcDbEntity
  8
0
  6
Continuous
 62
     7
370
     0
100
AcDbLine
 10
294.6666666667
 20
32.0
 30
0.0
 11
294.6666666667
 21
56.0
 31
0.0
  0
LINE
  5
E3
330
1F
100
AcDbEntity
  8
0
  6
Continuous
 62
     7
370
     0
100
AcDbLine
 10
294.6666666667
 20
32.0
 30
0.0
 11
304.8333333333
 21
32.0
 31
0.0
  0
LINE
  5
E4
330
1F
100
AcDbEntity
  8
0
  6
Continuous
 62
     7
370
     0
100
AcDbLine
 10
294.6666666667
 20
56.0
 30
0.0
 11
304.8333333333
 21
56.0
 31
0.0
  0
LINE
  5
E5
330
1F
100
AcDbEntity
  8
0
  6
Continuous
 62
     7
370
     0
100
AcDbLine
 10
304.8333333333
 20
56.0
 30
0.0
 11
304.8333333333
 21
32.0
 31
0.0
  0
LINE
  5
E6
330
1F
100
AcDbEntity
  8
0
  6
Continuous
 62
     7
370
     0
100
AcDbLine
 10
304.8333333333
 20
56.0
 30
0.0
 11
315.0
 21
56.0
 31
0.0
  0
LINE
  5
E7
330
1F
100
AcDbEntity
  8
0
  6
Continuous
 62
     7
370
     0
100
AcDbLine
 10
304.8333333333
 20
32.0
 30
0.0
 11
315.0
 21
32.0
 31
0.0
  0
LINE
  5
E8
330
1F
100
AcDbEntity
  8
0
  6
Continuous
 62
     7
370
     0
100
AcDbLine
 10
171.0
 20
60.0
 30
0.0
 11
171.0
 21
22.5
 31
0.0
  0
LINE
  5
E9
330
1F
100
AcDbEntity
  8
0
  6
Continuous
 62
     7
370
     0
100
AcDbLine
 10
171.0
 20
60.0
 30
0.0
 11
191.0
 21
60.0
 31
0.0
  0
LINE
  5
EA
330
1F
100
AcDbEntity
  8
0
  6
Continuous
 62
     7
370
    15
100
AcDbLine
 10
161.0
 20
15.0
 30
0.0
 11
173.9503430537
 21
15.0
 31
0.0
  0
LINE
  5
EB
330
1F
100
AcDbEntity
  8
0
  6
Continuous
 62
     7
370
     0
100
AcDbLine
 10
161.0
 20
52.5
 30
0.0
 11
265.0
 21
52.5
 31
0.0
  0
LINE
  5
EC
330
1F
100
AcDbEntity
  8
0
  6
Continuous
 62
     7
370
     0
100
AcDbLine
 10
161.0
 20
52.5
 30
0.0
 11
161.0
 21
45.0
 31
0.0
  0
LINE
  5
ED
330
1F
100
AcDbEntity
  8
0
  6
Continuous
 62
     7
370
     0
100
AcDbLine
 10
265.0
 20
52.5
 30
0.0
 11
265.0
 21
52.0
 31
0.0
  0
LINE
  5
EE
330
1F
100
AcDbEntity
  8
0
  6
Continuous
 62
     7
370
     0
100
AcDbLine
 10
265.0
 20
45.0
 30
0.0
 11
161.0
 21
45.0
 31
0.0
  0
LINE
  5
EF
330
1F
100
AcDbEntity
  8
0
  6
Continuous
 62
     7
370
     0
100
AcDbLine
 10
265.0
 20
45.0
 30
0.0
 11
265.0
 21
44.0
 31
0.0
  0
LINE
  5
F0
330
1F
100
AcDbEntity
  8
0
  6
Continuous
 62
     7
370
     0
100
AcDbLine
 10
161.0
 20
45.0
 30
0.0
 11
161.0
 21
37.5
 31
0.0
  0
LINE
  5
F1
330
1F
100
AcDbEntity
  8
0
  6
Continuous
 62
     7
370
     0
100
AcDbLine
 10
161.0
 20
37.5
 30
0.0
 11
265.0
 21
37.5
 31
0.0
  0
LINE
  5
F2
330
1F
100
AcDbEntity
  8
0
  6
Continuous
 62
     7
370
     0
100
AcDbLine
 10
161.0
 20
37.5
 30
0.0
 11
161.0
 21
30.0
 31
0.0
  0
LINE
  5
F3
330
1F
100
AcDbEntity
  8
0
  6
Continuous
 62
     7
370
     0
100
AcDbLine
 10
265.0
 20
37.5
 30
0.0
 11
265.0
 21
36.0
 31
0.0
  0
LINE
  5
F4
330
1F
100
AcDbEntity
  8
0
  6
Continuous
 62
     7
370
     0
100
AcDbLine
 10
161.0
 20
30.0
 30
0.0
 11
265.0
 21
30.0
 31
0.0
  0
LINE
  5
F5
330
1F
100
AcDbEntity
  8
0
  6
Continuous
 62
     7
370
     0
100
AcDbLine
 10
161.0
 20
30.0
 30
0.0
 11
161.0
 21
22.5
 31
0.0
  0
LINE
  5
F6
330
1F
100
AcDbEntity
  8
0
  6
Continuous
 62
     7
370
     0
100
AcDbLine
 10
265.0
 20
30.0
 30
0.0
 11
265.0
 21
27.5
 31
0.0
  0
LINE
  5
F7
330
1F
100
AcDbEntity
  8
0
  6
Continuous
 62
     7
370
     0
100
AcDbLine
 10
315.0
 20
52.0
 30
0.0
 11
265.0
 21
52.0
 31
0.0
  0
LINE
  5
F8
330
1F
100
AcDbEntity
  8
0
  6
Continuous
 62
     7
370
     0
100
AcDbLine
 10
315.0
 20
52.0
 30
0.0
 11
315.0
 21
49.3
 31
0.0
  0
LINE
  5
F9
330
1F
100
AcDbEntity
  8
0
  6
Continuous
 62
     7
370
     0
100
AcDbLine
 10
265.0
 20
52.0
 30
0.0
 11
265.0
 21
48.0
 31
0.0
  0
LINE
  5
FA
330
1F
100
AcDbEntity
  8
0
  6
Continuous
 62
     7
370
     0
100
AcDbLine
 10
315.0
 20
48.0
 30
0.0
 11
265.0
 21
48.0
 31
0.0
  0
LINE
  5
FB
330
1F
100
AcDbEntity
  8
0
  6
Continuous
 62
     7
370
     0
100
AcDbLine
 10
315.0
 20
48.0
 30
0.0
 11
315.0
 21
44.0
 31
0.0
  0
LINE
  5
FC
330
1F
100
AcDbEntity
  8
0
  6
Continuous
 62
     7
370
     0
100
AcDbLine
 10
265.0
 20
48.0
 30
0.0
 11
265.0
 21
45.0
 31
0.0
  0
LINE
  5
FD
330
1F
100
AcDbEntity
  8
0
  6
Continuous
 62
     7
370
     0
100
AcDbLine
 10
265.0
 20
44.0
 30
0.0
 11
315.0
 21
44.0
 31
0.0
  0
LINE
  5
FE
330
1F
100
AcDbEntity
  8
0
  6
Continuous
 62
     7
370
     0
100
AcDbLine
 10
265.0
 20
44.0
 30
0.0
 11
265.0
 21
40.0
 31
0.0
  0
LINE
  5
FF
330
1F
100
AcDbEntity
  8
0
  6
Continuous
 62
     7
370
     0
100
AcDbLine
 10
315.0
 20
44.0
 30
0.0
 11
315.0
 21
40.0
 31
0.0
  0
LINE
  5
100
330
1F
100
AcDbEntity
  8
0
  6
Continuous
 62
     7
370
     0
100
AcDbLine
 10
315.0
 20
40.0
 30
0.0
 11
265.0
 21
40.0
 31
0.0
  0
LINE
  5
101
330
1F
100
AcDbEntity
  8
0
  6
Continuous
 62
     7
370
     0
100
AcDbLine
 10
315.0
 20
40.0
 30
0.0
 11
315.0
 21
39.4
 31
0.0
  0
LINE
  5
102
330
1F
100
AcDbEntity
  8
0
  6
Continuous
 62
     7
370
     0
100
AcDbLine
 10
265.0
 20
40.0
 30
0.0
 11
265.0
 21
37.5
 31
0.0
  0
LINE
  5
103
330
1F
100
AcDbEntity
  8
0
  6
Continuous
 62
     7
370
     0
100
AcDbLine
 10
265.0
 20
36.0
 30
0.0
 11
315.0
 21
36.0
 31
0.0
  0
LINE
  5
104
330
1F
100
AcDbEntity
  8
0
  6
Continuous
 62
     7
370
     0
100
AcDbLine
 10
265.0
 20
36.0
 30
0.0
 11
265.0
 21
32.0
 31
0.0
  0
LINE
  5
105
330
1F
100
AcDbEntity
  8
0
  6
Continuous
 62
     7
370
     0
100
AcDbLine
 10
315.0
 20
36.0
 30
0.0
 11
315.0
 21
32.0
 31
0.0
  0
LINE
  5
106
330
1F
100
AcDbEntity
  8
0
  6
Continuous
 62
     7
370
     0
100
AcDbLine
 10
173.9503430537
 20
15.0
 30
0.0
 11
173.9503430537
 21
22.5
 31
0.0
  0
LINE
  5
107
330
1F
100
AcDbEntity
  8
0
  6
Continuous
 62
     7
370
    15
100
AcDbLine
 10
173.9503430537
 20
15.0
 30
0.0
 11
186.7632108866
 21
15.0
 31
0.0
  0
LINE
  5
108
330
1F
100
AcDbEntity
  8
0
  6
Continuous
 62
     7
370
     0
100
AcDbLine
 10
173.9503430537
 20
22.5
 30
0.0
 11
161.0
 21
22.5
 31
0.0
  0
LINE
  5
109
330
1F
100
AcDbEntity
  8
0
  6
Continuous
 62
     7
370
     0
100
AcDbLine
 10
186.7632108866
 20
22.5
 30
0.0
 11
186.7632108866
 21
15.0
 31
0.0
  0
LINE
  5
10A
330
1F
100
AcDbEntity
  8
0
  6
Continuous
 62
     7
370
     0
100
AcDbLine
 10
186.7632108866
 20
22.5
 30
0.0
 11
173.9503430537
 21
22.5
 31
0.0
  0
LINE
  5
10B
330
1F
100
AcDbEntity
  8
0
  6
Continuous
 62
     7
370
    15
100
AcDbLine
 10
186.7632108866
 20
15.0
 30
0.0
 11
221.6310151534
 21
15.0
 31
0.0
  0
LINE
  5
10C
330
1F
100
AcDbEntity
  8
0
  6
Continuous
 62
     7
370
     0
100
AcDbLine
 10
221.6310151534
 20
22.5
 30
0.0
 11
221.6310151534
 21
15.0
 31
0.0
  0
LINE
  5
10D
330
1F
100
AcDbEntity
  8
0
  6
Continuous
 62
     7
370
     0
100
AcDbLine
 10
221.6310151534
 20
22.5
 30
0.0
 11
186.7632108866
 21
22.5
 31
0.0
  0
LINE
  5
10E
330
1F
100
AcDbEntity
  8
0
  6
Continuous
 62
     7
370
    15
100
AcDbLine
 10
221.6310151534
 20
15.0
 30
0.0
 11
232.9735538908
 21
15.0
 31
0.0
  0
LINE
  5
10F
330
1F
100
AcDbEntity
  8
0
  6
Continuous
 62
     7
370
     0
100
AcDbLine
 10
232.9735538908
 20
22.5
 30
0.0
 11
232.9735538908
 21
15.0
 31
0.0
  0
LINE
  5
110
330
1F
100
AcDbEntity
  8
0
  6
Continuous
 62
     7
370
     0
100
AcDbLine
 10
232.9735538908
 20
22.5
 30
0.0
 11
221.6310151534
 21
22.5
 31
0.0
  0
LINE
  5
111
330
1F
100
AcDbEntity
  8
0
  6
Continuous
 62
     7
370
    15
100
AcDbLine
 10
232.9735538908
 20
15.0
 30
0.0
 11
265.0
 21
15.0
 31
0.0
  0
LINE
  5
112
330
1F
100
AcDbEntity
  8
0
  6
CENTER
 62
     7
370
    15
100
AcDbLine
 10
269.455201517
 20
19.4082922699
 30
0.0
 11
270.955201517
 21
16.8102160585
 31
0.0
  0
LINE
  5
113
330
1F
100
AcDbEntity
  8
0
  6
CENTER
 62
     7
370
    15
100
AcDbLine
 10
272.455201517
 20
19.4082922699
 30
0.0
 11
270.955201517
 21
16.8102160585
 31
0.0
  0
LINE
  5
114
330
1F
100
AcDbEntity
  8
0
  6
CENTER
 62
     7
370
    15
100
AcDbLine
 10
272.455201517
 20
19.4082922699
 30
0.0
 11
275.455201517
 21
19.4082922699
 31
0.0
  0
LINE
  5
115
330
1F
100
AcDbEntity
  8
0
  6
CENTER
 62
     7
370
    15
100
AcDbLine
 10
272.455201517
 20
19.4082922699
 30
0.0
 11
273.955201517
 21
16.8102160585
 31
0.0
  0
LINE
  5
116
330
1F
100
AcDbEntity
  8
0
  6
CENTER
 62
     7
370
    15
100
AcDbLine
 10
275.455201517
 20
19.4082922699
 30
0.0
 11
273.955201517
 21
16.8102160585
 31
0.0
  0
LINE
  5
117
330
1F
100
AcDbEntity
  8
0
  6
CENTER
 62
     7
370
    15
100
AcDbLine
 10
283.5463005651
 20
19.2729041081
 30
0.0
 11
286.5463005651
 21
19.2729041081
 31
0.0
  0
LINE
  5
118
330
1F
100
AcDbEntity
  8
0
  6
CENTER
 62
     7
370
    15
100
AcDbLine
 10
286.5463005651
 20
19.2729041081
 30
0.0
 11
285.0463005651
 21
16.6748278967
 31
0.0
  0
LINE
  5
119
330
1F
100
AcDbEntity
  8
0
  6
CENTER
 62
     7
370
    15
100
AcDbLine
 10
283.5463005651
 20
19.2729041081
 30
0.0
 11
285.0463005651
 21
16.6748278967
 31
0.0
  0
LINE
  5
11A
330
1F
100
AcDbEntity
  8
0
  6
Continuous
 62
     7
370
    15
100
AcDbLine
 10
297.5020114515
 20
24.492264999
 30
0.0
 11
296.0020114515
 21
21.8950048289
 31
0.0
  0
LINE
  5
11B
330
1F
100
AcDbEntity
  8
0
  6
Continuous
 62
     7
370
    15
100
AcDbLine
 10
294.5020114515
 20
24.6435617079
 30
0.0
 11
296.0020114515
 21
21.8950048289
 31
0.0
  0
LINE
  5
11C
330
1F
100
AcDbEntity
  8
0
  6
Continuous
 62
     7
370
    15
100
AcDbLine
 10
285.0463005651
 20
24.6435617079
 30
0.0
 11
283.5463005651
 21
21.6516027322
 31
0.0
  0
LINE
  5
11D
330
1F
100
AcDbEntity
  8
0
  6
Continuous
 62
     7
370
    15
100
AcDbLine
 10
282.0463005651
 20
24.6435617079
 30
0.0
 11
283.5463005651
 21
21.6516027322
 31
0.0
  0
LINE
  5
11E
330
1F
100
AcDbEntity
  8
0
  6
Continuous
 62
     7
370
    15
100
AcDbLine
 10
272.455201517
 20
24.492264999
 30
0.0
 11
270.955201517
 21
21.6516027322
 31
0.0
  0
LINE
  5
11F
330
1F
100
AcDbEntity
  8
0
  6
Continuous
 62
     7
370
    15
100
AcDbLine
 10
269.455201517
 20
24.492264999
 30
0.0
 11
270.955201517
 21
21.6516027322
 31
0.0
  0
LINE
  5
120
330
1F
100
AcDbEntity
  8
0
  6
Continuous
 62
     7
370
    15
100
AcDbLine
 10
310.2556415815
 20
24.2496789436
 30
0.0
 11
308.7556415815
 21
21.6516027322
 31
0.0
  0
LINE
  5
121
330
1F
100
AcDbEntity
  8
0
  6
Continuous
 62
     7
370
    15
100
AcDbLine
 10
307.2556415815
 20
24.2496789436
 30
0.0
 11
308.7556415815
 21
21.6516027322
 31
0.0
  0
CIRCLE
  5
122
330
1F
100
AcDbEntity
  8
SLD-0
  6
Continuous
 62
     4
100
AcDbCircle
 10
60.8119168244
 20
170.7089202221
 30
0.0
 40
0.75
  0
CIRCLE
  5
123
330
1F
100
AcDbEntity
  8
SLD-0
  6
Continuous
 62
     4
100
AcDbCircle
 10
357.1835394273
 20
170.7089202221
 30
0.0
 40
0.75
  0
CIRCLE
  5
124
330
1F
100
AcDbEntity
  8
SLD-0
  6
Continuous
 62
     4
100
AcDbCircle
 10
303.0375394273
 20
129.7089202221
 30
0.0
 40
1.5
  0
CIRCLE
  5
125
330
1F
100
AcDbEntity
  8
SLD-0
  6
Continuous
 62
   179
100
AcDbCircle
 10
303.0375394273
 20
129.7089202221
 30
0.0
 40
1.25
  0
CIRCLE
  5
126
330
1F
100
AcDbEntity
  8
SLD-0
  6
Continuous
 62
     4
100
AcDbCircle
 10
324.0375394273
 20
170.7089202221
 30
0.0
 40
1.5
  0
CIRCLE
  5
127
330
1F
100
AcDbEntity
  8
SLD-0
  6
Continuous
 62
   179
100
AcDbCircle
 10
324.0375394273
 20
170.7089202221
 30
0.0
 40
1.25
  0
POINT
  5
128
330
1F
100
AcDbEntity
  8
SLD-0
100
AcDbPoint
 10
189.9375394273
 20
170.7089202221
 30
0.0
  0
POINT
  5
129
330
1F
100
AcDbEntity
  8
SLD-0
100
AcDbPoint
 10
317.0375394273
 20
170.7089202221
 30
0.0
  0
POINT
  5
12A
330
1F
100
AcDbEntity
  8
SLD-0
100
AcDbPoint
 10
189.9375394273
 20
187.7089202221
 30
0.0
  0
POINT
  5
12B
330
1F
100
AcDbEntity
  8
SLD-0
100
AcDbPoint
 10
303.0375394273
 20
170.4411421133
 30
0.0
  0
POINT
  5
12C
330
1F
100
AcDbEntity
  8
SLD-0
100
AcDbPoint
 10
303.0375394273
 20
125.7089202221
 30
0.0
  0
POINT
  5
12D
330
1F
100
AcDbEntity
  8
SLD-0
100
AcDbPoint
 10
324.0375394273
 20
170.7089202221
 30
0.0
  0
POINT
  5
12E
330
1F
100
AcDbEntity
  8
SLD-0
100
AcDbPoint
 10
339.6575394273
 20
170.7089202221
 30
0.0
  0
POINT
  5
12F
330
1F
100
AcDbEntity
  8
SLD-0
100
AcDbPoint
 10
189.9375394273
 20
213.5940167752
 30
0.0
  0
POINT
  5
130
330
1F
100
AcDbEntity
  8
SLD-0
100
AcDbPoint
 10
317.0375394273
 20
206.4860621994
 30
0.0
  0
POINT
  5
131
330
1F
100
AcDbEntity
  8
SLD-0
100
AcDbPoint
 10
331.4675394273
 20
170.7089202221
 30
0.0
  0
SPLINE
  5
132
330
1F
100
AcDbEntity
  8
0
  6
Continuous
 62
     8
370
    15
100
AcDbSpline
210
0.0
220
0.0
230
1.0
 70
     8
 71
     3
 72
    11
 73
     7
 74
     0
 42
0.00000001
 43
0.00000001
 40
0.0
 40
0.0
 40
0.0
 40
0.0
 40
0.2830912462189067
 40
0.5136186913771202
 40
0.7601132866708679
 40
1.0
 40
1.0
 40
1.0
 40
1.0
 10
306.630478438881
 20
17.45001966776254
 30
0.0
 10
307.0501883639264
 20
17.95352984885982
 30
0.0
 10
307.8116773373193
 20
18.86705947495874
 30
0.0
 10
308.5913055166637
 20
17.39481303194207
 30
0.0
 10
309.620932424426
 20
16.16249475486696
 30
0.0
 10
310.2469742761478
 20
17.02474950530411
 30
0.0
 10
310.5557425605238
 20
17.45001966776254
 30
0.0
  0
DIMENSION
  5
133
330
1F
100
AcDbEntity
  8
SLD-0
 62
   179
100
AcDbDimension
  2
*D2
 10
179.7774603422
 20
187.7677781088
 30
0.0
 11
179.7774603422
 21
170.7677781088
 31
0.0
 70
   160
  1
%%c<>
 71
     1
 42
-1.0
  3
SLDDIMSTYLE0
100
AcDbAlignedDimension
 13
190.5498000649
 23
153.7677781088
 33
0.0
 14
190.5498000649
 24
187.7677781088
 34
0.0
 50
90.0
100
AcDbRotatedDimension
  0
DIMENSION
  5
14B
330
1F
100
AcDbEntity
  8
SLD-0
 62
   179
100
AcDbDimension
  2
*D3
 10
298.9595342202
 20
116.2516524437
 30
0.0
 11
302.9595342202
 21
116.2516524437
 31
0.0
 70
   160
  1
%%c<>
 71
     1
 42
-1.0
  3
SLDDIMSTYLE1
100
AcDbAlignedDimension
 13
306.9595342202
 23
126.0177781088
 33
0.0
 14
298.9595342202
 24
126.0177781088
 34
0.0
100
AcDbRotatedDimension
  0
DIMENSION
  5
159
330
1F
100
AcDbEntity
  8
SLD-0
 62
   179
100
AcDbDimension
  2
*D4
 10
60.7339116174
 20
213.6528746619
 30
0.0
 11
125.7320887725
 21
213.6528746619
 31
0.0
 70
   160
  1
WD=<>
 71
     1
 42
-1.0
  3
SLDDIMSTYLE1
100
AcDbAlignedDimension
 13
189.8595342202
 23
187.7677781088
 33
0.0
 14
60.7339116174
 24
174.0549420497
 34
0.0
100
AcDbRotatedDimension
  0
DIMENSION
  5
164
330
1F
100
AcDbEntity
  8
SLD-0
 62
   179
100
AcDbDimension
  2
*D5
 10
293.9595342202
 20
109.4582998999
 30
0.0
 11
302.9595342202
 21
109.4582998999
 31
0.0
 70
   160
  1
%%c<>
 71
     1
 42
-1.0
  3
SLDDIMSTYLE1
100
AcDbAlignedDimension
 13
311.9595342202
 23
126.2677781088
 33
0.0
 14
293.9595342202
 24
126.2677781088
 34
0.0
100
AcDbRotatedDimension
  0
DIMENSION
  5
171
330
1F
100
AcDbEntity
  8
SLD-0
 62
   179
100
AcDbDimension
  2
*D6
 10
189.8595342202
 20
206.5449200861
 30
0.0
 11
238.4095342202
 21
206.5449200861
 31
0.0
 70
   160
 71
     1
 42
-1.0
  3
SLDDIMSTYLE2
100
AcDbAlignedDimension
 13
286.9595342202
 23
187.7677781088
 33
0.0
 14
189.8595342202
 24
187.4677781088
 34
0.0
100
AcDbRotatedDimension
  0
DIMENSION
  5
17C
330
1F
100
AcDbEntity
  8
SLD-0
 62
   179
100
AcDbDimension
  2
*D7
 10
286.9595342202
 20
206.5449200861
 30
0.0
 11
301.9595342202
 21
206.5449200861
 31
0.0
 70
   160
 71
     1
 42
-1.0
  3
SLDDIMSTYLE1
100
AcDbAlignedDimension
 13
316.9595342202
 23
185.2677781088
 33
0.0
 14
286.9595342202
 24
187.7677781088
 34
0.0
100
AcDbRotatedDimension
  0
DIMENSION
  5
186
330
1F
100
AcDbEntity
  8
SLD-0
 62
   179
100
AcDbDimension
  2
*D8
 10
189.8595342202
 20
100.8465179034
 30
0.0
 11
246.6108466831
 21
100.8465179034
 31
0.0
 70
   160
 71
     1
 42
-1.0
  3
SLDDIMSTYLE2
100
AcDbAlignedDimension
 13
302.9595342202
 23
109.4582998999
 33
0.0
 14
189.8595342202
 24
153.7677781088
 34
0.0
100
AcDbRotatedDimension
  0
DIMENSION
  5
190
330
1F
100
AcDbEntity
  8
SLD-0
 62
   179
100
AcDbDimension
  2
*D9
 10
372.7008350863
 20
183.4677781088
 30
0.0
 11
372.7008350863
 21
170.5258686218
 31
0.0
 70
   160
  1
M<> UNC1
 71
     1
 42
-1.0
  3
SLDDIMSTYLE3
100
AcDbAlignedDimension
 13
343.1795342202
 23
158.0677781088
 33
0.0
 14
343.1795342202
 24
183.4677781088
 34
0.0
 50
90.0
100
AcDbRotatedDimension
  0
DIMENSION
  5
19F
330
1F
100
AcDbEntity
  8
SLD-0
 62
   179
100
AcDbDimension
  2
*D10
 10
385.0616126785
 20
185.7677781088
 30
0.0
 11
385.0616126785
 21
170.5258686218
 31
0.0
 70
   160
  1
%%c<>
 71
     1
 42
-1.0
  3
SLDDIMSTYLE4
100
AcDbAlignedDimension
 13
339.5795342202
 23
155.7677781088
 33
0.0
 14
339.5795342202
 24
185.7677781088
 34
0.0
 50
90.0
100
AcDbRotatedDimension
  0
DIMENSION
  5
1B0
330
1F
100
AcDbEntity
  8
SLD-0
 62
   179
100
AcDbDimension
  2
*D11
 10
339.5795342202
 20
137.6667439041
 30
0.0
 11
341.3376247333
 21
137.6667439041
 31
0.0
 70
   160
 71
     1
 42
-1.0
  3
SLDDIMSTYLE1
100
AcDbAlignedDimension
 13
343.5795342202
 23
158.4677781088
 33
0.0
 14
339.5795342202
 24
156.2677781088
 34
0.0
100
AcDbRotatedDimension
  0
DIMENSION
  5
1BC
330
1F
100
AcDbEntity
  8
SLD-0
 62
   179
100
AcDbDimension
  2
*D12
 10
339.4435342202
 20
213.6528746619
 30
0.0
 11
349.2291130424
 21
213.6528746619
 31
0.0
 70
   160
 71
     1
 42
-1.0
  3
SLDDIMSTYLE5
100
AcDbAlignedDimension
 13
356.9695342202
 23
174.0549420497
 33
0.0
 14
339.4435342202
 24
185.7677781088
 34
0.0
100
AcDbRotatedDimension
  0
DIMENSION
  5
1C9
330
1F
100
AcDbEntity
  8
SLD-0
 62
   179
100
AcDbDimension
  2
*D13
 10
60.7339116174
 20
224.9919618118
 30
0.0
 11
209.7224546261
 21
224.9919618118
 31
0.0
 70
   160
  1
O/I 567.25
 71
     1
 42
-1.0
  3
SLDDIMSTYLE6
100
AcDbAlignedDimension
 13
356.9695342202
 23
174.0549420497
 33
0.0
 14
60.7339116174
 24
174.0549420497
 34
0.0
100
AcDbRotatedDimension
  0
DIMENSION
  5
1D4
330
1F
100
AcDbEntity
  8
SLD-0
 62
   179
100
AcDbDimension
  2
*D14
 10
189.8595342202
 20
213.6528746619
 30
0.0
 11
264.7195342202
 21
213.6528746619
 31
0.0
 70
   160
 71
     1
 42
-1.0
  3
SLDDIMSTYLE5
100
AcDbAlignedDimension
 13
339.5795342202
 23
185.2677781088
 33
0.0
 14
189.8595342202
 24
187.7677781088
 34
0.0
100
AcDbRotatedDimension
  0
DIMENSION
  5
1DE
330
1F
100
AcDbEntity
  8
SLD-0
 62
   179
100
AcDbDimension
  2
*D15
 10
264.7195342202
 20
170.7677781088
 30
0.0
 11
264.7195342202
 21
140.1496804848
 31
0.0
 70
   160
 71
     1
 42
-1.0
  3
SLDDIMSTYLE1
100
AcDbAlignedDimension
 13
294.4595342202
 23
125.7677781088
 33
0.0
 14
186.1191640805
 24
170.7677781088
 34
0.0
 50
90.0
100
AcDbRotatedDimension
  0
DIMENSION
  5
1E8
330
1F
100
AcDbEntity
  8
SLD-0
 62
   179
100
AcDbDimension
  2
*D16
 10
316.9595342202
 20
206.5449200861
 30
0.0
 11
324.2954889637
 21
206.5449200861
 31
0.0
 70
   160
 71
     1
 42
-1.0
  3
SLDDIMSTYLE5
100
AcDbAlignedDimension
 13
331.3895342202
 23
185.2677781088
 33
0.0
 14
316.9595342202
 24
185.2677781088
 34
0.0
100
AcDbRotatedDimension
  0
DIMENSION
  5
1F4
330
1F
100
AcDbEntity
  8
SLD-0
 62
   179
100
AcDbDimension
  2
*D17
 10
331.3895342202
 20
206.5449200861
 30
0.0
 11
347.9738158087
 21
206.5449200861
 31
0.0
 70
   160
 71
     1
 42
-1.0
  3
SLDDIMSTYLE5
100
AcDbAlignedDimension
 13
339.5795342202
 23
185.2677781088
 33
0.0
 14
331.3895342202
 24
185.2677781088
 34
0.0
100
AcDbRotatedDimension
  0
MTEXT
  5
200
330
1F
100
AcDbEntity
  8
0
  6
Continuous
 62
     7
370
     0
100
AcDbMText
 10
398.1606687645
 20
13.8404330982
 30
0.0
 40
3.5
 41
0.0
 71
     1
 72
     1
  1
A3
  7
SLDTEXTSTYLE1
 73
     1
 44
1.0
  0
MTEXT
  5
201
330
1F
100
AcDbEntity
  8
0
  6
Continuous
 62
     7
370
     0
100
AcDbMText
 10
370.5589626647
 20
13.6315990709
 30
0.0
 40
3.5
 41
0.0
 71
     1
 72
     1
  1
〔ｍｍ〕
  7
SLDTEXTSTYLE1
 73
     1
 44
1.0
  0
MTEXT
  5
202
330
1F
100
AcDbEntity
  8
0
  6
Continuous
 62
     7
370
     0
100
AcDbMText
 10
360.5533901809
 20
25.2789140611
 30
0.0
 40
3.0
 41
0.0
 71
     1
 72
     1
  1
仕上
  7
SLDTEXTSTYLE1
 73
     1
 44
1.0
  0
MTEXT
  5
204
330
1F
100
AcDbEntity
  8
0
  6
Continuous
 62
     7
370
     0
100
AcDbMText
 10
276.7345323148
 20
31.1710043023
 30
0.0
 40
3.0
 41
0.0
 71
     1
 72
     1
  1
仕         上
  7
SLDTEXTSTYLE2
 73
     1
 44
1.0
  0
MTEXT
  5
205
330
1F
100
AcDbEntity
  8
0
  6
Continuous
 62
     7
370
     0
100
AcDbMText
 10
162.4376543937
 20
27.3812966666
 30
0.0
 40
3.0
 41
0.0
 71
     1
 72
     1
  1
符号
  7
SLDTEXTSTYLE1
 73
     1
 44
1.0
  0
MTEXT
  5
206
330
1F
100
AcDbEntity
  8
0
  6
Continuous
 62
     7
370
     0
100
AcDbMText
 10
171.8192414679
 20
27.3534799816
 30
0.0
 40
3.0
 41
0.0
 71
     1
 72
     1
  1
年　月　日
  7
SLDTEXTSTYLE1
 73
     1
 44
1.0
  0
MTEXT
  5
208
330
1F
100
AcDbEntity
  8
0
  6
Continuous
 62
     7
370
     0
100
AcDbMText
 10
205.2524169639
 20
27.3102880661
 30
0.0
 40
3.0
 41
0.0
 71
     1
 72
     1
  1
変   更   内   容
  7
SLDTEXTSTYLE3
 73
     1
 44
1.0
  0
MTEXT
  5
209
330
1F
100
AcDbEntity
  8
0
  6
Continuous
 62
     7
370
     0
100
AcDbMText
 10
254.7476428436
 20
27.3102880661
 30
0.0
 40
3.0
 41
0.0
 71
     1
 72
     1
  1
担 当
  7
SLDTEXTSTYLE1
 73
     1
 44
1.0
  0
MTEXT
  5
20B
330
1F
100
AcDbEntity
  8
0
  6
Continuous
 62
     7
370
     0
100
AcDbMText
 10
206.3418650732
 20
35.5549382443
 30
0.0
 40
3.5
 41
0.0
 71
     1
 72
     1
  1
図  面  登  録
  7
SLDTEXTSTYLE4
 73
     1
 44
1.0
  0
MTEXT
  5
20C
330
1F
100
AcDbEntity
  8
0
  6
Continuous
 62
     7
370
     0
100
AcDbMText
 10
275.6384298402
 20
59.2593473392
 30
0.0
 40
2.5
 41
0.0
 71
     1
 72
     1
  1
一  般  公  差
  7
SLDTEXTSTYLE4
 73
     1
 44
1.0
  0
MTEXT
  5
20D
330
1F
100
AcDbEntity
  8
0
  6
Continuous
 62
     7
370
     0
100
AcDbMText
 10
265.6855419582
 20
55.2732889271
 30
0.0
 40
2.5
 41
0.0
 71
     1
 72
     1
  1
呼び寸法区分
  7
SLDTEXTSTYLE1
 73
     1
 44
1.0
  0
MTEXT
  5
20F
330
1F
100
AcDbEntity
  8
0
  6
Continuous
 62
     7
370
     0
100
AcDbMText
 10
267.0279122674
 20
43.2570923087
 30
0.0
 40
2.5
 41
0.0
 71
     1
 72
     1
  1
63をこえ250以下
  7
SLDTEXTSTYLE5
 73
     1
 44
1.0
  0
MTEXT
  5
210
330
1F
100
AcDbEntity
  8
0
  6
Continuous
 62
     7
370
     0
100
AcDbMText
 10
265.7873906708
 20
39.2224660086
 30
0.0
 40
2.5
 41
0.0
 71
     1
 72
     1
  1
250をこえ500以下
  7
SLDTEXTSTYLE5
 73
     1
 44
1.0
  0
MTEXT
  5
211
330
1F
100
AcDbEntity
  8
0
  6
Continuous
 62
     7
370
     0
100
AcDbMText
 10
268.0786997474
 20
47.3646934888
 30
0.0
 40
2.5
 41
0.0
 71
     1
 72
     1
  1
16をこえ63以下
  7
SLDTEXTSTYLE5
 73
     1
 44
1.0
  0
MTEXT
  5
213
330
1F
100
AcDbEntity
  8
0
  6
Continuous
 62
     7
370
     0
100
AcDbMText
 10
265.6571779143
 20
35.2468206455
 30
0.0
 40
2.5
 41
0.0
 71
     1
 72
     1
  1
500をこえ1000以下
  7
SLDTEXTSTYLE6
 73
     1
 44
1.0
  0
MTEXT
  5
215
330
1F
100
AcDbEntity
  8
0
  6
Continuous
 62
     7
370
     0
100
AcDbMText
 10
286.0933026879
 20
55.277150895
 30
0.0
 40
2.5
 41
0.0
 71
     1
 72
     1
  1
Ａ　級
  7
SLDTEXTSTYLE7
 73
     1
 44
1.0
  0
MTEXT
  5
216
330
1F
100
AcDbEntity
  8
0
  6
Continuous
 62
     7
370
     0
100
AcDbMText
 10
296.3123513361
 20
55.277150895
 30
0.0
 40
2.5
 41
0.0
 71
     1
 72
     1
  1
Ｂ　級
  7
SLDTEXTSTYLE7
 73
     1
 44
1.0
  0
MTEXT
  5
217
330
1F
100
AcDbEntity
  8
0
  6
Continuous
 62
     7
370
     0
100
AcDbMText
 10
306.4527919177
 20
55.2807392727
 30
0.0
 40
2.5
 41
0.0
 71
     1
 72
     1
  1
Ｃ　級
  7
SLDTEXTSTYLE7
 73
     1
 44
1.0
  0
MTEXT
  5
218
330
1F
100
AcDbEntity
  8
0
  6
Continuous
 62
     7
370
     0
100
AcDbMText
 10
317.9204905445
 20
44.7443753584
 30
0.0
 40
3.0
 41
0.0
 71
     1
 72
     1
  1
図　面
  7
SLDTEXTSTYLE1
 73
     1
 44
1.0
  0
MTEXT
  5
219
330
1F
100
AcDbEntity
  8
0
  6
Continuous
 62
     7
370
     0
100
AcDbMText
 10
317.9204905445
 20
40.6347138747
 30
0.0
 40
3.0
 41
0.0
 71
     1
 72
     1
  1
番  号
  7
SLDTEXTSTYLE2
 73
     1
 44
1.0
  0
MTEXT
  5
21A
330
1F
100
AcDbEntity
  8
0
  6
Continuous
 62
     7
370
     0
100
AcDbMText
 10
318.0741752743
 20
33.4190651829
 30
0.0
 40
3.0
 41
0.0
 71
     1
 72
     1
  1
製品名
  7
SLDTEXTSTYLE1
 73
     1
 44
1.0
  0
MTEXT
  5
21B
330
1F
100
AcDbEntity
  8
0
  6
Continuous
 62
     7
370
     0
100
AcDbMText
 10
317.0347583093
 20
25.2789140611
 30
0.0
 40
3.0
 41
0.0
 71
     1
 72
     1
  1
個数
  7
SLDTEXTSTYLE1
 73
     1
 44
1.0
  0
MTEXT
  5
21C
330
1F
100
AcDbEntity
  8
0
  6
Continuous
 62
     7
370
     0
100
AcDbMText
 10
316.2870137697
 20
19.7057248728
 30
0.0
 40
3.0
 41
0.0
 71
     1
 72
     1
  1
設計
  7
SLDTEXTSTYLE1
 73
     1
 44
1.0
  0
MTEXT
  5
21D
330
1F
100
AcDbEntity
  8
0
  6
Continuous
 62
     7
370
     0
100
AcDbMText
 10
346.523444356
 20
19.7057248728
 30
0.0
 40
3.0
 41
0.0
 71
     1
 72
     1
  1
製図
  7
SLDTEXTSTYLE1
 73
     1
 44
1.0
  0
MTEXT
  5
21E
330
1F
100
AcDbEntity
  8
0
  6
Continuous
 62
     7
370
     0
100
AcDbMText
 10
375.929793114
 20
19.5908850166
 30
0.0
 40
3.0
 41
0.0
 71
     1
 72
     1
  1
承認
  7
SLDTEXTSTYLE1
 73
     1
 44
1.0
  0
MTEXT
  5
21F
330
1F
100
AcDbEntity
  8
0
  6
Continuous
 62
     7
370
     0
100
AcDbMText
 10
370.7990016056
 20
43.4661644287
 30
0.0
 40
3.0
 41
0.0
 71
     1
 72
     1
  1
材料
  7
SLDTEXTSTYLE1
 73
     1
 44
1.0
  0
MTEXT
  5
220
330
1F
100
AcDbEntity
  8
0
  6
Continuous
 62
     7
370
     0
100
AcDbMText
 10
369.25200849
 20
35.2064850541
 30
0.0
 40
3.0
 41
0.0
 71
     1
 72
     1
  1
表　面
  7
SLDTEXTSTYLE1
 73
     1
 44
1.0
  0
MTEXT
  5
221
330
1F
100
AcDbEntity
  8
0
  6
Continuous
 62
     7
370
     0
100
AcDbMText
 10
369.1570089307
 20
30.968581065
 30
0.0
 40
3.0
 41
0.0
 71
     1
 72
     1
  1
処　理
  7
SLDTEXTSTYLE1
 73
     1
 44
1.0
  0
MTEXT
  5
222
330
1F
100
AcDbEntity
  8
0
  6
Continuous
 62
     7
370
     0
100
AcDbMText
 10
381.680228164
 20
25.2789140611
 30
0.0
 40
3.0
 41
0.0
 71
     1
 72
     1
  1
尺度
  7
SLDTEXTSTYLE1
 73
     1
 44
1.0
  0
MTEXT
  5
223
330
1F
100
AcDbEntity
  8
0
  6
Continuous
 62
     7
370
     0
100
AcDbMText
 10
164.2797777341
 20
20.1580183471
 30
0.0
 40
3.5
 41
0.0
 71
     1
 72
     1
  1
原型
  7
SLDTEXTSTYLE1
 73
     1
 44
1.0
  0
MTEXT
  5
224
330
1F
100
AcDbEntity
  8
0
  6
Continuous
 62
     7
370
     0
100
AcDbMText
 10
176.2608602039
 20
20.1169123537
 30
0.0
 40
3.5
 41
0.0
 71
     1
 72
     1
  1
機種
  7
SLDTEXTSTYLE1
 73
     1
 44
1.0
  0
MTEXT
  5
225
330
1F
100
AcDbEntity
  8
0
  6
Continuous
 62
     7
370
     0
100
AcDbMText
 10
222.9963207422
 20
20.1169123537
 30
0.0
 40
3.5
 41
0.0
 71
     1
 72
     1
  1
番号
  7
SLDTEXTSTYLE1
 73
     1
 44
1.0
  0
MTEXT
  5
226
330
1F
100
AcDbEntity
  8
0
  6
Continuous
 62
     7
370
     0
100
AcDbMText
 10
277.3926927284
 20
51.2532741857
 30
0.0
 40
2.5
 41
0.0
 71
     1
 72
     1
  1
16以下
  7
SLDTEXTSTYLE5
 73
     1
 44
1.0
  0
MTEXT
  5
227
330
1F
100
AcDbEntity
  8
0
  6
Continuous
 62
     7
370
     0
100
AcDbMText
 10
334.5260707683
 20
25.2789140611
 30
0.0
 40
3.0
 41
0.0
 71
     1
 72
     1
  1
一般公差
  7
SLDTEXTSTYLE1
 73
     1
 44
1.0
  0
MTEXT
  5
228
330
1F
100
AcDbEntity
  8
0
  6
Continuous
 62
     7
370
     0
100
AcDbMText
 10
384.6595093175
 20
13.6315990709
 30
0.0
 40
3.5
 41
0.0
 71
     1
 72
     1
  1
三角法
  7
SLDTEXTSTYLE1
 73
     1
 44
1.0
  0
MTEXT
  5
229
330
1F
100
AcDbEntity
  8
0
  6
Continuous
 62
     7
370
     0
100
AcDbMText
 10
305.6607146333
 20
35.095441108
 30
0.0
 40
1.8520833333
 41
0.0
 71
     1
 72
     1
  1
± ４
  7
SLDTEXTSTYLE0
 73
     1
 44
1.0
  0
MTEXT
  5
22A
330
1F
100
AcDbEntity
  8
0
  6
Continuous
 62
     7
370
     0
100
AcDbMText
 10
305.8093557327
 20
39.07691621
 30
0.0
 40
1.8520833333
 41
0.0
 71
     1
 72
     1
  1
± ３
  7
SLDTEXTSTYLE0
 73
     1
 44
1.0
  0
MTEXT
  5
22B
330
1F
100
AcDbEntity
  8
0
  6
Continuous
 62
     7
370
     0
100
AcDbMText
 10
305.7443852475
 20
42.7309988091
 30
0.0
 40
1.8520833333
 41
0.0
 71
     1
 72
     1
  1
± ２
  7
SLDTEXTSTYLE0
 73
     1
 44
1.0
  0
MTEXT
  5
22C
330
1F
100
AcDbEntity
  8
0
  6
Continuous
 62
     7
370
     0
100
AcDbMText
 10
295.556531117
 20
35.0168572454
 30
0.0
 40
1.8520833333
 41
0.0
 71
     1
 72
     1
  1
± ２
  7
SLDTEXTSTYLE0
 73
     1
 44
1.0
  0
MTEXT
  5
22D
330
1F
100
AcDbEntity
  8
0
  6
Continuous
 62
     7
370
     0
100
AcDbMText
 10
295.4849318251
 20
38.8697374231
 30
0.0
 40
1.8520833333
 41
0.0
 71
     1
 72
     1
  1
±１.２
  7
SLDTEXTSTYLE0
 73
     1
 44
1.0
  0
MTEXT
  5
22E
330
1F
100
AcDbEntity
  8
0
  6
Continuous
 62
     7
370
     0
100
AcDbMText
 10
295.2680178314
 20
42.7923707568
 30
0.0
 40
1.8520833333
 41
0.0
 71
     1
 72
     1
  1
±０.８
  7
SLDTEXTSTYLE0
 73
     1
 44
1.0
  0
MTEXT
  5
22F
330
1F
100
AcDbEntity
  8
0
  6
Continuous
 62
     7
370
     0
100
AcDbMText
 10
305.6398675168
 20
46.8808261147
 30
0.0
 40
1.8520833333
 41
0.0
 71
     1
 72
     1
  1
±１.５
  7
SLDTEXTSTYLE0
 73
     1
 44
1.0
  0
MTEXT
  5
230
330
1F
100
AcDbEntity
  8
0
  6
Continuous
 62
     7
370
     0
100
AcDbMText
 10
285.1379307997
 20
34.8229981805
 30
0.0
 40
1.8520833333
 41
0.0
 71
     1
 72
     1
  1
±０.８
  7
SLDTEXTSTYLE0
 73
     1
 44
1.0
  0
MTEXT
  5
231
330
1F
100
AcDbEntity
  8
0
  6
Continuous
 62
     7
370
     0
100
AcDbMText
 10
295.4830775576
 20
46.8477871983
 30
0.0
 40
1.8520833333
 41
0.0
 71
     1
 72
     1
  1
±０.５
  7
SLDTEXTSTYLE0
 73
     1
 44
1.0
  0
MTEXT
  5
232
330
1F
100
AcDbEntity
  8
0
  6
Continuous
 62
     7
370
     0
100
AcDbMText
 10
285.2818816018
 20
42.7855412518
 30
0.0
 40
1.8520833333
 41
0.0
 71
     1
 72
     1
  1
±０.３
  7
SLDTEXTSTYLE0
 73
     1
 44
1.0
  0
MTEXT
  5
233
330
1F
100
AcDbEntity
  8
0
  6
Continuous
 62
     7
370
     0
100
AcDbMText
 10
285.0523217969
 20
46.8556372643
 30
0.0
 40
1.8520833333
 41
0.0
 71
     1
 72
     1
  1
±０.２
  7
SLDTEXTSTYLE0
 73
     1
 44
1.0
  0
MTEXT
  5
234
330
1F
100
AcDbEntity
  8
0
  6
Continuous
 62
     7
370
     0
100
AcDbMText
 10
285.1408900573
 20
38.7629603774
 30
0.0
 40
1.8520833333
 41
0.0
 71
     1
 72
     1
  1
±０.５
  7
SLDTEXTSTYLE0
 73
     1
 44
1.0
  0
MTEXT
  5
235
330
1F
100
AcDbEntity
  8
0
  6
Continuous
 62
     7
370
     0
100
AcDbMText
 10
305.652943184
 20
50.4350429429
 30
0.0
 40
1.8520833333
 41
0.0
 71
     1
 72
     1
  1
± １
  7
SLDTEXTSTYLE0
 73
     1
 44
1.0
  0
MTEXT
  5
236
330
1F
100
AcDbEntity
  8
0
  6
Continuous
 62
     7
370
     0
100
AcDbMText
 10
295.4079716829
 20
50.9126972879
 30
0.0
 40
1.8520833333
 41
0.0
 71
     1
 72
     1
  1
±０.３
  7
SLDTEXTSTYLE0
 73
     1
 44
1.0
  0
MTEXT
  5
237
330
1F
100
AcDbEntity
  8
0
  6
Continuous
 62
     7
370
     0
100
AcDbMText
 10
285.0746433972
 20
50.6531398517
 30
0.0
 40
1.8520833333
 41
0.0
 71
     1
 72
     1
  1
±０.１
  7
SLDTEXTSTYLE0
 73
     1
 44
1.0
  0
MTEXT
  5
238
330
1F
100
AcDbEntity
  8
0
  6
Continuous
 62
     7
370
     0
100
AcDbMText
 10
192.3785173192
 20
19.7184990659
 30
0.0
 40
3.175
 41
0.0
 71
     1
 72
     1
  1
KCM-05D-400
  7
SLDTEXTSTYLE1
 73
     1
 44
1.0
  0
MTEXT
  5
239
330
1F
100
AcDbEntity
  8
0
  6
Continuous
 62
     7
370
     0
100
AcDbMText
 10
172.3246480096
 20
35.2177951747
 30
0.0
 40
3.5
 41
0.0
 71
     1
 72
     1
  1
Feb/4/2013
  7
SLDTEXTSTYLE1
 73
     1
 44
1.0
  0
MTEXT
  5
23A
330
1F
100
AcDbEntity
  8
0
  6
Continuous
 62
     7
370
     0
100
AcDbMText
 10
394.6060132447
 20
25.7787877889
 30
0.0
 40
3.5
 41
0.0
 71
     1
 72
     1
  1
1/1
  7
SLDTEXTSTYLE1
 73
     1
 44
1.0
  0
MTEXT
  5
23B
330
1F
100
AcDbEntity
  8
0
  6
Continuous
 62
     7
370
     0
100
AcDbMText
 10
255.6615324566
 20
34.9395820398
 30
0.0
 40
3.5
 41
0.0
 71
     1
 72
     1
  1
桑名
  7
SLDTEXTSTYLE1
 73
     1
 44
1.0
  0
MTEXT
  5
23C
330
1F
100
AcDbEntity
  8
0
  6
Continuous
 62
     7
370
     0
100
AcDbMText
 10
329.6040429591
 20
25.3690516115
 30
0.0
 40
3.5
 41
0.0
 71
     1
 72
     1
  1
1
  7
SLDTEXTSTYLE1
 73
     1
 44
1.0
  0
MTEXT
  5
23D
330
1F
100
AcDbEntity
  8
0
  6
Continuous
 62
     7
370
     0
100
AcDbMText
 10
307.2001501664
 20
26.9342937933
 30
0.0
 40
2.1166666667
 41
0.0
 71
     1
 72
     1
  1
100
  7
SLDTEXTSTYLE0
 73
     1
 44
1.0
  0
MTEXT
  5
23E
330
1F
100
AcDbEntity
  8
0
  6
Continuous
 62
     7
370
     0
100
AcDbMText
 10
295.0301057197
 20
26.978959917
 30
0.0
 40
2.1166666667
 41
0.0
 71
     1
 72
     1
  1
25
  7
SLDTEXTSTYLE0
 73
     1
 44
1.0
  0
MTEXT
  5
23F
330
1F
100
AcDbEntity
  8
0
  6
Continuous
 62
     7
370
     0
100
AcDbMText
 10
282.0145875665
 20
26.8430803499
 30
0.0
 40
2.1166666667
 41
0.0
 71
     1
 72
     1
  1
6.3
  7
SLDTEXTSTYLE0
 73
     1
 44
1.0
  0
INSERT
  5
245
330
1F
100
AcDbEntity
  8
0
  6
Continuous
 62
     7
370
     0
100
AcDbBlockReference
  2
SW_NOTE_0
 10
269.7950910071
 20
24.4542905517
 30
0.0
  0
MTEXT
  5
246
330
1F
100
AcDbEntity
  8
DIMENSION
100
AcDbMText
 10
335.8964668299
 20
32.716299527
 30
0.0
 40
3.7041666667
 41
0.0
 71
     1
 72
     1
  1
KCM-05D-400
  7
SLDTEXTSTYLE1
 73
     1
 44
1.0
  0
MTEXT
  5
247
330
1F
100
AcDbEntity
  8
SLD-0
100
AcDbMText
 10
335.8125303032
 20
42.4175522003
 30
0.0
 40
3.7041666667
 41
0.0
 71
     1
 72
     1
  1
TSTM-216
  7
SLDTEXTSTYLE1
 73
     1
 44
1.0
  0
MTEXT
  5
248
330
1F
100
AcDbEntity
  8
SLD-0
100
AcDbMText
 10
360.7144499827
 20
19.7626841455
 30
0.0
 40
3.5
 41
0.0
 71
     1
 72
     1
  1
桑名
  7
SLDTEXTSTYLE0
 73
     1
 44
1.0
  0
MTEXT
  5
249
330
1F
100
AcDbEntity
  8
SLD-0
100
AcDbMText
 10
389.5659987122
 20
20.0907587444
 30
0.0
 40
3.5
 41
0.0
 71
     1
 72
     1
  1
斉藤
  7
SLDTEXTSTYLE0
 73
     1
 44
1.0
  0
MTEXT
  5
24A
330
1F
100
AcDbEntity
  8
SLD-0
100
AcDbMText
 10
324.2330031625
 20
52.3736861506
 30
0.0
 40
3.7041666667
 41
0.0
 71
     1
 72
     1
  1
株式会社
  7
SLDTEXTSTYLE0
 73
     1
 44
1.0
  0
MTEXT
  5
24B
330
1F
100
AcDbEntity
  8
SLD-0
100
AcDbMText
 10
346.2886297682
 20
53.9240375251
 30
0.0
 40
5.2916666667
 41
0.0
 71
     1
 72
     1
  1
ケンコ-・トキナ-
  7
SLDTEXTSTYLE0
 73
     1
 44
1.0
  0
INSERT
  5
26D
330
1F
100
AcDbEntity
  8
SLD-0
100
AcDbBlockReference
  2
SW_TABLEANNOTATION_0
 10
31.4088563355
 20
90.737697316
 30
0.0
  0
ENDSEC
  0
SECTION
  2
OBJECTS
  0
DICTIONARY
  5
C
330
0
100
AcDbDictionary
281
     1
  3
ACAD_GROUP
350
D
  3
ACAD_LAYOUT
350
1A
  3
ACAD_MLINESTYLE
350
17
  3
ACAD_PLOTSETTINGS
350
19
  3
ACAD_PLOTSTYLENAME
350
E
  0
DICTIONARY
  5
D
102
{ACAD_REACTORS
330
C
102
}
330
C
100
AcDbDictionary
281
     1
  0
DICTIONARY
  5
1A
102
{ACAD_REACTORS
330
C
102
}
330
C
100
AcDbDictionary
281
     1
  3
Layout1
350
1E
  3
Layout2
350
26
  3
Model
350
22
  0
DICTIONARY
  5
17
102
{ACAD_REACTORS
330
C
102
}
330
C
100
AcDbDictionary
281
     1
  3
Standard
350
18
  0
DICTIONARY
  5
19
102
{ACAD_REACTORS
330
C
102
}
330
C
100
AcDbDictionary
281
     1
  0
ACDBDICTIONARYWDFLT
  5
E
102
{ACAD_REACTORS
330
C
102
}
330
C
100
AcDbDictionary
281
     1
  3
Normal
350
F
100
AcDbDictionaryWithDefault
340
F
  0
LAYOUT
  5
1E
102
{ACAD_REACTORS
330
1A
102
}
330
1A
100
AcDbPlotSettings
  1

  2
none_device
  4

  6

 40
0.0
 41
0.0
 42
0.0
 43
0.0
 44
0.0
 45
0.0
 46
0.0
 47
0.0
 48
0.0
 49
0.0
140
0.0
141
0.0
142
1.0
143
1.0
 70
   688
 72
     0
 73
     0
 74
     5
  7

 75
    16
147
1.0
148
0.0
149
0.0
100
AcDbLayout
  1
Layout1
 70
     1
 71
     1
 10
0.0
 20
0.0
 11
420.0
 21
297.0
 12
0.0
 22
0.0
 32
0.0
 14
1.0000000000E+20
 24
1.0000000000E+20
 34
1.0000000000E+20
 15
-1.0000000000E+20
 25
-1.0000000000E+20
 35
-1.0000000000E+20
146
0.0
 13
0.0
 23
0.0
 33
0.0
 16
1.0
 26
0.0
 36
0.0
 17
0.0
 27
1.0
 37
0.0
 76
     0
330
1B
  0
LAYOUT
  5
26
102
{ACAD_REACTORS
330
1A
102
}
330
1A
100
AcDbPlotSettings
  1

  2
none_device
  4

  6

 40
0.0
 41
0.0
 42
0.0
 43
0.0
 44
0.0
 45
0.0
 46
0.0
 47
0.0
 48
0.0
 49
0.0
140
0.0
141
0.0
142
1.0
143
1.0
 70
   688
 72
     0
 73
     0
 74
     5
  7

 75
    16
147
1.0
148
0.0
149
0.0
100
AcDbLayout
  1
Layout2
 70
     1
 71
     2
 10
0.0
 20
0.0
 11
0.0
 21
0.0
 12
0.0
 22
0.0
 32
0.0
 14
0.0
 24
0.0
 34
0.0
 15
0.0
 25
0.0
 35
0.0
146
0.0
 13
0.0
 23
0.0
 33
0.0
 16
1.0
 26
0.0
 36
0.0
 17
0.0
 27
1.0
 37
0.0
 76
     0
330
23
  0
LAYOUT
  5
22
102
{ACAD_REACTORS
330
1A
102
}
330
1A
100
AcDbPlotSettings
  1

  2
none_device
  4

  6

 40
0.0
 41
0.0
 42
0.0
 43
0.0
 44
0.0
 45
0.0
 46
0.0
 47
0.0
 48
0.0
 49
0.0
140
0.0
141
0.0
142
1.0
143
1.0
 70
  1712
 72
     0
 73
     0
 74
     0
  7

 75
     0
147
1.0
148
0.0
149
0.0
100
AcDbLayout
  1
Model
 70
     1
 71
     0
 10
0.0
 20
0.0
 11
0.0
 21
0.0
 12
0.0
 22
0.0
 32
0.0
 14
0.0
 24
0.0
 34
0.0
 15
420.0
 25
297.0
 35
0.0
146
0.0
 13
0.0
 23
0.0
 33
0.0
 16
1.0
 26
0.0
 36
0.0
 17
0.0
 27
1.0
 37
0.0
 76
     0
330
1F
  0
MLINESTYLE
  5
18
102
{ACAD_REACTORS
330
17
102
}
330
17
100
AcDbMlineStyle
  2
Standard
 70
     0
  3

 62
   256
 51
90.0
 52
90.0
 71
     2
 49
0.5
 62
   256
  6
BYLAYER
 49
-0.5
 62
   256
  6
BYLAYER
  0
ACDBPLACEHOLDER
  5
F
102
{ACAD_REACTORS
330
E
102
}
330
E
  0
ENDSEC
  0
EOF
