  0
SECTION
  2
HEADER
  9
$ACADVER
  1
AC1015
  9
$ACADMAINTVER
 70
     6
  9
$DWGCODEPAGE
  3
DOS932
  9
$INSBASE
 10
0.0
 20
0.0
 30
0.0
  9
$EXTMIN
 10
0.0
 20
0.0
 30
0.0
  9
$EXTMAX
 10
297.0
 20
210.0
 30
0.0
  9
$LIMMIN
 10
0.0
 20
0.0
  9
$LIMMAX
 10
0.0
 20
0.0
  9
$ORTHOMODE
 70
     0
  9
$REGENMODE
 70
     1
  9
$FILLMODE
 70
     1
  9
$QTEXTMODE
 70
     0
  9
$MIRRTEXT
 70
     1
  9
$LTSCALE
 40
1.0
  9
$ATTMODE
 70
     1
  9
$TEXTSIZE
 40
3.5
  9
$TRACEWID
 40
1.0
  9
$TEXTSTYLE
  7
Standard
  9
$CLAYER
  8
0
  9
$CELTYPE
  6
ByLayer
  9
$CECOLOR
 62
   256
  9
$CELTSCALE
 40
1.0
  9
$DISPSILH
 70
     0
  9
$DIMSCALE
 40
1.0
  9
$DIMASZ
 40
2.0
  9
$DIMEXO
 40
1.0
  9
$DIMDLI
 40
3.75
  9
$DIMRND
 40
0.0
  9
$DIMDLE
 40
0.0
  9
$DIMEXE
 40
1.0
  9
$DIMTP
 40
0.0
  9
$DIMTM
 40
0.0
  9
$DIMTXT
 40
3.5
  9
$DIMCEN
 40
2.5
  9
$DIMTSZ
 40
0.0
  9
$DIMTOL
 70
     0
  9
$DIMLIM
 70
     0
  9
$DIMTIH
 70
     1
  9
$DIMTOH
 70
     1
  9
$DIMSE1
 70
     0
  9
$DIMSE2
 70
     0
  9
$DIMTAD
 70
     1
  9
$DIMZIN
 70
     1
  9
$DIMBLK
  1

  9
$DIMASO
 70
     1
  9
$DIMSHO
 70
     1
  9
$DIMPOST
  1

  9
$DIMAPOST
  1

  9
$DIMALT
 70
     0
  9
$DIMALTD
 70
     3
  9
$DIMALTF
 40
0.0393700787
  9
$DIMLFAC
 40
1.0
  9
$DIMTOFL
 70
     1
  9
$DIMTVP
 40
0.0
  9
$DIMTIX
 70
     0
  9
$DIMSOXD
 70
     0
  9
$DIMSAH
 70
     0
  9
$DIMBLK1
  1

  9
$DIMBLK2
  1

  9
$DIMSTYLE
  2
ISO-25
  9
$DIMCLRD
 70
     0
  9
$DIMCLRE
 70
     0
  9
$DIMCLRT
 70
     0
  9
$DIMTFAC
 40
1.0
  9
$DIMGAP
 40
1.524
  9
$DIMJUST
 70
     0
  9
$DIMSD1
 70
     0
  9
$DIMSD2
 70
     0
  9
$DIMTOLJ
 70
     0
  9
$DIMTZIN
 70
     1
  9
$DIMALTZ
 70
     0
  9
$DIMALTTZ
 70
     0
  9
$DIMUPT
 70
     0
  9
$DIMDEC
 70
     2
  9
$DIMTDEC
 70
     2
  9
$DIMALTU
 70
     2
  9
$DIMALTTD
 70
     3
  9
$DIMTXSTY
  7
Standard
  9
$DIMAUNIT
 70
     0
  9
$DIMADEC
 70
     0
  9
$DIMALTRND
 40
0.0
  9
$DIMAZIN
 70
     0
  9
$DIMDSEP
 70
    44
  9
$DIMATFIT
 70
     3
  9
$DIMFRAC
 70
     0
  9
$DIMLDRBLK
  1

  9
$DIMLUNIT
 70
     2
  9
$DIMLWD
 70
    -2
  9
$DIMLWE
 70
    -2
  9
$DIMTMOVE
 70
     0
  9
$LUNITS
 70
     2
  9
$LUPREC
 70
     4
  9
$SKETCHINC
 40
1.0
  9
$FILLETRAD
 40
10.0
  9
$AUNITS
 70
     0
  9
$AUPREC
 70
     0
  9
$MENU
  1
.
  9
$ELEVATION
 40
0.0
  9
$PELEVATION
 40
0.0
  9
$THICKNESS
 40
0.0
  9
$LIMCHECK
 70
     0
  9
$CHAMFERA
 40
10.0
  9
$CHAMFERB
 40
10.0
  9
$CHAMFERC
 40
20.0
  9
$CHAMFERD
 40
0.0
  9
$SKPOLY
 70
     0
  9
$TDCREATE
 40
2455951.579072442
  9
$TDUCREATE
 40
2455951.204072442
  9
$TDUPDATE
 40
2455951.579072454
  9
$TDUUPDATE
 40
2455951.204072454
  9
$TDINDWG
 40
0.0000000116
  9
$TDUSRTIMER
 40
0.0000000116
  9
$USRTIMER
 70
     1
  9
$ANGBASE
 50
0.0
  9
$ANGDIR
 70
     0
  9
$PDMODE
 70
     0
  9
$PDSIZE
 40
-1.0
  9
$PLINEWID
 40
0.0
  9
$SPLFRAME
 70
     0
  9
$SPLINETYPE
 70
     6
  9
$SPLINESEGS
 70
     8
  9
$HANDSEED
  5
44C
  9
$SURFTAB1
 70
     6
  9
$SURFTAB2
 70
     6
  9
$SURFTYPE
 70
     6
  9
$SURFU
 70
     6
  9
$SURFV
 70
     6
  9
$UCSBASE
  2

  9
$UCSNAME
  2

  9
$UCSORG
 10
0.0
 20
0.0
 30
0.0
  9
$UCSXDIR
 10
1.0
 20
0.0
 30
0.0
  9
$UCSYDIR
 10
0.0
 20
1.0
 30
0.0
  9
$UCSORTHOREF
  2

  9
$UCSORTHOVIEW
 70
     0
  9
$UCSORGTOP
 10
0.0
 20
0.0
 30
0.0
  9
$UCSORGBOTTOM
 10
0.0
 20
0.0
 30
0.0
  9
$UCSORGLEFT
 10
0.0
 20
0.0
 30
0.0
  9
$UCSORGRIGHT
 10
0.0
 20
0.0
 30
0.0
  9
$UCSORGFRONT
 10
0.0
 20
0.0
 30
0.0
  9
$UCSORGBACK
 10
0.0
 20
0.0
 30
0.0
  9
$PUCSBASE
  2

  9
$PUCSNAME
  2

  9
$PUCSORG
 10
0.0
 20
0.0
 30
0.0
  9
$PUCSXDIR
 10
1.0
 20
0.0
 30
0.0
  9
$PUCSYDIR
 10
0.0
 20
1.0
 30
0.0
  9
$PUCSORTHOREF
  2

  9
$PUCSORTHOVIEW
 70
     0
  9
$PUCSORGTOP
 10
0.0
 20
0.0
 30
0.0
  9
$PUCSORGBOTTOM
 10
0.0
 20
0.0
 30
0.0
  9
$PUCSORGLEFT
 10
0.0
 20
0.0
 30
0.0
  9
$PUCSORGRIGHT
 10
0.0
 20
0.0
 30
0.0
  9
$PUCSORGFRONT
 10
0.0
 20
0.0
 30
0.0
  9
$PUCSORGBACK
 10
0.0
 20
0.0
 30
0.0
  9
$USERI1
 70
     0
  9
$USERI2
 70
     0
  9
$USERI3
 70
     0
  9
$USERI4
 70
     0
  9
$USERI5
 70
     0
  9
$USERR1
 40
0.0
  9
$USERR2
 40
0.0
  9
$USERR3
 40
0.0
  9
$USERR4
 40
0.0
  9
$USERR5
 40
0.0
  9
$WORLDVIEW
 70
     1
  9
$SHADEDGE
 70
     3
  9
$SHADEDIF
 70
    70
  9
$TILEMODE
 70
     1
  9
$MAXACTVP
 70
    64
  9
$PINSBASE
 10
0.0
 20
0.0
 30
0.0
  9
$PLIMCHECK
 70
     0
  9
$PEXTMIN
 10
1.0000000000E+20
 20
1.0000000000E+20
 30
1.0000000000E+20
  9
$PEXTMAX
 10
-1.0000000000E+20
 20
-1.0000000000E+20
 30
-1.0000000000E+20
  9
$PLIMMIN
 10
0.0
 20
0.0
  9
$PLIMMAX
 10
420.0
 20
297.0
  9
$UNITMODE
 70
     0
  9
$VISRETAIN
 70
     1
  9
$PLINEGEN
 70
     0
  9
$PSLTSCALE
 70
     1
  9
$TREEDEPTH
 70
  3020
  9
$CMLSTYLE
  2
Standard
  9
$CMLJUST
 70
     0
  9
$CMLSCALE
 40
20.0
  9
$PROXYGRAPHICS
 70
     1
  9
$MEASUREMENT
 70
     1
  9
$CELWEIGHT
370
    -1
  9
$ENDCAPS
280
     0
  9
$JOINSTYLE
280
     0
  9
$LWDISPLAY
290
     1
  9
$INSUNITS
 70
     4
  9
$HYPERLINKBASE
  1

  9
$STYLESHEET
  1

  9
$XEDIT
290
     1
  9
$CEPSNTYPE
380
     0
  9
$PSTYLEMODE
290
     1
  9
$FINGERPRINTGUID
  2
{D797803B-7D12-40A7-9C5A-49E19A4E3945}
  9
$VERSIONGUID
  2
{FAEB1C32-E019-11D5-929B-00C0DF256EC4}
  9
$EXTNAMES
290
     1
  9
$PSVPSCALE
 40
0.0
  9
$OLESTARTUP
290
     0
  0
ENDSEC
  0
SECTION
  2
CLASSES
  0
CLASS
  1
ACDBDICTIONARYWDFLT
  2
AcDbDictionaryWithDefault
  3
ObjectDBX Classes
 90
        0
280
     0
281
     0
  0
CLASS
  1
ACDBPLACEHOLDER
  2
AcDbPlaceHolder
  3
ObjectDBX Classes
 90
        0
280
     0
281
     0
  0
CLASS
  1
LAYOUT
  2
AcDbLayout
  3
ObjectDBX Classes
 90
        0
280
     0
281
     0
  0
ENDSEC
  0
SECTION
  2
TABLES
  0
TABLE
  2
VPORT
  5
8
330
0
100
AcDbSymbolTable
 70
     1
  0
VPORT
  5
29
330
8
100
AcDbSymbolTableRecord
100
AcDbViewportTableRecord
  2
*Active
 70
     0
 10
0.0
 20
0.0
 11
1.0
 21
1.0
 12
148.5
 22
105.0
 13
0.0
 23
0.0
 14
10.0
 24
10.0
 15
10.0
 25
10.0
 16
0.0
 26
0.0
 36
1.0
 17
0.0
 27
0.0
 37
0.0
 40
210.0
 41
1.4142857143
 42
50.0
 43
0.0
 44
0.0
 50
0.0
 51
0.0
 71
     0
 72
  2000
 73
     1
 74
     3
 75
     0
 76
     0
 77
     0
 78
     0
281
     0
 65
     1
110
0.0
120
0.0
130
0.0
111
1.0
121
0.0
131
0.0
112
0.0
122
1.0
132
0.0
 79
     0
146
0.0
  0
ENDTAB
  0
TABLE
  2
LTYPE
  5
5
330
0
100
AcDbSymbolTable
 70
     6
  0
LTYPE
  5
14
330
5
100
AcDbSymbolTableRecord
100
AcDbLinetypeTableRecord
  2
ByBlock
 70
     0
  3

 72
    65
 73
     0
 40
0.0
  0
LTYPE
  5
15
330
5
100
AcDbSymbolTableRecord
100
AcDbLinetypeTableRecord
  2
ByLayer
 70
     0
  3

 72
    65
 73
     0
 40
0.0
  0
LTYPE
  5
16
330
5
100
AcDbSymbolTableRecord
100
AcDbLinetypeTableRecord
  2
Continuous
 70
     0
  3
Solid line
 72
    65
 73
     0
 40
0.0
  0
LTYPE
  5
2A
330
5
100
AcDbSymbolTableRecord
100
AcDbLinetypeTableRecord
  2
HIDDEN
 70
     0
  3
Hidden __ __ __ __ __ __ __ __ __ __ __ __ __ __
 72
    65
 73
     2
 40
1.905
 49
1.27
 74
     0
 49
-0.635
 74
     0
  0
LTYPE
  5
2B
330
5
100
AcDbSymbolTableRecord
100
AcDbLinetypeTableRecord
  2
PHANTOM
 70
     0
  3
Phantom ______  __  __  ______  __  __  ______
 72
    65
 73
     6
 40
12.7
 49
6.35
 74
     0
 49
-1.27
 74
     0
 49
1.27
 74
     0
 49
-1.27
 74
     0
 49
1.27
 74
     0
 49
-1.27
 74
     0
  0
LTYPE
  5
2C
330
5
100
AcDbSymbolTableRecord
100
AcDbLinetypeTableRecord
  2
CENTER
 70
     0
  3
Center ____ _ ____ _ ____ _ ____ _ ____ _ ____
 72
    65
 73
     4
 40
10.16
 49
6.35
 74
     0
 49
-1.27
 74
     0
 49
1.27
 74
     0
 49
-1.27
 74
     0
  0
LTYPE
  5
2D
330
5
100
AcDbSymbolTableRecord
100
AcDbLinetypeTableRecord
  2
CENTERX2
 70
     0
  3
Center (2x) ________  __  ________  __  _____
 72
    65
 73
     4
 40
20.32
 49
12.7
 74
     0
 49
-2.54
 74
     0
 49
2.54
 74
     0
 49
-2.54
 74
     0
  0
LTYPE
  5
2E
330
5
100
AcDbSymbolTableRecord
100
AcDbLinetypeTableRecord
  2
DOT2
 70
     0
  3
Dot (.5x) ........................................
 72
    65
 73
     2
 40
0.635
 49
0.0
 74
     0
 49
-0.635
 74
     0
  0
ENDTAB
  0
TABLE
  2
LAYER
  5
2
330
0
100
AcDbSymbolTable
 70
    22
  0
LAYER
  5
10
330
2
100
AcDbSymbolTableRecord
100
AcDbLayerTableRecord
  2
0
 70
     0
 62
     7
  6
Continuous
370
    -3
390
F
  0
LAYER
  5
2F
330
2
100
AcDbSymbolTableRecord
100
AcDbLayerTableRecord
  2
SLD-0
 70
     0
 62
   179
  6
Continuous
370
    -3
390
F
  0
LAYER
  5
30
330
2
100
AcDbSymbolTableRecord
100
AcDbLayerTableRecord
  2
部品
 70
     0
 62
     5
  6
Continuous
370
    -3
390
F
  0
LAYER
  5
31
330
2
100
AcDbSymbolTableRecord
100
AcDbLayerTableRecord
  2
寸法線
 70
     0
 62
   104
  6
Continuous
370
    -3
390
F
  0
LAYER
  5
32
330
2
100
AcDbSymbolTableRecord
100
AcDbLayerTableRecord
  2
SLD-DEFPOINTS
 70
     0
 62
   179
  6
Continuous
370
    -3
390
F
  0
LAYER
  5
33
330
2
100
AcDbSymbolTableRecord
100
AcDbLayerTableRecord
  2
中心線
 70
     0
 62
     1
  6
CENTER
370
    -3
390
F
  0
LAYER
  5
34
330
2
100
AcDbSymbolTableRecord
100
AcDbLayerTableRecord
  2
図枠
 70
     0
 62
    12
  6
Continuous
370
    -3
390
F
  0
LAYER
  5
35
330
2
100
AcDbSymbolTableRecord
100
AcDbLayerTableRecord
  2
ディメンション
 70
     0
 62
     5
  6
Continuous
370
    -3
390
F
  0
LAYER
  5
36
330
2
100
AcDbSymbolTableRecord
100
AcDbLayerTableRecord
  2
$DDT_AUDIT_GENERATED_(3127)
 70
     0
 62
   104
  6
Continuous
370
    -3
390
F
  0
LAYER
  5
37
330
2
100
AcDbSymbolTableRecord
100
AcDbLayerTableRecord
  2
HMAX
 70
     0
 62
    11
  6
Continuous
370
    -3
390
F
  0
LAYER
  5
38
330
2
100
AcDbSymbolTableRecord
100
AcDbLayerTableRecord
  2
1
 70
     0
 62
   179
  6
Continuous
370
    -3
390
F
  0
LAYER
  5
39
330
2
100
AcDbSymbolTableRecord
100
AcDbLayerTableRecord
  2
2
 70
     0
 62
   134
  6
Continuous
370
    -3
390
F
  0
LAYER
  5
3A
330
2
100
AcDbSymbolTableRecord
100
AcDbLayerTableRecord
  2
3
 70
     0
 62
   214
  6
Continuous
370
    -3
390
F
  0
LAYER
  5
3B
330
2
100
AcDbSymbolTableRecord
100
AcDbLayerTableRecord
  2
4
 70
     0
 62
    54
  6
Continuous
370
    -3
390
F
  0
LAYER
  5
3C
330
2
100
AcDbSymbolTableRecord
100
AcDbLayerTableRecord
  2
5
 70
     0
 62
    94
  6
Continuous
370
    -3
390
F
  0
LAYER
  5
3D
330
2
100
AcDbSymbolTableRecord
100
AcDbLayerTableRecord
  2
6
 70
     0
 62
    14
  6
Continuous
370
    -3
390
F
  0
LAYER
  5
3E
330
2
100
AcDbSymbolTableRecord
100
AcDbLayerTableRecord
  2
8
 70
     0
 62
     6
  6
Continuous
370
    -3
390
F
  0
LAYER
  5
3F
330
2
100
AcDbSymbolTableRecord
100
AcDbLayerTableRecord
  2
寸法
 70
     0
 62
   104
  6
Continuous
370
    -3
390
F
  0
LAYER
  5
40
330
2
100
AcDbSymbolTableRecord
100
AcDbLayerTableRecord
  2
中心
 70
     0
 62
     1
  6
CENTER
370
    -3
390
F
  0
LAYER
  5
41
330
2
100
AcDbSymbolTableRecord
100
AcDbLayerTableRecord
  2
補助
 70
     0
 62
     6
  6
Continuous
370
    -3
390
F
  0
LAYER
  5
42
330
2
100
AcDbSymbolTableRecord
100
AcDbLayerTableRecord
  2
11
 70
     0
 62
     8
  6
Continuous
370
    -3
390
F
  0
LAYER
  5
43
330
2
100
AcDbSymbolTableRecord
100
AcDbLayerTableRecord
  2
-1319
 70
     0
 62
   240
  6
Continuous
370
    -3
390
F
  0
ENDTAB
  0
TABLE
  2
STYLE
  5
3
330
0
100
AcDbSymbolTable
 70
    10
  0
STYLE
  5
11
330
3
100
AcDbSymbolTableRecord
100
AcDbTextStyleTableRecord
  2
Standard
 70
     0
 40
0.0
 41
1.0
 50
0.0
 71
     0
 42
2.5
  3
txt
  4
bigfont
  0
STYLE
  5
327
330
3
100
AcDbSymbolTableRecord
100
AcDbTextStyleTableRecord
  2
SLDTEXTSTYLE0
 70
     0
 40
0.0
 41
0.7
 50
0.0
 71
     0
 42
0.2
  3
TXT
  4
bigfont
  0
STYLE
  5
3CC
330
3
100
AcDbSymbolTableRecord
100
AcDbTextStyleTableRecord
  2
SLDTEXTSTYLE1
 70
     0
 40
0.0
 41
1.0
 50
0.0
 71
     0
 42
0.2
  3
TXT
  4
bigfont
  0
STYLE
  5
3D8
330
3
100
AcDbSymbolTableRecord
100
AcDbTextStyleTableRecord
  2
SLDTEXTSTYLE2
 70
     0
 40
0.0
 41
0.63
 50
0.0
 71
     0
 42
0.2
  3
TXT
  4
bigfont
  0
STYLE
  5
3DC
330
3
100
AcDbSymbolTableRecord
100
AcDbTextStyleTableRecord
  2
SLDTEXTSTYLE3
 70
     0
 40
0.0
 41
0.315
 50
0.0
 71
     0
 42
0.2
  3
TXT
  4
bigfont
  0
STYLE
  5
3E0
330
3
100
AcDbSymbolTableRecord
100
AcDbTextStyleTableRecord
  2
SLDTEXTSTYLE4
 70
     0
 40
0.0
 41
0.3722727273
 50
0.0
 71
     0
 42
0.2
  3
TXT
  4
bigfont
  0
STYLE
  5
3E3
330
3
100
AcDbSymbolTableRecord
100
AcDbTextStyleTableRecord
  2
SLDTEXTSTYLE5
 70
     0
 40
0.0
 41
0.39375
 50
0.0
 71
     0
 42
0.2
  3
TXT
  4
bigfont
  0
STYLE
  5
3E7
330
3
100
AcDbSymbolTableRecord
100
AcDbTextStyleTableRecord
  2
SLDTEXTSTYLE6
 70
     0
 40
0.0
 41
0.4725
 50
0.0
 71
     0
 42
0.2
  3
TXT
  4
bigfont
  0
STYLE
  5
3EB
330
3
100
AcDbSymbolTableRecord
100
AcDbTextStyleTableRecord
  2
SLDTEXTSTYLE7
 70
     0
 40
0.0
 41
0.441
 50
0.0
 71
     0
 42
0.2
  3
TXT
  4
bigfont
  0
STYLE
  5
3ED
330
3
100
AcDbSymbolTableRecord
100
AcDbTextStyleTableRecord
  2
SLDTEXTSTYLE8
 70
     0
 40
0.0
 41
0.441
 50
0.0
 71
     0
 42
0.2
  3
TXT
  4
bigfont
  0
ENDTAB
  0
TABLE
  2
VIEW
  5
6
330
0
100
AcDbSymbolTable
 70
     0
  0
ENDTAB
  0
TABLE
  2
UCS
  5
7
330
0
100
AcDbSymbolTable
 70
     0
  0
ENDTAB
  0
TABLE
  2
APPID
  5
9
330
0
100
AcDbSymbolTable
 70
     1
  0
APPID
  5
12
330
9
100
AcDbSymbolTableRecord
100
AcDbRegAppTableRecord
  2
ACAD
 70
     0
  0
ENDTAB
  0
TABLE
  2
DIMSTYLE
  5
A
330
0
100
AcDbSymbolTable
 70
     6
100
AcDbDimStyleTable
  0
DIMSTYLE
105
27
330
A
100
AcDbSymbolTableRecord
100
AcDbDimStyleTableRecord
  2
ISO-25
 70
     0
 41
2.5
 42
0.625
 43
3.75
 44
1.25
 73
     0
 74
     0
 77
     1
 78
     8
140
2.5
141
2.5
143
0.0393700787
147
0.625
171
     3
172
     1
271
     2
272
     2
274
     3
278
    44
283
     0
284
     8
340
11
  0
DIMSTYLE
105
328
102
{ACAD_REACTORS
330
326
330
365
330
36F
330
393
330
39F
102
}
330
A
100
AcDbSymbolTableRecord
100
AcDbDimStyleTableRecord
  2
SLDDIMSTYLE0
 70
     0
 41
2.0
 44
0.0
 73
     0
 74
     0
 77
     3
 78
    12
140
3.5
147
0.875
173
     1
271
     1
272
     2
284
    12
340
327
341
329
343
329
344
329
  0
DIMSTYLE
105
33A
102
{ACAD_REACTORS
330
339
102
}
330
A
100
AcDbSymbolTableRecord
100
AcDbDimStyleTableRecord
  2
SLDDIMSTYLE1
 70
     0
 41
2.0
 44
0.0
 73
     0
 74
     0
 77
     3
 78
    12
140
3.5
147
0.875
172
     1
173
     1
271
     1
272
     2
284
    12
340
327
341
329
343
329
344
329
  0
DIMSTYLE
105
344
102
{ACAD_REACTORS
330
343
330
34F
330
37B
330
387
330
3AB
102
}
330
A
100
AcDbSymbolTableRecord
100
AcDbDimStyleTableRecord
  2
SLDDIMSTYLE2
 70
     0
 41
2.0
 44
0.0
 73
     0
 74
     0
 77
     3
 78
    12
140
3.5
147
0.875
173
     1
271
     0
272
     2
284
    12
340
327
341
329
343
329
344
329
  0
DIMSTYLE
105
35B
102
{ACAD_REACTORS
330
35A
102
}
330
A
100
AcDbSymbolTableRecord
100
AcDbDimStyleTableRecord
  2
SLDDIMSTYLE3
 70
     0
 41
2.0
 44
0.0
 73
     0
 74
     0
 77
     3
 78
    12
140
3.5
147
0.875
173
     1
271
     3
272
     2
284
    12
340
327
341
329
343
329
344
329
  0
DIMSTYLE
105
3BA
102
{ACAD_REACTORS
330
3B9
102
}
330
A
100
AcDbSymbolTableRecord
100
AcDbDimStyleTableRecord
  2
SLDDIMSTYLE4
 70
     0
 41
2.0
 44
0.0
 73
     0
 74
     0
 77
     3
 78
    12
140
3.5
147
0.875
173
     1
271
     0
272
     2
284
    12
340
327
341
3BB
343
3BB
344
329
  0
ENDTAB
  0
TABLE
  2
BLOCK_RECORD
  5
1
330
0
100
AcDbSymbolTable
 70
    19
  0
BLOCK_RECORD
  5
1F
330
1
100
AcDbSymbolTableRecord
100
AcDbBlockTableRecord
  2
*Model_Space
340
22
  0
BLOCK_RECORD
  5
1B
330
1
100
AcDbSymbolTableRecord
100
AcDbBlockTableRecord
  2
*Paper_Space
340
1E
  0
BLOCK_RECORD
  5
23
330
1
100
AcDbSymbolTableRecord
100
AcDbBlockTableRecord
  2
*Paper_Space0
340
26
  0
BLOCK_RECORD
  5
329
330
1
100
AcDbSymbolTableRecord
100
AcDbBlockTableRecord
  2
_Open30
340
0
102
{BLKREFS
331
332
331
333
331
33E
331
348
331
349
331
353
331
354
331
35F
331
360
331
369
331
36A
331
373
331
374
331
37F
331
380
331
38B
331
38C
331
397
331
398
331
3A3
331
3A4
331
3AF
331
3B0
331
3C1
331
434
331
437
331
43A
331
43D
331
440
102
}
1001
ACAD
1000
DesignCenter Data
1002
{
1070
     1
1070
     0
1002
}
  0
BLOCK_RECORD
  5
32F
330
1
100
AcDbSymbolTableRecord
100
AcDbBlockTableRecord
  2
*D2
340
0
  0
BLOCK_RECORD
  5
33B
330
1
100
AcDbSymbolTableRecord
100
AcDbBlockTableRecord
  2
*D3
340
0
  0
BLOCK_RECORD
  5
345
330
1
100
AcDbSymbolTableRecord
100
AcDbBlockTableRecord
  2
*D4
340
0
  0
BLOCK_RECORD
  5
350
330
1
100
AcDbSymbolTableRecord
100
AcDbBlockTableRecord
  2
*D5
340
0
  0
BLOCK_RECORD
  5
35C
330
1
100
AcDbSymbolTableRecord
100
AcDbBlockTableRecord
  2
*D6
340
0
  0
BLOCK_RECORD
  5
366
330
1
100
AcDbSymbolTableRecord
100
AcDbBlockTableRecord
  2
*D7
340
0
  0
BLOCK_RECORD
  5
370
330
1
100
AcDbSymbolTableRecord
100
AcDbBlockTableRecord
  2
*D8
340
0
  0
BLOCK_RECORD
  5
37C
330
1
100
AcDbSymbolTableRecord
100
AcDbBlockTableRecord
  2
*D9
340
0
  0
BLOCK_RECORD
  5
388
330
1
100
AcDbSymbolTableRecord
100
AcDbBlockTableRecord
  2
*D10
340
0
  0
BLOCK_RECORD
  5
394
330
1
100
AcDbSymbolTableRecord
100
AcDbBlockTableRecord
  2
*D11
340
0
  0
BLOCK_RECORD
  5
3A0
330
1
100
AcDbSymbolTableRecord
100
AcDbBlockTableRecord
  2
*D12
340
0
  0
BLOCK_RECORD
  5
3AC
330
1
100
AcDbSymbolTableRecord
100
AcDbBlockTableRecord
  2
*D13
340
0
  0
BLOCK_RECORD
  5
3BB
330
1
100
AcDbSymbolTableRecord
100
AcDbBlockTableRecord
  2
_None
340
0
1001
ACAD
1000
DesignCenter Data
1002
{
1070
     1
1070
     0
1002
}
  0
BLOCK_RECORD
  5
3BE
330
1
100
AcDbSymbolTableRecord
100
AcDbBlockTableRecord
  2
*D15
340
0
  0
BLOCK_RECORD
  5
400
330
1
100
AcDbSymbolTableRecord
100
AcDbBlockTableRecord
  2
SW_NOTE_0
340
0
102
{BLKREFS
331
405
102
}
1001
ACAD
1000
DesignCenter Data
1002
{
1070
     1
1070
     0
1002
}
  0
BLOCK_RECORD
  5
417
330
1
100
AcDbSymbolTableRecord
100
AcDbBlockTableRecord
  2
SW_NOTE_1
340
0
102
{BLKREFS
331
420
102
}
1001
ACAD
1000
DesignCenter Data
1002
{
1070
     1
1070
     0
1002
}
  0
BLOCK_RECORD
  5
426
330
1
100
AcDbSymbolTableRecord
100
AcDbBlockTableRecord
  2
SW_NOTE_2
340
0
102
{BLKREFS
331
42B
102
}
1001
ACAD
1000
DesignCenter Data
1002
{
1070
     1
1070
     0
1002
}
  0
ENDTAB
  0
ENDSEC
  0
SECTION
  2
BLOCKS
  0
BLOCK
  5
20
330
1F
100
AcDbEntity
  8
0
100
AcDbBlockBegin
  2
*Model_Space
 70
     0
 71
     0
 10
0.0
 20
0.0
 30
0.0
  3
*Model_Space
  1

  0
ENDBLK
  5
21
330
1F
100
AcDbEntity
  8
0
100
AcDbBlockEnd
  0
BLOCK
  5
1C
330
1B
100
AcDbEntity
 67
     1
  8
0
100
AcDbBlockBegin
  2
*Paper_Space
 70
     0
 71
     0
 10
0.0
 20
0.0
 30
0.0
  3
*Paper_Space
  1

  0
ENDBLK
  5
1D
330
1B
100
AcDbEntity
 67
     1
  8
0
100
AcDbBlockEnd
  0
BLOCK
  5
24
330
23
100
AcDbEntity
  8
0
100
AcDbBlockBegin
  2
*Paper_Space0
 70
     0
 71
     0
 10
0.0
 20
0.0
 30
0.0
  3
*Paper_Space0
  1

  0
ENDBLK
  5
25
330
23
100
AcDbEntity
  8
0
100
AcDbBlockEnd
  0
BLOCK
  5
32A
330
329
100
AcDbEntity
  8
0
100
AcDbBlockBegin
  2
_Open30
 70
     0
 71
     0
 10
0.0
 20
0.0
 30
0.0
  3
_Open30
  1

  0
LINE
  5
32C
330
329
100
AcDbEntity
  8
0
  6
ByBlock
 62
     0
370
    -2
100
AcDbLine
 10
-1.0
 20
0.267949
 30
0.0
 11
0.0
 21
0.0
 31
0.0
  0
LINE
  5
32D
330
329
100
AcDbEntity
  8
0
  6
ByBlock
 62
     0
370
    -2
100
AcDbLine
 10
0.0
 20
0.0
 30
0.0
 11
-1.0
 21
-0.267949
 31
0.0
  0
LINE
  5
32E
330
329
100
AcDbEntity
  8
0
  6
ByBlock
 62
     0
370
    -2
100
AcDbLine
 10
0.0
 20
0.0
 30
0.0
 11
-1.0
 21
0.0
 31
0.0
  0
ENDBLK
  5
32B
330
329
100
AcDbEntity
  8
0
100
AcDbBlockEnd
  0
BLOCK
  5
330
330
32F
100
AcDbEntity
  8
0
100
AcDbBlockBegin
  2
*D2
 70
     1
 71
     0
 10
0.0
 20
0.0
 30
0.0
  3
*D2
  1

  0
INSERT
  5
332
330
32F
100
AcDbEntity
  8
寸法線
100
AcDbBlockReference
  2
_Open30
 10
120.5657031365
 20
103.1299747882
 30
0.1
 41
2.0
 42
2.0
 50
270.0
  0
INSERT
  5
333
330
32F
100
AcDbEntity
  8
寸法線
100
AcDbBlockReference
  2
_Open30
 10
120.5657031365
 20
147.6299747882
 30
0.1
 41
2.0
 42
2.0
 50
90.0
  0
LINE
  5
334
330
32F
100
AcDbEntity
  8
寸法線
100
AcDbLine
 10
127.7750297508
 20
103.1299747882
 30
0.0
 11
119.5657031365
 21
103.1299747882
 31
0.0
  0
LINE
  5
335
330
32F
100
AcDbEntity
  8
寸法線
100
AcDbLine
 10
127.7750297508
 20
147.6299747882
 30
0.0
 11
119.5657031365
 21
147.6299747882
 31
0.0
  0
LINE
  5
336
330
32F
100
AcDbEntity
  8
寸法線
100
AcDbLine
 10
120.5657031365
 20
103.1299747882
 30
0.0
 11
120.5657031365
 21
147.6299747882
 31
0.0
  0
MTEXT
  5
337
330
32F
100
AcDbEntity
  8
寸法線
100
AcDbMText
 10
116.4929760966
 20
119.9769290565
 30
0.0
 40
3.5
 41
0.0
 71
     1
 72
     1
  1
%%c
  7
SLDTEXTSTYLE0
 11
6.123031769111886E-17
 21
1.0
 31
0.0
 73
     1
 44
1.0
  0
MTEXT
  5
338
330
32F
100
AcDbEntity
  8
寸法線
100
AcDbMText
 10
116.4929760966
 20
123.846802837
 30
0.0
 40
3.5
 41
0.0
 71
     1
 72
     1
  1
44.5
  7
SLDTEXTSTYLE0
 11
6.123031769111886E-17
 21
1.0
 31
0.0
 73
     1
 44
1.0
  0
ENDBLK
  5
331
330
32F
100
AcDbEntity
  8
0
100
AcDbBlockEnd
  0
BLOCK
  5
33C
330
33B
100
AcDbEntity
  8
0
100
AcDbBlockBegin
  2
*D3
 70
     1
 71
     0
 10
0.0
 20
0.0
 30
0.0
  3
*D3
  1

  0
INSERT
  5
33E
330
33B
100
AcDbEntity
  8
寸法線
100
AcDbBlockReference
  2
_Open30
 10
77.1653995523
 20
135.2087590467
 30
0.1
 41
2.0
 42
2.0
 50
315.0
  0
LINE
  5
33F
330
33B
100
AcDbEntity
  8
寸法線
100
AcDbLine
 10
77.1653995523
 20
135.2087590467
 30
0.0
 11
58.1853863202
 21
154.1887722788
 31
0.0
  0
LINE
  5
340
330
33B
100
AcDbEntity
  8
寸法線
100
AcDbLine
 10
77.1653995523
 20
135.2087590467
 30
0.0
 11
96.8229680693
 21
115.5511905297
 31
0.0
  0
MTEXT
  5
341
330
33B
100
AcDbEntity
  8
寸法線
100
AcDbMText
 10
62.1851663063
 20
155.9434882346
 30
0.0
 40
3.5
 41
0.0
 71
     1
 72
     1
  1
%%c
  7
SLDTEXTSTYLE0
 11
0.7071067811865462
 21
-0.7071067811865488
 31
0.0
 73
     1
 44
1.0
  0
MTEXT
  5
342
330
33B
100
AcDbEntity
  8
寸法線
100
AcDbMText
 10
64.9215802989
 20
153.2070742421
 30
0.0
 40
3.5
 41
0.0
 71
     1
 72
     1
  1
27.8
  7
SLDTEXTSTYLE0
 11
0.7071067811865462
 21
-0.7071067811865488
 31
0.0
 73
     1
 44
1.0
  0
ENDBLK
  5
33D
330
33B
100
AcDbEntity
  8
0
100
AcDbBlockEnd
  0
BLOCK
  5
346
330
345
100
AcDbEntity
  8
0
100
AcDbBlockBegin
  2
*D4
 70
     1
 71
     0
 10
0.0
 20
0.0
 30
0.0
  3
*D4
  1

  0
INSERT
  5
348
330
345
100
AcDbEntity
  8
寸法線
100
AcDbBlockReference
  2
_Open30
 10
205.6606268534
 20
109.3799747882
 30
0.1
 41
2.0
 42
2.0
 50
270.0
  0
INSERT
  5
349
330
345
100
AcDbEntity
  8
寸法線
100
AcDbBlockReference
  2
_Open30
 10
205.6606268534
 20
141.3799747882
 30
0.1
 41
2.0
 42
2.0
 50
90.0
  0
LINE
  5
34A
330
345
100
AcDbEntity
  8
寸法線
100
AcDbLine
 10
174.9750297508
 20
109.3799747882
 30
0.0
 11
206.6606268534
 21
109.3799747882
 31
0.0
  0
LINE
  5
34B
330
345
100
AcDbEntity
  8
寸法線
100
AcDbLine
 10
174.9750297508
 20
141.3799747882
 30
0.0
 11
206.6606268534
 21
141.3799747882
 31
0.0
  0
LINE
  5
34C
330
345
100
AcDbEntity
  8
寸法線
100
AcDbLine
 10
205.6606268534
 20
109.3799747882
 30
0.0
 11
205.6606268534
 21
141.3799747882
 31
0.0
  0
MTEXT
  5
34D
330
345
100
AcDbEntity
  8
寸法線
100
AcDbMText
 10
201.5878998135
 20
120.6463495652
 30
0.0
 40
3.5
 41
0.0
 71
     1
 72
     1
  1
%%c
  7
SLDTEXTSTYLE0
 11
6.123031769111886E-17
 21
1.0
 31
0.0
 73
     1
 44
1.0
  0
MTEXT
  5
34E
330
345
100
AcDbEntity
  8
寸法線
100
AcDbMText
 10
201.5878998135
 20
124.5162233456
 30
0.0
 40
3.5
 41
0.0
 71
     1
 72
     1
  1
32
  7
SLDTEXTSTYLE0
 11
6.123031769111886E-17
 21
1.0
 31
0.0
 73
     1
 44
1.0
  0
ENDBLK
  5
347
330
345
100
AcDbEntity
  8
0
100
AcDbBlockEnd
  0
BLOCK
  5
351
330
350
100
AcDbEntity
  8
0
100
AcDbBlockBegin
  2
*D5
 70
     1
 71
     0
 10
0.0
 20
0.0
 30
0.0
  3
*D5
  1

  0
INSERT
  5
353
330
350
100
AcDbEntity
  8
寸法線
100
AcDbBlockReference
  2
_Open30
 10
198.0921733202
 20
115.3799747882
 30
0.1
 41
2.0
 42
2.0
 50
270.0
  0
INSERT
  5
354
330
350
100
AcDbEntity
  8
寸法線
100
AcDbBlockReference
  2
_Open30
 10
198.0921733202
 20
135.3799747882
 30
0.1
 41
2.0
 42
2.0
 50
90.0
  0
LINE
  5
355
330
350
100
AcDbEntity
  8
寸法線
100
AcDbLine
 10
182.0967120576
 20
115.3799747882
 30
0.0
 11
199.0921733202
 21
115.3799747882
 31
0.0
  0
LINE
  5
356
330
350
100
AcDbEntity
  8
寸法線
100
AcDbLine
 10
182.0967120576
 20
135.3799747882
 30
0.0
 11
199.0921733202
 21
135.3799747882
 31
0.0
  0
LINE
  5
357
330
350
100
AcDbEntity
  8
寸法線
100
AcDbLine
 10
198.0921733202
 20
115.3799747882
 30
0.0
 11
198.0921733202
 21
135.3799747882
 31
0.0
  0
MTEXT
  5
358
330
350
100
AcDbEntity
  8
寸法線
100
AcDbMText
 10
194.0194462803
 20
120.6463495652
 30
0.0
 40
3.5
 41
0.0
 71
     1
 72
     1
  1
%%c
  7
SLDTEXTSTYLE0
 11
6.123031769111886E-17
 21
1.0
 31
0.0
 73
     1
 44
1.0
  0
MTEXT
  5
359
330
350
100
AcDbEntity
  8
寸法線
100
AcDbMText
 10
194.0194462803
 20
124.5162233456
 30
0.0
 40
3.5
 41
0.0
 71
     1
 72
     1
  1
20
  7
SLDTEXTSTYLE0
 11
6.123031769111886E-17
 21
1.0
 31
0.0
 73
     1
 44
1.0
  0
ENDBLK
  5
352
330
350
100
AcDbEntity
  8
0
100
AcDbBlockEnd
  0
BLOCK
  5
35D
330
35C
100
AcDbEntity
  8
0
100
AcDbBlockBegin
  2
*D6
 70
     1
 71
     0
 10
0.0
 20
0.0
 30
0.0
  3
*D6
  1

  0
INSERT
  5
35F
330
35C
100
AcDbEntity
  8
寸法線
100
AcDbBlockReference
  2
_Open30
 10
191.8010297508
 20
84.1955978315
 30
0.1
 41
2.0
 42
2.0
 50
360.0
  0
INSERT
  5
360
330
35C
100
AcDbEntity
  8
寸法線
100
AcDbBlockReference
  2
_Open30
 10
174.2750297508
 20
84.1955978315
 30
0.1
 41
2.0
 42
2.0
 50
180.0
  0
LINE
  5
361
330
35C
100
AcDbEntity
  8
寸法線
100
AcDbLine
 10
191.8010297508
 20
124.3799747882
 30
0.0
 11
191.8010297508
 21
83.1955978315
 31
0.0
  0
LINE
  5
362
330
35C
100
AcDbEntity
  8
寸法線
100
AcDbLine
 10
174.2750297508
 20
97.2953824549
 30
0.0
 11
174.2750297508
 21
83.1955978315
 31
0.0
  0
LINE
  5
363
330
35C
100
AcDbEntity
  8
寸法線
100
AcDbLine
 10
191.8010297508
 20
84.1955978315
 30
0.0
 11
174.2750297508
 21
84.1955978315
 31
0.0
  0
MTEXT
  5
364
330
35C
100
AcDbEntity
  8
寸法線
100
AcDbMText
 10
178.1685180465
 20
88.2683248714
 30
0.0
 40
3.5
 41
0.0
 71
     1
 72
     1
  1
17.526
  7
SLDTEXTSTYLE0
 73
     1
 44
1.0
  0
ENDBLK
  5
35E
330
35C
100
AcDbEntity
  8
0
100
AcDbBlockEnd
  0
BLOCK
  5
367
330
366
100
AcDbEntity
  8
0
100
AcDbBlockBegin
  2
*D7
 70
     1
 71
     0
 10
0.0
 20
0.0
 30
0.0
  3
*D7
  1

  0
INSERT
  5
369
330
366
100
AcDbEntity
  8
寸法線
100
AcDbBlockReference
  2
_Open30
 10
174.2750297508
 20
84.1955978315
 30
0.1
 41
2.0
 42
2.0
 50
360.0
  0
INSERT
  5
36A
330
366
100
AcDbEntity
  8
寸法線
100
AcDbBlockReference
  2
_Open30
 10
128.7750297508
 20
84.1955978315
 30
0.1
 41
2.0
 42
2.0
 50
180.0
  0
LINE
  5
36B
330
366
100
AcDbEntity
  8
寸法線
100
AcDbLine
 10
174.2750297508
 20
97.2953824549
 30
0.0
 11
174.2750297508
 21
83.1955978315
 31
0.0
  0
LINE
  5
36C
330
366
100
AcDbEntity
  8
寸法線
100
AcDbLine
 10
128.7750297508
 20
97.2953824549
 30
0.0
 11
128.7750297508
 21
83.1955978315
 31
0.0
  0
LINE
  5
36D
330
366
100
AcDbEntity
  8
寸法線
100
AcDbLine
 10
174.2750297508
 20
84.1955978315
 30
0.0
 11
128.7750297508
 21
84.1955978315
 31
0.0
  0
MTEXT
  5
36E
330
366
100
AcDbEntity
  8
寸法線
100
AcDbMText
 10
148.8190766203
 20
88.2683248714
 30
0.0
 40
3.5
 41
0.0
 71
     1
 72
     1
  1
45.5
  7
SLDTEXTSTYLE0
 73
     1
 44
1.0
  0
ENDBLK
  5
368
330
366
100
AcDbEntity
  8
0
100
AcDbBlockEnd
  0
BLOCK
  5
371
330
370
100
AcDbEntity
  8
0
100
AcDbBlockBegin
  2
*D8
 70
     1
 71
     0
 10
0.0
 20
0.0
 30
0.0
  3
*D8
  1

  0
INSERT
  5
373
330
370
100
AcDbEntity
  8
寸法線
100
AcDbBlockReference
  2
_Open30
 10
174.2750297508
 20
92.7444291533
 30
0.1
 41
2.0
 42
2.0
 50
180.0
  0
INSERT
  5
374
330
370
100
AcDbEntity
  8
寸法線
100
AcDbBlockReference
  2
_Open30
 10
168.4750297508
 20
92.7444291533
 30
0.1
 41
2.0
 42
2.0
 50
360.0
  0
LINE
  5
375
330
370
100
AcDbEntity
  8
寸法線
100
AcDbLine
 10
174.2750297508
 20
108.6799747882
 30
0.0
 11
174.2750297508
 21
91.7444291533
 31
0.0
  0
LINE
  5
376
330
370
100
AcDbEntity
  8
寸法線
100
AcDbLine
 10
168.4750297508
 20
107.9299747882
 30
0.0
 11
168.4750297508
 21
91.7444291533
 31
0.0
  0
LINE
  5
377
330
370
100
AcDbEntity
  8
寸法線
100
AcDbLine
 10
174.2750297508
 20
92.7444291533
 30
0.0
 11
180.2750297508
 21
92.7444291533
 31
0.0
  0
LINE
  5
378
330
370
100
AcDbEntity
  8
寸法線
100
AcDbLine
 10
174.2750297508
 20
92.7444291533
 30
0.0
 11
168.4750297508
 21
92.7444291533
 31
0.0
  0
LINE
  5
379
330
370
100
AcDbEntity
  8
寸法線
100
AcDbLine
 10
168.4750297508
 20
92.7444291533
 30
0.0
 11
162.4750297508
 21
92.7444291533
 31
0.0
  0
MTEXT
  5
37A
330
370
100
AcDbEntity
  8
寸法線
100
AcDbMText
 10
168.7798457532
 20
96.8171561932
 30
0.0
 40
3.5
 41
0.0
 71
     1
 72
     1
  1
5.8
  7
SLDTEXTSTYLE0
 73
     1
 44
1.0
  0
ENDBLK
  5
372
330
370
100
AcDbEntity
  8
0
100
AcDbBlockEnd
  0
BLOCK
  5
37D
330
37C
100
AcDbEntity
  8
0
100
AcDbBlockBegin
  2
*D9
 70
     1
 71
     0
 10
0.0
 20
0.0
 30
0.0
  3
*D9
  1

  0
INSERT
  5
37F
330
37C
100
AcDbEntity
  8
寸法線
100
AcDbBlockReference
  2
_Open30
 10
159.1750297508
 20
92.7444291533
 30
0.1
 41
2.0
 42
2.0
 50
180.0
  0
INSERT
  5
380
330
37C
100
AcDbEntity
  8
寸法線
100
AcDbBlockReference
  2
_Open30
 10
147.1750297508
 20
92.7444291533
 30
0.1
 41
2.0
 42
2.0
 50
360.0
  0
LINE
  5
381
330
37C
100
AcDbEntity
  8
寸法線
100
AcDbLine
 10
159.1750297508
 20
107.9299747882
 30
0.0
 11
159.1750297508
 21
91.7444291533
 31
0.0
  0
LINE
  5
382
330
37C
100
AcDbEntity
  8
寸法線
100
AcDbLine
 10
147.1750297508
 20
107.9299747882
 30
0.0
 11
147.1750297508
 21
91.7444291533
 31
0.0
  0
LINE
  5
383
330
37C
100
AcDbEntity
  8
寸法線
100
AcDbLine
 10
159.1750297508
 20
92.7444291533
 30
0.0
 11
165.1750297508
 21
92.7444291533
 31
0.0
  0
LINE
  5
384
330
37C
100
AcDbEntity
  8
寸法線
100
AcDbLine
 10
159.1750297508
 20
92.7444291533
 30
0.0
 11
147.1750297508
 21
92.7444291533
 31
0.0
  0
LINE
  5
385
330
37C
100
AcDbEntity
  8
寸法線
100
AcDbLine
 10
147.1750297508
 20
92.7444291533
 30
0.0
 11
141.1750297508
 21
92.7444291533
 31
0.0
  0
MTEXT
  5
386
330
37C
100
AcDbEntity
  8
寸法線
100
AcDbMText
 10
151.2655230807
 20
96.8171561932
 30
0.0
 40
3.5
 41
0.0
 71
     1
 72
     1
  1
12
  7
SLDTEXTSTYLE0
 73
     1
 44
1.0
  0
ENDBLK
  5
37E
330
37C
100
AcDbEntity
  8
0
100
AcDbBlockEnd
  0
BLOCK
  5
389
330
388
100
AcDbEntity
  8
0
100
AcDbBlockBegin
  2
*D10
 70
     1
 71
     0
 10
0.0
 20
0.0
 30
0.0
  3
*D10
  1

  0
INSERT
  5
38B
330
388
100
AcDbEntity
  8
寸法線
100
AcDbBlockReference
  2
_Open30
 10
139.7750297508
 20
92.7444291533
 30
0.1
 41
2.0
 42
2.0
 50
360.0
  0
INSERT
  5
38C
330
388
100
AcDbEntity
  8
寸法線
100
AcDbBlockReference
  2
_Open30
 10
128.7750297508
 20
92.7444291533
 30
0.1
 41
2.0
 42
2.0
 50
180.0
  0
LINE
  5
38D
330
388
100
AcDbEntity
  8
寸法線
100
AcDbLine
 10
139.7750297508
 20
107.9299747882
 30
0.0
 11
139.7750297508
 21
91.7444291533
 31
0.0
  0
LINE
  5
38E
330
388
100
AcDbEntity
  8
寸法線
100
AcDbLine
 10
128.7750297508
 20
102.1299747882
 30
0.0
 11
128.7750297508
 21
91.7444291533
 31
0.0
  0
LINE
  5
38F
330
388
100
AcDbEntity
  8
寸法線
100
AcDbLine
 10
139.7750297508
 20
92.7444291533
 30
0.0
 11
128.7750297508
 21
92.7444291533
 31
0.0
  0
MTEXT
  5
390
330
388
100
AcDbEntity
  8
寸法線
100
AcDbMText
 10
131.127902349
 20
96.8171561932
 30
0.0
 40
3.5
 41
0.0
 71
     1
 72
     1
  1
(
  7
SLDTEXTSTYLE0
 73
     1
 44
1.0
  0
MTEXT
  5
391
330
388
100
AcDbEntity
  8
寸法線
100
AcDbMText
 10
132.3655230807
 20
96.8171561932
 30
0.0
 40
3.5
 41
0.0
 71
     1
 72
     1
  1
11
  7
SLDTEXTSTYLE0
 73
     1
 44
1.0
  0
MTEXT
  5
392
330
388
100
AcDbEntity
  8
寸法線
100
AcDbMText
 10
136.4385883246
 20
96.8171561932
 30
0.0
 40
3.5
 41
0.0
 71
     1
 72
     1
  1
)
  7
SLDTEXTSTYLE0
 73
     1
 44
1.0
  0
ENDBLK
  5
38A
330
388
100
AcDbEntity
  8
0
100
AcDbBlockEnd
  0
BLOCK
  5
395
330
394
100
AcDbEntity
  8
0
100
AcDbBlockBegin
  2
*D11
 70
     1
 71
     0
 10
0.0
 20
0.0
 30
0.0
  3
*D11
  1

  0
INSERT
  5
397
330
394
100
AcDbEntity
  8
寸法線
100
AcDbBlockReference
  2
_Open30
 10
147.1750297508
 20
92.7444291533
 30
0.1
 41
2.0
 42
2.0
 50
180.0
  0
INSERT
  5
398
330
394
100
AcDbEntity
  8
寸法線
100
AcDbBlockReference
  2
_Open30
 10
139.7750297508
 20
92.7444291533
 30
0.1
 41
2.0
 42
2.0
 50
360.0
  0
LINE
  5
399
330
394
100
AcDbEntity
  8
寸法線
100
AcDbLine
 10
147.1750297508
 20
107.9299747882
 30
0.0
 11
147.1750297508
 21
91.7444291533
 31
0.0
  0
LINE
  5
39A
330
394
100
AcDbEntity
  8
寸法線
100
AcDbLine
 10
139.7750297508
 20
107.9299747882
 30
0.0
 11
139.7750297508
 21
91.7444291533
 31
0.0
  0
LINE
  5
39B
330
394
100
AcDbEntity
  8
寸法線
100
AcDbLine
 10
147.1750297508
 20
92.7444291533
 30
0.0
 11
153.1750297508
 21
92.7444291533
 31
0.0
  0
LINE
  5
39C
330
394
100
AcDbEntity
  8
寸法線
100
AcDbLine
 10
147.1750297508
 20
92.7444291533
 30
0.0
 11
139.7750297508
 21
92.7444291533
 31
0.0
  0
LINE
  5
39D
330
394
100
AcDbEntity
  8
寸法線
100
AcDbLine
 10
139.7750297508
 20
92.7444291533
 30
0.0
 11
133.7750297508
 21
92.7444291533
 31
0.0
  0
MTEXT
  5
39E
330
394
100
AcDbEntity
  8
寸法線
100
AcDbMText
 10
140.8989309332
 20
96.8171561932
 30
0.0
 40
3.5
 41
0.0
 71
     1
 72
     1
  1
7.4
  7
SLDTEXTSTYLE0
 73
     1
 44
1.0
  0
ENDBLK
  5
396
330
394
100
AcDbEntity
  8
0
100
AcDbBlockEnd
  0
BLOCK
  5
3A1
330
3A0
100
AcDbEntity
  8
0
100
AcDbBlockBegin
  2
*D12
 70
     1
 71
     0
 10
0.0
 20
0.0
 30
0.0
  3
*D12
  1

  0
INSERT
  5
3A3
330
3A0
100
AcDbEntity
  8
寸法線
100
AcDbBlockReference
  2
_Open30
 10
168.4750297508
 20
92.7444291533
 30
0.1
 41
2.0
 42
2.0
 50
180.0
  0
INSERT
  5
3A4
330
3A0
100
AcDbEntity
  8
寸法線
100
AcDbBlockReference
  2
_Open30
 10
159.1750297508
 20
92.7444291533
 30
0.1
 41
2.0
 42
2.0
 50
360.0
  0
LINE
  5
3A5
330
3A0
100
AcDbEntity
  8
寸法線
100
AcDbLine
 10
168.4750297508
 20
107.9299747882
 30
0.0
 11
168.4750297508
 21
91.7444291533
 31
0.0
  0
LINE
  5
3A6
330
3A0
100
AcDbEntity
  8
寸法線
100
AcDbLine
 10
159.1750297508
 20
107.9299747882
 30
0.0
 11
159.1750297508
 21
91.7444291533
 31
0.0
  0
LINE
  5
3A7
330
3A0
100
AcDbEntity
  8
寸法線
100
AcDbLine
 10
168.4750297508
 20
92.7444291533
 30
0.0
 11
174.4750297508
 21
92.7444291533
 31
0.0
  0
LINE
  5
3A8
330
3A0
100
AcDbEntity
  8
寸法線
100
AcDbLine
 10
168.4750297508
 20
92.7444291533
 30
0.0
 11
159.1750297508
 21
92.7444291533
 31
0.0
  0
LINE
  5
3A9
330
3A0
100
AcDbEntity
  8
寸法線
100
AcDbLine
 10
159.1750297508
 20
92.7444291533
 30
0.0
 11
153.1750297508
 21
92.7444291533
 31
0.0
  0
MTEXT
  5
3AA
330
3A0
100
AcDbEntity
  8
寸法線
100
AcDbMText
 10
161.0837346214
 20
96.8171561932
 30
0.0
 40
3.5
 41
0.0
 71
     1
 72
     1
  1
9.3
  7
SLDTEXTSTYLE0
 73
     1
 44
1.0
  0
ENDBLK
  5
3A2
330
3A0
100
AcDbEntity
  8
0
100
AcDbBlockEnd
  0
BLOCK
  5
3AD
330
3AC
100
AcDbEntity
  8
0
100
AcDbBlockBegin
  2
*D13
 70
     1
 71
     0
 10
0.0
 20
0.0
 30
0.0
  3
*D13
  1

  0
INSERT
  5
3AF
330
3AC
100
AcDbEntity
  8
寸法線
100
AcDbBlockReference
  2
_Open30
 10
181.2967120576
 20
92.7444291533
 30
0.1
 41
2.0
 42
2.0
 50
180.0
  0
INSERT
  5
3B0
330
3AC
100
AcDbEntity
  8
寸法線
100
AcDbBlockReference
  2
_Open30
 10
178.2750297508
 20
92.7444291533
 30
0.1
 41
2.0
 42
2.0
 50
360.0
  0
LINE
  5
3B1
330
3AC
100
AcDbEntity
  8
寸法線
100
AcDbLine
 10
181.2967120576
 20
114.5799747882
 30
0.0
 11
181.2967120576
 21
91.7444291533
 31
0.0
  0
LINE
  5
3B2
330
3AC
100
AcDbEntity
  8
寸法線
100
AcDbLine
 10
178.2750297508
 20
112.1799747882
 30
0.0
 11
178.2750297508
 21
91.7444291533
 31
0.0
  0
LINE
  5
3B3
330
3AC
100
AcDbEntity
  8
寸法線
100
AcDbLine
 10
181.2967120576
 20
92.7444291533
 30
0.0
 11
191.1697673569
 21
92.7444291533
 31
0.0
  0
LINE
  5
3B4
330
3AC
100
AcDbEntity
  8
寸法線
100
AcDbLine
 10
181.2967120576
 20
92.7444291533
 30
0.0
 11
178.2750297508
 21
92.7444291533
 31
0.0
  0
LINE
  5
3B5
330
3AC
100
AcDbEntity
  8
寸法線
100
AcDbLine
 10
178.2750297508
 20
92.7444291533
 30
0.0
 11
172.2750297508
 21
92.7444291533
 31
0.0
  0
MTEXT
  5
3B6
330
3AC
100
AcDbEntity
  8
寸法線
100
AcDbMText
 10
185.0720326008
 20
96.8171561932
 30
0.0
 40
3.5
 41
0.0
 71
     1
 72
     1
  1
(
  7
SLDTEXTSTYLE0
 73
     1
 44
1.0
  0
MTEXT
  5
3B7
330
3AC
100
AcDbEntity
  8
寸法線
100
AcDbMText
 10
186.3096533325
 20
96.8171561932
 30
0.0
 40
3.5
 41
0.0
 71
     1
 72
     1
  1
3
  7
SLDTEXTSTYLE0
 73
     1
 44
1.0
  0
MTEXT
  5
3B8
330
3AC
100
AcDbEntity
  8
寸法線
100
AcDbMText
 10
188.3446466252
 20
96.8171561932
 30
0.0
 40
3.5
 41
0.0
 71
     1
 72
     1
  1
)
  7
SLDTEXTSTYLE0
 73
     1
 44
1.0
  0
ENDBLK
  5
3AE
330
3AC
100
AcDbEntity
  8
0
100
AcDbBlockEnd
  0
BLOCK
  5
3BC
330
3BB
100
AcDbEntity
  8
0
100
AcDbBlockBegin
  2
_None
 70
     0
 71
     0
 10
0.0
 20
0.0
 30
0.0
  3
_None
  1

  0
ENDBLK
  5
3BD
330
3BB
100
AcDbEntity
  8
0
100
AcDbBlockEnd
  0
BLOCK
  5
3BF
330
3BE
100
AcDbEntity
  8
0
100
AcDbBlockBegin
  2
*D15
 70
     1
 71
     0
 10
0.0
 20
0.0
 30
0.0
  3
*D15
  1

  0
INSERT
  5
3C1
330
3BE
100
AcDbEntity
  8
寸法線
100
AcDbBlockReference
  2
_Open30
 10
174.2750297508
 20
92.7444291533
 30
0.1
 41
2.0
 42
2.0
 50
360.0
  0
LINE
  5
3C2
330
3BE
100
AcDbEntity
  8
寸法線
100
AcDbLine
 10
178.2750297508
 20
112.1799747882
 30
0.0
 11
178.2750297508
 21
91.7444291533
 31
0.0
  0
LINE
  5
3C3
330
3BE
100
AcDbEntity
  8
寸法線
100
AcDbLine
 10
174.2750297508
 20
108.6799747882
 30
0.0
 11
174.2750297508
 21
91.7444291533
 31
0.0
  0
LINE
  5
3C4
330
3BE
100
AcDbEntity
  8
寸法線
100
AcDbLine
 10
178.2750297508
 20
92.7444291533
 30
0.0
 11
184.2750297508
 21
92.7444291533
 31
0.0
  0
LINE
  5
3C5
330
3BE
100
AcDbEntity
  8
寸法線
100
AcDbLine
 10
178.2750297508
 20
92.7444291533
 30
0.0
 11
174.2750297508
 21
92.7444291533
 31
0.0
  0
LINE
  5
3C6
330
3BE
100
AcDbEntity
  8
寸法線
100
AcDbLine
 10
174.2750297508
 20
92.7444291533
 30
0.0
 11
168.2750297508
 21
92.7444291533
 31
0.0
  0
MTEXT
  5
3C7
330
3BE
100
AcDbEntity
  8
寸法線
100
AcDbMText
 10
175.4036442363
 20
96.8171561932
 30
0.0
 40
3.5
 41
0.0
 71
     1
 72
     1
  1
4
  7
SLDTEXTSTYLE0
 73
     1
 44
1.0
  0
ENDBLK
  5
3C0
330
3BE
100
AcDbEntity
  8
0
100
AcDbBlockEnd
  0
BLOCK
  5
401
330
400
100
AcDbEntity
  8
0
100
AcDbBlockBegin
  2
SW_NOTE_0
 70
     0
 71
     0
 10
0.0
 20
0.0
 30
0.0
  3
SW_NOTE_0
  1

  0
MTEXT
  5
403
330
400
100
AcDbEntity
  8
0
  6
Continuous
 62
     0
370
     0
100
AcDbMText
 10
0.0
 20
3.4909090909
 30
0.0
 40
3.0
 41
0.0
 71
     1
 72
     1
  1
一般
  7
SLDTEXTSTYLE2
 73
     1
 44
1.0
  0
MTEXT
  5
404
330
400
100
AcDbEntity
  8
0
  6
Continuous
 62
     0
370
     0
100
AcDbMText
 10
0.0
 20
-0.2090909102
 30
0.0
 40
3.0
 41
0.0
 71
     1
 72
     1
  1
公差
  7
SLDTEXTSTYLE2
 73
     1
 44
1.0
  0
ENDBLK
  5
402
330
400
100
AcDbEntity
  8
0
100
AcDbBlockEnd
  0
BLOCK
  5
418
330
417
100
AcDbEntity
  8
0
100
AcDbBlockBegin
  2
SW_NOTE_1
 70
     0
 71
     0
 10
0.0
 20
0.0
 30
0.0
  3
SW_NOTE_1
  1

  0
LINE
  5
41A
330
417
100
AcDbEntity
  8
0
  6
Continuous
 62
     0
370
     0
100
AcDbLine
 10
0.0
 20
0.0
 30
0.0
 11
0.0
 21
-4.497920122
 31
0.0
  0
LINE
  5
41B
330
417
100
AcDbEntity
  8
0
  6
Continuous
 62
     0
370
     0
100
AcDbLine
 10
0.0
 20
-4.497920122
 30
0.0
 11
4.0730652439
 21
-4.497920122
 31
0.0
  0
LINE
  5
41C
330
417
100
AcDbEntity
  8
0
  6
Continuous
 62
     0
370
     0
100
AcDbLine
 10
4.0730652439
 20
-4.497920122
 30
0.0
 11
4.0730652439
 21
0.0
 31
0.0
  0
LINE
  5
41D
330
417
100
AcDbEntity
  8
0
  6
Continuous
 62
     0
370
     0
100
AcDbLine
 10
4.0730652439
 20
0.0
 30
0.0
 11
0.0
 21
0.0
 31
0.0
  0
LINE
  5
41E
330
417
100
AcDbEntity
  8
0
  6
Continuous
 62
     0
370
     0
100
AcDbLine
 10
0.0
 20
0.0
 30
0.0
 11
4.0730652439
 21
-4.497920122
 31
0.0
  0
LINE
  5
41F
330
417
100
AcDbEntity
  8
0
  6
Continuous
 62
     0
370
     0
100
AcDbLine
 10
0.0
 20
-4.497920122
 30
0.0
 11
4.0730652439
 21
0.0
 31
0.0
  0
ENDBLK
  5
419
330
417
100
AcDbEntity
  8
0
100
AcDbBlockEnd
  0
BLOCK
  5
427
330
426
100
AcDbEntity
  8
0
100
AcDbBlockBegin
  2
SW_NOTE_2
 70
     0
 71
     0
 10
0.0
 20
0.0
 30
0.0
  3
SW_NOTE_2
  1

  0
MTEXT
  5
429
330
426
100
AcDbEntity
  8
0
  6
Continuous
 62
     0
370
     0
100
AcDbMText
 10
0.0
 20
2.463030303
 30
0.0
 40
2.1166666667
 41
0.0
 71
     1
 72
     1
  1
1
  7
SLDTEXTSTYLE0
 73
     1
 44
1.0
  0
MTEXT
  5
42A
330
426
100
AcDbEntity
  8
0
  6
Continuous
 62
     0
370
     0
100
AcDbMText
 10
1.4111110941
 20
2.463030303
 30
0.0
 40
2.1166666667
 41
0.0
 71
     1
 72
     1
  1
.6
  7
SLDTEXTSTYLE0
 73
     1
 44
1.0
  0
ENDBLK
  5
428
330
426
100
AcDbEntity
  8
0
100
AcDbBlockEnd
  0
ENDSEC
  0
SECTION
  2
ENTITIES
  0
LINE
  5
44
330
1F
100
AcDbEntity
  8
部品
100
AcDbLine
 10
128.7750297508
 20
146.8799747882
 30
0.0
 11
129.0750297508
 21
146.5799747882
 31
0.0
  0
LINE
  5
45
330
1F
100
AcDbEntity
  8
部品
100
AcDbLine
 10
129.0750297508
 20
146.5799747882
 30
0.0
 11
131.4822988979
 21
146.5799747882
 31
0.0
  0
LINE
  5
46
330
1F
100
AcDbEntity
  8
部品
100
AcDbLine
 10
128.7750297508
 20
146.8799747882
 30
0.0
 11
128.8150297508
 21
146.8799747882
 31
0.0
  0
LINE
  5
47
330
1F
100
AcDbEntity
  8
部品
100
AcDbLine
 10
128.8150297508
 20
147.6299747882
 30
0.0
 11
128.8150297508
 21
146.8799747882
 31
0.0
  0
LINE
  5
48
330
1F
100
AcDbEntity
  8
部品
100
AcDbLine
 10
132.6842937064
 20
147.6299747882
 30
0.0
 11
128.8150297508
 21
147.6299747882
 31
0.0
  0
LINE
  5
49
330
1F
100
AcDbEntity
  8
部品
100
AcDbLine
 10
150.8250297508
 20
131.9549747882
 30
0.0
 11
149.6250297508
 21
131.9549747882
 31
0.0
  0
LINE
  5
4A
330
1F
100
AcDbEntity
  8
部品
100
AcDbLine
 10
149.4750297508
 20
131.8049747882
 30
0.0
 11
149.4750297508
 21
131.3549747882
 31
0.0
  0
LINE
  5
4B
330
1F
100
AcDbEntity
  8
部品
100
AcDbLine
 10
149.6250297508
 20
131.2049747882
 30
0.0
 11
150.8250297508
 21
131.2049747882
 31
0.0
  0
LINE
  5
4C
330
1F
100
AcDbEntity
  8
部品
100
AcDbLine
 10
150.9750297508
 20
131.3549747882
 30
0.0
 11
150.9750297508
 21
131.8049747882
 31
0.0
  0
LINE
  5
4D
330
1F
100
AcDbEntity
  8
部品
100
AcDbLine
 10
150.8250297508
 20
129.0749747882
 30
0.0
 11
149.6250297508
 21
129.0749747882
 31
0.0
  0
LINE
  5
4E
330
1F
100
AcDbEntity
  8
部品
100
AcDbLine
 10
149.4750297508
 20
128.9249747882
 30
0.0
 11
149.4750297508
 21
128.4749747882
 31
0.0
  0
LINE
  5
4F
330
1F
100
AcDbEntity
  8
部品
100
AcDbLine
 10
149.6250297508
 20
128.3249747882
 30
0.0
 11
150.8250297508
 21
128.3249747882
 31
0.0
  0
LINE
  5
50
330
1F
100
AcDbEntity
  8
部品
100
AcDbLine
 10
150.9750297508
 20
128.4749747882
 30
0.0
 11
150.9750297508
 21
128.9249747882
 31
0.0
  0
LINE
  5
51
330
1F
100
AcDbEntity
  8
部品
100
AcDbLine
 10
156.2985232666
 20
125.3799747882
 30
0.0
 11
155.9515362351
 21
125.3799747882
 31
0.0
  0
LINE
  5
52
330
1F
100
AcDbEntity
  8
1
 62
     4
100
AcDbLine
 10
80.9642105887
 20
117.7366450125
 30
0.0
 11
82.4514918369
 21
119.2239262607
 31
0.0
  0
LINE
  5
53
330
1F
100
AcDbEntity
  8
1
 62
     4
100
AcDbLine
 10
79.2410190032
 20
117.5452549795
 30
0.0
 11
82.6291338303
 21
121.1142975224
 31
0.0
  0
LINE
  5
54
330
1F
100
AcDbEntity
  8
1
 62
     4
100
AcDbLine
 10
92.5325438066
 20
117.7366450125
 30
0.0
 11
94.0198250549
 21
119.2239262607
 31
0.0
  0
LINE
  5
55
330
1F
100
AcDbEntity
  8
1
 62
     4
100
AcDbLine
 10
90.8093522211
 20
117.5452549795
 30
0.0
 11
94.1974670482
 21
121.1142975224
 31
0.0
  0
LINE
  5
56
330
1F
100
AcDbEntity
  8
中心
100
AcDbLine
 10
86.9941838108
 20
101.3987071385
 30
0.0
 11
86.9941838108
 21
149.3277535628
 31
0.0
  0
LINE
  5
57
330
1F
100
AcDbEntity
  8
中心
100
AcDbLine
 10
111.3137736135
 20
125.3799747882
 30
0.0
 11
62.8345713955
 21
125.3799747882
 31
0.0
  0
LINE
  5
58
330
1F
100
AcDbEntity
  8
1
 62
     4
100
AcDbLine
 10
79.4546691883
 20
119.2461864128
 30
0.0
 11
80.9419504366
 21
120.7334676611
 31
0.0
  0
LINE
  5
59
330
1F
100
AcDbEntity
  8
1
 62
     4
100
AcDbLine
 10
80.9642105887
 20
129.3049782304
 30
0.0
 11
82.4514918369
 21
130.7922594787
 31
0.0
  0
LINE
  5
5A
330
1F
100
AcDbEntity
  8
1
 62
     4
100
AcDbLine
 10
79.2410190032
 20
129.1135881974
 30
0.0
 11
82.6291338303
 21
132.6826307404
 31
0.0
  0
LINE
  5
5B
330
1F
100
AcDbEntity
  8
1
 62
     4
100
AcDbLine
 10
79.4546691883
 20
130.8145196308
 30
0.0
 11
80.9419504366
 21
132.301800879
 31
0.0
  0
LINE
  5
5C
330
1F
100
AcDbEntity
  8
1
 62
     4
100
AcDbLine
 10
91.0230024062
 20
119.2461864128
 30
0.0
 11
92.5102836545
 21
120.7334676611
 31
0.0
  0
LINE
  5
5D
330
1F
100
AcDbEntity
  8
1
 62
     4
100
AcDbLine
 10
92.5325438066
 20
129.3049782304
 30
0.0
 11
94.0198250549
 21
130.7922594787
 31
0.0
  0
LINE
  5
5E
330
1F
100
AcDbEntity
  8
1
 62
     4
100
AcDbLine
 10
90.8093522211
 20
129.1135881974
 30
0.0
 11
94.1974670482
 21
132.6826307404
 31
0.0
  0
LINE
  5
5F
330
1F
100
AcDbEntity
  8
1
 62
     4
100
AcDbLine
 10
91.0230024062
 20
130.8145196308
 30
0.0
 11
92.5102836545
 21
132.301800879
 31
0.0
  0
LINE
  5
60
330
1F
100
AcDbEntity
  8
部品
100
AcDbLine
 10
128.7750297508
 20
103.1299747882
 30
0.0
 11
128.7750297508
 21
125.3799747882
 31
0.0
  0
LINE
  5
61
330
1F
100
AcDbEntity
  8
部品
 62
     4
100
AcDbLine
 10
159.4750297508
 20
118.0884498755
 30
0.0
 11
159.1750297508
 21
117.9679474682
 31
0.0
  0
LINE
  5
62
330
1F
100
AcDbEntity
  8
部品
 62
     4
100
AcDbLine
 10
168.1750297508
 20
118.0884498755
 30
0.0
 11
168.4750297508
 21
117.9679474682
 31
0.0
  0
LINE
  5
63
330
1F
100
AcDbEntity
  8
部品
 62
     4
100
AcDbLine
 10
146.8750297508
 20
117.9862570144
 30
0.0
 11
147.1750297508
 21
118.371039287
 31
0.0
  0
LINE
  5
64
330
1F
100
AcDbEntity
  8
部品
 62
     4
100
AcDbLine
 10
140.0750297508
 20
117.9862570144
 30
0.0
 11
139.7750297508
 21
118.371039287
 31
0.0
  0
LINE
  5
65
330
1F
100
AcDbEntity
  8
部品
100
AcDbLine
 10
174.2750297508
 20
125.3799747882
 30
0.0
 11
174.2750297508
 21
109.6799747882
 31
0.0
  0
LINE
  5
66
330
1F
100
AcDbEntity
  8
部品
100
AcDbLine
 10
178.2750297508
 20
125.3799747882
 30
0.0
 11
178.2750297508
 21
113.1799747882
 31
0.0
  0
LINE
  5
67
330
1F
100
AcDbEntity
  8
部品
100
AcDbLine
 10
175.4750297508
 20
112.6799747882
 30
0.0
 11
175.4750297508
 21
125.3799747882
 31
0.0
  0
LINE
  5
68
330
1F
100
AcDbEntity
  8
部品
100
AcDbLine
 10
181.2967120576
 20
125.3799747882
 30
0.0
 11
181.2967120576
 21
115.5799747882
 31
0.0
  0
LINE
  5
69
330
1F
100
AcDbEntity
  8
部品
100
AcDbLine
 10
159.1750297508
 20
108.9299747882
 30
0.0
 11
159.1750297508
 21
125.3799747882
 31
0.0
  0
LINE
  5
6A
330
1F
100
AcDbEntity
  8
部品
100
AcDbLine
 10
168.4750297508
 20
108.9299747882
 30
0.0
 11
168.4750297508
 21
125.3799747882
 31
0.0
  0
LINE
  5
6B
330
1F
100
AcDbEntity
  8
部品
100
AcDbLine
 10
168.6750297508
 20
125.3799747882
 30
0.0
 11
168.6750297508
 21
109.3799747882
 31
0.0
  0
LINE
  5
6C
330
1F
100
AcDbEntity
  8
部品
100
AcDbLine
 10
139.7750297508
 20
108.9299747882
 30
0.0
 11
139.7750297508
 21
125.3799747882
 31
0.0
  0
LINE
  5
6D
330
1F
100
AcDbEntity
  8
部品
100
AcDbLine
 10
147.1750297508
 20
108.9299747882
 30
0.0
 11
147.1750297508
 21
125.3799747882
 31
0.0
  0
LINE
  5
6E
330
1F
100
AcDbEntity
  8
部品
100
AcDbLine
 10
147.6750297508
 20
125.3799747882
 30
0.0
 11
147.6750297508
 21
109.0799747882
 31
0.0
  0
LINE
  5
6F
330
1F
100
AcDbEntity
  8
部品
100
AcDbLine
 10
158.9750297508
 20
125.3799747882
 30
0.0
 11
158.9750297508
 21
109.0799747882
 31
0.0
  0
LINE
  5
70
330
1F
100
AcDbEntity
  8
部品
100
AcDbLine
 10
148.4750297508
 20
125.3799747882
 30
0.0
 11
148.4750297508
 21
108.7799747882
 31
0.0
  0
LINE
  5
71
330
1F
100
AcDbEntity
  8
部品
100
AcDbLine
 10
158.3750297508
 20
125.3799747882
 30
0.0
 11
158.3750297508
 21
108.7799747882
 31
0.0
  0
LINE
  5
72
330
1F
100
AcDbEntity
  8
部品
100
AcDbLine
 10
139.2350297508
 20
125.3799747882
 30
0.0
 11
139.2350297508
 21
109.3799747882
 31
0.0
  0
LINE
  5
73
330
1F
100
AcDbEntity
  8
部品
100
AcDbLine
 10
135.3350297508
 20
103.1299747882
 30
0.0
 11
135.3350297508
 21
125.3799747882
 31
0.0
  0
LINE
  5
74
330
1F
100
AcDbEntity
  8
部品
100
AcDbLine
 10
137.2350297508
 20
125.3799747882
 30
0.0
 11
137.2350297508
 21
109.3799747882
 31
0.0
  0
LINE
  5
75
330
1F
100
AcDbEntity
  8
部品
100
AcDbLine
 10
168.6750297508
 20
109.3799747882
 30
0.0
 11
173.9750297508
 21
109.3799747882
 31
0.0
  0
LINE
  5
76
330
1F
100
AcDbEntity
  8
部品
100
AcDbLine
 10
148.4750297508
 20
108.7799747882
 30
0.0
 11
151.4054142448
 21
108.7799747882
 31
0.0
  0
LINE
  5
77
330
1F
100
AcDbEntity
  8
部品
100
AcDbLine
 10
137.2350297508
 20
109.3799747882
 30
0.0
 11
139.2350297508
 21
109.3799747882
 31
0.0
  0
LINE
  5
78
330
1F
100
AcDbEntity
  8
部品
100
AcDbLine
 10
128.7750297508
 20
103.1299747882
 30
0.0
 11
135.3350297508
 21
103.1299747882
 31
0.0
  0
LINE
  5
79
330
1F
100
AcDbEntity
  8
部品
100
AcDbLine
 10
135.3350297508
 20
103.1299747882
 30
0.0
 11
137.2350297508
 21
109.3799747882
 31
0.0
  0
LINE
  5
7A
330
1F
100
AcDbEntity
  8
部品
 62
     4
100
AcDbLine
 10
146.8750297508
 20
109.6596782392
 30
0.0
 11
146.8750297508
 21
112.5122996683
 31
0.0
  0
LINE
  5
7B
330
1F
100
AcDbEntity
  8
部品
 62
     4
100
AcDbLine
 10
140.0750297508
 20
109.6596782392
 30
0.0
 11
140.0750297508
 21
112.5122996683
 31
0.0
  0
LINE
  5
7C
330
1F
100
AcDbEntity
  8
中心
100
AcDbLine
 10
142.1750297508
 20
109.8467926119
 30
0.0
 11
142.1750297508
 21
111.9213709453
 31
0.0
  0
LINE
  5
7D
330
1F
100
AcDbEntity
  8
部品
 62
     4
100
AcDbLine
 10
140.0750297508
 20
108.7851762174
 30
0.0
 11
146.8750297508
 21
108.7851762174
 31
0.0
  0
LINE
  5
7E
330
1F
100
AcDbEntity
  8
部品
 62
     4
100
AcDbLine
 10
140.0750297508
 20
108.6748431536
 30
0.0
 11
146.8750297508
 21
108.6748431536
 31
0.0
  0
LINE
  5
7F
330
1F
100
AcDbEntity
  8
部品
 62
     4
100
AcDbLine
 10
140.0750297508
 20
109.0079290729
 30
0.0
 11
146.8750297508
 21
109.0079290729
 31
0.0
  0
LINE
  5
80
330
1F
100
AcDbEntity
  8
部品
 62
     4
100
AcDbLine
 10
140.0750297508
 20
109.2632802495
 30
0.0
 11
146.8750297508
 21
109.2632802495
 31
0.0
  0
LINE
  5
81
330
1F
100
AcDbEntity
  8
部品
 62
     4
100
AcDbLine
 10
139.7750297508
 20
109.6305153645
 30
0.0
 11
147.1750297508
 21
109.6305153645
 31
0.0
  0
LINE
  5
82
330
1F
100
AcDbEntity
  8
部品
 62
     4
100
AcDbLine
 10
140.0750297508
 20
109.6596782392
 30
0.0
 11
146.8750297508
 21
109.6596782392
 31
0.0
  0
LINE
  5
83
330
1F
100
AcDbEntity
  8
部品
100
AcDbLine
 10
140.0750297508
 20
108.6299747882
 30
0.0
 11
146.8750297508
 21
108.6299747882
 31
0.0
  0
LINE
  5
84
330
1F
100
AcDbEntity
  8
部品
 62
     4
100
AcDbLine
 10
140.0750297508
 20
108.6748431536
 30
0.0
 11
140.0750297508
 21
108.7851762174
 31
0.0
  0
LINE
  5
85
330
1F
100
AcDbEntity
  8
部品
 62
     4
100
AcDbLine
 10
139.7750297508
 20
109.122795962
 30
0.0
 11
140.0750297508
 21
108.7851762174
 31
0.0
  0
LINE
  5
86
330
1F
100
AcDbEntity
  8
部品
 62
     4
100
AcDbLine
 10
139.7750297508
 20
108.9559320649
 30
0.0
 11
140.0750297508
 21
108.6748431536
 31
0.0
  0
LINE
  5
87
330
1F
100
AcDbEntity
  8
部品
 62
     4
100
AcDbLine
 10
140.0750297508
 20
109.6596782392
 30
0.0
 11
139.7750297508
 21
109.8467926119
 31
0.0
  0
LINE
  5
88
330
1F
100
AcDbEntity
  8
部品
 62
     4
100
AcDbLine
 10
139.7750297508
 20
109.6305153645
 30
0.0
 11
140.0750297508
 21
109.2632802495
 31
0.0
  0
LINE
  5
89
330
1F
100
AcDbEntity
  8
部品
 62
     4
100
AcDbLine
 10
140.0750297508
 20
109.0079290729
 30
0.0
 11
139.7750297508
 21
109.2443313658
 31
0.0
  0
LINE
  5
8A
330
1F
100
AcDbEntity
  8
部品
 62
     4
100
AcDbLine
 10
139.7750297508
 20
109.122795962
 30
0.0
 11
139.9292610008
 21
109.122795962
 31
0.0
  0
LINE
  5
8B
330
1F
100
AcDbEntity
  8
部品
 62
     4
100
AcDbLine
 10
140.0750297508
 20
109.0079290729
 30
0.0
 11
140.0750297508
 21
109.2632802495
 31
0.0
  0
LINE
  5
8C
330
1F
100
AcDbEntity
  8
部品
100
AcDbLine
 10
140.0750297508
 20
108.6299747882
 30
0.0
 11
139.7750297508
 21
108.9299747882
 31
0.0
  0
LINE
  5
8D
330
1F
100
AcDbEntity
  8
部品
100
AcDbLine
 10
147.9750297508
 20
108.7799747882
 30
0.0
 11
147.6750297508
 21
109.0799747882
 31
0.0
  0
LINE
  5
8E
330
1F
100
AcDbEntity
  8
部品
 62
     4
100
AcDbLine
 10
146.8750297508
 20
108.6748431536
 30
0.0
 11
146.8750297508
 21
108.7851762174
 31
0.0
  0
LINE
  5
8F
330
1F
100
AcDbEntity
  8
部品
 62
     4
100
AcDbLine
 10
147.1750297508
 20
108.9559320649
 30
0.0
 11
146.8750297508
 21
108.6748431536
 31
0.0
  0
LINE
  5
90
330
1F
100
AcDbEntity
  8
部品
 62
     4
100
AcDbLine
 10
146.8750297508
 20
109.6596782392
 30
0.0
 11
147.1750297508
 21
109.8467926119
 31
0.0
  0
LINE
  5
91
330
1F
100
AcDbEntity
  8
部品
 62
     4
100
AcDbLine
 10
147.1750297508
 20
109.6305153645
 30
0.0
 11
146.8750297508
 21
109.2632802495
 31
0.0
  0
LINE
  5
92
330
1F
100
AcDbEntity
  8
部品
 62
     4
100
AcDbLine
 10
146.8750297508
 20
109.0079290729
 30
0.0
 11
147.1750297508
 21
109.2443313658
 31
0.0
  0
LINE
  5
93
330
1F
100
AcDbEntity
  8
部品
 62
     4
100
AcDbLine
 10
147.1750297508
 20
109.122795962
 30
0.0
 11
146.8750297508
 21
108.7851762174
 31
0.0
  0
LINE
  5
94
330
1F
100
AcDbEntity
  8
部品
 62
     4
100
AcDbLine
 10
147.1750297508
 20
109.122795962
 30
0.0
 11
147.0207985008
 21
109.122795962
 31
0.0
  0
LINE
  5
95
330
1F
100
AcDbEntity
  8
部品
 62
     4
100
AcDbLine
 10
146.8750297508
 20
109.0079290729
 30
0.0
 11
146.8750297508
 21
109.2632802495
 31
0.0
  0
LINE
  5
96
330
1F
100
AcDbEntity
  8
部品
100
AcDbLine
 10
146.8750297508
 20
108.6299747882
 30
0.0
 11
147.1750297508
 21
108.9299747882
 31
0.0
  0
LINE
  5
97
330
1F
100
AcDbEntity
  8
部品
100
AcDbLine
 10
147.1750297508
 20
109.5799750944
 30
0.0
 11
147.6750297508
 21
109.5799750944
 31
0.0
  0
LINE
  5
98
330
1F
100
AcDbEntity
  8
部品
100
AcDbLine
 10
148.4750297508
 20
108.7799747882
 30
0.0
 11
147.9750297508
 21
108.7799747882
 31
0.0
  0
LINE
  5
99
330
1F
100
AcDbEntity
  8
部品
 62
     4
100
AcDbLine
 10
147.1750297508
 20
116.9615930522
 30
0.0
 11
139.7750297508
 21
116.9615930522
 31
0.0
  0
LINE
  5
9A
330
1F
100
AcDbEntity
  8
部品
 62
     4
100
AcDbLine
 10
140.0750297508
 20
117.0543077136
 30
0.0
 11
146.8750297508
 21
117.0543077136
 31
0.0
  0
LINE
  5
9B
330
1F
100
AcDbEntity
  8
部品
 62
     4
100
AcDbLine
 10
146.8750297508
 20
117.9862570144
 30
0.0
 11
140.0750297508
 21
117.9862570144
 31
0.0
  0
LINE
  5
9C
330
1F
100
AcDbEntity
  8
部品
 62
     4
100
AcDbLine
 10
139.7750297508
 20
116.3680597831
 30
0.0
 11
147.1750297508
 21
116.3680597831
 31
0.0
  0
LINE
  5
9D
330
1F
100
AcDbEntity
  8
部品
 62
     4
100
AcDbLine
 10
140.0750297508
 20
112.5122996683
 30
0.0
 11
146.8750297508
 21
112.5122996683
 31
0.0
  0
LINE
  5
9E
330
1F
100
AcDbEntity
  8
部品
 62
     4
100
AcDbLine
 10
139.7750297508
 20
112.9238924255
 30
0.0
 11
147.1750297508
 21
112.9238924255
 31
0.0
  0
LINE
  5
9F
330
1F
100
AcDbEntity
  8
部品
 62
     4
100
AcDbLine
 10
140.0750297508
 20
113.3706349466
 30
0.0
 11
146.8750297508
 21
113.3706349466
 31
0.0
  0
LINE
  5
A0
330
1F
100
AcDbEntity
  8
部品
 62
     4
100
AcDbLine
 10
140.0750297508
 20
114.129897733
 30
0.0
 11
146.8750297508
 21
114.129897733
 31
0.0
  0
LINE
  5
A1
330
1F
100
AcDbEntity
  8
部品
 62
     4
100
AcDbLine
 10
147.1750297508
 20
114.5404869538
 30
0.0
 11
139.7750297508
 21
114.5404869538
 31
0.0
  0
LINE
  5
A2
330
1F
100
AcDbEntity
  8
部品
 62
     4
100
AcDbLine
 10
146.8750297508
 20
115.1125494525
 30
0.0
 11
140.0750297508
 21
115.1125494525
 31
0.0
  0
LINE
  5
A3
330
1F
100
AcDbEntity
  8
部品
 62
     4
100
AcDbLine
 10
139.7750297508
 20
115.076627793
 30
0.0
 11
147.1750297508
 21
115.076627793
 31
0.0
  0
LINE
  5
A4
330
1F
100
AcDbEntity
  8
部品
 62
     4
100
AcDbLine
 10
146.8750297508
 20
115.9664657508
 30
0.0
 11
140.0750297508
 21
115.9664657508
 31
0.0
  0
LINE
  5
A5
330
1F
100
AcDbEntity
  8
部品
 62
     4
100
AcDbLine
 10
140.0750297508
 20
113.3706349466
 30
0.0
 11
140.0750297508
 21
114.129897733
 31
0.0
  0
LINE
  5
A6
330
1F
100
AcDbEntity
  8
部品
100
AcDbLine
 10
139.2350297508
 20
110.7799747882
 30
0.0
 11
139.7750297508
 21
111.4130782365
 31
0.0
  0
LINE
  5
A7
330
1F
100
AcDbEntity
  8
部品
 62
     4
100
AcDbLine
 10
139.7750297508
 20
112.9238924255
 30
0.0
 11
140.0750297508
 21
112.5122996683
 31
0.0
  0
LINE
  5
A8
330
1F
100
AcDbEntity
  8
部品
 62
     4
100
AcDbLine
 10
140.0750297508
 20
113.3706349466
 30
0.0
 11
139.7750297508
 21
113.3922054632
 31
0.0
  0
LINE
  5
A9
330
1F
100
AcDbEntity
  8
中心
100
AcDbLine
 10
143.3003553978
 20
110.8740492748
 30
0.0
 11
141.0655964424
 21
110.8740492748
 31
0.0
  0
LINE
  5
AA
330
1F
100
AcDbEntity
  8
部品
 62
     4
100
AcDbLine
 10
139.7750297508
 20
116.3680597831
 30
0.0
 11
140.0750297508
 21
115.9664657508
 31
0.0
  0
LINE
  5
AB
330
1F
100
AcDbEntity
  8
部品
 62
     4
100
AcDbLine
 10
140.0750297508
 20
115.1125494525
 30
0.0
 11
139.7750297508
 21
115.076627793
 31
0.0
  0
LINE
  5
AC
330
1F
100
AcDbEntity
  8
部品
 62
     4
100
AcDbLine
 10
140.0750297508
 20
114.129897733
 30
0.0
 11
139.7750297508
 21
114.5404869538
 31
0.0
  0
LINE
  5
AD
330
1F
100
AcDbEntity
  8
部品
 62
     4
100
AcDbLine
 10
140.0750297508
 20
115.1125494525
 30
0.0
 11
140.0750297508
 21
115.9664657508
 31
0.0
  0
LINE
  5
AE
330
1F
100
AcDbEntity
  8
部品
 62
     4
100
AcDbLine
 10
140.0750297508
 20
117.0543077136
 30
0.0
 11
140.0750297508
 21
117.9862570144
 31
0.0
  0
LINE
  5
AF
330
1F
100
AcDbEntity
  8
部品
100
AcDbLine
 10
139.7750297508
 20
116.9615930522
 30
0.0
 11
140.0750297508
 21
117.0543077136
 31
0.0
  0
LINE
  5
B0
330
1F
100
AcDbEntity
  8
部品
 62
     4
100
AcDbLine
 10
146.8750297508
 20
113.3706349466
 30
0.0
 11
146.8750297508
 21
114.129897733
 31
0.0
  0
LINE
  5
B1
330
1F
100
AcDbEntity
  8
部品
 62
     4
100
AcDbLine
 10
147.1750297508
 20
112.9238924255
 30
0.0
 11
146.8750297508
 21
112.5122996683
 31
0.0
  0
LINE
  5
B2
330
1F
100
AcDbEntity
  8
部品
 62
     4
100
AcDbLine
 10
146.8750297508
 20
113.3706349466
 30
0.0
 11
147.1750297508
 21
113.3922054632
 31
0.0
  0
LINE
  5
B3
330
1F
100
AcDbEntity
  8
部品
 62
     4
100
AcDbLine
 10
146.8750297508
 20
113.3706349466
 30
0.0
 11
147.1750297508
 21
113.3922054632
 31
0.0
  0
LINE
  5
B4
330
1F
100
AcDbEntity
  8
部品
 62
     4
100
AcDbLine
 10
147.1750297508
 20
116.3680597831
 30
0.0
 11
146.8750297508
 21
115.9664657508
 31
0.0
  0
LINE
  5
B5
330
1F
100
AcDbEntity
  8
部品
 62
     4
100
AcDbLine
 10
146.8750297508
 20
115.1125494525
 30
0.0
 11
146.8750297508
 21
115.9664657508
 31
0.0
  0
LINE
  5
B6
330
1F
100
AcDbEntity
  8
部品
 62
     4
100
AcDbLine
 10
146.8750297508
 20
115.1125494525
 30
0.0
 11
147.1750297508
 21
115.076627793
 31
0.0
  0
LINE
  5
B7
330
1F
100
AcDbEntity
  8
部品
 62
     4
100
AcDbLine
 10
146.8750297508
 20
114.129897733
 30
0.0
 11
147.1750297508
 21
114.5404869538
 31
0.0
  0
LINE
  5
B8
330
1F
100
AcDbEntity
  8
部品
 62
     4
100
AcDbLine
 10
146.8750297508
 20
117.0543077136
 30
0.0
 11
146.8750297508
 21
117.9862570144
 31
0.0
  0
LINE
  5
B9
330
1F
100
AcDbEntity
  8
部品
100
AcDbLine
 10
147.1750297508
 20
116.9615930522
 30
0.0
 11
146.8750297508
 21
117.0543077136
 31
0.0
  0
LINE
  5
BA
330
1F
100
AcDbEntity
  8
部品
 62
     4
100
AcDbLine
 10
168.1750297508
 20
108.6669036196
 30
0.0
 11
159.4750297508
 21
108.6669036197
 31
0.0
  0
LINE
  5
BB
330
1F
100
AcDbEntity
  8
部品
 62
     4
100
AcDbLine
 10
159.1750297508
 20
114.2143934045
 30
0.0
 11
168.4750297508
 21
114.2143934045
 31
0.0
  0
LINE
  5
BC
330
1F
100
AcDbEntity
  8
部品
 62
     4
100
AcDbLine
 10
159.4750297508
 20
111.2054083067
 30
0.0
 11
168.1750297508
 21
111.2054083067
 31
0.0
  0
LINE
  5
BD
330
1F
100
AcDbEntity
  8
部品
 62
     4
100
AcDbLine
 10
168.1750297508
 20
110.5639708386
 30
0.0
 11
159.4750297508
 21
110.5639708386
 31
0.0
  0
LINE
  5
BE
330
1F
100
AcDbEntity
  8
部品
 62
     4
100
AcDbLine
 10
168.1750297508
 20
110.1013236415
 30
0.0
 11
159.4750297508
 21
110.1013236415
 31
0.0
  0
LINE
  5
BF
330
1F
100
AcDbEntity
  8
部品
 62
     4
100
AcDbLine
 10
168.1750297508
 20
108.8010005653
 30
0.0
 11
159.4750297508
 21
108.8010005653
 31
0.0
  0
LINE
  5
C0
330
1F
100
AcDbEntity
  8
部品
 62
     4
100
AcDbLine
 10
168.1750297508
 20
109.6207502318
 30
0.0
 11
159.4750297508
 21
109.6207502318
 31
0.0
  0
LINE
  5
C1
330
1F
100
AcDbEntity
  8
部品
 62
     4
100
AcDbLine
 10
168.1750297508
 20
108.9842650052
 30
0.0
 11
159.4750297508
 21
108.9842650052
 31
0.0
  0
LINE
  5
C2
330
1F
100
AcDbEntity
  8
部品
 62
     4
100
AcDbLine
 10
168.1750297508
 20
109.2946205416
 30
0.0
 11
159.4750297508
 21
109.2946205416
 31
0.0
  0
LINE
  5
C3
330
1F
100
AcDbEntity
  8
部品
 62
     4
100
AcDbLine
 10
168.4750297508
 20
110.000140744
 30
0.0
 11
159.1750297508
 21
110.000140744
 31
0.0
  0
LINE
  5
C4
330
1F
100
AcDbEntity
  8
部品
 62
     4
100
AcDbLine
 10
168.4750297508
 20
110.9620818237
 30
0.0
 11
159.1750297508
 21
110.9620818237
 31
0.0
  0
LINE
  5
C5
330
1F
100
AcDbEntity
  8
部品
 62
     4
100
AcDbLine
 10
168.1750297508
 20
111.7955681093
 30
0.0
 11
159.4750297508
 21
111.7955681093
 31
0.0
  0
LINE
  5
C6
330
1F
100
AcDbEntity
  8
部品
 62
     4
100
AcDbLine
 10
168.4750297508
 20
112.2046507898
 30
0.0
 11
159.1750297508
 21
112.2046507898
 31
0.0
  0
LINE
  5
C7
330
1F
100
AcDbEntity
  8
部品
 62
     4
100
AcDbLine
 10
168.1750297508
 20
112.5853847852
 30
0.0
 11
159.4750297508
 21
112.5853847852
 31
0.0
  0
LINE
  5
C8
330
1F
100
AcDbEntity
  8
部品
 62
     4
100
AcDbLine
 10
168.1750297508
 20
113.291570404
 30
0.0
 11
159.4750297508
 21
113.291570404
 31
0.0
  0
LINE
  5
C9
330
1F
100
AcDbEntity
  8
部品
 62
     4
100
AcDbLine
 10
168.4750297508
 20
113.7036624508
 30
0.0
 11
159.1750297508
 21
113.7036624508
 31
0.0
  0
LINE
  5
CA
330
1F
100
AcDbEntity
  8
部品
 62
     4
100
AcDbLine
 10
168.4750297508
 20
117.9679474682
 30
0.0
 11
159.1750297508
 21
117.9679474682
 31
0.0
  0
LINE
  5
CB
330
1F
100
AcDbEntity
  8
部品
 62
     4
100
AcDbLine
 10
159.1750297508
 20
117.3498841532
 30
0.0
 11
168.4750297508
 21
117.3498841532
 31
0.0
  0
LINE
  5
CC
330
1F
100
AcDbEntity
  8
部品
 62
     4
100
AcDbLine
 10
168.1750297508
 20
116.9557385386
 30
0.0
 11
159.4750297508
 21
116.9557385386
 31
0.0
  0
LINE
  5
CD
330
1F
100
AcDbEntity
  8
部品
 62
     4
100
AcDbLine
 10
159.4750297508
 20
116.0607273647
 30
0.0
 11
168.1750297508
 21
116.0607273647
 31
0.0
  0
LINE
  5
CE
330
1F
100
AcDbEntity
  8
部品
 62
     4
100
AcDbLine
 10
168.4750297508
 20
115.9962521459
 30
0.0
 11
159.1750297508
 21
115.9962521459
 31
0.0
  0
LINE
  5
CF
330
1F
100
AcDbEntity
  8
部品
 62
     4
100
AcDbLine
 10
168.4750297508
 20
115.4299402498
 30
0.0
 11
159.1750297508
 21
115.4299402498
 31
0.0
  0
LINE
  5
D0
330
1F
100
AcDbEntity
  8
部品
 62
     4
100
AcDbLine
 10
159.4750297508
 20
115.0228597396
 30
0.0
 11
168.1750297508
 21
115.0228597396
 31
0.0
  0
LINE
  5
D1
330
1F
100
AcDbEntity
  8
部品
100
AcDbLine
 10
168.1750297508
 20
108.6299747882
 30
0.0
 11
159.4750297508
 21
108.6299747882
 31
0.0
  0
LINE
  5
D2
330
1F
100
AcDbEntity
  8
部品
 62
     4
100
AcDbLine
 10
159.1750297508
 20
110.000140744
 30
0.0
 11
159.4750297508
 21
109.6207502318
 31
0.0
  0
LINE
  5
D3
330
1F
100
AcDbEntity
  8
部品
 62
     4
100
AcDbLine
 10
155.3446452569
 20
110.5713834804
 30
0.0
 11
155.3446452569
 21
107.3670894864
 31
0.0
  0
LINE
  5
D4
330
1F
100
AcDbEntity
  8
部品
 62
     4
100
AcDbLine
 10
155.2771427834
 20
110.7067522971
 30
0.0
 11
155.2771427834
 21
107.5024583031
 31
0.0
  0
LINE
  5
D5
330
1F
100
AcDbEntity
  8
部品
 62
     4
100
AcDbLine
 10
155.1726178434
 20
110.8361064496
 30
0.0
 11
155.1726178434
 21
107.6318124555
 31
0.0
  0
LINE
  5
D6
330
1F
100
AcDbEntity
  8
部品
 62
     4
100
AcDbLine
 10
155.0331048959
 20
110.9569282062
 30
0.0
 11
155.0331048959
 21
107.7526342122
 31
0.0
  0
LINE
  5
D7
330
1F
100
AcDbEntity
  8
部品
 62
     4
100
AcDbLine
 10
154.8613194018
 20
111.0668659091
 30
0.0
 11
154.8613194018
 21
107.8625719151
 31
0.0
  0
LINE
  5
D8
330
1F
100
AcDbEntity
  8
部品
 62
     4
100
AcDbLine
 10
154.6606049702
 20
111.1637797459
 30
0.0
 11
154.6606049702
 21
107.9594857519
 31
0.0
  0
LINE
  5
D9
330
1F
100
AcDbEntity
  8
部品
 62
     4
100
AcDbLine
 10
154.4348682793
 20
111.2457833989
 30
0.0
 11
154.4348682793
 21
108.0414894049
 31
0.0
  0
LINE
  5
DA
330
1F
100
AcDbEntity
  8
部品
 62
     4
100
AcDbLine
 10
154.188503037
 20
111.3112807604
 30
0.0
 11
154.188503037
 21
108.1069867664
 31
0.0
  0
LINE
  5
DB
330
1F
100
AcDbEntity
  8
部品
 62
     4
100
AcDbLine
 10
153.9263044625
 20
111.3589969987
 30
0.0
 11
153.9263044625
 21
108.1547030047
 31
0.0
  0
LINE
  5
DC
330
1F
100
AcDbEntity
  8
部品
 62
     4
100
AcDbLine
 10
153.6533759528
 20
111.3880033715
 30
0.0
 11
153.6533759528
 21
108.1837093775
 31
0.0
  0
LINE
  5
DD
330
1F
100
AcDbEntity
  8
部品
 62
     4
100
AcDbLine
 10
153.3750297508
 20
108.1934413088
 30
0.0
 11
153.3750297508
 21
111.3977353028
 31
0.0
  0
LINE
  5
DE
330
1F
100
AcDbEntity
  8
部品
 62
     4
100
AcDbLine
 10
151.4054142448
 20
110.5713834804
 30
0.0
 11
151.4054142448
 21
107.3670894864
 31
0.0
  0
LINE
  5
DF
330
1F
100
AcDbEntity
  8
部品
 62
     4
100
AcDbLine
 10
151.4729167182
 20
110.7067522971
 30
0.0
 11
151.4729167182
 21
107.5024583031
 31
0.0
  0
LINE
  5
E0
330
1F
100
AcDbEntity
  8
部品
 62
     4
100
AcDbLine
 10
151.5774416582
 20
110.8361064496
 30
0.0
 11
151.5774416582
 21
107.6318124555
 31
0.0
  0
LINE
  5
E1
330
1F
100
AcDbEntity
  8
部品
 62
     4
100
AcDbLine
 10
151.7169546057
 20
110.9569282062
 30
0.0
 11
151.7169546057
 21
107.7526342122
 31
0.0
  0
LINE
  5
E2
330
1F
100
AcDbEntity
  8
部品
 62
     4
100
AcDbLine
 10
151.8887400999
 20
111.0668659091
 30
0.0
 11
151.8887400999
 21
107.8625719151
 31
0.0
  0
LINE
  5
E3
330
1F
100
AcDbEntity
  8
部品
 62
     4
100
AcDbLine
 10
152.0894545315
 20
111.1637797459
 30
0.0
 11
152.0894545315
 21
107.9594857519
 31
0.0
  0
LINE
  5
E4
330
1F
100
AcDbEntity
  8
部品
 62
     4
100
AcDbLine
 10
152.3151912224
 20
111.2457833989
 30
0.0
 11
152.3151912224
 21
108.0414894049
 31
0.0
  0
LINE
  5
E5
330
1F
100
AcDbEntity
  8
部品
 62
     4
100
AcDbLine
 10
152.5615564647
 20
111.3112807604
 30
0.0
 11
152.5615564647
 21
108.1069867664
 31
0.0
  0
LINE
  5
E6
330
1F
100
AcDbEntity
  8
部品
 62
     4
100
AcDbLine
 10
152.8237550392
 20
111.3589969987
 30
0.0
 11
152.8237550392
 21
108.1547030047
 31
0.0
  0
LINE
  5
E7
330
1F
100
AcDbEntity
  8
部品
 62
     4
100
AcDbLine
 10
153.0966835489
 20
111.3880033715
 30
0.0
 11
153.0966835489
 21
108.1837093775
 31
0.0
  0
LINE
  5
E8
330
1F
100
AcDbEntity
  8
部品
100
AcDbLine
 10
151.3750297508
 20
110.3977353028
 30
0.0
 11
151.3750297508
 21
107.1934413088
 31
0.0
  0
LINE
  5
E9
330
1F
100
AcDbEntity
  8
部品
100
AcDbLine
 10
155.3750297508
 20
110.3977353028
 30
0.0
 11
155.3750297508
 21
107.1934413088
 31
0.0
  0
LINE
  5
EA
330
1F
100
AcDbEntity
  8
部品
100
AcDbLine
 10
155.3750297508
 20
108.7799747882
 30
0.0
 11
158.3750297508
 21
108.7799747882
 31
0.0
  0
LINE
  5
EB
330
1F
100
AcDbEntity
  8
部品
 62
     4
100
AcDbLine
 10
159.4750297508
 20
108.6299747882
 30
0.0
 11
159.4750297508
 21
108.6669036197
 31
0.0
  0
LINE
  5
EC
330
1F
100
AcDbEntity
  8
部品
 62
     4
100
AcDbLine
 10
159.4750297508
 20
108.6669036197
 30
0.0
 11
159.1750297508
 21
108.9299747882
 31
0.0
  0
LINE
  5
ED
330
1F
100
AcDbEntity
  8
部品
 62
     4
100
AcDbLine
 10
159.4750297508
 20
108.8010005653
 30
0.0
 11
159.4750297508
 21
108.9842650052
 31
0.0
  0
LINE
  5
EE
330
1F
100
AcDbEntity
  8
部品
 62
     4
100
AcDbLine
 10
159.4750297508
 20
109.2946205416
 30
0.0
 11
159.4750297508
 21
109.6207502318
 31
0.0
  0
LINE
  5
EF
330
1F
100
AcDbEntity
  8
部品
 62
     4
100
AcDbLine
 10
159.4750297508
 20
108.9842650052
 30
0.0
 11
159.1750297508
 21
109.3375506397
 31
0.0
  0
LINE
  5
F0
330
1F
100
AcDbEntity
  8
部品
 62
     4
100
AcDbLine
 10
159.4750297508
 20
108.8010005653
 30
0.0
 11
159.1750297508
 21
109.0603779978
 31
0.0
  0
LINE
  5
F1
330
1F
100
AcDbEntity
  8
部品
 62
     4
100
AcDbLine
 10
159.1750297508
 20
109.5068959667
 30
0.0
 11
159.4750297508
 21
109.2946205416
 31
0.0
  0
LINE
  5
F2
330
1F
100
AcDbEntity
  8
部品
100
AcDbLine
 10
159.4750297508
 20
108.6299747882
 30
0.0
 11
159.1750297508
 21
108.9299747882
 31
0.0
  0
LINE
  5
F3
330
1F
100
AcDbEntity
  8
部品
100
AcDbLine
 10
158.6750297508
 20
108.7799747882
 30
0.0
 11
158.9750297508
 21
109.0799747882
 31
0.0
  0
LINE
  5
F4
330
1F
100
AcDbEntity
  8
部品
100
AcDbLine
 10
158.3750297508
 20
108.7799747882
 30
0.0
 11
158.6750297508
 21
108.7799747882
 31
0.0
  0
LINE
  5
F5
330
1F
100
AcDbEntity
  8
部品
 62
     4
100
AcDbLine
 10
159.4750297508
 20
111.7955681093
 30
0.0
 11
159.1750297508
 21
112.2046507898
 31
0.0
  0
LINE
  5
F6
330
1F
100
AcDbEntity
  8
部品
 62
     4
100
AcDbLine
 10
159.4750297508
 20
111.2054083067
 30
0.0
 11
159.4750297508
 21
111.7955681093
 31
0.0
  0
LINE
  5
F7
330
1F
100
AcDbEntity
  8
部品
 62
     4
100
AcDbLine
 10
159.4750297508
 20
110.1013236415
 30
0.0
 11
159.4750297508
 21
110.5639708386
 31
0.0
  0
LINE
  5
F8
330
1F
100
AcDbEntity
  8
部品
 62
     4
100
AcDbLine
 10
159.4750297508
 20
110.1013236415
 30
0.0
 11
159.1750297508
 21
110.2623653594
 31
0.0
  0
LINE
  5
F9
330
1F
100
AcDbEntity
  8
部品
 62
     4
100
AcDbLine
 10
159.1750297508
 20
110.9620818237
 30
0.0
 11
159.4750297508
 21
110.5639708386
 31
0.0
  0
LINE
  5
FA
330
1F
100
AcDbEntity
  8
部品
 62
     4
100
AcDbLine
 10
159.4750297508
 20
111.2054083067
 30
0.0
 11
159.1750297508
 21
111.3120818237
 31
0.0
  0
LINE
  5
FB
330
1F
100
AcDbEntity
  8
部品
100
AcDbLine
 10
159.1750297508
 20
109.8799747882
 30
0.0
 11
158.9750297508
 21
109.8799747882
 31
0.0
  0
LINE
  5
FC
330
1F
100
AcDbEntity
  8
部品
 62
     4
100
AcDbLine
 10
159.4750297508
 20
112.5853847852
 30
0.0
 11
159.4750297508
 21
113.291570404
 31
0.0
  0
LINE
  5
FD
330
1F
100
AcDbEntity
  8
部品
 62
     4
100
AcDbLine
 10
159.4750297508
 20
113.291570404
 30
0.0
 11
159.1750297508
 21
113.7036624508
 31
0.0
  0
LINE
  5
FE
330
1F
100
AcDbEntity
  8
部品
 62
     4
100
AcDbLine
 10
159.4750297508
 20
112.5853847852
 30
0.0
 11
159.1750297508
 21
112.6356138225
 31
0.0
  0
LINE
  5
FF
330
1F
100
AcDbEntity
  8
部品
 62
     4
100
AcDbLine
 10
159.4750297508
 20
116.0607273647
 30
0.0
 11
159.1750297508
 21
115.9962521459
 31
0.0
  0
LINE
  5
100
330
1F
100
AcDbEntity
  8
部品
 62
     4
100
AcDbLine
 10
159.4750297508
 20
114.2143934045
 30
0.0
 11
159.4750297508
 21
115.0228597396
 31
0.0
  0
LINE
  5
101
330
1F
100
AcDbEntity
  8
部品
 62
     4
100
AcDbLine
 10
159.4750297508
 20
115.0228597396
 30
0.0
 11
159.1750297508
 21
115.4299402498
 31
0.0
  0
LINE
  5
102
330
1F
100
AcDbEntity
  8
部品
 62
     4
100
AcDbLine
 10
159.4750297508
 20
116.0607273647
 30
0.0
 11
159.4750297508
 21
116.9557385386
 31
0.0
  0
LINE
  5
103
330
1F
100
AcDbEntity
  8
部品
 62
     4
100
AcDbLine
 10
159.4750297508
 20
116.9557385386
 30
0.0
 11
159.1750297508
 21
117.3498841532
 31
0.0
  0
LINE
  5
104
330
1F
100
AcDbEntity
  8
部品
 62
     4
100
AcDbLine
 10
168.4750297508
 20
110.000140744
 30
0.0
 11
168.1750297508
 21
109.6207502318
 31
0.0
  0
LINE
  5
105
330
1F
100
AcDbEntity
  8
部品
 62
     4
100
AcDbLine
 10
168.1750297508
 20
108.6299747882
 30
0.0
 11
168.1750297508
 21
108.6669036196
 31
0.0
  0
LINE
  5
106
330
1F
100
AcDbEntity
  8
部品
 62
     4
100
AcDbLine
 10
168.1750297508
 20
108.6669036196
 30
0.0
 11
168.4750297508
 21
108.9299747882
 31
0.0
  0
LINE
  5
107
330
1F
100
AcDbEntity
  8
部品
 62
     4
100
AcDbLine
 10
168.1750297508
 20
108.9842650052
 30
0.0
 11
168.1750297508
 21
108.8010005653
 31
0.0
  0
LINE
  5
108
330
1F
100
AcDbEntity
  8
部品
 62
     4
100
AcDbLine
 10
168.1750297508
 20
109.2946205416
 30
0.0
 11
168.1750297508
 21
109.6207502318
 31
0.0
  0
LINE
  5
109
330
1F
100
AcDbEntity
  8
部品
 62
     4
100
AcDbLine
 10
168.1750297508
 20
108.9842650052
 30
0.0
 11
168.4750297508
 21
109.3375506397
 31
0.0
  0
LINE
  5
10A
330
1F
100
AcDbEntity
  8
部品
 62
     4
100
AcDbLine
 10
168.1750297508
 20
108.8010005653
 30
0.0
 11
168.4750297508
 21
109.0603779978
 31
0.0
  0
LINE
  5
10B
330
1F
100
AcDbEntity
  8
部品
 62
     4
100
AcDbLine
 10
168.4750297508
 20
109.5068959667
 30
0.0
 11
168.1750297508
 21
109.2946205416
 31
0.0
  0
LINE
  5
10C
330
1F
100
AcDbEntity
  8
部品
100
AcDbLine
 10
168.1750297508
 20
108.6299747882
 30
0.0
 11
168.4750297508
 21
108.9299747882
 31
0.0
  0
LINE
  5
10D
330
1F
100
AcDbEntity
  8
部品
 62
     4
100
AcDbLine
 10
168.1750297508
 20
111.7955681093
 30
0.0
 11
168.4750297508
 21
112.2046507898
 31
0.0
  0
LINE
  5
10E
330
1F
100
AcDbEntity
  8
部品
100
AcDbLine
 10
168.6750297508
 20
110.1299747882
 30
0.0
 11
168.4750297508
 21
110.1299747882
 31
0.0
  0
LINE
  5
10F
330
1F
100
AcDbEntity
  8
部品
 62
     4
100
AcDbLine
 10
168.1750297508
 20
111.2054083067
 30
0.0
 11
168.1750297508
 21
111.7955681093
 31
0.0
  0
LINE
  5
110
330
1F
100
AcDbEntity
  8
部品
 62
     4
100
AcDbLine
 10
168.1750297508
 20
110.1013236415
 30
0.0
 11
168.1750297508
 21
110.5639708386
 31
0.0
  0
LINE
  5
111
330
1F
100
AcDbEntity
  8
部品
 62
     4
100
AcDbLine
 10
168.1750297508
 20
110.1013236415
 30
0.0
 11
168.4750297508
 21
110.2623653594
 31
0.0
  0
LINE
  5
112
330
1F
100
AcDbEntity
  8
部品
 62
     4
100
AcDbLine
 10
168.4750297508
 20
110.9620818237
 30
0.0
 11
168.1750297508
 21
110.5639708386
 31
0.0
  0
LINE
  5
113
330
1F
100
AcDbEntity
  8
部品
 62
     4
100
AcDbLine
 10
168.1750297508
 20
111.2054083067
 30
0.0
 11
168.4750297508
 21
111.3120818237
 31
0.0
  0
LINE
  5
114
330
1F
100
AcDbEntity
  8
部品
 62
     4
100
AcDbLine
 10
168.1750297508
 20
112.5853847852
 30
0.0
 11
168.1750297508
 21
113.291570404
 31
0.0
  0
LINE
  5
115
330
1F
100
AcDbEntity
  8
部品
 62
     4
100
AcDbLine
 10
168.1750297508
 20
113.291570404
 30
0.0
 11
168.4750297508
 21
113.7036624508
 31
0.0
  0
LINE
  5
116
330
1F
100
AcDbEntity
  8
部品
 62
     4
100
AcDbLine
 10
168.1750297508
 20
112.5853847852
 30
0.0
 11
168.4750297508
 21
112.6356138225
 31
0.0
  0
LINE
  5
117
330
1F
100
AcDbEntity
  8
部品
 62
     4
100
AcDbLine
 10
168.1750297508
 20
116.0607273647
 30
0.0
 11
168.4750297508
 21
115.9962521459
 31
0.0
  0
LINE
  5
118
330
1F
100
AcDbEntity
  8
部品
 62
     4
100
AcDbLine
 10
168.1750297508
 20
114.2143934045
 30
0.0
 11
168.1750297508
 21
115.0228597396
 31
0.0
  0
LINE
  5
119
330
1F
100
AcDbEntity
  8
部品
 62
     4
100
AcDbLine
 10
168.1750297508
 20
115.0228597396
 30
0.0
 11
168.4750297508
 21
115.4299402498
 31
0.0
  0
LINE
  5
11A
330
1F
100
AcDbEntity
  8
部品
 62
     4
100
AcDbLine
 10
168.1750297508
 20
116.0607273647
 30
0.0
 11
168.1750297508
 21
116.9557385386
 31
0.0
  0
LINE
  5
11B
330
1F
100
AcDbEntity
  8
部品
 62
     4
100
AcDbLine
 10
168.1750297508
 20
116.9557385386
 30
0.0
 11
168.4750297508
 21
117.3498841532
 31
0.0
  0
LINE
  5
11C
330
1F
100
AcDbEntity
  8
部品
100
AcDbLine
 10
173.9750297508
 20
109.3799747882
 30
0.0
 11
174.2750297508
 21
109.6799747882
 31
0.0
  0
LINE
  5
11D
330
1F
100
AcDbEntity
  8
部品
100
AcDbLine
 10
178.2750297508
 20
115.3799747882
 30
0.0
 11
181.0967120576
 21
115.3799747882
 31
0.0
  0
LINE
  5
11E
330
1F
100
AcDbEntity
  8
部品
 62
     6
100
AcDbLine
 10
175.4750297508
 20
113.1799747882
 30
0.0
 11
178.2750297508
 21
113.1799747882
 31
0.0
  0
LINE
  5
11F
330
1F
100
AcDbEntity
  8
部品
100
AcDbLine
 10
175.4750297508
 20
112.6799747882
 30
0.0
 11
177.7750297508
 21
112.6799747882
 31
0.0
  0
LINE
  5
120
330
1F
100
AcDbEntity
  8
部品
100
AcDbLine
 10
174.2750297508
 20
113.1799747882
 30
0.0
 11
175.4750297508
 21
113.1799747882
 31
0.0
  0
LINE
  5
121
330
1F
100
AcDbEntity
  8
部品
100
AcDbLine
 10
177.7750297508
 20
112.6799747882
 30
0.0
 11
178.2750297508
 21
113.1799747882
 31
0.0
  0
LINE
  5
122
330
1F
100
AcDbEntity
  8
部品
100
AcDbLine
 10
181.0967120576
 20
115.3799747882
 30
0.0
 11
181.2967120576
 21
115.5799747882
 31
0.0
  0
LINE
  5
123
330
1F
100
AcDbEntity
  8
中心
100
AcDbLine
 10
191.8010297508
 20
125.3799747882
 30
0.0
 11
126.3477409544
 21
125.3799747882
 31
0.0
  0
LINE
  5
124
330
1F
100
AcDbEntity
  8
部品
100
AcDbLine
 10
168.6750297508
 20
141.3799747882
 30
0.0
 11
173.9750297508
 21
141.3799747882
 31
0.0
  0
LINE
  5
125
330
1F
100
AcDbEntity
  8
部品
100
AcDbLine
 10
148.4750297508
 20
141.9799747882
 30
0.0
 11
158.3750297508
 21
141.9799747882
 31
0.0
  0
LINE
  5
126
330
1F
100
AcDbEntity
  8
部品
100
AcDbLine
 10
128.7750297508
 20
147.6299747882
 30
0.0
 11
128.7750297508
 21
125.3799747882
 31
0.0
  0
LINE
  5
127
330
1F
100
AcDbEntity
  8
部品
 62
     4
100
AcDbLine
 10
147.1750297508
 20
134.3918897934
 30
0.0
 11
146.8750297508
 21
134.7934838256
 31
0.0
  0
LINE
  5
128
330
1F
100
AcDbEntity
  8
部品
 62
     4
100
AcDbLine
 10
139.7750297508
 20
134.3918897934
 30
0.0
 11
140.0750297508
 21
134.7934838256
 31
0.0
  0
LINE
  5
129
330
1F
100
AcDbEntity
  8
部品
100
AcDbLine
 10
147.6750297508
 20
125.3799747882
 30
0.0
 11
147.6750297508
 21
141.6799747882
 31
0.0
  0
LINE
  5
12A
330
1F
100
AcDbEntity
  8
部品
100
AcDbLine
 10
148.4750297508
 20
125.3799747882
 30
0.0
 11
148.4750297508
 21
141.9799747882
 31
0.0
  0
LINE
  5
12B
330
1F
100
AcDbEntity
  8
部品
100
AcDbLine
 10
139.7750297508
 20
141.8299747882
 30
0.0
 11
139.7750297508
 21
125.3799747882
 31
0.0
  0
LINE
  5
12C
330
1F
100
AcDbEntity
  8
部品
100
AcDbLine
 10
147.1750297508
 20
141.8299747882
 30
0.0
 11
147.1750297508
 21
125.3799747882
 31
0.0
  0
LINE
  5
12D
330
1F
100
AcDbEntity
  8
部品
100
AcDbLine
 10
139.2350297508
 20
125.3799747882
 30
0.0
 11
139.2350297508
 21
141.3799747882
 31
0.0
  0
LINE
  5
12E
330
1F
100
AcDbEntity
  8
部品
100
AcDbLine
 10
135.3350297508
 20
147.6299747882
 30
0.0
 11
135.3350297508
 21
125.3799747882
 31
0.0
  0
LINE
  5
12F
330
1F
100
AcDbEntity
  8
部品
100
AcDbLine
 10
137.2350297508
 20
125.3799747882
 30
0.0
 11
137.2350297508
 21
141.3799747882
 31
0.0
  0
LINE
  5
130
330
1F
100
AcDbEntity
  8
部品
 62
     4
100
AcDbLine
 10
146.8750297508
 20
127.074219256
 30
0.0
 11
146.8750297508
 21
125.3799747882
 31
0.0
  0
LINE
  5
131
330
1F
100
AcDbEntity
  8
部品
 62
     4
100
AcDbLine
 10
140.0750297508
 20
127.074219256
 30
0.0
 11
140.0750297508
 21
125.3799747882
 31
0.0
  0
LINE
  5
132
330
1F
100
AcDbEntity
  8
部品
 62
     4
100
AcDbLine
 10
139.7750297508
 20
118.371039287
 30
0.0
 11
147.1750297508
 21
118.371039287
 31
0.0
  0
LINE
  5
133
330
1F
100
AcDbEntity
  8
部品
 62
     4
100
AcDbLine
 10
147.1750297508
 20
119.0104125362
 30
0.0
 11
139.7750297508
 21
119.0104125362
 31
0.0
  0
LINE
  5
134
330
1F
100
AcDbEntity
  8
部品
 62
     4
100
AcDbLine
 10
140.0750297508
 20
119.1581156139
 30
0.0
 11
146.8750297508
 21
119.1581156139
 31
0.0
  0
LINE
  5
135
330
1F
100
AcDbEntity
  8
部品
 62
     4
100
AcDbLine
 10
139.7750297508
 20
120.5104397479
 30
0.0
 11
147.1750297508
 21
120.5104397479
 31
0.0
  0
LINE
  5
136
330
1F
100
AcDbEntity
  8
部品
 62
     4
100
AcDbLine
 10
147.1750297508
 20
121.1832083041
 30
0.0
 11
139.7750297508
 21
121.1832083041
 31
0.0
  0
LINE
  5
137
330
1F
100
AcDbEntity
  8
部品
 62
     4
100
AcDbLine
 10
147.1750297508
 20
122.7446201693
 30
0.0
 11
139.7750297508
 21
122.7446201693
 31
0.0
  0
LINE
  5
138
330
1F
100
AcDbEntity
  8
部品
 62
     4
100
AcDbLine
 10
139.7750297508
 20
123.4376893579
 30
0.0
 11
147.1750297508
 21
123.4376893579
 31
0.0
  0
LINE
  5
139
330
1F
100
AcDbEntity
  8
部品
 62
     4
100
AcDbLine
 10
146.8750297508
 20
123.6857303204
 30
0.0
 11
140.0750297508
 21
123.6857303204
 31
0.0
  0
LINE
  5
13A
330
1F
100
AcDbEntity
  8
部品
 62
     4
100
AcDbLine
 10
146.8750297508
 20
120.1499585842
 30
0.0
 11
140.0750297508
 21
120.1499585842
 31
0.0
  0
LINE
  5
13B
330
1F
100
AcDbEntity
  8
部品
 62
     4
100
AcDbLine
 10
140.0750297508
 20
121.3830249259
 30
0.0
 11
146.8750297508
 21
121.3830249259
 31
0.0
  0
LINE
  5
13C
330
1F
100
AcDbEntity
  8
部品
 62
     4
100
AcDbLine
 10
140.0750297508
 20
122.4154564703
 30
0.0
 11
146.8750297508
 21
122.4154564703
 31
0.0
  0
LINE
  5
13D
330
1F
100
AcDbEntity
  8
部品
 62
     4
100
AcDbLine
 10
140.0750297508
 20
121.3830249259
 30
0.0
 11
140.0750297508
 21
122.4154564703
 31
0.0
  0
LINE
  5
13E
330
1F
100
AcDbEntity
  8
部品
 62
     4
100
AcDbLine
 10
140.0750297508
 20
119.1581156139
 30
0.0
 11
140.0750297508
 21
120.1499585842
 31
0.0
  0
LINE
  5
13F
330
1F
100
AcDbEntity
  8
部品
 62
     4
100
AcDbLine
 10
140.0750297508
 20
119.1581156139
 30
0.0
 11
139.7750297508
 21
119.0104125362
 31
0.0
  0
LINE
  5
140
330
1F
100
AcDbEntity
  8
部品
 62
     4
100
AcDbLine
 10
139.7750297508
 20
121.1832083041
 30
0.0
 11
140.0750297508
 21
121.3830249259
 31
0.0
  0
LINE
  5
141
330
1F
100
AcDbEntity
  8
部品
 62
     4
100
AcDbLine
 10
139.7750297508
 20
120.5104397479
 30
0.0
 11
140.0750297508
 21
120.1499585842
 31
0.0
  0
LINE
  5
142
330
1F
100
AcDbEntity
  8
部品
 62
     4
100
AcDbLine
 10
140.0750297508
 20
123.6857303204
 30
0.0
 11
140.0750297508
 21
125.3799747882
 31
0.0
  0
LINE
  5
143
330
1F
100
AcDbEntity
  8
部品
 62
     4
100
AcDbLine
 10
140.0750297508
 20
122.4154564703
 30
0.0
 11
139.7750297508
 21
122.7446201693
 31
0.0
  0
LINE
  5
144
330
1F
100
AcDbEntity
  8
部品
 62
     4
100
AcDbLine
 10
139.7750297508
 20
123.4376893579
 30
0.0
 11
140.0750297508
 21
123.6857303204
 31
0.0
  0
LINE
  5
145
330
1F
100
AcDbEntity
  8
部品
 62
     4
100
AcDbLine
 10
146.8750297508
 20
121.3830249259
 30
0.0
 11
146.8750297508
 21
122.4154564703
 31
0.0
  0
LINE
  5
146
330
1F
100
AcDbEntity
  8
部品
 62
     4
100
AcDbLine
 10
146.8750297508
 20
119.1581156139
 30
0.0
 11
146.8750297508
 21
120.1499585842
 31
0.0
  0
LINE
  5
147
330
1F
100
AcDbEntity
  8
部品
 62
     4
100
AcDbLine
 10
146.8750297508
 20
119.1581156139
 30
0.0
 11
147.1750297508
 21
119.0104125362
 31
0.0
  0
LINE
  5
148
330
1F
100
AcDbEntity
  8
部品
 62
     4
100
AcDbLine
 10
147.1750297508
 20
121.1832083041
 30
0.0
 11
146.8750297508
 21
121.3830249259
 31
0.0
  0
LINE
  5
149
330
1F
100
AcDbEntity
  8
部品
 62
     4
100
AcDbLine
 10
147.1750297508
 20
120.5104397479
 30
0.0
 11
146.8750297508
 21
120.1499585842
 31
0.0
  0
LINE
  5
14A
330
1F
100
AcDbEntity
  8
部品
 62
     4
100
AcDbLine
 10
146.8750297508
 20
123.6857303204
 30
0.0
 11
146.8750297508
 21
125.3799747882
 31
0.0
  0
LINE
  5
14B
330
1F
100
AcDbEntity
  8
部品
 62
     4
100
AcDbLine
 10
146.8750297508
 20
122.4154564703
 30
0.0
 11
147.1750297508
 21
122.7446201693
 31
0.0
  0
LINE
  5
14C
330
1F
100
AcDbEntity
  8
部品
 62
     4
100
AcDbLine
 10
147.1750297508
 20
123.4376893579
 30
0.0
 11
146.8750297508
 21
123.6857303204
 31
0.0
  0
LINE
  5
14D
330
1F
100
AcDbEntity
  8
部品
 62
     4
100
AcDbLine
 10
147.1750297508
 20
131.7495370403
 30
0.0
 11
139.7750297508
 21
131.7495370403
 31
0.0
  0
LINE
  5
14E
330
1F
100
AcDbEntity
  8
部品
 62
     4
100
AcDbLine
 10
140.0750297508
 20
131.6018339625
 30
0.0
 11
146.8750297508
 21
131.6018339625
 31
0.0
  0
LINE
  5
14F
330
1F
100
AcDbEntity
  8
部品
 62
     4
100
AcDbLine
 10
139.7750297508
 20
130.2495098286
 30
0.0
 11
147.1750297508
 21
130.2495098286
 31
0.0
  0
LINE
  5
150
330
1F
100
AcDbEntity
  8
部品
 62
     4
100
AcDbLine
 10
147.1750297508
 20
129.5767412724
 30
0.0
 11
139.7750297508
 21
129.5767412724
 31
0.0
  0
LINE
  5
151
330
1F
100
AcDbEntity
  8
部品
 62
     4
100
AcDbLine
 10
147.1750297508
 20
128.0153294071
 30
0.0
 11
139.7750297508
 21
128.0153294071
 31
0.0
  0
LINE
  5
152
330
1F
100
AcDbEntity
  8
部品
 62
     4
100
AcDbLine
 10
139.7750297508
 20
127.3222602186
 30
0.0
 11
147.1750297508
 21
127.3222602186
 31
0.0
  0
LINE
  5
153
330
1F
100
AcDbEntity
  8
部品
 62
     4
100
AcDbLine
 10
146.8750297508
 20
127.074219256
 30
0.0
 11
140.0750297508
 21
127.074219256
 31
0.0
  0
LINE
  5
154
330
1F
100
AcDbEntity
  8
部品
 62
     4
100
AcDbLine
 10
146.8750297508
 20
130.6099909923
 30
0.0
 11
140.0750297508
 21
130.6099909923
 31
0.0
  0
LINE
  5
155
330
1F
100
AcDbEntity
  8
部品
 62
     4
100
AcDbLine
 10
140.0750297508
 20
129.3769246506
 30
0.0
 11
146.8750297508
 21
129.3769246506
 31
0.0
  0
LINE
  5
156
330
1F
100
AcDbEntity
  8
部品
 62
     4
100
AcDbLine
 10
140.0750297508
 20
128.3444931061
 30
0.0
 11
146.8750297508
 21
128.3444931061
 31
0.0
  0
LINE
  5
157
330
1F
100
AcDbEntity
  8
部品
 62
     4
100
AcDbLine
 10
147.1750297508
 20
133.7983565242
 30
0.0
 11
139.7750297508
 21
133.7983565242
 31
0.0
  0
LINE
  5
158
330
1F
100
AcDbEntity
  8
部品
 62
     4
100
AcDbLine
 10
140.0750297508
 20
133.7056418629
 30
0.0
 11
146.8750297508
 21
133.7056418629
 31
0.0
  0
LINE
  5
159
330
1F
100
AcDbEntity
  8
部品
 62
     4
100
AcDbLine
 10
146.8750297508
 20
132.7736925621
 30
0.0
 11
140.0750297508
 21
132.7736925621
 31
0.0
  0
LINE
  5
15A
330
1F
100
AcDbEntity
  8
部品
 62
     4
100
AcDbLine
 10
139.7750297508
 20
132.3889102895
 30
0.0
 11
147.1750297508
 21
132.3889102895
 31
0.0
  0
LINE
  5
15B
330
1F
100
AcDbEntity
  8
部品
 62
     4
100
AcDbLine
 10
139.7750297508
 20
134.3918897934
 30
0.0
 11
146.8750297508
 21
134.3918897934
 31
0.0
  0
LINE
  5
15C
330
1F
100
AcDbEntity
  8
部品
 62
     4
100
AcDbLine
 10
139.7750297508
 20
130.2495098286
 30
0.0
 11
140.0750297508
 21
130.6099909923
 31
0.0
  0
LINE
  5
15D
330
1F
100
AcDbEntity
  8
部品
 62
     4
100
AcDbLine
 10
140.0750297508
 20
128.3444931061
 30
0.0
 11
139.7750297508
 21
128.0153294071
 31
0.0
  0
LINE
  5
15E
330
1F
100
AcDbEntity
  8
部品
 62
     4
100
AcDbLine
 10
139.7750297508
 20
127.3222602186
 30
0.0
 11
140.0750297508
 21
127.074219256
 31
0.0
  0
LINE
  5
15F
330
1F
100
AcDbEntity
  8
部品
 62
     4
100
AcDbLine
 10
139.7750297508
 20
129.5767412724
 30
0.0
 11
140.0750297508
 21
129.3769246506
 31
0.0
  0
LINE
  5
160
330
1F
100
AcDbEntity
  8
部品
 62
     4
100
AcDbLine
 10
140.0750297508
 20
129.3769246506
 30
0.0
 11
140.0750297508
 21
128.3444931061
 31
0.0
  0
LINE
  5
161
330
1F
100
AcDbEntity
  8
部品
 62
     4
100
AcDbLine
 10
140.0750297508
 20
132.7736925621
 30
0.0
 11
139.7750297508
 21
132.3889102895
 31
0.0
  0
LINE
  5
162
330
1F
100
AcDbEntity
  8
部品
 62
     4
100
AcDbLine
 10
140.0750297508
 20
131.6018339625
 30
0.0
 11
139.7750297508
 21
131.7495370403
 31
0.0
  0
LINE
  5
163
330
1F
100
AcDbEntity
  8
部品
 62
     4
100
AcDbLine
 10
140.0750297508
 20
131.6018339625
 30
0.0
 11
140.0750297508
 21
130.6099909923
 31
0.0
  0
LINE
  5
164
330
1F
100
AcDbEntity
  8
部品
 62
     4
100
AcDbLine
 10
139.7750297508
 20
133.7983565242
 30
0.0
 11
140.0750297508
 21
133.7056418629
 31
0.0
  0
LINE
  5
165
330
1F
100
AcDbEntity
  8
部品
 62
     4
100
AcDbLine
 10
140.0750297508
 20
133.7056418629
 30
0.0
 11
140.0750297508
 21
132.7736925621
 31
0.0
  0
LINE
  5
166
330
1F
100
AcDbEntity
  8
部品
 62
     4
100
AcDbLine
 10
147.1750297508
 20
130.2495098286
 30
0.0
 11
146.8750297508
 21
130.6099909923
 31
0.0
  0
LINE
  5
167
330
1F
100
AcDbEntity
  8
部品
 62
     4
100
AcDbLine
 10
146.8750297508
 20
128.3444931061
 30
0.0
 11
147.1750297508
 21
128.0153294071
 31
0.0
  0
LINE
  5
168
330
1F
100
AcDbEntity
  8
部品
 62
     4
100
AcDbLine
 10
147.1750297508
 20
127.3222602186
 30
0.0
 11
146.8750297508
 21
127.074219256
 31
0.0
  0
LINE
  5
169
330
1F
100
AcDbEntity
  8
部品
 62
     4
100
AcDbLine
 10
147.1750297508
 20
129.5767412724
 30
0.0
 11
146.8750297508
 21
129.3769246506
 31
0.0
  0
LINE
  5
16A
330
1F
100
AcDbEntity
  8
部品
 62
     4
100
AcDbLine
 10
146.8750297508
 20
129.3769246506
 30
0.0
 11
146.8750297508
 21
128.3444931061
 31
0.0
  0
LINE
  5
16B
330
1F
100
AcDbEntity
  8
部品
 62
     4
100
AcDbLine
 10
146.8750297508
 20
132.7736925621
 30
0.0
 11
147.1750297508
 21
132.3889102895
 31
0.0
  0
LINE
  5
16C
330
1F
100
AcDbEntity
  8
部品
 62
     4
100
AcDbLine
 10
146.8750297508
 20
131.6018339625
 30
0.0
 11
147.1750297508
 21
131.7495370403
 31
0.0
  0
LINE
  5
16D
330
1F
100
AcDbEntity
  8
部品
 62
     4
100
AcDbLine
 10
146.8750297508
 20
131.6018339625
 30
0.0
 11
146.8750297508
 21
130.6099909923
 31
0.0
  0
LINE
  5
16E
330
1F
100
AcDbEntity
  8
部品
 62
     4
100
AcDbLine
 10
147.1750297508
 20
133.7983565242
 30
0.0
 11
146.8750297508
 21
133.7056418629
 31
0.0
  0
LINE
  5
16F
330
1F
100
AcDbEntity
  8
部品
 62
     4
100
AcDbLine
 10
146.8750297508
 20
133.7056418629
 30
0.0
 11
146.8750297508
 21
132.7736925621
 31
0.0
  0
LINE
  5
170
330
1F
100
AcDbEntity
  8
部品
100
AcDbLine
 10
137.2350297508
 20
141.3799747882
 30
0.0
 11
139.2350297508
 21
141.3799747882
 31
0.0
  0
LINE
  5
171
330
1F
100
AcDbEntity
  8
部品
100
AcDbLine
 10
135.3350297508
 20
147.6299747882
 30
0.0
 11
137.2350297508
 21
141.3799747882
 31
0.0
  0
LINE
  5
172
330
1F
100
AcDbEntity
  8
部品
100
AcDbLine
 10
128.7750297508
 20
147.6299747882
 30
0.0
 11
135.3350297508
 21
147.6299747882
 31
0.0
  0
LINE
  5
173
330
1F
100
AcDbEntity
  8
部品
 62
     6
100
AcDbLine
 10
128.7750297508
 20
146.8799747882
 30
0.0
 11
131.904405061
 21
146.8799747882
 31
0.0
  0
LINE
  5
174
330
1F
100
AcDbEntity
  8
部品
 62
     5
100
AcDbLine
 10
128.7750297508
 20
146.8799747882
 30
0.0
 11
129.0750297508
 21
146.5799747882
 31
0.0
  0
LINE
  5
175
330
1F
100
AcDbEntity
  8
部品
 62
     5
100
AcDbLine
 10
129.0750297508
 20
146.5799747882
 30
0.0
 11
129.0750297508
 21
144.6989270583
 31
0.0
  0
LINE
  5
176
330
1F
100
AcDbEntity
  8
部品
 62
     5
100
AcDbLine
 10
129.0750297508
 20
146.5799747882
 30
0.0
 11
131.4822988979
 21
146.5799747882
 31
0.0
  0
LINE
  5
177
330
1F
100
AcDbEntity
  8
部品
 62
     4
100
AcDbLine
 10
140.0750297508
 20
137.3893146299
 30
0.0
 11
146.8750297508
 21
137.3893146299
 31
0.0
  0
LINE
  5
178
330
1F
100
AcDbEntity
  8
部品
 62
     4
100
AcDbLine
 10
140.0750297508
 20
136.6300518435
 30
0.0
 11
146.8750297508
 21
136.6300518435
 31
0.0
  0
LINE
  5
179
330
1F
100
AcDbEntity
  8
部品
 62
     4
100
AcDbLine
 10
147.1750297508
 20
136.2194626227
 30
0.0
 11
139.7750297508
 21
136.2194626227
 31
0.0
  0
LINE
  5
17A
330
1F
100
AcDbEntity
  8
部品
 62
     4
100
AcDbLine
 10
146.8750297508
 20
135.647400124
 30
0.0
 11
140.0750297508
 21
135.647400124
 31
0.0
  0
LINE
  5
17B
330
1F
100
AcDbEntity
  8
部品
 62
     4
100
AcDbLine
 10
139.7750297508
 20
135.6833217834
 30
0.0
 11
147.1750297508
 21
135.6833217834
 31
0.0
  0
LINE
  5
17C
330
1F
100
AcDbEntity
  8
部品
 62
     4
100
AcDbLine
 10
146.5750297508
 20
134.7934838256
 30
0.0
 11
140.0750297508
 21
134.7934838256
 31
0.0
  0
LINE
  5
17D
330
1F
100
AcDbEntity
  8
部品
 62
     4
100
AcDbLine
 10
140.0750297508
 20
142.0851064229
 30
0.0
 11
146.8750297508
 21
142.0851064229
 31
0.0
  0
LINE
  5
17E
330
1F
100
AcDbEntity
  8
部品
 62
     4
100
AcDbLine
 10
140.0750297508
 20
141.9747733591
 30
0.0
 11
146.8750297508
 21
141.9747733591
 31
0.0
  0
LINE
  5
17F
330
1F
100
AcDbEntity
  8
部品
 62
     4
100
AcDbLine
 10
140.0750297508
 20
141.7520205035
 30
0.0
 11
146.8750297508
 21
141.7520205035
 31
0.0
  0
LINE
  5
180
330
1F
100
AcDbEntity
  8
部品
 62
     4
100
AcDbLine
 10
140.0750297508
 20
141.4966693269
 30
0.0
 11
146.8750297508
 21
141.4966693269
 31
0.0
  0
LINE
  5
181
330
1F
100
AcDbEntity
  8
部品
 62
     4
100
AcDbLine
 10
139.7750297508
 20
141.1294342119
 30
0.0
 11
147.1750297508
 21
141.1294342119
 31
0.0
  0
LINE
  5
182
330
1F
100
AcDbEntity
  8
部品
 62
     4
100
AcDbLine
 10
140.0750297508
 20
141.1002713372
 30
0.0
 11
146.8750297508
 21
141.1002713372
 31
0.0
  0
LINE
  5
183
330
1F
100
AcDbEntity
  8
部品
 62
     4
100
AcDbLine
 10
140.0750297508
 20
138.2476499082
 30
0.0
 11
146.8750297508
 21
138.2476499082
 31
0.0
  0
LINE
  5
184
330
1F
100
AcDbEntity
  8
部品
 62
     4
100
AcDbLine
 10
139.7750297508
 20
137.8360571509
 30
0.0
 11
147.1750297508
 21
137.8360571509
 31
0.0
  0
LINE
  5
185
330
1F
100
AcDbEntity
  8
部品
100
AcDbLine
 10
140.0750297508
 20
142.1299747882
 30
0.0
 11
146.8750297508
 21
142.1299747882
 31
0.0
  0
LINE
  5
186
330
1F
100
AcDbEntity
  8
部品
 62
     4
100
AcDbLine
 10
140.0750297508
 20
141.1002713372
 30
0.0
 11
140.0750297508
 21
138.2476499082
 31
0.0
  0
LINE
  5
187
330
1F
100
AcDbEntity
  8
部品
 62
     4
100
AcDbLine
 10
140.0750297508
 20
136.6300518435
 30
0.0
 11
139.7750297508
 21
136.2194626227
 31
0.0
  0
LINE
  5
188
330
1F
100
AcDbEntity
  8
部品
 62
     4
100
AcDbLine
 10
140.0750297508
 20
135.647400124
 30
0.0
 11
139.7750297508
 21
135.6833217834
 31
0.0
  0
LINE
  5
189
330
1F
100
AcDbEntity
  8
部品
 62
     4
100
AcDbLine
 10
140.0750297508
 20
135.647400124
 30
0.0
 11
140.0750297508
 21
134.7934838256
 31
0.0
  0
LINE
  5
18A
330
1F
100
AcDbEntity
  8
部品
 62
     4
100
AcDbLine
 10
140.0750297508
 20
137.3893146299
 30
0.0
 11
139.7750297508
 21
137.3677441133
 31
0.0
  0
LINE
  5
18B
330
1F
100
AcDbEntity
  8
部品
 62
     4
100
AcDbLine
 10
140.0750297508
 20
137.3893146299
 30
0.0
 11
140.0750297508
 21
136.6300518435
 31
0.0
  0
LINE
  5
18C
330
1F
100
AcDbEntity
  8
部品
 62
     4
100
AcDbLine
 10
139.7750297508
 20
137.8360571509
 30
0.0
 11
140.0750297508
 21
138.2476499082
 31
0.0
  0
LINE
  5
18D
330
1F
100
AcDbEntity
  8
部品
100
AcDbLine
 10
139.7750297508
 20
139.9799747882
 30
0.0
 11
139.7750297508
 21
141.8299747882
 31
0.0
  0
LINE
  5
18E
330
1F
100
AcDbEntity
  8
部品
100
AcDbLine
 10
139.2350297508
 20
139.9799747882
 30
0.0
 11
139.7750297508
 21
139.34687134
 31
0.0
  0
LINE
  5
18F
330
1F
100
AcDbEntity
  8
部品
 62
     4
100
AcDbLine
 10
140.0750297508
 20
142.0851064229
 30
0.0
 11
140.0750297508
 21
141.9747733591
 31
0.0
  0
LINE
  5
190
330
1F
100
AcDbEntity
  8
部品
 62
     4
100
AcDbLine
 10
139.7750297508
 20
141.8040175116
 30
0.0
 11
140.0750297508
 21
142.0851064229
 31
0.0
  0
LINE
  5
191
330
1F
100
AcDbEntity
  8
部品
 62
     4
100
AcDbLine
 10
140.0750297508
 20
141.1002713372
 30
0.0
 11
139.7750297508
 21
140.9131569645
 31
0.0
  0
LINE
  5
192
330
1F
100
AcDbEntity
  8
部品
 62
     4
100
AcDbLine
 10
139.7750297508
 20
141.1294342119
 30
0.0
 11
140.0750297508
 21
141.4966693269
 31
0.0
  0
LINE
  5
193
330
1F
100
AcDbEntity
  8
部品
 62
     4
100
AcDbLine
 10
140.0750297508
 20
141.7520205035
 30
0.0
 11
139.7750297508
 21
141.5156182106
 31
0.0
  0
LINE
  5
194
330
1F
100
AcDbEntity
  8
部品
 62
     4
100
AcDbLine
 10
139.7750297508
 20
141.6371536144
 30
0.0
 11
140.0750297508
 21
141.9747733591
 31
0.0
  0
LINE
  5
195
330
1F
100
AcDbEntity
  8
部品
 62
     4
100
AcDbLine
 10
139.7750297508
 20
141.6371536144
 30
0.0
 11
139.9292610008
 21
141.6371536144
 31
0.0
  0
LINE
  5
196
330
1F
100
AcDbEntity
  8
部品
 62
     4
100
AcDbLine
 10
140.0750297508
 20
141.7520205035
 30
0.0
 11
140.0750297508
 21
141.4966693269
 31
0.0
  0
LINE
  5
197
330
1F
100
AcDbEntity
  8
部品
100
AcDbLine
 10
140.0750297508
 20
142.1299747882
 30
0.0
 11
139.7750297508
 21
141.8299747882
 31
0.0
  0
LINE
  5
198
330
1F
100
AcDbEntity
  8
中心
100
AcDbLine
 10
142.1750297508
 20
140.9131572707
 30
0.0
 11
142.1750297508
 21
138.8385789373
 31
0.0
  0
LINE
  5
199
330
1F
100
AcDbEntity
  8
中心
100
AcDbLine
 10
143.3003553978
 20
139.8859006078
 30
0.0
 11
141.0655964424
 21
139.8859006078
 31
0.0
  0
LINE
  5
19A
330
1F
100
AcDbEntity
  8
部品
 62
     4
100
AcDbLine
 10
146.8750297508
 20
141.1002713372
 30
0.0
 11
146.8750297508
 21
138.2476499082
 31
0.0
  0
LINE
  5
19B
330
1F
100
AcDbEntity
  8
部品
 62
     4
100
AcDbLine
 10
146.8750297508
 20
136.6300518435
 30
0.0
 11
147.1750297508
 21
136.2194626227
 31
0.0
  0
LINE
  5
19C
330
1F
100
AcDbEntity
  8
部品
 62
     4
100
AcDbLine
 10
146.8750297508
 20
135.647400124
 30
0.0
 11
146.8750297508
 21
134.7934838256
 31
0.0
  0
LINE
  5
19D
330
1F
100
AcDbEntity
  8
部品
 62
     4
100
AcDbLine
 10
146.8750297508
 20
135.647400124
 30
0.0
 11
147.1750297508
 21
135.6833217834
 31
0.0
  0
LINE
  5
19E
330
1F
100
AcDbEntity
  8
部品
 62
     4
100
AcDbLine
 10
146.8750297508
 20
137.3893146299
 30
0.0
 11
146.8750297508
 21
136.6300518435
 31
0.0
  0
LINE
  5
19F
330
1F
100
AcDbEntity
  8
部品
 62
     4
100
AcDbLine
 10
146.8750297508
 20
137.3893146299
 30
0.0
 11
147.1750297508
 21
137.3677441133
 31
0.0
  0
LINE
  5
1A0
330
1F
100
AcDbEntity
  8
部品
 62
     4
100
AcDbLine
 10
146.8750297508
 20
137.3893146299
 30
0.0
 11
147.1750297508
 21
137.3677441133
 31
0.0
  0
LINE
  5
1A1
330
1F
100
AcDbEntity
  8
部品
 62
     4
100
AcDbLine
 10
147.1750297508
 20
137.8360571509
 30
0.0
 11
146.8750297508
 21
138.2476499082
 31
0.0
  0
LINE
  5
1A2
330
1F
100
AcDbEntity
  8
部品
100
AcDbLine
 10
147.9750297508
 20
141.9799747882
 30
0.0
 11
147.6750297508
 21
141.6799747882
 31
0.0
  0
LINE
  5
1A3
330
1F
100
AcDbEntity
  8
部品
 62
     4
100
AcDbLine
 10
146.8750297508
 20
142.0851064229
 30
0.0
 11
146.8750297508
 21
141.9747733591
 31
0.0
  0
LINE
  5
1A4
330
1F
100
AcDbEntity
  8
部品
 62
     4
100
AcDbLine
 10
147.1750297508
 20
141.8040175116
 30
0.0
 11
146.8750297508
 21
142.0851064229
 31
0.0
  0
LINE
  5
1A5
330
1F
100
AcDbEntity
  8
部品
 62
     4
100
AcDbLine
 10
146.8750297508
 20
141.1002713372
 30
0.0
 11
147.1750297508
 21
140.9131569645
 31
0.0
  0
LINE
  5
1A6
330
1F
100
AcDbEntity
  8
部品
 62
     4
100
AcDbLine
 10
147.1750297508
 20
141.1294342119
 30
0.0
 11
146.8750297508
 21
141.4966693269
 31
0.0
  0
LINE
  5
1A7
330
1F
100
AcDbEntity
  8
部品
 62
     4
100
AcDbLine
 10
146.8750297508
 20
141.7520205035
 30
0.0
 11
147.1750297508
 21
141.5156182106
 31
0.0
  0
LINE
  5
1A8
330
1F
100
AcDbEntity
  8
部品
 62
     4
100
AcDbLine
 10
147.1750297508
 20
141.6371536144
 30
0.0
 11
146.8750297508
 21
141.9747733591
 31
0.0
  0
LINE
  5
1A9
330
1F
100
AcDbEntity
  8
部品
 62
     4
100
AcDbLine
 10
147.1750297508
 20
141.6371536144
 30
0.0
 11
147.0207985008
 21
141.6371536144
 31
0.0
  0
LINE
  5
1AA
330
1F
100
AcDbEntity
  8
部品
 62
     4
100
AcDbLine
 10
146.8750297508
 20
141.7520205035
 30
0.0
 11
146.8750297508
 21
141.4966693269
 31
0.0
  0
LINE
  5
1AB
330
1F
100
AcDbEntity
  8
部品
100
AcDbLine
 10
146.8750297508
 20
142.1299747882
 30
0.0
 11
147.1750297508
 21
141.8299747882
 31
0.0
  0
LINE
  5
1AC
330
1F
100
AcDbEntity
  8
部品
100
AcDbLine
 10
147.1750297508
 20
141.1799747882
 30
0.0
 11
147.6750297508
 21
141.1799747882
 31
0.0
  0
LINE
  5
1AD
330
1F
100
AcDbEntity
  8
部品
100
AcDbLine
 10
148.4750297508
 20
141.9799747882
 30
0.0
 11
147.9750297508
 21
141.9799747882
 31
0.0
  0
LINE
  5
1AE
330
1F
100
AcDbEntity
  8
部品
 62
     4
100
AcDbLine
 10
168.1750297508
 20
134.6992222118
 30
0.0
 11
168.1750297508
 21
133.8042110378
 31
0.0
  0
LINE
  5
1AF
330
1F
100
AcDbEntity
  8
部品
 62
     4
100
AcDbLine
 10
159.4750297508
 20
134.6992222118
 30
0.0
 11
159.4750297508
 21
133.8042110378
 31
0.0
  0
LINE
  5
1B0
330
1F
100
AcDbEntity
  8
部品
100
AcDbLine
 10
168.6750297508
 20
125.3799747882
 30
0.0
 11
168.6750297508
 21
141.3799747882
 31
0.0
  0
LINE
  5
1B1
330
1F
100
AcDbEntity
  8
部品
100
AcDbLine
 10
168.4750297508
 20
125.3799747882
 30
0.0
 11
168.4750297508
 21
141.8299747882
 31
0.0
  0
LINE
  5
1B2
330
1F
100
AcDbEntity
  8
部品
100
AcDbLine
 10
158.9750297508
 20
125.3799747882
 30
0.0
 11
158.9750297508
 21
141.6799747882
 31
0.0
  0
LINE
  5
1B3
330
1F
100
AcDbEntity
  8
部品
100
AcDbLine
 10
158.3750297508
 20
125.3799747882
 30
0.0
 11
158.3750297508
 21
141.9799747882
 31
0.0
  0
LINE
  5
1B4
330
1F
100
AcDbEntity
  8
部品
100
AcDbLine
 10
159.1750297508
 20
141.8299747882
 30
0.0
 11
159.1750297508
 21
125.3799747882
 31
0.0
  0
LINE
  5
1B5
330
1F
100
AcDbEntity
  8
部品
100
AcDbLine
 10
168.4750297508
 20
141.8299747882
 30
0.0
 11
168.4750297508
 21
125.3799747882
 31
0.0
  0
LINE
  5
1B6
330
1F
100
AcDbEntity
  8
部品
 62
     4
100
AcDbLine
 10
159.1750297508
 20
119.4261246367
 30
0.0
 11
168.4750297508
 21
119.4261246367
 31
0.0
  0
LINE
  5
1B7
330
1F
100
AcDbEntity
  8
部品
 62
     4
100
AcDbLine
 10
168.1750297508
 20
119.0525855138
 30
0.0
 11
159.4750297508
 21
119.0525855138
 31
0.0
  0
LINE
  5
1B8
330
1F
100
AcDbEntity
  8
部品
 62
     4
100
AcDbLine
 10
159.4750297508
 20
118.0884498755
 30
0.0
 11
168.1750297508
 21
118.0884498755
 31
0.0
  0
LINE
  5
1B9
330
1F
100
AcDbEntity
  8
部品
 62
     4
100
AcDbLine
 10
159.4750297508
 20
121.272587924
 30
0.0
 11
168.1750297508
 21
121.272587924
 31
0.0
  0
LINE
  5
1BA
330
1F
100
AcDbEntity
  8
部品
 62
     4
100
AcDbLine
 10
168.4750297508
 20
121.6182500409
 30
0.0
 11
159.1750297508
 21
121.6182500409
 31
0.0
  0
LINE
  5
1BB
330
1F
100
AcDbEntity
  8
部品
 62
     4
100
AcDbLine
 10
159.1750297508
 20
120.0839094712
 30
0.0
 11
168.4750297508
 21
120.0839094712
 31
0.0
  0
LINE
  5
1BC
330
1F
100
AcDbEntity
  8
部品
 62
     4
100
AcDbLine
 10
168.1750297508
 20
120.2580936248
 30
0.0
 11
159.4750297508
 21
120.2580936248
 31
0.0
  0
LINE
  5
1BD
330
1F
100
AcDbEntity
  8
部品
 62
     4
100
AcDbLine
 10
168.4750297508
 20
122.3029533614
 30
0.0
 11
159.1750297508
 21
122.3029533614
 31
0.0
  0
LINE
  5
1BE
330
1F
100
AcDbEntity
  8
部品
 62
     4
100
AcDbLine
 10
159.4750297508
 20
122.5274289649
 30
0.0
 11
168.1750297508
 21
122.5274289649
 31
0.0
  0
LINE
  5
1BF
330
1F
100
AcDbEntity
  8
部品
 62
     4
100
AcDbLine
 10
159.1750297508
 20
131.3338249398
 30
0.0
 11
168.4750297508
 21
131.3338249398
 31
0.0
  0
LINE
  5
1C0
330
1F
100
AcDbEntity
  8
部品
 62
     4
100
AcDbLine
 10
168.1750297508
 20
131.7073640626
 30
0.0
 11
159.4750297508
 21
131.7073640626
 31
0.0
  0
LINE
  5
1C1
330
1F
100
AcDbEntity
  8
部品
 62
     4
100
AcDbLine
 10
159.4750297508
 20
132.6714997009
 30
0.0
 11
168.1750297508
 21
132.6714997009
 31
0.0
  0
LINE
  5
1C2
330
1F
100
AcDbEntity
  8
部品
 62
     4
100
AcDbLine
 10
168.4750297508
 20
132.7920021083
 30
0.0
 11
159.1750297508
 21
132.7920021083
 31
0.0
  0
LINE
  5
1C3
330
1F
100
AcDbEntity
  8
部品
 62
     4
100
AcDbLine
 10
159.1750297508
 20
133.4100654233
 30
0.0
 11
168.4750297508
 21
133.4100654233
 31
0.0
  0
LINE
  5
1C4
330
1F
100
AcDbEntity
  8
部品
 62
     4
100
AcDbLine
 10
168.1750297508
 20
133.8042110378
 30
0.0
 11
159.4750297508
 21
133.8042110378
 31
0.0
  0
LINE
  5
1C5
330
1F
100
AcDbEntity
  8
部品
 62
     4
100
AcDbLine
 10
159.4750297508
 20
129.4873616525
 30
0.0
 11
168.1750297508
 21
129.4873616525
 31
0.0
  0
LINE
  5
1C6
330
1F
100
AcDbEntity
  8
部品
 62
     4
100
AcDbLine
 10
168.4750297508
 20
129.1416995355
 30
0.0
 11
159.1750297508
 21
129.1416995355
 31
0.0
  0
LINE
  5
1C7
330
1F
100
AcDbEntity
  8
部品
 62
     4
100
AcDbLine
 10
159.1750297508
 20
130.6760401053
 30
0.0
 11
168.4750297508
 21
130.6760401053
 31
0.0
  0
LINE
  5
1C8
330
1F
100
AcDbEntity
  8
部品
 62
     4
100
AcDbLine
 10
168.1750297508
 20
130.5018559517
 30
0.0
 11
159.4750297508
 21
130.5018559517
 31
0.0
  0
LINE
  5
1C9
330
1F
100
AcDbEntity
  8
部品
 62
     4
100
AcDbLine
 10
168.4750297508
 20
128.456996215
 30
0.0
 11
159.1750297508
 21
128.456996215
 31
0.0
  0
LINE
  5
1CA
330
1F
100
AcDbEntity
  8
部品
 62
     4
100
AcDbLine
 10
159.4750297508
 20
128.2325206116
 30
0.0
 11
168.1750297508
 21
128.2325206116
 31
0.0
  0
LINE
  5
1CB
330
1F
100
AcDbEntity
  8
部品
 62
     4
100
AcDbLine
 10
159.4750297508
 20
128.2325206116
 30
0.0
 11
159.4750297508
 21
125.3799747882
 31
0.0
  0
LINE
  5
1CC
330
1F
100
AcDbEntity
  8
部品
 62
     4
100
AcDbLine
 10
159.4750297508
 20
120.2580936248
 30
0.0
 11
159.1750297508
 21
120.0839094712
 31
0.0
  0
LINE
  5
1CD
330
1F
100
AcDbEntity
  8
部品
 62
     4
100
AcDbLine
 10
159.4750297508
 20
118.0884498755
 30
0.0
 11
159.4750297508
 21
119.0525855138
 31
0.0
  0
LINE
  5
1CE
330
1F
100
AcDbEntity
  8
部品
 62
     4
100
AcDbLine
 10
159.1750297508
 20
119.4261246367
 30
0.0
 11
159.4750297508
 21
119.0525855138
 31
0.0
  0
LINE
  5
1CF
330
1F
100
AcDbEntity
  8
部品
 62
     4
100
AcDbLine
 10
159.4750297508
 20
120.2580936248
 30
0.0
 11
159.4750297508
 21
121.272587924
 31
0.0
  0
LINE
  5
1D0
330
1F
100
AcDbEntity
  8
部品
 62
     4
100
AcDbLine
 10
159.1750297508
 20
121.6182500409
 30
0.0
 11
159.4750297508
 21
121.272587924
 31
0.0
  0
LINE
  5
1D1
330
1F
100
AcDbEntity
  8
部品
 62
     4
100
AcDbLine
 10
159.4750297508
 20
122.5274289649
 30
0.0
 11
159.4750297508
 21
125.3799747882
 31
0.0
  0
LINE
  5
1D2
330
1F
100
AcDbEntity
  8
部品
 62
     4
100
AcDbLine
 10
159.4750297508
 20
122.5274289649
 30
0.0
 11
159.1750297508
 21
122.3029533614
 31
0.0
  0
LINE
  5
1D3
330
1F
100
AcDbEntity
  8
部品
100
AcDbLine
 10
150.8250297508
 20
129.0749747882
 30
0.0
 11
149.6250297508
 21
129.0749747882
 31
0.0
  0
LINE
  5
1D4
330
1F
100
AcDbEntity
  8
部品
100
AcDbLine
 10
150.8250297508
 20
128.3249747882
 30
0.0
 11
149.6250297508
 21
128.3249747882
 31
0.0
  0
LINE
  5
1D5
330
1F
100
AcDbEntity
  8
部品
100
AcDbLine
 10
149.4750297508
 20
128.4749747882
 30
0.0
 11
149.4750297508
 21
128.9249747882
 31
0.0
  0
LINE
  5
1D6
330
1F
100
AcDbEntity
  8
部品
100
AcDbLine
 10
150.9750297508
 20
128.9249747882
 30
0.0
 11
150.9750297508
 21
128.4749747882
 31
0.0
  0
LINE
  5
1D7
330
1F
100
AcDbEntity
  8
部品
100
AcDbLine
 10
150.8250297508
 20
131.9549747882
 30
0.0
 11
149.6250297508
 21
131.9549747882
 31
0.0
  0
LINE
  5
1D8
330
1F
100
AcDbEntity
  8
部品
100
AcDbLine
 10
150.8250297508
 20
131.2049747882
 30
0.0
 11
149.6250297508
 21
131.2049747882
 31
0.0
  0
LINE
  5
1D9
330
1F
100
AcDbEntity
  8
部品
100
AcDbLine
 10
149.4750297508
 20
131.3549747882
 30
0.0
 11
149.4750297508
 21
131.8049747882
 31
0.0
  0
LINE
  5
1DA
330
1F
100
AcDbEntity
  8
部品
100
AcDbLine
 10
150.9750297508
 20
131.8049747882
 30
0.0
 11
150.9750297508
 21
131.3549747882
 31
0.0
  0
LINE
  5
1DB
330
1F
100
AcDbEntity
  8
部品
 62
     4
100
AcDbLine
 10
159.4750297508
 20
130.5018559517
 30
0.0
 11
159.4750297508
 21
129.4873616525
 31
0.0
  0
LINE
  5
1DC
330
1F
100
AcDbEntity
  8
部品
 62
     4
100
AcDbLine
 10
159.4750297508
 20
128.2325206116
 30
0.0
 11
159.1750297508
 21
128.456996215
 31
0.0
  0
LINE
  5
1DD
330
1F
100
AcDbEntity
  8
部品
 62
     4
100
AcDbLine
 10
159.1750297508
 20
129.1416995355
 30
0.0
 11
159.4750297508
 21
129.4873616525
 31
0.0
  0
LINE
  5
1DE
330
1F
100
AcDbEntity
  8
部品
 62
     4
100
AcDbLine
 10
159.4750297508
 20
132.6714997009
 30
0.0
 11
159.4750297508
 21
131.7073640626
 31
0.0
  0
LINE
  5
1DF
330
1F
100
AcDbEntity
  8
部品
 62
     4
100
AcDbLine
 10
159.1750297508
 20
131.3338249398
 30
0.0
 11
159.4750297508
 21
131.7073640626
 31
0.0
  0
LINE
  5
1E0
330
1F
100
AcDbEntity
  8
部品
 62
     4
100
AcDbLine
 10
159.4750297508
 20
130.5018559517
 30
0.0
 11
159.1750297508
 21
130.6760401053
 31
0.0
  0
LINE
  5
1E1
330
1F
100
AcDbEntity
  8
部品
 62
     4
100
AcDbLine
 10
159.4750297508
 20
132.6714997009
 30
0.0
 11
159.1750297508
 21
132.7920021083
 31
0.0
  0
LINE
  5
1E2
330
1F
100
AcDbEntity
  8
部品
 62
     4
100
AcDbLine
 10
159.4750297508
 20
133.8042110378
 30
0.0
 11
159.1750297508
 21
133.4100654233
 31
0.0
  0
LINE
  5
1E3
330
1F
100
AcDbEntity
  8
中心
100
AcDbLine
 10
166.2750297508
 20
127.6240465623
 30
0.0
 11
166.2750297508
 21
123.1359030141
 31
0.0
  0
LINE
  5
1E4
330
1F
100
AcDbEntity
  8
部品
 62
     4
100
AcDbLine
 10
168.1750297508
 20
128.2325206116
 30
0.0
 11
168.1750297508
 21
126.0044745881
 31
0.0
  0
LINE
  5
1E5
330
1F
100
AcDbEntity
  8
部品
 62
     4
100
AcDbLine
 10
168.1750297508
 20
120.2580936248
 30
0.0
 11
168.4750297508
 21
120.0839094712
 31
0.0
  0
LINE
  5
1E6
330
1F
100
AcDbEntity
  8
部品
 62
     4
100
AcDbLine
 10
168.1750297508
 20
118.0884498755
 30
0.0
 11
168.1750297508
 21
119.0525855138
 31
0.0
  0
LINE
  5
1E7
330
1F
100
AcDbEntity
  8
部品
 62
     4
100
AcDbLine
 10
168.4750297508
 20
119.4261246367
 30
0.0
 11
168.1750297508
 21
119.0525855138
 31
0.0
  0
LINE
  5
1E8
330
1F
100
AcDbEntity
  8
部品
 62
     4
100
AcDbLine
 10
168.1750297508
 20
120.2580936248
 30
0.0
 11
168.1750297508
 21
121.272587924
 31
0.0
  0
LINE
  5
1E9
330
1F
100
AcDbEntity
  8
部品
 62
     4
100
AcDbLine
 10
168.4750297508
 20
121.6182500409
 30
0.0
 11
168.1750297508
 21
121.272587924
 31
0.0
  0
LINE
  5
1EA
330
1F
100
AcDbEntity
  8
部品
 62
     4
100
AcDbLine
 10
168.1750297508
 20
122.5274289649
 30
0.0
 11
168.1750297508
 21
124.7554749884
 31
0.0
  0
LINE
  5
1EB
330
1F
100
AcDbEntity
  8
部品
 62
     4
100
AcDbLine
 10
168.1750297508
 20
122.5274289649
 30
0.0
 11
168.4750297508
 21
122.3029533614
 31
0.0
  0
LINE
  5
1EC
330
1F
100
AcDbEntity
  8
部品
 62
     4
100
AcDbLine
 10
168.1750297508
 20
130.5018559517
 30
0.0
 11
168.1750297508
 21
129.4873616525
 31
0.0
  0
LINE
  5
1ED
330
1F
100
AcDbEntity
  8
部品
 62
     4
100
AcDbLine
 10
168.1750297508
 20
128.2325206116
 30
0.0
 11
168.4750297508
 21
128.456996215
 31
0.0
  0
LINE
  5
1EE
330
1F
100
AcDbEntity
  8
部品
 62
     4
100
AcDbLine
 10
168.4750297508
 20
129.1416995355
 30
0.0
 11
168.1750297508
 21
129.4873616525
 31
0.0
  0
LINE
  5
1EF
330
1F
100
AcDbEntity
  8
部品
 62
     4
100
AcDbLine
 10
168.1750297508
 20
132.6714997009
 30
0.0
 11
168.1750297508
 21
131.7073640626
 31
0.0
  0
LINE
  5
1F0
330
1F
100
AcDbEntity
  8
部品
 62
     4
100
AcDbLine
 10
168.4750297508
 20
131.3338249398
 30
0.0
 11
168.1750297508
 21
131.7073640626
 31
0.0
  0
LINE
  5
1F1
330
1F
100
AcDbEntity
  8
部品
 62
     4
100
AcDbLine
 10
168.1750297508
 20
130.5018559517
 30
0.0
 11
168.4750297508
 21
130.6760401053
 31
0.0
  0
LINE
  5
1F2
330
1F
100
AcDbEntity
  8
部品
 62
     4
100
AcDbLine
 10
168.1750297508
 20
132.6714997009
 30
0.0
 11
168.4750297508
 21
132.7920021083
 31
0.0
  0
LINE
  5
1F3
330
1F
100
AcDbEntity
  8
部品
 62
     4
100
AcDbLine
 10
168.1750297508
 20
133.8042110378
 30
0.0
 11
168.4750297508
 21
133.4100654233
 31
0.0
  0
LINE
  5
1F4
330
1F
100
AcDbEntity
  8
部品
 62
     4
100
AcDbLine
 10
168.1750297508
 20
142.0930459568
 30
0.0
 11
159.4750297508
 21
142.0930459568
 31
0.0
  0
LINE
  5
1F5
330
1F
100
AcDbEntity
  8
部品
 62
     4
100
AcDbLine
 10
159.4750297508
 20
134.6992222118
 30
0.0
 11
168.1750297508
 21
134.6992222118
 31
0.0
  0
LINE
  5
1F6
330
1F
100
AcDbEntity
  8
部品
 62
     4
100
AcDbLine
 10
168.4750297508
 20
134.7636974306
 30
0.0
 11
159.1750297508
 21
134.7636974306
 31
0.0
  0
LINE
  5
1F7
330
1F
100
AcDbEntity
  8
部品
 62
     4
100
AcDbLine
 10
168.4750297508
 20
135.3300093266
 30
0.0
 11
159.1750297508
 21
135.3300093266
 31
0.0
  0
LINE
  5
1F8
330
1F
100
AcDbEntity
  8
部品
 62
     4
100
AcDbLine
 10
159.4750297508
 20
135.7370898369
 30
0.0
 11
168.1750297508
 21
135.7370898369
 31
0.0
  0
LINE
  5
1F9
330
1F
100
AcDbEntity
  8
部品
 62
     4
100
AcDbLine
 10
168.1750297508
 20
141.9589490112
 30
0.0
 11
159.4750297508
 21
141.9589490112
 31
0.0
  0
LINE
  5
1FA
330
1F
100
AcDbEntity
  8
部品
 62
     4
100
AcDbLine
 10
159.1750297508
 20
136.545556172
 30
0.0
 11
168.4750297508
 21
136.545556172
 31
0.0
  0
LINE
  5
1FB
330
1F
100
AcDbEntity
  8
部品
 62
     4
100
AcDbLine
 10
159.4750297508
 20
139.5545412697
 30
0.0
 11
168.1750297508
 21
139.5545412697
 31
0.0
  0
LINE
  5
1FC
330
1F
100
AcDbEntity
  8
部品
 62
     4
100
AcDbLine
 10
168.1750297508
 20
140.1959787379
 30
0.0
 11
159.4750297508
 21
140.1959787379
 31
0.0
  0
LINE
  5
1FD
330
1F
100
AcDbEntity
  8
部品
 62
     4
100
AcDbLine
 10
168.1750297508
 20
140.658625935
 30
0.0
 11
159.4750297508
 21
140.658625935
 31
0.0
  0
LINE
  5
1FE
330
1F
100
AcDbEntity
  8
部品
 62
     4
100
AcDbLine
 10
168.1750297508
 20
141.1391993446
 30
0.0
 11
159.4750297508
 21
141.1391993446
 31
0.0
  0
LINE
  5
1FF
330
1F
100
AcDbEntity
  8
部品
 62
     4
100
AcDbLine
 10
168.1750297508
 20
141.7756845713
 30
0.0
 11
159.4750297508
 21
141.7756845713
 31
0.0
  0
LINE
  5
200
330
1F
100
AcDbEntity
  8
部品
 62
     4
100
AcDbLine
 10
168.1750297508
 20
141.4653290349
 30
0.0
 11
159.4750297508
 21
141.4653290349
 31
0.0
  0
LINE
  5
201
330
1F
100
AcDbEntity
  8
部品
 62
     4
100
AcDbLine
 10
168.4750297508
 20
140.7598088324
 30
0.0
 11
159.1750297508
 21
140.7598088324
 31
0.0
  0
LINE
  5
202
330
1F
100
AcDbEntity
  8
部品
 62
     4
100
AcDbLine
 10
168.4750297508
 20
139.7978677528
 30
0.0
 11
159.1750297508
 21
139.7978677528
 31
0.0
  0
LINE
  5
203
330
1F
100
AcDbEntity
  8
部品
 62
     4
100
AcDbLine
 10
168.1750297508
 20
138.9643814672
 30
0.0
 11
159.4750297508
 21
138.9643814672
 31
0.0
  0
LINE
  5
204
330
1F
100
AcDbEntity
  8
部品
 62
     4
100
AcDbLine
 10
168.4750297508
 20
138.5552987867
 30
0.0
 11
159.1750297508
 21
138.5552987867
 31
0.0
  0
LINE
  5
205
330
1F
100
AcDbEntity
  8
部品
 62
     4
100
AcDbLine
 10
168.1750297508
 20
138.1745647913
 30
0.0
 11
159.4750297508
 21
138.1745647913
 31
0.0
  0
LINE
  5
206
330
1F
100
AcDbEntity
  8
部品
 62
     4
100
AcDbLine
 10
168.1750297508
 20
137.4683791725
 30
0.0
 11
159.4750297508
 21
137.4683791725
 31
0.0
  0
LINE
  5
207
330
1F
100
AcDbEntity
  8
部品
 62
     4
100
AcDbLine
 10
168.4750297508
 20
137.0562871257
 30
0.0
 11
159.1750297508
 21
137.0562871257
 31
0.0
  0
LINE
  5
208
330
1F
100
AcDbEntity
  8
部品
100
AcDbLine
 10
159.4750297508
 20
142.1299747882
 30
0.0
 11
168.1750297508
 21
142.1299747882
 31
0.0
  0
LINE
  5
209
330
1F
100
AcDbEntity
  8
部品
100
AcDbLine
 10
168.1750297508
 20
142.1299747882
 30
0.0
 11
159.4750297508
 21
142.1299747882
 31
0.0
  0
LINE
  5
20A
330
1F
100
AcDbEntity
  8
中心
100
AcDbLine
 10
151.7831164412
 20
139.7559964911
 30
0.0
 11
154.9669430604
 21
139.7559964911
 31
0.0
  0
LINE
  5
20B
330
1F
100
AcDbEntity
  8
中心
100
AcDbLine
 10
153.3750297508
 20
138.9553102263
 30
0.0
 11
153.3750297508
 21
140.5566827558
 31
0.0
  0
LINE
  5
20C
330
1F
100
AcDbEntity
  8
部品
 62
     4
100
AcDbLine
 10
159.4750297508
 20
138.9643814672
 30
0.0
 11
159.1750297508
 21
138.5552987867
 31
0.0
  0
LINE
  5
20D
330
1F
100
AcDbEntity
  8
部品
 62
     4
100
AcDbLine
 10
159.4750297508
 20
136.545556172
 30
0.0
 11
159.4750297508
 21
135.7370898369
 31
0.0
  0
LINE
  5
20E
330
1F
100
AcDbEntity
  8
部品
 62
     4
100
AcDbLine
 10
159.4750297508
 20
134.6992222118
 30
0.0
 11
159.1750297508
 21
134.7636974306
 31
0.0
  0
LINE
  5
20F
330
1F
100
AcDbEntity
  8
部品
 62
     4
100
AcDbLine
 10
159.4750297508
 20
135.7370898369
 30
0.0
 11
159.1750297508
 21
135.3300093266
 31
0.0
  0
LINE
  5
210
330
1F
100
AcDbEntity
  8
部品
 62
     4
100
AcDbLine
 10
159.4750297508
 20
138.1745647913
 30
0.0
 11
159.4750297508
 21
137.4683791725
 31
0.0
  0
LINE
  5
211
330
1F
100
AcDbEntity
  8
部品
 62
     4
100
AcDbLine
 10
159.4750297508
 20
137.4683791725
 30
0.0
 11
159.1750297508
 21
137.0562871257
 31
0.0
  0
LINE
  5
212
330
1F
100
AcDbEntity
  8
部品
 62
     4
100
AcDbLine
 10
159.4750297508
 20
138.1745647913
 30
0.0
 11
159.1750297508
 21
138.124335754
 31
0.0
  0
LINE
  5
213
330
1F
100
AcDbEntity
  8
部品
 62
     4
100
AcDbLine
 10
159.4750297508
 20
140.658625935
 30
0.0
 11
159.4750297508
 21
140.1959787379
 31
0.0
  0
LINE
  5
214
330
1F
100
AcDbEntity
  8
部品
 62
     4
100
AcDbLine
 10
159.4750297508
 20
140.658625935
 30
0.0
 11
159.1750297508
 21
140.4975842171
 31
0.0
  0
LINE
  5
215
330
1F
100
AcDbEntity
  8
部品
 62
     4
100
AcDbLine
 10
159.4750297508
 20
139.5545412697
 30
0.0
 11
159.4750297508
 21
138.9643814672
 31
0.0
  0
LINE
  5
216
330
1F
100
AcDbEntity
  8
部品
 62
     4
100
AcDbLine
 10
159.1750297508
 20
139.7978677528
 30
0.0
 11
159.4750297508
 21
140.1959787379
 31
0.0
  0
LINE
  5
217
330
1F
100
AcDbEntity
  8
部品
 62
     4
100
AcDbLine
 10
159.4750297508
 20
139.5545412697
 30
0.0
 11
159.1750297508
 21
139.4478677528
 31
0.0
  0
LINE
  5
218
330
1F
100
AcDbEntity
  8
部品
 62
     4
100
AcDbLine
 10
159.4750297508
 20
142.1299747882
 30
0.0
 11
159.4750297508
 21
142.0930459568
 31
0.0
  0
LINE
  5
219
330
1F
100
AcDbEntity
  8
部品
 62
     4
100
AcDbLine
 10
159.4750297508
 20
142.0930459568
 30
0.0
 11
159.1750297508
 21
141.8299747882
 31
0.0
  0
LINE
  5
21A
330
1F
100
AcDbEntity
  8
部品
 62
     4
100
AcDbLine
 10
159.4750297508
 20
141.9589490112
 30
0.0
 11
159.4750297508
 21
141.7756845713
 31
0.0
  0
LINE
  5
21B
330
1F
100
AcDbEntity
  8
部品
 62
     4
100
AcDbLine
 10
159.4750297508
 20
141.9589490112
 30
0.0
 11
159.1750297508
 21
141.6995715787
 31
0.0
  0
LINE
  5
21C
330
1F
100
AcDbEntity
  8
部品
 62
     4
100
AcDbLine
 10
159.4750297508
 20
141.4653290349
 30
0.0
 11
159.4750297508
 21
141.1391993446
 31
0.0
  0
LINE
  5
21D
330
1F
100
AcDbEntity
  8
部品
 62
     4
100
AcDbLine
 10
159.4750297508
 20
141.7756845713
 30
0.0
 11
159.1750297508
 21
141.4223989367
 31
0.0
  0
LINE
  5
21E
330
1F
100
AcDbEntity
  8
部品
 62
     4
100
AcDbLine
 10
159.1750297508
 20
141.2530536098
 30
0.0
 11
159.4750297508
 21
141.4653290349
 31
0.0
  0
LINE
  5
21F
330
1F
100
AcDbEntity
  8
部品
 62
     4
100
AcDbLine
 10
159.1750297508
 20
140.7598088324
 30
0.0
 11
159.4750297508
 21
141.1391993446
 31
0.0
  0
LINE
  5
220
330
1F
100
AcDbEntity
  8
部品
100
AcDbLine
 10
159.4750297508
 20
142.1299747882
 30
0.0
 11
159.1750297508
 21
141.8299747882
 31
0.0
  0
LINE
  5
221
330
1F
100
AcDbEntity
  8
部品
100
AcDbLine
 10
158.6750297508
 20
141.9799747882
 30
0.0
 11
158.9750297508
 21
141.6799747882
 31
0.0
  0
LINE
  5
222
330
1F
100
AcDbEntity
  8
部品
100
AcDbLine
 10
158.3750297508
 20
141.9799747882
 30
0.0
 11
158.6750297508
 21
141.9799747882
 31
0.0
  0
LINE
  5
223
330
1F
100
AcDbEntity
  8
部品
100
AcDbLine
 10
159.1750297508
 20
140.8799747882
 30
0.0
 11
158.9750297508
 21
140.8799747882
 31
0.0
  0
LINE
  5
224
330
1F
100
AcDbEntity
  8
部品
100
AcDbLine
 10
159.4750297508
 20
142.1299747882
 30
0.0
 11
159.1750297508
 21
141.8299747882
 31
0.0
  0
LINE
  5
225
330
1F
100
AcDbEntity
  8
部品
 62
     4
100
AcDbLine
 10
168.1750297508
 20
138.9643814672
 30
0.0
 11
168.4750297508
 21
138.5552987867
 31
0.0
  0
LINE
  5
226
330
1F
100
AcDbEntity
  8
部品
 62
     4
100
AcDbLine
 10
168.1750297508
 20
136.545556172
 30
0.0
 11
168.1750297508
 21
135.7370898369
 31
0.0
  0
LINE
  5
227
330
1F
100
AcDbEntity
  8
部品
 62
     4
100
AcDbLine
 10
168.1750297508
 20
134.6992222118
 30
0.0
 11
168.4750297508
 21
134.7636974306
 31
0.0
  0
LINE
  5
228
330
1F
100
AcDbEntity
  8
部品
 62
     4
100
AcDbLine
 10
168.1750297508
 20
135.7370898369
 30
0.0
 11
168.4750297508
 21
135.3300093266
 31
0.0
  0
LINE
  5
229
330
1F
100
AcDbEntity
  8
部品
 62
     4
100
AcDbLine
 10
168.1750297508
 20
138.1745647913
 30
0.0
 11
168.1750297508
 21
137.4683791725
 31
0.0
  0
LINE
  5
22A
330
1F
100
AcDbEntity
  8
部品
 62
     4
100
AcDbLine
 10
168.1750297508
 20
137.4683791725
 30
0.0
 11
168.4750297508
 21
137.0562871257
 31
0.0
  0
LINE
  5
22B
330
1F
100
AcDbEntity
  8
部品
 62
     4
100
AcDbLine
 10
168.1750297508
 20
138.1745647913
 30
0.0
 11
168.4750297508
 21
138.124335754
 31
0.0
  0
LINE
  5
22C
330
1F
100
AcDbEntity
  8
部品
 62
     4
100
AcDbLine
 10
168.1750297508
 20
140.658625935
 30
0.0
 11
168.1750297508
 21
140.1959787379
 31
0.0
  0
LINE
  5
22D
330
1F
100
AcDbEntity
  8
部品
 62
     4
100
AcDbLine
 10
168.1750297508
 20
140.658625935
 30
0.0
 11
168.4750297508
 21
140.4975842171
 31
0.0
  0
LINE
  5
22E
330
1F
100
AcDbEntity
  8
部品
 62
     4
100
AcDbLine
 10
168.1750297508
 20
139.5545412697
 30
0.0
 11
168.1750297508
 21
138.9643814672
 31
0.0
  0
LINE
  5
22F
330
1F
100
AcDbEntity
  8
部品
 62
     4
100
AcDbLine
 10
168.4750297508
 20
139.7978677528
 30
0.0
 11
168.1750297508
 21
140.1959787379
 31
0.0
  0
LINE
  5
230
330
1F
100
AcDbEntity
  8
部品
 62
     4
100
AcDbLine
 10
168.1750297508
 20
139.5545412697
 30
0.0
 11
168.4750297508
 21
139.4478677528
 31
0.0
  0
LINE
  5
231
330
1F
100
AcDbEntity
  8
部品
100
AcDbLine
 10
168.6750297508
 20
140.6299747882
 30
0.0
 11
168.4750297508
 21
140.6299747882
 31
0.0
  0
LINE
  5
232
330
1F
100
AcDbEntity
  8
部品
 62
     4
100
AcDbLine
 10
168.1750297508
 20
142.1299747882
 30
0.0
 11
168.1750297508
 21
142.0930459568
 31
0.0
  0
LINE
  5
233
330
1F
100
AcDbEntity
  8
部品
 62
     4
100
AcDbLine
 10
168.1750297508
 20
142.0930459568
 30
0.0
 11
168.4750297508
 21
141.8299747882
 31
0.0
  0
LINE
  5
234
330
1F
100
AcDbEntity
  8
部品
 62
     4
100
AcDbLine
 10
168.1750297508
 20
141.7756845713
 30
0.0
 11
168.1750297508
 21
141.9589490112
 31
0.0
  0
LINE
  5
235
330
1F
100
AcDbEntity
  8
部品
 62
     4
100
AcDbLine
 10
168.1750297508
 20
141.4653290349
 30
0.0
 11
168.1750297508
 21
141.1391993446
 31
0.0
  0
LINE
  5
236
330
1F
100
AcDbEntity
  8
部品
 62
     4
100
AcDbLine
 10
168.1750297508
 20
141.7756845713
 30
0.0
 11
168.4750297508
 21
141.4223989367
 31
0.0
  0
LINE
  5
237
330
1F
100
AcDbEntity
  8
部品
 62
     4
100
AcDbLine
 10
168.1750297508
 20
141.9589490112
 30
0.0
 11
168.4750297508
 21
141.6995715787
 31
0.0
  0
LINE
  5
238
330
1F
100
AcDbEntity
  8
部品
 62
     4
100
AcDbLine
 10
168.4750297508
 20
141.2530536098
 30
0.0
 11
168.1750297508
 21
141.4653290349
 31
0.0
  0
LINE
  5
239
330
1F
100
AcDbEntity
  8
部品
 62
     4
100
AcDbLine
 10
168.4750297508
 20
140.7598088324
 30
0.0
 11
168.1750297508
 21
141.1391993446
 31
0.0
  0
LINE
  5
23A
330
1F
100
AcDbEntity
  8
部品
100
AcDbLine
 10
168.1750297508
 20
142.1299747882
 30
0.0
 11
168.4750297508
 21
141.8299747882
 31
0.0
  0
LINE
  5
23B
330
1F
100
AcDbEntity
  8
部品
100
AcDbLine
 10
168.1750297508
 20
142.1299747882
 30
0.0
 11
168.4750297508
 21
141.8299747882
 31
0.0
  0
LINE
  5
23C
330
1F
100
AcDbEntity
  8
部品
100
AcDbLine
 10
174.2750297508
 20
125.3799747882
 30
0.0
 11
174.2750297508
 21
141.0799747882
 31
0.0
  0
LINE
  5
23D
330
1F
100
AcDbEntity
  8
部品
100
AcDbLine
 10
178.2750297508
 20
125.3799747882
 30
0.0
 11
178.2750297508
 21
137.5799747882
 31
0.0
  0
LINE
  5
23E
330
1F
100
AcDbEntity
  8
部品
100
AcDbLine
 10
175.4750297508
 20
138.0799747882
 30
0.0
 11
175.4750297508
 21
125.3799747882
 31
0.0
  0
LINE
  5
23F
330
1F
100
AcDbEntity
  8
部品
100
AcDbLine
 10
181.2967120576
 20
125.3799747882
 30
0.0
 11
181.2967120576
 21
135.1799747882
 31
0.0
  0
LINE
  5
240
330
1F
100
AcDbEntity
  8
部品
100
AcDbLine
 10
178.2750297508
 20
135.3799747882
 30
0.0
 11
181.0967120576
 21
135.3799747882
 31
0.0
  0
LINE
  5
241
330
1F
100
AcDbEntity
  8
部品
100
AcDbLine
 10
181.0967120576
 20
135.3799747882
 30
0.0
 11
181.2967120576
 21
135.1799747882
 31
0.0
  0
LINE
  5
242
330
1F
100
AcDbEntity
  8
中心
  6
Continuous
100
AcDbLine
 10
192.135871028
 20
125.0451335111
 30
0.0
 11
191.4661884737
 21
125.7148160653
 31
0.0
  0
LINE
  5
243
330
1F
100
AcDbEntity
  8
中心
  6
Continuous
100
AcDbLine
 10
192.135871028
 20
125.7148160653
 30
0.0
 11
191.4661884737
 21
125.0451335111
 31
0.0
  0
LINE
  5
244
330
1F
100
AcDbEntity
  8
部品
 62
     6
100
AcDbLine
 10
175.4750297508
 20
137.5799747882
 30
0.0
 11
178.2750297508
 21
137.5799747882
 31
0.0
  0
LINE
  5
245
330
1F
100
AcDbEntity
  8
部品
100
AcDbLine
 10
175.4750297508
 20
138.0799747882
 30
0.0
 11
177.7750297508
 21
138.0799747882
 31
0.0
  0
LINE
  5
246
330
1F
100
AcDbEntity
  8
部品
100
AcDbLine
 10
174.2750297508
 20
137.5799747882
 30
0.0
 11
175.4750297508
 21
137.5799747882
 31
0.0
  0
LINE
  5
247
330
1F
100
AcDbEntity
  8
部品
100
AcDbLine
 10
177.7750297508
 20
138.0799747882
 30
0.0
 11
178.2750297508
 21
137.5799747882
 31
0.0
  0
LINE
  5
248
330
1F
100
AcDbEntity
  8
部品
100
AcDbLine
 10
173.9750297508
 20
141.3799747882
 30
0.0
 11
174.2750297508
 21
141.0799747882
 31
0.0
  0
LINE
  5
249
330
1F
100
AcDbEntity
  8
0
  6
Continuous
 62
     7
370
    15
100
AcDbLine
 10
161.6997342202
 20
21.8965533177
 30
0.0
 11
160.1997342202
 21
19.4979426292
 31
0.0
  0
LINE
  5
24A
330
1F
100
AcDbEntity
  8
0
  6
Continuous
 62
     7
370
    15
100
AcDbLine
 10
158.6997342202
 20
21.8965533177
 30
0.0
 11
160.1997342202
 21
19.4979426292
 31
0.0
  0
LINE
  5
24B
330
1F
100
AcDbEntity
  8
0
  6
Continuous
 62
     7
370
    15
100
AcDbLine
 10
148.8990295637
 20
21.8965533177
 30
0.0
 11
147.3990295637
 21
19.4979426292
 31
0.0
  0
LINE
  5
24C
330
1F
100
AcDbEntity
  8
0
  6
Continuous
 62
     7
370
    15
100
AcDbLine
 10
145.8990295637
 20
21.8965533177
 30
0.0
 11
147.3990295637
 21
19.4979426292
 31
0.0
  0
LINE
  5
24D
330
1F
100
AcDbEntity
  8
0
  6
Continuous
 62
     7
370
    15
100
AcDbLine
 10
136.5350227208
 20
21.54399829
 30
0.0
 11
135.0350227208
 21
19.1850803655
 31
0.0
  0
LINE
  5
24E
330
1F
100
AcDbEntity
  8
0
  6
Continuous
 62
     7
370
    15
100
AcDbLine
 10
133.5350227208
 20
21.54399829
 30
0.0
 11
135.0350227208
 21
19.1850803655
 31
0.0
  0
LINE
  5
24F
330
1F
100
AcDbEntity
  8
0
  6
Continuous
 62
     7
370
    15
100
AcDbLine
 10
174.1773135274
 20
22.3612920535
 30
0.0
 11
172.6773135274
 21
19.7632158421
 31
0.0
  0
LINE
  5
250
330
1F
100
AcDbEntity
  8
0
  6
Continuous
 62
     7
370
    15
100
AcDbLine
 10
130.5350227208
 20
16.5943757159
 30
0.0
 11
133.5350227208
 21
16.5943757159
 31
0.0
  0
LINE
  5
251
330
1F
100
AcDbEntity
  8
0
  6
Continuous
 62
     7
370
    15
100
AcDbLine
 10
133.5350227208
 20
16.5943757159
 30
0.0
 11
132.0350227208
 21
13.9962995046
 31
0.0
  0
LINE
  5
252
330
1F
100
AcDbEntity
  8
0
  6
Continuous
 62
     7
370
    15
100
AcDbLine
 10
130.5350227208
 20
16.5943757159
 30
0.0
 11
132.0350227208
 21
13.9962995046
 31
0.0
  0
LINE
  5
253
330
1F
100
AcDbEntity
  8
0
  6
CENTER
 62
     7
370
    15
100
AcDbLine
 10
133.5350227208
 20
16.5943757159
 30
0.0
 11
136.5350227208
 21
16.5943757159
 31
0.0
  0
LINE
  5
254
330
1F
100
AcDbEntity
  8
0
  6
Continuous
 62
     7
370
     0
100
AcDbLine
 10
247.3333333333
 20
20.25
 30
0.0
 11
243.5
 21
20.25
 31
0.0
  0
LINE
  5
255
330
1F
100
AcDbEntity
  8
0
  6
Continuous
 62
     7
370
    15
100
AcDbLine
 10
247.3333333333
 20
13.0
 30
0.0
 11
238.3333333333
 21
13.0
 31
0.0
  0
LINE
  5
256
330
1F
100
AcDbEntity
  8
0
  6
Continuous
 62
     7
370
     0
100
AcDbLine
 10
247.3333333333
 20
13.0
 30
0.0
 11
247.3333333333
 21
20.25
 31
0.0
  0
LINE
  5
257
330
1F
100
AcDbEntity
  8
0
  6
Continuous
 62
     7
370
     0
100
AcDbLine
 10
238.3333333333
 20
20.25
 30
0.0
 11
233.5
 21
20.25
 31
0.0
  0
LINE
  5
258
330
1F
100
AcDbEntity
  8
0
  6
Continuous
 62
     7
370
    15
100
AcDbLine
 10
238.3333333333
 20
13.0
 30
0.0
 11
217.6666666667
 21
13.0
 31
0.0
  0
LINE
  5
259
330
1F
100
AcDbEntity
  8
0
  6
Continuous
 62
     7
370
     0
100
AcDbLine
 10
238.3333333333
 20
13.0
 30
0.0
 11
238.3333333333
 21
20.25
 31
0.0
  0
LINE
  5
25A
330
1F
100
AcDbEntity
  8
0
  6
Continuous
 62
     7
370
     0
100
AcDbLine
 10
217.6666666667
 20
20.25
 30
0.0
 11
222.0
 21
20.25
 31
0.0
  0
LINE
  5
25B
330
1F
100
AcDbEntity
  8
0
  6
Continuous
 62
     7
370
    15
100
AcDbLine
 10
217.6666666667
 20
13.0
 30
0.0
 11
208.6666666667
 21
13.0
 31
0.0
  0
LINE
  5
25C
330
1F
100
AcDbEntity
  8
0
  6
Continuous
 62
     7
370
     0
100
AcDbLine
 10
217.6666666667
 20
13.0
 30
0.0
 11
217.6666666667
 21
20.25
 31
0.0
  0
LINE
  5
25D
330
1F
100
AcDbEntity
  8
0
  6
Continuous
 62
     7
370
    15
100
AcDbLine
 10
208.6666666667
 20
13.0
 30
0.0
 11
188.0
 21
13.0
 31
0.0
  0
LINE
  5
25E
330
1F
100
AcDbEntity
  8
0
  6
Continuous
 62
     7
370
     0
100
AcDbLine
 10
208.6666666667
 20
20.25
 30
0.0
 11
212.0
 21
20.25
 31
0.0
  0
LINE
  5
25F
330
1F
100
AcDbEntity
  8
0
  6
Continuous
 62
     7
370
     0
100
AcDbLine
 10
208.6666666667
 20
20.25
 30
0.0
 11
208.6666666667
 21
13.0
 31
0.0
  0
LINE
  5
260
330
1F
100
AcDbEntity
  8
0
  6
Continuous
 62
     7
370
    15
100
AcDbLine
 10
188.0
 20
13.0
 30
0.0
 11
179.0
 21
13.0
 31
0.0
  0
LINE
  5
261
330
1F
100
AcDbEntity
  8
0
  6
Continuous
 62
     7
370
     0
100
AcDbLine
 10
188.0
 20
20.25
 30
0.0
 11
190.5
 21
20.25
 31
0.0
  0
LINE
  5
262
330
1F
100
AcDbEntity
  8
0
  6
Continuous
 62
     7
370
     0
100
AcDbLine
 10
188.0
 20
20.25
 30
0.0
 11
188.0
 21
13.0
 31
0.0
  0
LINE
  5
263
330
1F
100
AcDbEntity
  8
0
  6
Continuous
 62
     7
370
     0
100
AcDbLine
 10
254.0
 20
20.25
 30
0.0
 11
247.3333333333
 21
20.25
 31
0.0
  0
LINE
  5
264
330
1F
100
AcDbEntity
  8
0
  6
Continuous
 62
     7
370
     0
100
AcDbLine
 10
254.0
 20
27.5
 30
0.0
 11
246.0
 21
27.5
 31
0.0
  0
LINE
  5
265
330
1F
100
AcDbEntity
  8
0
  6
Continuous
 62
     7
370
     0
100
AcDbLine
 10
254.0
 20
27.5
 30
0.0
 11
254.0
 21
20.25
 31
0.0
  0
LINE
  5
266
330
1F
100
AcDbEntity
  8
0
  6
Continuous
 62
     7
370
     0
100
AcDbLine
 10
243.5
 20
20.25
 30
0.0
 11
238.3333333333
 21
20.25
 31
0.0
  0
LINE
  5
267
330
1F
100
AcDbEntity
  8
0
  6
Continuous
 62
     7
370
     0
100
AcDbLine
 10
243.5
 20
27.5
 30
0.0
 11
246.0
 21
27.5
 31
0.0
  0
LINE
  5
268
330
1F
100
AcDbEntity
  8
0
  6
Continuous
 62
     7
370
     0
100
AcDbLine
 10
243.5
 20
27.5
 30
0.0
 11
243.5
 21
20.25
 31
0.0
  0
LINE
  5
269
330
1F
100
AcDbEntity
  8
0
  6
Continuous
 62
     7
370
     0
100
AcDbLine
 10
233.5
 20
27.5
 30
0.0
 11
243.5
 21
27.5
 31
0.0
  0
LINE
  5
26A
330
1F
100
AcDbEntity
  8
0
  6
Continuous
 62
     7
370
     0
100
AcDbLine
 10
233.5
 20
27.5
 30
0.0
 11
233.5
 21
20.25
 31
0.0
  0
LINE
  5
26B
330
1F
100
AcDbEntity
  8
0
  6
Continuous
 62
     7
370
     0
100
AcDbLine
 10
222.0
 20
20.25
 30
0.0
 11
233.5
 21
20.25
 31
0.0
  0
LINE
  5
26C
330
1F
100
AcDbEntity
  8
0
  6
Continuous
 62
     7
370
     0
100
AcDbLine
 10
222.0
 20
27.5
 30
0.0
 11
233.5
 21
27.5
 31
0.0
  0
LINE
  5
26D
330
1F
100
AcDbEntity
  8
0
  6
Continuous
 62
     7
370
     0
100
AcDbLine
 10
222.0
 20
27.5
 30
0.0
 11
222.0
 21
20.25
 31
0.0
  0
LINE
  5
26E
330
1F
100
AcDbEntity
  8
0
  6
Continuous
 62
     7
370
     0
100
AcDbLine
 10
212.0
 20
20.25
 30
0.0
 11
217.6666666667
 21
20.25
 31
0.0
  0
LINE
  5
26F
330
1F
100
AcDbEntity
  8
0
  6
Continuous
 62
     7
370
     0
100
AcDbLine
 10
212.0
 20
27.5
 30
0.0
 11
222.0
 21
27.5
 31
0.0
  0
LINE
  5
270
330
1F
100
AcDbEntity
  8
0
  6
Continuous
 62
     7
370
     0
100
AcDbLine
 10
212.0
 20
27.5
 30
0.0
 11
212.0
 21
20.25
 31
0.0
  0
LINE
  5
271
330
1F
100
AcDbEntity
  8
0
  6
Continuous
 62
     7
370
     0
100
AcDbLine
 10
200.5
 20
20.25
 30
0.0
 11
208.6666666667
 21
20.25
 31
0.0
  0
LINE
  5
272
330
1F
100
AcDbEntity
  8
0
  6
Continuous
 62
     7
370
     0
100
AcDbLine
 10
200.5
 20
27.5
 30
0.0
 11
212.0
 21
27.5
 31
0.0
  0
LINE
  5
273
330
1F
100
AcDbEntity
  8
0
  6
Continuous
 62
     7
370
     0
100
AcDbLine
 10
200.5
 20
27.5
 30
0.0
 11
200.5
 21
20.25
 31
0.0
  0
LINE
  5
274
330
1F
100
AcDbEntity
  8
0
  6
Continuous
 62
     7
370
     0
100
AcDbLine
 10
190.5
 20
20.25
 30
0.0
 11
200.5
 21
20.25
 31
0.0
  0
LINE
  5
275
330
1F
100
AcDbEntity
  8
0
  6
Continuous
 62
     7
370
     0
100
AcDbLine
 10
190.5
 20
27.5
 30
0.0
 11
200.5
 21
27.5
 31
0.0
  0
LINE
  5
276
330
1F
100
AcDbEntity
  8
0
  6
Continuous
 62
     7
370
     0
100
AcDbLine
 10
190.5
 20
27.5
 30
0.0
 11
190.5
 21
20.25
 31
0.0
  0
LINE
  5
277
330
1F
100
AcDbEntity
  8
0
  6
Continuous
 62
     7
370
     0
100
AcDbLine
 10
230.6
 20
27.5
 30
0.0
 11
230.6
 21
47.3
 31
0.0
  0
LINE
  5
278
330
1F
100
AcDbEntity
  8
0
  6
Continuous
 62
     7
370
    15
100
AcDbLine
 10
268.0
 20
13.0
 30
0.0
 11
268.0
 21
20.25
 31
0.0
  0
LINE
  5
279
330
1F
100
AcDbEntity
  8
0
  6
Continuous
 62
     7
370
    15
100
AcDbLine
 10
268.0
 20
193.0
 30
0.0
 11
25.0
 21
193.0
 31
0.0
  0
LINE
  5
27A
330
1F
100
AcDbEntity
  8
0
  6
Continuous
 62
     7
370
    15
100
AcDbLine
 10
25.0
 20
193.0
 30
0.0
 11
25.0
 21
58.0
 31
0.0
  0
LINE
  5
27B
330
1F
100
AcDbEntity
  8
0
  6
Continuous
 62
     7
370
     0
100
AcDbLine
 10
25.0
 20
58.0
 30
0.0
 11
35.0
 21
58.0
 31
0.0
  0
LINE
  5
27C
330
1F
100
AcDbEntity
  8
0
  6
Continuous
 62
     7
370
    15
100
AcDbLine
 10
25.0
 20
58.0
 30
0.0
 11
25.0
 21
50.5
 31
0.0
  0
LINE
  5
27D
330
1F
100
AcDbEntity
  8
0
  6
Continuous
 62
     7
370
     0
100
AcDbLine
 10
129.0
 20
58.0
 30
0.0
 11
129.0
 21
54.0
 31
0.0
  0
LINE
  5
27E
330
1F
100
AcDbEntity
  8
0
  6
Continuous
 62
     7
370
    15
100
AcDbLine
 10
129.0
 20
13.0
 30
0.0
 11
141.5
 21
13.0
 31
0.0
  0
LINE
  5
27F
330
1F
100
AcDbEntity
  8
0
  6
Continuous
 62
     7
370
     0
100
AcDbLine
 10
129.0
 20
20.5
 30
0.0
 11
96.9735538908
 21
20.5
 31
0.0
  0
LINE
  5
280
330
1F
100
AcDbEntity
  8
0
  6
Continuous
 62
     7
370
     0
100
AcDbLine
 10
129.0
 20
20.5
 30
0.0
 11
129.0
 21
13.0
 31
0.0
  0
LINE
  5
281
330
1F
100
AcDbEntity
  8
0
  6
Continuous
 62
     7
370
    15
100
AcDbLine
 10
25.0
 20
20.5
 30
0.0
 11
25.0
 21
13.0
 31
0.0
  0
LINE
  5
282
330
1F
100
AcDbEntity
  8
0
  6
Continuous
 62
     7
370
     0
100
AcDbLine
 10
129.0
 20
58.0
 30
0.0
 11
179.0
 21
58.0
 31
0.0
  0
LINE
  5
283
330
1F
100
AcDbEntity
  8
0
  6
Continuous
 62
     7
370
    15
100
AcDbLine
 10
268.0
 20
58.0
 30
0.0
 11
268.0
 21
193.0
 31
0.0
  0
LINE
  5
284
330
1F
100
AcDbEntity
  8
0
  6
Continuous
 62
     7
370
     0
100
AcDbLine
 10
179.0
 20
58.0
 30
0.0
 11
179.0
 21
54.0
 31
0.0
  0
LINE
  5
285
330
1F
100
AcDbEntity
  8
0
  6
Continuous
 62
     7
370
     0
100
AcDbLine
 10
179.0
 20
58.0
 30
0.0
 11
268.0
 21
58.0
 31
0.0
  0
LINE
  5
286
330
1F
100
AcDbEntity
  8
0
  6
Continuous
 62
     7
370
     0
100
AcDbLine
 10
109.8666374141
 20
58.0
 30
0.0
 11
109.8666374141
 21
20.5
 31
0.0
  0
LINE
  5
287
330
1F
100
AcDbEntity
  8
0
  6
Continuous
 62
     7
370
     0
100
AcDbLine
 10
115.7569070807
 20
58.0
 30
0.0
 11
129.0
 21
58.0
 31
0.0
  0
LINE
  5
288
330
1F
100
AcDbEntity
  8
0
  6
Continuous
 62
     7
370
     0
100
AcDbLine
 10
55.0
 20
58.0
 30
0.0
 11
55.0
 21
20.5
 31
0.0
  0
LINE
  5
289
330
1F
100
AcDbEntity
  8
0
  6
Continuous
 62
     7
370
     0
100
AcDbLine
 10
55.0
 20
58.0
 30
0.0
 11
115.7569070807
 21
58.0
 31
0.0
  0
LINE
  5
28A
330
1F
100
AcDbEntity
  8
0
  6
Continuous
 62
     7
370
     0
100
AcDbLine
 10
129.0
 20
54.0
 30
0.0
 11
148.5
 21
54.0
 31
0.0
  0
LINE
  5
28B
330
1F
100
AcDbEntity
  8
0
  6
Continuous
 62
     7
370
     0
100
AcDbLine
 10
129.0
 20
54.0
 30
0.0
 11
129.0
 21
50.5
 31
0.0
  0
LINE
  5
28C
330
1F
100
AcDbEntity
  8
0
  6
Continuous
 62
     7
370
     0
100
AcDbLine
 10
179.0
 20
54.0
 30
0.0
 11
179.0
 21
50.0
 31
0.0
  0
LINE
  5
28D
330
1F
100
AcDbEntity
  8
0
  6
Continuous
 62
     7
370
     0
100
AcDbLine
 10
129.0
 20
30.0
 30
0.0
 11
148.5
 21
30.0
 31
0.0
  0
LINE
  5
28E
330
1F
100
AcDbEntity
  8
0
  6
Continuous
 62
     7
370
     0
100
AcDbLine
 10
129.0
 20
30.0
 30
0.0
 11
129.0
 21
28.0
 31
0.0
  0
LINE
  5
28F
330
1F
100
AcDbEntity
  8
0
  6
Continuous
 62
     7
370
     0
100
AcDbLine
 10
179.0
 20
30.0
 30
0.0
 11
179.0
 21
27.5
 31
0.0
  0
LINE
  5
290
330
1F
100
AcDbEntity
  8
0
  6
Continuous
 62
     7
370
     0
100
AcDbLine
 10
129.0
 20
25.5
 30
0.0
 11
141.5
 21
25.5
 31
0.0
  0
LINE
  5
291
330
1F
100
AcDbEntity
  8
0
  6
Continuous
 62
     7
370
     0
100
AcDbLine
 10
129.0
 20
25.5
 30
0.0
 11
129.0
 21
21.0
 31
0.0
  0
LINE
  5
292
330
1F
100
AcDbEntity
  8
0
  6
Continuous
 62
     7
370
     0
100
AcDbLine
 10
179.0
 20
25.5
 30
0.0
 11
179.0
 21
21.0
 31
0.0
  0
LINE
  5
293
330
1F
100
AcDbEntity
  8
0
  6
Continuous
 62
     7
370
    15
100
AcDbLine
 10
268.0
 20
47.3
 30
0.0
 11
268.0
 21
58.0
 31
0.0
  0
LINE
  5
294
330
1F
100
AcDbEntity
  8
0
  6
Continuous
 62
     7
370
     0
100
AcDbLine
 10
179.0
 20
47.3
 30
0.0
 11
179.0
 21
46.0
 31
0.0
  0
LINE
  5
295
330
1F
100
AcDbEntity
  8
0
  6
Continuous
 62
     7
370
     0
100
AcDbLine
 10
129.0
 20
18.5432775977
 30
0.0
 11
179.0
 21
18.5432775977
 31
0.0
  0
LINE
  5
296
330
1F
100
AcDbEntity
  8
0
  6
Continuous
 62
     7
370
     0
100
AcDbLine
 10
129.0
 20
21.0
 30
0.0
 11
129.0
 21
20.5
 31
0.0
  0
LINE
  5
297
330
1F
100
AcDbEntity
  8
0
  6
Continuous
 62
     7
370
     0
100
AcDbLine
 10
179.0
 20
21.0
 30
0.0
 11
179.0
 21
20.25
 31
0.0
  0
LINE
  5
298
330
1F
100
AcDbEntity
  8
0
  6
Continuous
 62
     7
370
    15
100
AcDbLine
 10
268.0
 20
27.5
 30
0.0
 11
268.0
 21
37.4
 31
0.0
  0
LINE
  5
299
330
1F
100
AcDbEntity
  8
0
  6
Continuous
 62
     7
370
     0
100
AcDbLine
 10
179.0
 20
27.5
 30
0.0
 11
179.0
 21
25.5
 31
0.0
  0
LINE
  5
29A
330
1F
100
AcDbEntity
  8
0
  6
Continuous
 62
     7
370
     0
100
AcDbLine
 10
141.5
 20
25.5
 30
0.0
 11
141.5
 21
13.0
 31
0.0
  0
LINE
  5
29B
330
1F
100
AcDbEntity
  8
0
  6
Continuous
 62
     7
370
     0
100
AcDbLine
 10
141.5
 20
25.5
 30
0.0
 11
154.0
 21
25.5
 31
0.0
  0
LINE
  5
29C
330
1F
100
AcDbEntity
  8
0
  6
Continuous
 62
     7
370
    15
100
AcDbLine
 10
141.5
 20
13.0
 30
0.0
 11
154.0
 21
13.0
 31
0.0
  0
LINE
  5
29D
330
1F
100
AcDbEntity
  8
0
  6
Continuous
 62
     7
370
     0
100
AcDbLine
 10
154.0
 20
13.0
 30
0.0
 11
154.0
 21
25.5
 31
0.0
  0
LINE
  5
29E
330
1F
100
AcDbEntity
  8
0
  6
Continuous
 62
     7
370
    15
100
AcDbLine
 10
154.0
 20
13.0
 30
0.0
 11
166.5
 21
13.0
 31
0.0
  0
LINE
  5
29F
330
1F
100
AcDbEntity
  8
0
  6
Continuous
 62
     7
370
     0
100
AcDbLine
 10
154.0
 20
25.5
 30
0.0
 11
166.5
 21
25.5
 31
0.0
  0
LINE
  5
2A0
330
1F
100
AcDbEntity
  8
0
  6
Continuous
 62
     7
370
     0
100
AcDbLine
 10
166.5
 20
25.5
 30
0.0
 11
166.5
 21
13.0
 31
0.0
  0
LINE
  5
2A1
330
1F
100
AcDbEntity
  8
0
  6
Continuous
 62
     7
370
     0
100
AcDbLine
 10
166.5
 20
25.5
 30
0.0
 11
179.0
 21
25.5
 31
0.0
  0
LINE
  5
2A2
330
1F
100
AcDbEntity
  8
0
  6
Continuous
 62
     7
370
    15
100
AcDbLine
 10
166.5
 20
13.0
 30
0.0
 11
179.0
 21
13.0
 31
0.0
  0
LINE
  5
2A3
330
1F
100
AcDbEntity
  8
0
  6
Continuous
 62
     7
370
    15
100
AcDbLine
 10
268.0
 20
20.25
 30
0.0
 11
268.0
 21
27.5
 31
0.0
  0
LINE
  5
2A4
330
1F
100
AcDbEntity
  8
0
  6
Continuous
 62
     7
370
     0
100
AcDbLine
 10
179.0
 20
20.25
 30
0.0
 11
179.0
 21
13.0
 31
0.0
  0
LINE
  5
2A5
330
1F
100
AcDbEntity
  8
0
  6
Continuous
 62
     7
370
     0
100
AcDbLine
 10
179.0
 20
37.4
 30
0.0
 11
268.0
 21
37.4
 31
0.0
  0
LINE
  5
2A6
330
1F
100
AcDbEntity
  8
0
  6
Continuous
 62
     7
370
     0
100
AcDbLine
 10
179.0
 20
37.4
 30
0.0
 11
179.0
 21
34.0
 31
0.0
  0
LINE
  5
2A7
330
1F
100
AcDbEntity
  8
0
  6
Continuous
 62
     7
370
    15
100
AcDbLine
 10
268.0
 20
37.4
 30
0.0
 11
268.0
 21
47.3
 31
0.0
  0
LINE
  5
2A8
330
1F
100
AcDbEntity
  8
0
  6
Continuous
 62
     7
370
     0
100
AcDbLine
 10
268.0
 20
47.3
 30
0.0
 11
246.0
 21
47.3
 31
0.0
  0
LINE
  5
2A9
330
1F
100
AcDbEntity
  8
0
  6
Continuous
 62
     7
370
     0
100
AcDbLine
 10
268.0
 20
27.5
 30
0.0
 11
254.0
 21
27.5
 31
0.0
  0
LINE
  5
2AA
330
1F
100
AcDbEntity
  8
0
  6
Continuous
 62
     7
370
     0
100
AcDbLine
 10
268.0
 20
20.25
 30
0.0
 11
254.0
 21
20.25
 31
0.0
  0
LINE
  5
2AB
330
1F
100
AcDbEntity
  8
0
  6
Continuous
 62
     7
370
    15
100
AcDbLine
 10
268.0
 20
13.0
 30
0.0
 11
247.3333333333
 21
13.0
 31
0.0
  0
LINE
  5
2AC
330
1F
100
AcDbEntity
  8
0
  6
Continuous
 62
     7
370
     0
100
AcDbLine
 10
194.5
 20
47.3
 30
0.0
 11
194.5
 21
27.5
 31
0.0
  0
LINE
  5
2AD
330
1F
100
AcDbEntity
  8
0
  6
Continuous
 62
     7
370
     0
100
AcDbLine
 10
194.5
 20
47.3
 30
0.0
 11
179.0
 21
47.3
 31
0.0
  0
LINE
  5
2AE
330
1F
100
AcDbEntity
  8
0
  6
Continuous
 62
     7
370
     0
100
AcDbLine
 10
179.0
 20
27.5
 30
0.0
 11
190.5
 21
27.5
 31
0.0
  0
LINE
  5
2AF
330
1F
100
AcDbEntity
  8
0
  6
Continuous
 62
     7
370
     0
100
AcDbLine
 10
179.0
 20
20.25
 30
0.0
 11
188.0
 21
20.25
 31
0.0
  0
LINE
  5
2B0
330
1F
100
AcDbEntity
  8
0
  6
Continuous
 62
     7
370
     0
100
AcDbLine
 10
230.6
 20
47.3
 30
0.0
 11
194.5
 21
47.3
 31
0.0
  0
LINE
  5
2B1
330
1F
100
AcDbEntity
  8
0
  6
Continuous
 62
     7
370
     0
100
AcDbLine
 10
246.0
 20
47.3
 30
0.0
 11
246.0
 21
27.5
 31
0.0
  0
LINE
  5
2B2
330
1F
100
AcDbEntity
  8
0
  6
Continuous
 62
     7
370
     0
100
AcDbLine
 10
246.0
 20
47.3
 30
0.0
 11
230.6
 21
47.3
 31
0.0
  0
LINE
  5
2B3
330
1F
100
AcDbEntity
  8
0
  6
Continuous
 62
     7
370
     0
100
AcDbLine
 10
148.5
 20
54.0
 30
0.0
 11
148.5
 21
30.0
 31
0.0
  0
LINE
  5
2B4
330
1F
100
AcDbEntity
  8
0
  6
Continuous
 62
     7
370
     0
100
AcDbLine
 10
148.5
 20
54.0
 30
0.0
 11
158.6666666667
 21
54.0
 31
0.0
  0
LINE
  5
2B5
330
1F
100
AcDbEntity
  8
0
  6
Continuous
 62
     7
370
     0
100
AcDbLine
 10
148.5
 20
30.0
 30
0.0
 11
158.6666666667
 21
30.0
 31
0.0
  0
LINE
  5
2B6
330
1F
100
AcDbEntity
  8
0
  6
Continuous
 62
     7
370
     0
100
AcDbLine
 10
158.6666666667
 20
30.0
 30
0.0
 11
158.6666666667
 21
54.0
 31
0.0
  0
LINE
  5
2B7
330
1F
100
AcDbEntity
  8
0
  6
Continuous
 62
     7
370
     0
100
AcDbLine
 10
158.6666666667
 20
30.0
 30
0.0
 11
168.8333333333
 21
30.0
 31
0.0
  0
LINE
  5
2B8
330
1F
100
AcDbEntity
  8
0
  6
Continuous
 62
     7
370
     0
100
AcDbLine
 10
158.6666666667
 20
54.0
 30
0.0
 11
168.8333333333
 21
54.0
 31
0.0
  0
LINE
  5
2B9
330
1F
100
AcDbEntity
  8
0
  6
Continuous
 62
     7
370
     0
100
AcDbLine
 10
168.8333333333
 20
54.0
 30
0.0
 11
168.8333333333
 21
30.0
 31
0.0
  0
LINE
  5
2BA
330
1F
100
AcDbEntity
  8
0
  6
Continuous
 62
     7
370
     0
100
AcDbLine
 10
168.8333333333
 20
54.0
 30
0.0
 11
179.0
 21
54.0
 31
0.0
  0
LINE
  5
2BB
330
1F
100
AcDbEntity
  8
0
  6
Continuous
 62
     7
370
     0
100
AcDbLine
 10
168.8333333333
 20
30.0
 30
0.0
 11
179.0
 21
30.0
 31
0.0
  0
LINE
  5
2BC
330
1F
100
AcDbEntity
  8
0
  6
Continuous
 62
     7
370
     0
100
AcDbLine
 10
35.0
 20
58.0
 30
0.0
 11
35.0
 21
20.5
 31
0.0
  0
LINE
  5
2BD
330
1F
100
AcDbEntity
  8
0
  6
Continuous
 62
     7
370
     0
100
AcDbLine
 10
35.0
 20
58.0
 30
0.0
 11
55.0
 21
58.0
 31
0.0
  0
LINE
  5
2BE
330
1F
100
AcDbEntity
  8
0
  6
Continuous
 62
     7
370
    15
100
AcDbLine
 10
25.0
 20
13.0
 30
0.0
 11
37.9503430537
 21
13.0
 31
0.0
  0
LINE
  5
2BF
330
1F
100
AcDbEntity
  8
0
  6
Continuous
 62
     7
370
     0
100
AcDbLine
 10
25.0
 20
50.5
 30
0.0
 11
129.0
 21
50.5
 31
0.0
  0
LINE
  5
2C0
330
1F
100
AcDbEntity
  8
0
  6
Continuous
 62
     7
370
    15
100
AcDbLine
 10
25.0
 20
50.5
 30
0.0
 11
25.0
 21
43.0
 31
0.0
  0
LINE
  5
2C1
330
1F
100
AcDbEntity
  8
0
  6
Continuous
 62
     7
370
     0
100
AcDbLine
 10
129.0
 20
50.5
 30
0.0
 11
129.0
 21
50.0
 31
0.0
  0
LINE
  5
2C2
330
1F
100
AcDbEntity
  8
0
  6
Continuous
 62
     7
370
     0
100
AcDbLine
 10
129.0
 20
43.0
 30
0.0
 11
25.0
 21
43.0
 31
0.0
  0
LINE
  5
2C3
330
1F
100
AcDbEntity
  8
0
  6
Continuous
 62
     7
370
     0
100
AcDbLine
 10
129.0
 20
43.0
 30
0.0
 11
129.0
 21
42.0
 31
0.0
  0
LINE
  5
2C4
330
1F
100
AcDbEntity
  8
0
  6
Continuous
 62
     7
370
    15
100
AcDbLine
 10
25.0
 20
43.0
 30
0.0
 11
25.0
 21
35.5
 31
0.0
  0
LINE
  5
2C5
330
1F
100
AcDbEntity
  8
0
  6
Continuous
 62
     7
370
     0
100
AcDbLine
 10
25.0
 20
35.5
 30
0.0
 11
129.0
 21
35.5
 31
0.0
  0
LINE
  5
2C6
330
1F
100
AcDbEntity
  8
0
  6
Continuous
 62
     7
370
    15
100
AcDbLine
 10
25.0
 20
35.5
 30
0.0
 11
25.0
 21
28.0
 31
0.0
  0
LINE
  5
2C7
330
1F
100
AcDbEntity
  8
0
  6
Continuous
 62
     7
370
     0
100
AcDbLine
 10
129.0
 20
35.5
 30
0.0
 11
129.0
 21
34.0
 31
0.0
  0
LINE
  5
2C8
330
1F
100
AcDbEntity
  8
0
  6
Continuous
 62
     7
370
     0
100
AcDbLine
 10
25.0
 20
28.0
 30
0.0
 11
129.0
 21
28.0
 31
0.0
  0
LINE
  5
2C9
330
1F
100
AcDbEntity
  8
0
  6
Continuous
 62
     7
370
    15
100
AcDbLine
 10
25.0
 20
28.0
 30
0.0
 11
25.0
 21
20.5
 31
0.0
  0
LINE
  5
2CA
330
1F
100
AcDbEntity
  8
0
  6
Continuous
 62
     7
370
     0
100
AcDbLine
 10
129.0
 20
28.0
 30
0.0
 11
129.0
 21
25.5
 31
0.0
  0
LINE
  5
2CB
330
1F
100
AcDbEntity
  8
0
  6
Continuous
 62
     7
370
     0
100
AcDbLine
 10
179.0
 20
50.0
 30
0.0
 11
129.0
 21
50.0
 31
0.0
  0
LINE
  5
2CC
330
1F
100
AcDbEntity
  8
0
  6
Continuous
 62
     7
370
     0
100
AcDbLine
 10
179.0
 20
50.0
 30
0.0
 11
179.0
 21
47.3
 31
0.0
  0
LINE
  5
2CD
330
1F
100
AcDbEntity
  8
0
  6
Continuous
 62
     7
370
     0
100
AcDbLine
 10
129.0
 20
50.0
 30
0.0
 11
129.0
 21
46.0
 31
0.0
  0
LINE
  5
2CE
330
1F
100
AcDbEntity
  8
0
  6
Continuous
 62
     7
370
     0
100
AcDbLine
 10
179.0
 20
46.0
 30
0.0
 11
129.0
 21
46.0
 31
0.0
  0
LINE
  5
2CF
330
1F
100
AcDbEntity
  8
0
  6
Continuous
 62
     7
370
     0
100
AcDbLine
 10
179.0
 20
46.0
 30
0.0
 11
179.0
 21
42.0
 31
0.0
  0
LINE
  5
2D0
330
1F
100
AcDbEntity
  8
0
  6
Continuous
 62
     7
370
     0
100
AcDbLine
 10
129.0
 20
46.0
 30
0.0
 11
129.0
 21
43.0
 31
0.0
  0
LINE
  5
2D1
330
1F
100
AcDbEntity
  8
0
  6
Continuous
 62
     7
370
     0
100
AcDbLine
 10
129.0
 20
42.0
 30
0.0
 11
179.0
 21
42.0
 31
0.0
  0
LINE
  5
2D2
330
1F
100
AcDbEntity
  8
0
  6
Continuous
 62
     7
370
     0
100
AcDbLine
 10
129.0
 20
42.0
 30
0.0
 11
129.0
 21
38.0
 31
0.0
  0
LINE
  5
2D3
330
1F
100
AcDbEntity
  8
0
  6
Continuous
 62
     7
370
     0
100
AcDbLine
 10
179.0
 20
42.0
 30
0.0
 11
179.0
 21
38.0
 31
0.0
  0
LINE
  5
2D4
330
1F
100
AcDbEntity
  8
0
  6
Continuous
 62
     7
370
     0
100
AcDbLine
 10
179.0
 20
38.0
 30
0.0
 11
129.0
 21
38.0
 31
0.0
  0
LINE
  5
2D5
330
1F
100
AcDbEntity
  8
0
  6
Continuous
 62
     7
370
     0
100
AcDbLine
 10
179.0
 20
38.0
 30
0.0
 11
179.0
 21
37.4
 31
0.0
  0
LINE
  5
2D6
330
1F
100
AcDbEntity
  8
0
  6
Continuous
 62
     7
370
     0
100
AcDbLine
 10
129.0
 20
38.0
 30
0.0
 11
129.0
 21
35.5
 31
0.0
  0
LINE
  5
2D7
330
1F
100
AcDbEntity
  8
0
  6
Continuous
 62
     7
370
     0
100
AcDbLine
 10
129.0
 20
34.0
 30
0.0
 11
179.0
 21
34.0
 31
0.0
  0
LINE
  5
2D8
330
1F
100
AcDbEntity
  8
0
  6
Continuous
 62
     7
370
     0
100
AcDbLine
 10
129.0
 20
34.0
 30
0.0
 11
129.0
 21
30.0
 31
0.0
  0
LINE
  5
2D9
330
1F
100
AcDbEntity
  8
0
  6
Continuous
 62
     7
370
     0
100
AcDbLine
 10
179.0
 20
34.0
 30
0.0
 11
179.0
 21
30.0
 31
0.0
  0
LINE
  5
2DA
330
1F
100
AcDbEntity
  8
0
  6
Continuous
 62
     7
370
     0
100
AcDbLine
 10
37.9503430537
 20
13.0
 30
0.0
 11
37.9503430537
 21
20.5
 31
0.0
  0
LINE
  5
2DB
330
1F
100
AcDbEntity
  8
0
  6
Continuous
 62
     7
370
    15
100
AcDbLine
 10
37.9503430537
 20
13.0
 30
0.0
 11
50.7632108866
 21
13.0
 31
0.0
  0
LINE
  5
2DC
330
1F
100
AcDbEntity
  8
0
  6
Continuous
 62
     7
370
     0
100
AcDbLine
 10
37.9503430537
 20
20.5
 30
0.0
 11
25.0
 21
20.5
 31
0.0
  0
LINE
  5
2DD
330
1F
100
AcDbEntity
  8
0
  6
Continuous
 62
     7
370
     0
100
AcDbLine
 10
50.7632108866
 20
20.5
 30
0.0
 11
50.7632108866
 21
13.0
 31
0.0
  0
LINE
  5
2DE
330
1F
100
AcDbEntity
  8
0
  6
Continuous
 62
     7
370
     0
100
AcDbLine
 10
50.7632108866
 20
20.5
 30
0.0
 11
37.9503430537
 21
20.5
 31
0.0
  0
LINE
  5
2DF
330
1F
100
AcDbEntity
  8
0
  6
Continuous
 62
     7
370
    15
100
AcDbLine
 10
50.7632108866
 20
13.0
 30
0.0
 11
85.6310151534
 21
13.0
 31
0.0
  0
LINE
  5
2E0
330
1F
100
AcDbEntity
  8
0
  6
Continuous
 62
     7
370
     0
100
AcDbLine
 10
85.6310151534
 20
20.5
 30
0.0
 11
85.6310151534
 21
13.0
 31
0.0
  0
LINE
  5
2E1
330
1F
100
AcDbEntity
  8
0
  6
Continuous
 62
     7
370
     0
100
AcDbLine
 10
85.6310151534
 20
20.5
 30
0.0
 11
50.7632108866
 21
20.5
 31
0.0
  0
LINE
  5
2E2
330
1F
100
AcDbEntity
  8
0
  6
Continuous
 62
     7
370
    15
100
AcDbLine
 10
85.6310151534
 20
13.0
 30
0.0
 11
96.9735538908
 21
13.0
 31
0.0
  0
LINE
  5
2E3
330
1F
100
AcDbEntity
  8
0
  6
Continuous
 62
     7
370
     0
100
AcDbLine
 10
96.9735538908
 20
20.5
 30
0.0
 11
96.9735538908
 21
13.0
 31
0.0
  0
LINE
  5
2E4
330
1F
100
AcDbEntity
  8
0
  6
Continuous
 62
     7
370
     0
100
AcDbLine
 10
96.9735538908
 20
20.5
 30
0.0
 11
85.6310151534
 21
20.5
 31
0.0
  0
LINE
  5
2E5
330
1F
100
AcDbEntity
  8
0
  6
Continuous
 62
     7
370
    15
100
AcDbLine
 10
96.9735538908
 20
13.0
 30
0.0
 11
129.0
 21
13.0
 31
0.0
  0
LINE
  5
2E6
330
1F
100
AcDbEntity
  8
0
  6
CENTER
 62
     7
370
    15
100
AcDbLine
 10
133.5350227208
 20
16.5943757159
 30
0.0
 11
135.0350227208
 21
13.9962995046
 31
0.0
  0
LINE
  5
2E7
330
1F
100
AcDbEntity
  8
0
  6
CENTER
 62
     7
370
    15
100
AcDbLine
 10
136.5350227208
 20
16.5943757159
 30
0.0
 11
135.0350227208
 21
13.9962995046
 31
0.0
  0
LINE
  5
2E8
330
1F
100
AcDbEntity
  8
0
  6
CENTER
 62
     7
370
    15
100
AcDbLine
 10
136.5350227208
 20
16.5943757159
 30
0.0
 11
139.5350227208
 21
16.5943757159
 31
0.0
  0
LINE
  5
2E9
330
1F
100
AcDbEntity
  8
0
  6
CENTER
 62
     7
370
    15
100
AcDbLine
 10
136.5350227208
 20
16.5943757159
 30
0.0
 11
138.0350227208
 21
13.9962995046
 31
0.0
  0
LINE
  5
2EA
330
1F
100
AcDbEntity
  8
0
  6
CENTER
 62
     7
370
    15
100
AcDbLine
 10
139.5350227208
 20
16.5943757159
 30
0.0
 11
138.0350227208
 21
13.9962995046
 31
0.0
  0
LINE
  5
2EB
330
1F
100
AcDbEntity
  8
0
  6
Continuous
 62
     7
370
    15
100
AcDbLine
 10
144.3990295637
 20
16.6216693293
 30
0.0
 11
147.3990295637
 21
16.6216693293
 31
0.0
  0
LINE
  5
2EC
330
1F
100
AcDbEntity
  8
0
  6
Continuous
 62
     7
370
    15
100
AcDbLine
 10
147.3990295637
 20
16.6216693293
 30
0.0
 11
145.8990295637
 21
14.0235931179
 31
0.0
  0
LINE
  5
2ED
330
1F
100
AcDbEntity
  8
0
  6
Continuous
 62
     7
370
    15
100
AcDbLine
 10
144.3990295637
 20
16.6216693293
 30
0.0
 11
145.8990295637
 21
14.0235931179
 31
0.0
  0
LINE
  5
2EE
330
1F
100
AcDbEntity
  8
0
  6
CENTER
 62
     7
370
    15
100
AcDbLine
 10
147.3990295637
 20
16.6216693293
 30
0.0
 11
150.3990295637
 21
16.6216693293
 31
0.0
  0
LINE
  5
2EF
330
1F
100
AcDbEntity
  8
0
  6
CENTER
 62
     7
370
    15
100
AcDbLine
 10
150.3990295637
 20
16.6216693293
 30
0.0
 11
148.8990295637
 21
14.0235931179
 31
0.0
  0
LINE
  5
2F0
330
1F
100
AcDbEntity
  8
0
  6
CENTER
 62
     7
370
    15
100
AcDbLine
 10
147.3990295637
 20
16.6216693293
 30
0.0
 11
148.8990295637
 21
14.0235931179
 31
0.0
  0
LINE
  5
2F1
330
1F
100
AcDbEntity
  8
0
  6
Continuous
 62
     7
370
    15
100
AcDbLine
 10
158.6997342202
 20
16.4579076492
 30
0.0
 11
161.6997342202
 21
16.4579076492
 31
0.0
  0
LINE
  5
2F2
330
1F
100
AcDbEntity
  8
0
  6
Continuous
 62
     7
370
    15
100
AcDbLine
 10
161.6997342202
 20
16.4579076492
 30
0.0
 11
160.1997342202
 21
13.8598314379
 31
0.0
  0
LINE
  5
2F3
330
1F
100
AcDbEntity
  8
0
  6
Continuous
 62
     7
370
    15
100
AcDbLine
 10
158.6997342202
 20
16.4579076492
 30
0.0
 11
160.1997342202
 21
13.8598314379
 31
0.0
  0
LINE
  5
2F4
330
1F
100
AcDbEntity
  8
0
  6
Continuous
 62
     7
370
    15
100
AcDbLine
 10
171.1773135274
 20
22.3612920535
 30
0.0
 11
172.6773135274
 21
19.7632158421
 31
0.0
  0
ARC
  5
2F5
330
1F
100
AcDbEntity
  8
部品
100
AcDbCircle
 10
145.6750297508
 20
125.3799747882
 30
0.0
 40
0.75
100
AcDbArc
 50
0.0
 51
180.0
  0
ARC
  5
2F6
330
1F
100
AcDbEntity
  8
部品
100
AcDbCircle
 10
145.6750297508
 20
125.3799747882
 30
0.0
 40
0.75
100
AcDbArc
 50
180.0
 51
0.0
  0
ARC
  5
2F7
330
1F
100
AcDbEntity
  8
部品
100
AcDbCircle
 10
160.7750297508
 20
125.3799747882
 30
0.0
 40
0.75
100
AcDbArc
 50
0.0
 51
180.0
  0
ARC
  5
2F8
330
1F
100
AcDbEntity
  8
部品
100
AcDbCircle
 10
160.7750297508
 20
125.3799747882
 30
0.0
 40
0.75
100
AcDbArc
 50
180.0
 51
0.0
  0
ARC
  5
2F9
330
1F
100
AcDbEntity
  8
部品
100
AcDbCircle
 10
150.8250297508
 20
131.8049747882
 30
0.0
 40
0.1499999999999773
100
AcDbArc
 50
360.0
 51
90.0
  0
ARC
  5
2FA
330
1F
100
AcDbEntity
  8
部品
100
AcDbCircle
 10
149.6250297508
 20
131.8049747882
 30
0.0
 40
0.1500000000000057
100
AcDbArc
 50
90.0
 51
180.0
  0
ARC
  5
2FB
330
1F
100
AcDbEntity
  8
部品
100
AcDbCircle
 10
149.6250297508
 20
131.3549747882
 30
0.0
 40
0.1500000000000909
100
AcDbArc
 50
180.0
 51
270.0
  0
ARC
  5
2FC
330
1F
100
AcDbEntity
  8
部品
100
AcDbCircle
 10
150.8250297508
 20
131.3549747882
 30
0.0
 40
0.1500000000000909
100
AcDbArc
 50
270.0
 51
0.0
  0
ARC
  5
2FD
330
1F
100
AcDbEntity
  8
部品
100
AcDbCircle
 10
150.8250297508
 20
128.9249747882
 30
0.0
 40
0.1500000000000341
100
AcDbArc
 50
0.0
 51
90.0
  0
ARC
  5
2FE
330
1F
100
AcDbEntity
  8
部品
100
AcDbCircle
 10
149.6250297508
 20
128.9249747882
 30
0.0
 40
0.1500000000000057
100
AcDbArc
 50
90.0
 51
180.0
  0
ARC
  5
2FF
330
1F
100
AcDbEntity
  8
部品
100
AcDbCircle
 10
149.6250297508
 20
128.4749747882
 30
0.0
 40
0.1500000000000625
100
AcDbArc
 50
180.0
 51
270.0
  0
ARC
  5
300
330
1F
100
AcDbEntity
  8
部品
100
AcDbCircle
 10
150.8250297508
 20
128.4749747882
 30
0.0
 40
0.1500000000000341
100
AcDbArc
 50
270.0
 51
360.0
  0
ARC
  5
301
330
1F
100
AcDbEntity
  8
部品
100
AcDbCircle
 10
156.1250297508
 20
125.1999747882
 30
0.0
 40
0.2499999999999432
100
AcDbArc
 50
360.0
 51
46.0544804376
  0
ARC
  5
302
330
1F
100
AcDbEntity
  8
部品
100
AcDbCircle
 10
156.1250297508
 20
125.1999747882
 30
0.0
 40
0.2499999999999432
100
AcDbArc
 50
133.9455195624
 51
360.0
  0
CIRCLE
  5
303
330
1F
100
AcDbEntity
  8
部品
100
AcDbCircle
 10
156.1250297508
 20
128.0999747882
 30
0.0
 40
0.25
  0
CIRCLE
  5
304
330
1F
100
AcDbEntity
  8
部品
100
AcDbCircle
 10
156.1250297508
 20
122.2799747882
 30
0.0
 40
0.25
  0
CIRCLE
  5
305
330
1F
100
AcDbEntity
  8
部品
100
AcDbCircle
 10
156.1250297508
 20
120.8199747882
 30
0.0
 40
0.25
  0
CIRCLE
  5
306
330
1F
100
AcDbEntity
  8
部品
100
AcDbCircle
 10
86.9941838108
 20
125.3799747882
 30
0.0
 40
22.25006929558813
  0
CIRCLE
  5
307
330
1F
100
AcDbEntity
  8
部品
100
AcDbCircle
 10
86.9941838108
 20
125.3799747882
 30
0.0
 40
21.0000200241418
  0
CIRCLE
  5
308
330
1F
100
AcDbEntity
  8
部品
100
AcDbCircle
 10
86.9941838108
 20
125.3799747882
 30
0.0
 40
19.00000000000009
  0
CIRCLE
  5
309
330
1F
100
AcDbEntity
  8
部品
100
AcDbCircle
 10
86.9941838108
 20
125.3799747882
 30
0.0
 40
14.8000000000001
  0
CIRCLE
  5
30A
330
1F
100
AcDbEntity
  8
部品
100
AcDbCircle
 10
86.9941838108
 20
125.3799747882
 30
0.0
 40
13.90000000000009
  0
CIRCLE
  5
30B
330
1F
100
AcDbEntity
  8
部品
100
AcDbCircle
 10
86.9941838108
 20
125.3799747882
 30
0.0
 40
21.5000195584645
  0
CIRCLE
  5
30C
330
1F
100
AcDbEntity
  8
部品
100
AcDbCircle
 10
145.6750297508
 20
125.3799747882
 30
0.0
 40
0.7499999999998863
  0
CIRCLE
  5
30D
330
1F
100
AcDbEntity
  8
部品
100
AcDbCircle
 10
160.7750297508
 20
125.3799747882
 30
0.0
 40
0.75
  0
CIRCLE
  5
30E
330
1F
100
AcDbEntity
  8
部品
100
AcDbCircle
 10
156.1250297508
 20
122.2799747882
 30
0.0
 40
0.25
  0
CIRCLE
  5
30F
330
1F
100
AcDbEntity
  8
部品
100
AcDbCircle
 10
156.1250297508
 20
120.8199747882
 30
0.0
 40
0.25
  0
CIRCLE
  5
310
330
1F
100
AcDbEntity
  8
部品
100
AcDbCircle
 10
156.1250297508
 20
125.1999747882
 30
0.0
 40
0.2499999999999432
  0
ARC
  5
311
330
1F
100
AcDbEntity
  8
部品
100
AcDbCircle
 10
149.6250297508
 20
128.4749747882
 30
0.0
 40
0.1500000000000625
100
AcDbArc
 50
180.0
 51
270.0
  0
ARC
  5
312
330
1F
100
AcDbEntity
  8
部品
100
AcDbCircle
 10
150.8250297508
 20
128.4749747882
 30
0.0
 40
0.1500000000000341
100
AcDbArc
 50
270.0
 51
360.0
  0
ARC
  5
313
330
1F
100
AcDbEntity
  8
部品
100
AcDbCircle
 10
149.6250297508
 20
128.9249747882
 30
0.0
 40
0.1500000000000057
100
AcDbArc
 50
90.0
 51
180.0
  0
ARC
  5
314
330
1F
100
AcDbEntity
  8
部品
100
AcDbCircle
 10
150.8250297508
 20
128.9249747882
 30
0.0
 40
0.1500000000000341
100
AcDbArc
 50
0.0
 51
90.0
  0
ARC
  5
315
330
1F
100
AcDbEntity
  8
部品
100
AcDbCircle
 10
149.6250297508
 20
131.8049747882
 30
0.0
 40
0.1500000000000057
100
AcDbArc
 50
90.0
 51
180.0
  0
ARC
  5
316
330
1F
100
AcDbEntity
  8
部品
100
AcDbCircle
 10
149.6250297508
 20
131.3549747882
 30
0.0
 40
0.1500000000000909
100
AcDbArc
 50
180.0
 51
270.0
  0
ARC
  5
317
330
1F
100
AcDbEntity
  8
部品
100
AcDbCircle
 10
150.8250297508
 20
131.8049747882
 30
0.0
 40
0.1499999999999773
100
AcDbArc
 50
360.0
 51
90.0
  0
ARC
  5
318
330
1F
100
AcDbEntity
  8
部品
100
AcDbCircle
 10
150.8250297508
 20
131.3549747882
 30
0.0
 40
0.1500000000000909
100
AcDbArc
 50
270.0
 51
0.0
  0
CIRCLE
  5
319
330
1F
100
AcDbEntity
  8
部品
100
AcDbCircle
 10
156.1250297508
 20
128.0999747882
 30
0.0
 40
0.25
  0
CIRCLE
  5
31A
330
1F
100
AcDbEntity
  8
部品
 62
     4
100
AcDbCircle
 10
166.2750297508
 20
125.3799747882
 30
0.0
 40
1.700000000000045
  0
CIRCLE
  5
31B
330
1F
100
AcDbEntity
  8
部品
100
AcDbCircle
 10
166.2750297508
 20
125.3799747882
 30
0.0
 40
2.000000000000028
  0
SPLINE
  5
31C
330
1F
100
AcDbEntity
  8
部品
100
AcDbSpline
210
0.0
220
0.0
230
1.0
 70
     8
 71
     3
 72
     9
 73
     5
 74
     0
 42
0.00000001
 43
0.00000001
 40
4.139120743812411
 40
4.139120743812411
 40
4.139120743812411
 40
4.139120743812411
 40
4.21701510842933
 40
4.673773023352738
 40
4.673773023352738
 40
4.673773023352738
 40
4.673773023352738
 10
131.482298897916
 20
146.5799747882322
 30
0.0
 10
131.4995484873713
 20
146.5981878347577
 30
0.0
 10
131.6217291112222
 20
146.7184758750061
 30
0.0
 10
131.7718835938244
 20
146.8035205661011
 30
0.0
 10
131.9044050609945
 20
146.8799747882323
 30
0.0
  0
SPLINE
  5
31D
330
1F
100
AcDbEntity
  8
部品
100
AcDbSpline
210
0.0
220
0.0
230
1.0
 70
     8
 71
     3
 72
     9
 73
     5
 74
     0
 42
0.00000001
 43
0.00000001
 40
4.673773023352738
 40
4.673773023352738
 40
4.673773023352738
 40
4.673773023352738
 40
5.030877563930573
 40
5.673432907377744
 40
5.673432907377744
 40
5.673432907377744
 40
5.673432907377744
 10
131.9044050609945
 20
146.8799747882323
 30
0.0
 10
132.0080135943209
 20
146.9397485742519
 30
0.0
 10
132.3053105391308
 20
147.11357809526
 30
0.0
 10
132.5623649154481
 20
147.4161657343842
 30
0.0
 10
132.6842937063503
 20
147.629974788236
 30
0.0
  0
SPLINE
  5
31E
330
1F
100
AcDbEntity
  8
部品
  6
Continuous
 62
     6
100
AcDbSpline
210
0.0
220
0.0
230
1.0
 70
     8
 71
     3
 72
    11
 73
     7
 74
     0
 42
0.00000001
 43
0.00000001
 40
0.3496291636474255
 40
0.3496291636474255
 40
0.3496291636474255
 40
0.3496291636474255
 40
2.195433688174546
 40
4.21701510842933
 40
5.030877563930573
 40
5.673432907377744
 40
5.673432907377744
 40
5.673432907377744
 40
5.673432907377744
 10
128.7750297508337
 20
144.7636189633404
 30
0.0
 10
129.4959411552224
 20
144.597242875185
 30
0.0
 10
130.9101856836735
 20
144.4001995738618
 30
0.0
 10
131.0895356288971
 20
146.5752219663439
 30
0.0
 10
132.1878589710276
 20
146.9753217729483
 30
0.0
 10
132.5623649154481
 20
147.4161657343842
 30
0.0
 10
132.6842937063503
 20
147.629974788236
 30
0.0
  0
SPLINE
  5
31F
330
1F
100
AcDbEntity
  8
0
  6
Continuous
 62
     5
370
    15
100
AcDbSpline
210
0.0
220
0.0
230
1.0
 70
     8
 71
     3
 72
    11
 73
     7
 74
     0
 42
0.00000001
 43
0.00000001
 40
0.0
 40
0.0
 40
0.0
 40
0.0
 40
0.2830912462189042
 40
0.5136186913771149
 40
0.7601132866708651
 40
1.0
 40
1.0
 40
1.0
 40
1.0
 10
170.4919345489564
 20
15.190762615304
 30
0.0
 10
170.9116444740017
 20
15.69427279640126
 30
0.0
 10
171.6731334473947
 20
16.60780242250017
 30
0.0
 10
172.452761626739
 20
15.13555597948352
 30
0.0
 10
173.4823885345015
 20
13.90323770240837
 30
0.0
 10
174.1084303862232
 20
14.76549245284554
 30
0.0
 10
174.4171986705991
 20
15.190762615304
 30
0.0
  0
ELLIPSE
  5
320
330
1F
100
AcDbEntity
  8
部品
 62
     3
100
AcDbEllipse
 10
142.1750297508
 20
110.8740492748
 30
0.0
 11
-0.8499999999999943
 21
0.0
 31
0.0
210
0.0
220
0.0
230
1.0
 40
0.5219879438
 41
0.0
 42
6.283185307179586
  0
ELLIPSE
  5
321
330
1F
100
AcDbEntity
  8
部品
100
AcDbEllipse
 10
153.3750297508
 20
107.1934413088
 30
0.0
 11
2.0
 21
0.0
 31
0.0
210
0.0
220
0.0
230
1.0
 40
0.5
 41
5.557101160541157
 42
10.15086210740786
  0
ELLIPSE
  5
322
330
1F
100
AcDbEntity
  8
部品
100
AcDbEllipse
 10
153.3750297508
 20
110.3977353028
 30
0.0
 11
2.0
 21
0.0
 31
0.0
210
0.0
220
0.0
230
1.0
 40
0.5
 41
0.0
 42
3.141592653589793
  0
ELLIPSE
  5
323
330
1F
100
AcDbEntity
  8
部品
100
AcDbEllipse
 10
153.3750297508
 20
106.9336336876
 30
0.0
 11
1.699999999999989
 21
0.0
 31
0.0
210
0.0
220
0.0
230
1.0
 40
0.5
 41
0.0
 42
6.283185307179586
  0
ELLIPSE
  5
324
330
1F
100
AcDbEntity
  8
部品
 62
     3
100
AcDbEllipse
 10
142.1750297508
 20
139.8859006078
 30
0.0
 11
-0.8499999999999943
 21
0.0
 31
0.0
210
0.0
220
0.0
230
1.0
 40
0.5219879438
 41
0.0
 42
6.283185307179586
  0
ELLIPSE
  5
325
330
1F
100
AcDbEntity
  8
部品
100
AcDbEllipse
 10
153.3750297508
 20
139.7559964911
 30
0.0
 11
1.25
 21
0.0
 31
0.0
210
0.0
220
0.0
230
1.0
 40
0.4670391042
 41
0.0
 42
6.283185307179586
  0
DIMENSION
  5
326
330
1F
100
AcDbEntity
  8
寸法線
100
AcDbDimension
  2
*D2
 10
120.5657031365
 20
147.6299747882
 30
0.0
 11
120.5657031365
 21
125.3799747882
 31
0.0
 70
   160
  1
%%c<>
 71
     1
 42
-1.0
  3
SLDDIMSTYLE0
100
AcDbAlignedDimension
 13
128.7750297508
 23
103.1299747882
 33
0.0
 14
128.7750297508
 24
147.6299747882
 34
0.0
 50
90.0
100
AcDbRotatedDimension
  0
DIMENSION
  5
339
330
1F
100
AcDbEntity
  8
寸法線
100
AcDbDimension
  2
*D3
 10
96.8229680693
 20
115.5511905297
 30
0.0
 11
63.0852090247
 21
149.2889695743
 31
0.0
 70
   163
  1
<>
 71
     1
 42
-1.0
  3
SLDDIMSTYLE1
100
AcDbDiametricDimension
 15
77.1653995523
 25
135.2087590467
 35
0.0
 40
0.0
  0
DIMENSION
  5
343
330
1F
100
AcDbEntity
  8
寸法線
100
AcDbDimension
  2
*D4
 10
205.6606268534
 20
141.3799747882
 30
0.0
 11
205.6606268534
 21
124.6178190773
 31
0.0
 70
   160
  1
%%c<>
 71
     1
 42
-1.0
  3
SLDDIMSTYLE2
100
AcDbAlignedDimension
 13
173.9750297508
 23
109.3799747882
 33
0.0
 14
173.9750297508
 24
141.3799747882
 34
0.0
 50
90.0
100
AcDbRotatedDimension
  0
DIMENSION
  5
34F
330
1F
100
AcDbEntity
  8
寸法線
100
AcDbDimension
  2
*D5
 10
198.0921733202
 20
135.3799747882
 30
0.0
 11
198.0921733202
 21
124.6178190773
 31
0.0
 70
   160
  1
%%c<>
 71
     1
 42
-1.0
  3
SLDDIMSTYLE2
100
AcDbAlignedDimension
 13
181.0967120576
 23
115.3799747882
 33
0.0
 14
181.0967120576
 24
135.3799747882
 34
0.0
 50
90.0
100
AcDbRotatedDimension
  0
DIMENSION
  5
35A
330
1F
100
AcDbEntity
  8
寸法線
100
AcDbDimension
  2
*D6
 10
174.2750297508
 20
84.1955978315
 30
0.0
 11
183.6731595099
 21
84.1955978315
 31
0.0
 70
   160
 71
     1
 42
-1.0
  3
SLDDIMSTYLE3
100
AcDbAlignedDimension
 13
191.8010297508
 23
125.3799747882
 33
0.0
 14
174.2750297508
 24
98.2953824549
 34
0.0
100
AcDbRotatedDimension
  0
DIMENSION
  5
365
330
1F
100
AcDbEntity
  8
寸法線
100
AcDbDimension
  2
*D7
 10
128.7750297508
 20
84.1955978315
 30
0.0
 11
152.2871854617
 21
84.1955978315
 31
0.0
 70
   160
 71
     1
 42
-1.0
  3
SLDDIMSTYLE0
100
AcDbAlignedDimension
 13
174.2750297508
 23
98.2953824549
 33
0.0
 14
128.7750297508
 24
98.2953824549
 34
0.0
100
AcDbRotatedDimension
  0
DIMENSION
  5
36F
330
1F
100
AcDbEntity
  8
寸法線
100
AcDbDimension
  2
*D8
 10
168.4750297508
 20
92.7444291533
 30
0.0
 11
171.2289186191
 21
92.7444291533
 31
0.0
 70
   160
 71
     1
 42
-1.0
  3
SLDDIMSTYLE0
100
AcDbAlignedDimension
 13
174.2750297508
 23
109.6799747882
 33
0.0
 14
168.4750297508
 24
108.9299747882
 34
0.0
100
AcDbRotatedDimension
  0
DIMENSION
  5
37B
330
1F
100
AcDbEntity
  8
寸法線
100
AcDbDimension
  2
*D9
 10
147.1750297508
 20
92.7444291533
 30
0.0
 11
153.3020557026
 21
92.7444291533
 31
0.0
 70
   160
 71
     1
 42
-1.0
  3
SLDDIMSTYLE2
100
AcDbAlignedDimension
 13
159.1750297508
 23
108.9299747882
 33
0.0
 14
147.1750297508
 24
108.9299747882
 34
0.0
100
AcDbRotatedDimension
  0
DIMENSION
  5
387
330
1F
100
AcDbEntity
  8
寸法線
100
AcDbDimension
  2
*D10
 10
128.7750297508
 20
92.7444291533
 30
0.0
 11
134.4020557026
 21
92.7444291533
 31
0.0
 70
   160
  1
(<>)
 71
     1
 42
-1.0
  3
SLDDIMSTYLE2
100
AcDbAlignedDimension
 13
139.7750297508
 23
108.9299747882
 33
0.0
 14
128.7750297508
 24
103.1299747882
 34
0.0
100
AcDbRotatedDimension
  0
DIMENSION
  5
393
330
1F
100
AcDbEntity
  8
寸法線
100
AcDbDimension
  2
*D11
 10
139.7750297508
 20
92.7444291533
 30
0.0
 11
143.348003799
 21
92.7444291533
 31
0.0
 70
   160
 71
     1
 42
-1.0
  3
SLDDIMSTYLE0
100
AcDbAlignedDimension
 13
147.1750297508
 23
108.9299747882
 33
0.0
 14
139.7750297508
 24
108.9299747882
 34
0.0
100
AcDbRotatedDimension
  0
DIMENSION
  5
39F
330
1F
100
AcDbEntity
  8
寸法線
100
AcDbDimension
  2
*D12
 10
159.1750297508
 20
92.7444291533
 30
0.0
 11
163.5328074873
 21
92.7444291533
 31
0.0
 70
   160
 71
     1
 42
-1.0
  3
SLDDIMSTYLE0
100
AcDbAlignedDimension
 13
168.4750297508
 23
108.9299747882
 33
0.0
 14
159.1750297508
 24
108.9299747882
 34
0.0
100
AcDbRotatedDimension
  0
DIMENSION
  5
3AB
330
1F
100
AcDbEntity
  8
寸法線
100
AcDbDimension
  2
*D13
 10
178.2750297508
 20
92.7444291533
 30
0.0
 11
187.3271499789
 21
92.7444291533
 31
0.0
 70
   160
  1
(<>)
 71
     1
 42
-1.0
  3
SLDDIMSTYLE2
100
AcDbAlignedDimension
 13
181.2967120576
 23
115.5799747882
 33
0.0
 14
178.2750297508
 24
113.1799747882
 34
0.0
100
AcDbRotatedDimension
  0
DIMENSION
  5
3B9
330
1F
100
AcDbEntity
  8
寸法線
100
AcDbDimension
  2
*D15
 10
174.2750297508
 20
92.7444291533
 30
0.0
 11
176.4211408826
 21
92.7444291533
 31
0.0
 70
   160
 71
     1
 42
-1.0
  3
SLDDIMSTYLE4
100
AcDbAlignedDimension
 13
178.2750297508
 23
113.1799747882
 33
0.0
 14
174.2750297508
 24
109.6799747882
 34
0.0
100
AcDbRotatedDimension
  0
MTEXT
  5
3C8
330
1F
100
AcDbEntity
  8
寸法線
100
AcDbMText
 10
98.9750782006
 20
159.9698528896
 30
0.0
 40
3.5
 41
0.0
 71
     1
 72
     1
  1
M43 P=0.75
  7
SLDTEXTSTYLE0
 73
     1
 44
1.0
  0
MTEXT
  5
3C9
330
1F
100
AcDbEntity
  8
寸法線
100
AcDbMText
 10
106.3632923909
 20
173.9824377673
 30
0.0
 40
3.5
 41
0.0
 71
     1
 72
     1
  1
インデックスリング
  7
SLDTEXTSTYLE0
 73
     1
 44
1.0
  0
MTEXT
  5
3CA
330
1F
100
AcDbEntity
  8
寸法線
100
AcDbMText
 10
102.7695215953
 20
167.1828667852
 30
0.0
 40
3.5
 41
0.0
 71
     1
 72
     1
  1
フォーカスリング
  7
SLDTEXTSTYLE0
 73
     1
 44
1.0
  0
MTEXT
  5
3CB
330
1F
100
AcDbEntity
  8
寸法線
100
AcDbMText
 10
181.8525448952
 20
162.2753111703
 30
0.0
 40
3.5
 41
0.0
 71
     1
 72
     1
  1
アイリスリング
  7
SLDTEXTSTYLE0
 73
     1
 44
1.0
  0
MTEXT
  5
3CD
330
1F
100
AcDbEntity
  8
部品
100
AcDbMText
 10
152.112536331
 20
126.5727585752
 30
0.0
 40
3.5
 41
0.0
 71
     1
 72
     1
  1
∞
  7
SLDTEXTSTYLE1
 11
-1.836909530733566E-16
 21
-1.0
 31
0.0
 73
     1
 44
1.0
  0
MTEXT
  5
3CE
330
1F
100
AcDbEntity
  8
寸法線
100
AcDbMText
 10
176.9453820884
 20
82.9213580129
 30
0.0
 40
3.5
 41
0.0
 71
     1
 72
     1
  1
(IN AIR)
  7
SLDTEXTSTYLE0
 73
     1
 44
1.0
  0
MTEXT
  5
3CF
330
1F
100
AcDbEntity
  8
部品
100
AcDbMText
 10
157.1615301511
 20
133.5935253517
 30
0.0
 40
2.2
 41
0.0
 71
     1
 72
     1
  1
C
  7
SLDTEXTSTYLE0
 11
1.402716376212865E-14
 21
-1.0
 31
0.0
 73
     1
 44
1.0
  0
MTEXT
  5
3D0
330
1F
100
AcDbEntity
  8
部品
100
AcDbMText
 10
157.1615301511
 20
129.6236771972
 30
0.0
 40
2.2
 41
0.0
 71
     1
 72
     1
  1
6
  7
SLDTEXTSTYLE0
 11
1.402716376212865E-14
 21
-1.0
 31
0.0
 73
     1
 44
1.0
  0
MTEXT
  5
3D1
330
1F
100
AcDbEntity
  8
部品
100
AcDbMText
 10
157.1615301511
 20
127.235869467
 30
0.0
 40
2.2
 41
0.0
 71
     1
 72
     1
  1
8
  7
SLDTEXTSTYLE0
 11
1.402716376212865E-14
 21
-1.0
 31
0.0
 73
     1
 44
1.0
  0
MTEXT
  5
3D2
330
1F
100
AcDbEntity
  8
部品
100
AcDbMText
 10
157.1615301511
 20
130.5904363638
 30
0.0
 40
2.2
 41
0.0
 71
     1
 72
     1
  1
1
  7
SLDTEXTSTYLE0
 11
1.402716376212865E-14
 21
-1.0
 31
0.0
 73
     1
 44
1.0
  0
MTEXT
  5
3D3
330
1F
100
AcDbEntity
  8
部品
100
AcDbMText
 10
157.1615301511
 20
119.1451835005
 30
0.0
 40
2.2
 41
0.0
 71
     1
 72
     1
  1
4
  7
SLDTEXTSTYLE0
 11
1.402716376212865E-14
 21
-1.0
 31
0.0
 73
     1
 44
1.0
  0
MTEXT
  5
3D4
330
1F
100
AcDbEntity
  8
部品
100
AcDbMText
 10
157.1615301511
 20
120.5161335565
 30
0.0
 40
2.2
 41
0.0
 71
     1
 72
     1
  1
1
  7
SLDTEXTSTYLE0
 11
1.402716376212865E-14
 21
-1.0
 31
0.0
 73
     1
 44
1.0
  0
MTEXT
  5
3D5
330
1F
100
AcDbEntity
  8
部品
100
AcDbMText
 10
157.1615301511
 20
124.315915686
 30
0.0
 40
2.2
 41
0.0
 71
     1
 72
     1
  1
4
  7
SLDTEXTSTYLE0
 11
1.402716376212865E-14
 21
-1.0
 31
0.0
 73
     1
 44
1.0
  0
MTEXT
  5
3D6
330
1F
100
AcDbEntity
  8
部品
100
AcDbMText
 10
157.1615301511
 20
119.6588261758
 30
0.0
 40
2.2
 41
0.0
 71
     1
 72
     1
  1
.
  7
SLDTEXTSTYLE0
 11
1.402716376212865E-14
 21
-1.0
 31
0.0
 73
     1
 44
1.0
  0
MTEXT
  5
3D7
330
1F
100
AcDbEntity
  8
寸法線
100
AcDbMText
 10
190.046738463
 20
155.1481855413
 30
0.0
 40
3.5
 41
0.0
 71
     1
 72
     1
  1
1-32UNF
  7
SLDTEXTSTYLE0
 73
     1
 44
1.0
  0
MTEXT
  5
3D9
330
1F
100
AcDbEntity
  8
0
  6
Continuous
 62
     7
370
     0
100
AcDbMText
 10
262.027595847
 20
11.6176800467
 30
0.0
 40
3.5
 41
0.0
 71
     1
 72
     1
  1
A4
  7
SLDTEXTSTYLE2
 73
     1
 44
1.0
  0
MTEXT
  5
3DA
330
1F
100
AcDbEntity
  8
0
  6
Continuous
 62
     7
370
     0
100
AcDbMText
 10
234.5589626647
 20
11.6315990709
 30
0.0
 40
3.5
 41
0.0
 71
     1
 72
     1
  1
〔ｍｍ〕
  7
SLDTEXTSTYLE2
 73
     1
 44
1.0
  0
MTEXT
  5
3DB
330
1F
100
AcDbEntity
  8
0
  6
Continuous
 62
     7
370
     0
100
AcDbMText
 10
224.5598753271
 20
25.038308925
 30
0.0
 40
3.0
 41
0.0
 71
     1
 72
     1
  1
仕上
  7
SLDTEXTSTYLE2
 73
     1
 44
1.0
  0
MTEXT
  5
3DD
330
1F
100
AcDbEntity
  8
0
  6
Continuous
 62
     7
370
     0
100
AcDbMText
 10
143.7786872338
 20
29.5893151497
 30
0.0
 40
3.0
 41
0.0
 71
     1
 72
     1
  1
仕         上
  7
SLDTEXTSTYLE3
 73
     1
 44
1.0
  0
MTEXT
  5
3DE
330
1F
100
AcDbEntity
  8
0
  6
Continuous
 62
     7
370
     0
100
AcDbMText
 10
26.4376543937
 20
25.3812966666
 30
0.0
 40
3.0
 41
0.0
 71
     1
 72
     1
  1
符号
  7
SLDTEXTSTYLE2
 73
     1
 44
1.0
  0
MTEXT
  5
3DF
330
1F
100
AcDbEntity
  8
0
  6
Continuous
 62
     7
370
     0
100
AcDbMText
 10
35.8192414679
 20
25.3534799816
 30
0.0
 40
3.0
 41
0.0
 71
     1
 72
     1
  1
年　月　日
  7
SLDTEXTSTYLE2
 73
     1
 44
1.0
  0
MTEXT
  5
3E1
330
1F
100
AcDbEntity
  8
0
  6
Continuous
 62
     7
370
     0
100
AcDbMText
 10
67.877689901
 20
25.3043950547
 30
0.0
 40
3.0
 41
0.0
 71
     1
 72
     1
  1
変   更   内   容
  7
SLDTEXTSTYLE4
 73
     1
 44
1.0
  0
MTEXT
  5
3E2
330
1F
100
AcDbEntity
  8
0
  6
Continuous
 62
     7
370
     0
100
AcDbMText
 10
117.797249817
 20
25.3102880661
 30
0.0
 40
3.0
 41
0.0
 71
     1
 72
     1
  1
担 当
  7
SLDTEXTSTYLE2
 73
     1
 44
1.0
  0
MTEXT
  5
3E4
330
1F
100
AcDbEntity
  8
0
  6
Continuous
 62
     7
370
     0
100
AcDbMText
 10
68.4422761572
 20
32.766264895
 30
0.0
 40
3.5
 41
0.0
 71
     1
 72
     1
  1
図  面  登  録
  7
SLDTEXTSTYLE5
 73
     1
 44
1.0
  0
MTEXT
  5
3E5
330
1F
100
AcDbEntity
  8
0
  6
Continuous
 62
     7
370
     0
100
AcDbMText
 10
139.6384298402
 20
57.2593473392
 30
0.0
 40
2.5
 41
0.0
 71
     1
 72
     1
  1
一  般  公  差
  7
SLDTEXTSTYLE5
 73
     1
 44
1.0
  0
MTEXT
  5
3E6
330
1F
100
AcDbEntity
  8
0
  6
Continuous
 62
     7
370
     0
100
AcDbMText
 10
129.6855419582
 20
53.2732889271
 30
0.0
 40
2.5
 41
0.0
 71
     1
 72
     1
  1
呼び寸法区分
  7
SLDTEXTSTYLE2
 73
     1
 44
1.0
  0
MTEXT
  5
3E8
330
1F
100
AcDbEntity
  8
0
  6
Continuous
 62
     7
370
     0
100
AcDbMText
 10
131.0279122674
 20
41.2570923087
 30
0.0
 40
2.5
 41
0.0
 71
     1
 72
     1
  1
63をこえ250以下
  7
SLDTEXTSTYLE6
 73
     1
 44
1.0
  0
MTEXT
  5
3E9
330
1F
100
AcDbEntity
  8
0
  6
Continuous
 62
     7
370
     0
100
AcDbMText
 10
129.7873906708
 20
37.2224660086
 30
0.0
 40
2.5
 41
0.0
 71
     1
 72
     1
  1
250をこえ500以下
  7
SLDTEXTSTYLE6
 73
     1
 44
1.0
  0
MTEXT
  5
3EA
330
1F
100
AcDbEntity
  8
0
  6
Continuous
 62
     7
370
     0
100
AcDbMText
 10
132.0786997474
 20
45.3646934888
 30
0.0
 40
2.5
 41
0.0
 71
     1
 72
     1
  1
16をこえ63以下
  7
SLDTEXTSTYLE6
 73
     1
 44
1.0
  0
MTEXT
  5
3EC
330
1F
100
AcDbEntity
  8
0
  6
Continuous
 62
     7
370
     0
100
AcDbMText
 10
129.6571779143
 20
33.2468206455
 30
0.0
 40
2.5
 41
0.0
 71
     1
 72
     1
  1
500をこえ1000以下
  7
SLDTEXTSTYLE7
 73
     1
 44
1.0
  0
MTEXT
  5
3EE
330
1F
100
AcDbEntity
  8
0
  6
Continuous
 62
     7
370
     0
100
AcDbMText
 10
150.0933026879
 20
53.277150895
 30
0.0
 40
2.5
 41
0.0
 71
     1
 72
     1
  1
Ａ　級
  7
SLDTEXTSTYLE8
 73
     1
 44
1.0
  0
MTEXT
  5
3EF
330
1F
100
AcDbEntity
  8
0
  6
Continuous
 62
     7
370
     0
100
AcDbMText
 10
160.3123513361
 20
53.277150895
 30
0.0
 40
2.5
 41
0.0
 71
     1
 72
     1
  1
Ｂ　級
  7
SLDTEXTSTYLE8
 73
     1
 44
1.0
  0
MTEXT
  5
3F0
330
1F
100
AcDbEntity
  8
0
  6
Continuous
 62
     7
370
     0
100
AcDbMText
 10
170.4527919177
 20
53.2807392727
 30
0.0
 40
2.5
 41
0.0
 71
     1
 72
     1
  1
Ｃ　級
  7
SLDTEXTSTYLE8
 73
     1
 44
1.0
  0
MTEXT
  5
3F1
330
1F
100
AcDbEntity
  8
0
  6
Continuous
 62
     7
370
     0
100
AcDbMText
 10
181.1937363237
 20
45.9797057443
 30
0.0
 40
3.0
 41
0.0
 71
     1
 72
     1
  1
図　面
  7
SLDTEXTSTYLE2
 73
     1
 44
1.0
  0
MTEXT
  5
3F2
330
1F
100
AcDbEntity
  8
0
  6
Continuous
 62
     7
370
     0
100
AcDbMText
 10
181.1937363237
 20
41.7797057443
 30
0.0
 40
3.0
 41
0.0
 71
     1
 72
     1
  1
番  号
  7
SLDTEXTSTYLE3
 73
     1
 44
1.0
  0
MTEXT
  5
3F3
330
1F
100
AcDbEntity
  8
0
  6
Continuous
 62
     7
370
     0
100
AcDbMText
 10
181.4287364833
 20
33.9343140479
 30
0.0
 40
3.0
 41
0.0
 71
     1
 72
     1
  1
製品名
  7
SLDTEXTSTYLE2
 73
     1
 44
1.0
  0
MTEXT
  5
3F4
330
1F
100
AcDbEntity
  8
0
  6
Continuous
 62
     7
370
     0
100
AcDbMText
 10
181.3640727899
 20
25.5129473734
 30
0.0
 40
3.0
 41
0.0
 71
     1
 72
     1
  1
個数
  7
SLDTEXTSTYLE2
 73
     1
 44
1.0
  0
MTEXT
  5
3F5
330
1F
100
AcDbEntity
  8
0
  6
Continuous
 62
     7
370
     0
100
AcDbMText
 10
180.0
 20
18.2909090316
 30
0.0
 40
3.0
 41
0.0
 71
     1
 72
     1
  1
設計
  7
SLDTEXTSTYLE2
 73
     1
 44
1.0
  0
MTEXT
  5
3F6
330
1F
100
AcDbEntity
  8
0
  6
Continuous
 62
     7
370
     0
100
AcDbMText
 10
210.0
 20
18.2909090316
 30
0.0
 40
3.0
 41
0.0
 71
     1
 72
     1
  1
製図
  7
SLDTEXTSTYLE2
 73
     1
 44
1.0
  0
MTEXT
  5
3F7
330
1F
100
AcDbEntity
  8
0
  6
Continuous
 62
     7
370
     0
100
AcDbMText
 10
239.0
 20
18.2909090316
 30
0.0
 40
3.0
 41
0.0
 71
     1
 72
     1
  1
承認
  7
SLDTEXTSTYLE2
 73
     1
 44
1.0
  0
MTEXT
  5
3F8
330
1F
100
AcDbEntity
  8
0
  6
Continuous
 62
     7
370
     0
100
AcDbMText
 10
234.3560871506
 20
44.0028563077
 30
0.0
 40
3.0
 41
0.0
 71
     1
 72
     1
  1
材料
  7
SLDTEXTSTYLE2
 73
     1
 44
1.0
  0
MTEXT
  5
3F9
330
1F
100
AcDbEntity
  8
0
  6
Continuous
 62
     7
370
     0
100
AcDbMText
 10
232.205119778
 20
36.2703070027
 30
0.0
 40
3.0
 41
0.0
 71
     1
 72
     1
  1
表　面
  7
SLDTEXTSTYLE2
 73
     1
 44
1.0
  0
MTEXT
  5
3FA
330
1F
100
AcDbEntity
  8
0
  6
Continuous
 62
     7
370
     0
100
AcDbMText
 10
232.205119778
 20
32.2703070027
 30
0.0
 40
3.0
 41
0.0
 71
     1
 72
     1
  1
処　理
  7
SLDTEXTSTYLE2
 73
     1
 44
1.0
  0
MTEXT
  5
3FB
330
1F
100
AcDbEntity
  8
0
  6
Continuous
 62
     7
370
     0
100
AcDbMText
 10
244.8313450017
 20
25.1264760024
 30
0.0
 40
3.0
 41
0.0
 71
     1
 72
     1
  1
尺度
  7
SLDTEXTSTYLE2
 73
     1
 44
1.0
  0
MTEXT
  5
3FC
330
1F
100
AcDbEntity
  8
0
  6
Continuous
 62
     7
370
     0
100
AcDbMText
 10
28.2797777341
 20
18.1580183471
 30
0.0
 40
3.5
 41
0.0
 71
     1
 72
     1
  1
原型
  7
SLDTEXTSTYLE2
 73
     1
 44
1.0
  0
MTEXT
  5
3FD
330
1F
100
AcDbEntity
  8
0
  6
Continuous
 62
     7
370
     0
100
AcDbMText
 10
40.2608602039
 20
18.1169123537
 30
0.0
 40
3.5
 41
0.0
 71
     1
 72
     1
  1
機種
  7
SLDTEXTSTYLE2
 73
     1
 44
1.0
  0
MTEXT
  5
3FE
330
1F
100
AcDbEntity
  8
0
  6
Continuous
 62
     7
370
     0
100
AcDbMText
 10
86.9963207422
 20
18.1169123537
 30
0.0
 40
3.5
 41
0.0
 71
     1
 72
     1
  1
番号
  7
SLDTEXTSTYLE2
 73
     1
 44
1.0
  0
MTEXT
  5
3FF
330
1F
100
AcDbEntity
  8
0
  6
Continuous
 62
     7
370
     0
100
AcDbMText
 10
141.3926927284
 20
49.2532741857
 30
0.0
 40
2.5
 41
0.0
 71
     1
 72
     1
  1
16以下
  7
SLDTEXTSTYLE6
 73
     1
 44
1.0
  0
INSERT
  5
405
330
1F
100
AcDbEntity
  8
0
  6
Continuous
 62
     7
370
     0
100
AcDbBlockReference
  2
SW_NOTE_0
 10
202.6784857999
 20
23.964097704
 30
0.0
  0
MTEXT
  5
406
330
1F
100
AcDbEntity
  8
0
  6
Continuous
 62
     7
370
     0
100
AcDbMText
 10
248.6595093175
 20
11.5975215342
 30
0.0
 40
3.5
 41
0.0
 71
     1
 72
     1
  1
三角法
  7
SLDTEXTSTYLE2
 73
     1
 44
1.0
  0
MTEXT
  5
407
330
1F
100
AcDbEntity
  8
0
  6
Continuous
 62
     7
370
     0
100
AcDbMText
 10
169.6528599867
 20
32.9579680883
 30
0.0
 40
1.8520833333
 41
0.0
 71
     1
 72
     1
  1
± ４
  7
SLDTEXTSTYLE0
 73
     1
 44
1.0
  0
MTEXT
  5
408
330
1F
100
AcDbEntity
  8
0
  6
Continuous
 62
     7
370
     0
100
AcDbMText
 10
169.5878723615
 20
36.782832769
 30
0.0
 40
1.8520833333
 41
0.0
 71
     1
 72
     1
  1
± ３
  7
SLDTEXTSTYLE0
 73
     1
 44
1.0
  0
MTEXT
  5
409
330
1F
100
AcDbEntity
  8
0
  6
Continuous
 62
     7
370
     0
100
AcDbMText
 10
169.6177150976
 20
40.7872175469
 30
0.0
 40
1.8520833333
 41
0.0
 71
     1
 72
     1
  1
± ２
  7
SLDTEXTSTYLE0
 73
     1
 44
1.0
  0
MTEXT
  5
40A
330
1F
100
AcDbEntity
  8
0
  6
Continuous
 62
     7
370
     0
100
AcDbMText
 10
159.5023847999
 20
32.9680906138
 30
0.0
 40
1.8520833333
 41
0.0
 71
     1
 72
     1
  1
± ２
  7
SLDTEXTSTYLE0
 73
     1
 44
1.0
  0
MTEXT
  5
40B
330
1F
100
AcDbEntity
  8
0
  6
Continuous
 62
     7
370
     0
100
AcDbMText
 10
159.5238356994
 20
36.7479347104
 30
0.0
 40
1.8520833333
 41
0.0
 71
     1
 72
     1
  1
±１.２
  7
SLDTEXTSTYLE0
 73
     1
 44
1.0
  0
MTEXT
  5
40C
330
1F
100
AcDbEntity
  8
0
  6
Continuous
 62
     7
370
     0
100
AcDbMText
 10
159.5390953123
 20
40.7711262981
 30
0.0
 40
1.8520833333
 41
0.0
 71
     1
 72
     1
  1
±０.８
  7
SLDTEXTSTYLE0
 73
     1
 44
1.0
  0
MTEXT
  5
40D
330
1F
100
AcDbEntity
  8
0
  6
Continuous
 62
     7
370
     0
100
AcDbMText
 10
149.5680850091
 20
32.9683278831
 30
0.0
 40
1.8520833333
 41
0.0
 71
     1
 72
     1
  1
±０.８
  7
SLDTEXTSTYLE0
 73
     1
 44
1.0
  0
MTEXT
  5
40E
330
1F
100
AcDbEntity
  8
0
  6
Continuous
 62
     7
370
     0
100
AcDbMText
 10
159.4890020128
 20
44.7428570433
 30
0.0
 40
1.8520833333
 41
0.0
 71
     1
 72
     1
  1
±０.５
  7
SLDTEXTSTYLE0
 73
     1
 44
1.0
  0
MTEXT
  5
40F
330
1F
100
AcDbEntity
  8
0
  6
Continuous
 62
     7
370
     0
100
AcDbMText
 10
149.593552679
 20
40.7629808009
 30
0.0
 40
1.8520833333
 41
0.0
 71
     1
 72
     1
  1
±０.３
  7
SLDTEXTSTYLE0
 73
     1
 44
1.0
  0
MTEXT
  5
410
330
1F
100
AcDbEntity
  8
0
  6
Continuous
 62
     7
370
     0
100
AcDbMText
 10
149.5614412498
 20
44.7593267654
 30
0.0
 40
1.8520833333
 41
0.0
 71
     1
 72
     1
  1
±０.２
  7
SLDTEXTSTYLE0
 73
     1
 44
1.0
  0
MTEXT
  5
411
330
1F
100
AcDbEntity
  8
0
  6
Continuous
 62
     7
370
     0
100
AcDbMText
 10
149.5453451335
 20
36.7790673621
 30
0.0
 40
1.8520833333
 41
0.0
 71
     1
 72
     1
  1
±０.５
  7
SLDTEXTSTYLE0
 73
     1
 44
1.0
  0
MTEXT
  5
412
330
1F
100
AcDbEntity
  8
0
  6
Continuous
 62
     7
370
     0
100
AcDbMText
 10
169.5047164367
 20
48.6269624212
 30
0.0
 40
1.8520833333
 41
0.0
 71
     1
 72
     1
  1
± １
  7
SLDTEXTSTYLE0
 73
     1
 44
1.0
  0
MTEXT
  5
413
330
1F
100
AcDbEntity
  8
0
  6
Continuous
 62
     7
370
     0
100
AcDbMText
 10
159.4156077437
 20
48.6312472796
 30
0.0
 40
1.8520833333
 41
0.0
 71
     1
 72
     1
  1
±０.３
  7
SLDTEXTSTYLE0
 73
     1
 44
1.0
  0
MTEXT
  5
414
330
1F
100
AcDbEntity
  8
0
  6
Continuous
 62
     7
370
     0
100
AcDbMText
 10
149.5726992392
 20
48.6460960559
 30
0.0
 40
1.8520833333
 41
0.0
 71
     1
 72
     1
  1
±０.１
  7
SLDTEXTSTYLE0
 73
     1
 44
1.0
  0
MTEXT
  5
415
330
1F
100
AcDbEntity
  8
0
  6
Continuous
 62
     7
370
     0
100
AcDbMText
 10
169.2651588964
 20
44.4904474307
 30
0.0
 40
1.8520833333
 41
0.0
 71
     1
 72
     1
  1
±１.５
  7
SLDTEXTSTYLE0
 73
     1
 44
1.0
  0
MTEXT
  5
416
330
1F
100
AcDbEntity
  8
0
  6
Continuous
 62
     7
370
     0
100
AcDbMText
 10
186.6930091085
 20
52.9371333461
 30
0.0
 40
3.7041666667
 41
0.0
 71
     1
 72
     1
  1
株式会社
  7
SLDTEXTSTYLE0
 73
     1
 44
1.0
  0
INSERT
  5
420
330
1F
100
AcDbEntity
  8
0
  6
Continuous
 62
     7
370
     0
100
AcDbBlockReference
  2
SW_NOTE_1
 10
236.8564175258
 20
25.4278727855
 30
0.0
  0
MTEXT
  5
421
330
1F
100
AcDbEntity
  8
0
  6
Continuous
 62
     7
370
     0
100
AcDbMText
 10
118.71113943
 20
33.4815324478
 30
0.0
 40
3.5
 41
0.0
 71
     1
 72
     1
  1
桑名
  7
SLDTEXTSTYLE2
 73
     1
 44
1.0
  0
MTEXT
  5
422
330
1F
100
AcDbEntity
  8
0
  6
Continuous
 62
     7
370
     0
100
AcDbMText
 10
37.4372272454
 20
33.507732254
 30
0.0
 40
3.5
 41
0.0
 71
     1
 72
     1
  1
12/1/24
  7
SLDTEXTSTYLE2
 73
     1
 44
1.0
  0
MTEXT
  5
423
330
1F
100
AcDbEntity
  8
0
  6
Continuous
 62
     7
370
     0
100
AcDbMText
 10
159.1303705491
 20
24.7800314899
 30
0.0
 40
2.1166666667
 41
0.0
 71
     1
 72
     1
  1
25
  7
SLDTEXTSTYLE0
 73
     1
 44
1.0
  0
MTEXT
  5
424
330
1F
100
AcDbEntity
  8
0
  6
Continuous
 62
     7
370
     0
100
AcDbMText
 10
171.1218221124
 20
25.0459069032
 30
0.0
 40
2.1166666667
 41
0.0
 71
     1
 72
     1
  1
100
  7
SLDTEXTSTYLE0
 73
     1
 44
1.0
  0
MTEXT
  5
425
330
1F
100
AcDbEntity
  8
0
  6
Continuous
 62
     7
370
     0
100
AcDbMText
 10
145.7776596974
 20
24.8076969273
 30
0.0
 40
2.1166666667
 41
0.0
 71
     1
 72
     1
  1
6.3
  7
SLDTEXTSTYLE0
 73
     1
 44
1.0
  0
INSERT
  5
42B
330
1F
100
AcDbEntity
  8
0
  6
Continuous
 62
     7
370
     0
100
AcDbBlockReference
  2
SW_NOTE_2
 10
132.7953934209
 20
22.1442498528
 30
0.0
  0
MTEXT
  5
42C
330
1F
100
AcDbEntity
  8
0
  6
Continuous
 62
     7
370
     0
100
AcDbMText
 10
194.1121320635
 20
24.8595380272
 30
0.0
 40
3.5
 41
0.0
 71
     1
 72
     1
  1
1
  7
SLDTEXTSTYLE0
 73
     1
 44
1.0
  0
MTEXT
  5
42D
330
1F
100
AcDbEntity
  8
0
  6
Continuous
 62
     7
370
     0
100
AcDbMText
 10
257.3285930971
 20
25.0006000191
 30
0.0
 40
3.5
 41
0.0
 71
     1
 72
     1
  1
1/1
  7
SLDTEXTSTYLE0
 73
     1
 44
1.0
  0
MTEXT
  5
42E
330
1F
100
AcDbEntity
  8
0
  6
Continuous
 62
     7
370
     0
100
AcDbMText
 10
223.3803660395
 20
18.3946092409
 30
0.0
 40
3.5
 41
0.0
 71
     1
 72
     1
  1
桑名
  7
SLDTEXTSTYLE2
 73
     1
 44
1.0
  0
MTEXT
  5
42F
330
1F
100
AcDbEntity
  8
0
  6
Continuous
 62
     7
370
     0
100
AcDbMText
 10
210.5906892698
 20
54.5583329342
 30
0.0
 40
5.2916666667
 41
0.0
 71
     1
 72
     1
  1
ケンコ-・トキナ-
  7
SLDTEXTSTYLE0
 73
     1
 44
1.0
  0
MTEXT
  5
430
330
1F
100
AcDbEntity
  8
0
  6
Continuous
 62
     7
370
     0
100
AcDbMText
 10
199.3580554053
 20
33.7369373639
 30
0.0
 40
3.7041666667
 41
0.0
 71
     1
 72
     1
  1
KCM-H0514MP
  7
SLDTEXTSTYLE0
 73
     1
 44
1.0
  0
MTEXT
  5
431
330
1F
100
AcDbEntity
  8
0
  6
Continuous
 62
     7
370
     0
100
AcDbMText
 10
253.2871210524
 20
18.4964754139
 30
0.0
 40
3.5
 41
0.0
 71
     1
 72
     1
  1
斉藤
  7
SLDTEXTSTYLE2
 73
     1
 44
1.0
  0
MTEXT
  5
432
330
1F
100
AcDbEntity
  8
0
  6
Continuous
 62
     7
370
     0
100
AcDbMText
 10
57.012217616
 20
18.1169123537
 30
0.0
 40
3.5
 41
0.0
 71
     1
 72
     1
  1
KCM-H0514MP
  7
SLDTEXTSTYLE0
 73
     1
 44
1.0
  0
MTEXT
  5
433
330
1F
100
AcDbEntity
  8
0
  6
Continuous
 62
     7
370
     0
100
AcDbMText
 10
198.812388179
 20
43.5220867689
 30
0.0
 40
3.7041666667
 41
0.0
 71
     1
 72
     1
  1
TSTM-209
  7
SLDTEXTSTYLE0
 73
     1
 44
1.0
  0
INSERT
  5
434
330
1F
100
AcDbEntity
  8
寸法線
100
AcDbBlockReference
  2
_Open30
 10
176.8102050491
 20
138.0799747882
 30
0.0
 41
2.0
 42
2.0
 50
230.1229250518
  0
LINE
  5
435
330
1F
100
AcDbEntity
  8
寸法線
100
AcDbLine
 10
206.9644669851
 20
150.82694438
 30
0.0
 11
187.4596628953
 21
150.82694438
 31
0.0
  0
LINE
  5
436
330
1F
100
AcDbEntity
  8
寸法線
100
AcDbLine
 10
187.4596628953
 20
150.82694438
 30
0.0
 11
176.8102050491
 21
138.0799747882
 31
0.0
  0
INSERT
  5
437
330
1F
100
AcDbEntity
  8
寸法線
100
AcDbBlockReference
  2
_Open30
 10
130.0092764723
 20
146.5799747882
 30
0.0
 41
2.0
 42
2.0
 50
308.7492057976
  0
LINE
  5
438
330
1F
100
AcDbEntity
  8
寸法線
100
AcDbLine
 10
97.7551454949
 20
155.6669303922
 30
0.0
 11
122.7164306479
 21
155.6669303922
 31
0.0
  0
LINE
  5
439
330
1F
100
AcDbEntity
  8
寸法線
100
AcDbLine
 10
122.7164306479
 20
155.6669303922
 30
0.0
 11
130.0092764723
 21
146.5799747882
 31
0.0
  0
INSERT
  5
43A
330
1F
100
AcDbEntity
  8
寸法線
100
AcDbBlockReference
  2
_Open30
 10
164.5187793286
 20
142.0930459568
 30
0.0
 41
2.0
 42
2.0
 50
226.6274439377
  0
LINE
  5
43B
330
1F
100
AcDbEntity
  8
寸法線
100
AcDbLine
 10
203.0698483046
 20
157.4969810118
 30
0.0
 11
179.0715865251
 21
157.4969810118
 31
0.0
  0
LINE
  5
43C
330
1F
100
AcDbEntity
  8
寸法線
100
AcDbLine
 10
179.0715865251
 20
157.4969810118
 30
0.0
 11
164.5187793286
 21
142.0930459568
 31
0.0
  0
INSERT
  5
43D
330
1F
100
AcDbEntity
  8
寸法線
100
AcDbBlockReference
  2
_Open30
 10
143.4750504436
 20
142.0851064229
 30
0.0
 41
2.0
 42
2.0
 50
304.708087405
  0
LINE
  5
43E
330
1F
100
AcDbEntity
  8
寸法線
100
AcDbLine
 10
100.0475084172
 20
162.0346051761
 30
0.0
 11
129.6571961624
 21
162.0346051761
 31
0.0
  0
LINE
  5
43F
330
1F
100
AcDbEntity
  8
寸法線
100
AcDbLine
 10
129.6571961624
 20
162.0346051761
 30
0.0
 11
143.4750504436
 21
142.0851064229
 31
0.0
  0
INSERT
  5
440
330
1F
100
AcDbEntity
  8
寸法線
100
AcDbBlockReference
  2
_Open30
 10
152.9359251154
 20
141.9799747882
 30
0.0
 41
2.0
 42
2.0
 50
303.4119294547
  0
LINE
  5
441
330
1F
100
AcDbEntity
  8
寸法線
100
AcDbLine
 10
104.0065009667
 20
168.9746182518
 30
0.0
 11
135.128172033
 21
168.9746182518
 31
0.0
  0
LINE
  5
442
330
1F
100
AcDbEntity
  8
寸法線
100
AcDbLine
 10
135.128172033
 20
168.9746182518
 30
0.0
 11
152.9359251154
 21
141.9799747882
 31
0.0
  0
HATCH
  5
443
330
1F
100
AcDbEntity
  8
部品
 62
     7
100
AcDbHatch
 10
0.0
 20
0.0
 30
0.0
210
0.0
220
0.0
230
1.0
  2
ANSI31
 70
     0
 71
     0
 91
        1
 92
        0
 93
        2
 72
     2
 10
145.6750297508338
 20
125.3799747882322
 40
0.7500000000000007
 50
180.0
 51
360.0000000000008
 73
     1
 72
     2
 10
145.6750297508338
 20
125.3799747882322
 40
0.7500000000000007
 50
0.0
 51
180.0
 73
     1
 97
        0
 75
     0
 76
     1
 52
0.0
 41
0.0393700787
 77
     0
 78
     1
 53
45.0
 43
0.0
 44
0.0
 45
-0.0883883476483184
 46
0.0883883476483184
 79
     0
 98
        1
 10
0.0
 20
0.0
  0
HATCH
  5
444
330
1F
100
AcDbEntity
  8
部品
100
AcDbHatch
 10
0.0
 20
0.0
 30
0.0
210
0.0
220
0.0
230
1.0
  2
ANSI31
 70
     0
 71
     0
 91
        1
 92
        0
 93
        2
 72
     2
 10
160.7750297508337
 20
125.3799747882322
 40
0.7500000000000007
 50
180.0000000000051
 51
360.0000000000051
 73
     1
 72
     2
 10
160.7750297508337
 20
125.3799747882322
 40
0.7500000000000007
 50
0.0000000000043425
 51
180.0000000000051
 73
     1
 97
        0
 75
     0
 76
     1
 52
0.0
 41
0.0393700787
 77
     0
 78
     1
 53
45.0
 43
0.0
 44
0.0
 45
-0.0883883476483184
 46
0.0883883476483184
 79
     0
 98
        1
 10
0.0
 20
0.0
  0
HATCH
  5
445
330
1F
100
AcDbEntity
  8
部品
 62
   104
100
AcDbHatch
 10
0.0
 20
0.0
 30
0.0
210
0.0
220
0.0
230
1.0
  2
ANSI31
 70
     0
 71
     0
 91
        1
 92
        0
 93
        7
 72
     1
 10
128.7750297508338
 20
146.8799747882323
 11
128.8150297508338
 21
146.8799747882323
 72
     1
 10
128.8150297508338
 20
146.8799747882323
 11
128.8150297508338
 21
147.6299747882322
 72
     1
 10
128.8150297508338
 20
147.6299747882322
 11
132.6842937063503
 21
147.629974788236
 72
     4
 94
        3
 73
     1
 74
     0
 95
        9
 96
        5
 40
4.673773023352738
 40
4.673773023352738
 40
4.673773023352738
 40
4.673773023352738
 40
5.316328366799909
 40
5.673432907377744
 40
5.673432907377744
 40
5.673432907377744
 40
5.673432907377744
 10
132.6842937063503
 20
147.629974788236
 42
1.0
 10
132.5623649154481
 20
147.4161657343842
 42
1.0
 10
132.3053105391308
 20
147.11357809526
 42
1.0
 10
132.0080135943209
 20
146.9397485742519
 42
1.0
 10
131.9044050609945
 20
146.8799747882323
 42
1.0
 72
     4
 94
        3
 73
     1
 74
     0
 95
        9
 96
        5
 40
4.139120743812412
 40
4.139120743812412
 40
4.139120743812412
 40
4.139120743812412
 40
4.59587865873582
 40
4.673773023352739
 40
4.673773023352739
 40
4.673773023352739
 40
4.673773023352739
 10
131.9044050609945
 20
146.8799747882323
 42
1.0
 10
131.7718835938244
 20
146.8035205661011
 42
1.0
 10
131.6217291112222
 20
146.7184758750061
 42
1.0
 10
131.4995484873713
 20
146.5981878347577
 42
1.0
 10
131.482298897916
 20
146.5799747882322
 42
1.0
 72
     1
 10
131.482298897916
 20
146.5799747882322
 11
129.0750297508337
 21
146.5799747882322
 72
     1
 10
129.0750297508337
 20
146.5799747882322
 11
128.7750297508338
 21
146.8799747882323
 97
        0
 75
     0
 76
     1
 52
0.0
 41
0.1968503937
 77
     0
 78
     1
 53
45.0
 43
0.0
 44
0.0
 45
-0.4419417382415922
 46
0.4419417382415922
 79
     0
 98
        1
 10
0.0
 20
0.0
  0
HATCH
  5
446
330
1F
100
AcDbEntity
  8
部品
 62
     7
100
AcDbHatch
 10
0.0
 20
0.0
 30
0.0
210
0.0
220
0.0
230
1.0
  2
ANSI31
 70
     0
 71
     0
 91
        1
 92
        0
 93
        8
 72
     2
 10
150.8250297508339
 20
131.8049747882323
 40
0.1499999999999696
 50
359.99999999999
 51
450.0000000000117
 73
     1
 72
     1
 10
150.8250297508339
 20
131.9549747882323
 11
149.6250297508339
 21
131.9549747882323
 72
     2
 10
149.6250297508339
 20
131.8049747882323
 40
0.1500000000000112
 50
90.0
 51
179.9999999999892
 73
     1
 72
     1
 10
149.4750297508339
 20
131.8049747882323
 11
149.4750297508339
 21
131.3549747882324
 72
     2
 10
149.625029750834
 20
131.3549747882323
 40
0.1500000000000806
 50
179.9999999999674
 51
269.9999999999682
 73
     1
 72
     1
 10
149.6250297508339
 20
131.2049747882323
 11
150.8250297508339
 21
131.2049747882323
 72
     2
 10
150.8250297508338
 20
131.3549747882323
 40
0.1500000000000806
 50
270.0000000000334
 51
360.0000000000334
 73
     1
 72
     1
 10
150.9750297508339
 20
131.3549747882324
 11
150.9750297508339
 21
131.8049747882323
 97
        0
 75
     0
 76
     1
 52
0.0
 41
0.0393700787
 77
     0
 78
     1
 53
45.0
 43
0.0
 44
0.0
 45
-0.0883883476483184
 46
0.0883883476483184
 79
     0
 98
        1
 10
0.0
 20
0.0
  0
HATCH
  5
447
330
1F
100
AcDbEntity
  8
部品
100
AcDbHatch
 10
0.0
 20
0.0
 30
0.0
210
0.0
220
0.0
230
1.0
  2
ANSI31
 70
     0
 71
     0
 91
        1
 92
        0
 93
        8
 72
     2
 10
150.8250297508339
 20
128.9249747882323
 40
0.1500000000000251
 50
0.0000000000108563
 51
89.99999999998914
 73
     1
 72
     1
 10
150.8250297508339
 20
129.0749747882323
 11
149.6250297508339
 21
129.0749747882323
 72
     2
 10
149.6250297508339
 20
128.9249747882323
 40
0.1499999999999974
 50
90.0
 51
180.0
 73
     1
 72
     1
 10
149.4750297508339
 20
128.9249747882323
 11
149.4750297508339
 21
128.4749747882323
 72
     2
 10
149.6250297508339
 20
128.4749747882323
 40
0.150000000000039
 50
179.9999999999783
 51
269.99999999999
 73
     1
 72
     1
 10
149.6250297508339
 20
128.3249747882322
 11
150.8250297508339
 21
128.3249747882322
 72
     2
 10
150.8250297508339
 20
128.4749747882323
 40
0.1500000000000112
 50
270.0000000000008
 51
359.9999999999791
 73
     1
 72
     1
 10
150.9750297508339
 20
128.4749747882322
 11
150.9750297508339
 21
128.9249747882323
 97
        0
 75
     0
 76
     1
 52
0.0
 41
0.0393700787
 77
     0
 78
     1
 53
45.0
 43
0.0
 44
0.0
 45
-0.0883883476483184
 46
0.0883883476483184
 79
     0
 98
        1
 10
0.0
 20
0.0
  0
HATCH
  5
448
330
1F
100
AcDbEntity
  8
部品
 62
   104
100
AcDbHatch
 10
0.0
 20
0.0
 30
0.0
210
0.0
220
0.0
230
1.0
  2
ANSI31
 70
     0
 71
     0
 91
        1
 92
        0
 93
        3
 72
     2
 10
156.125029750834
 20
125.1999747882324
 40
0.2499999999999383
 50
359.9999999999878
 51
406.0544804376214
 73
     1
 72
     1
 10
156.2985232665631
 20
125.3799747882322
 11
155.9515362351048
 21
125.3799747882322
 72
     2
 10
156.125029750834
 20
125.1999747882324
 40
0.2499999999999287
 50
133.9455195623748
 51
359.9999999999878
 73
     1
 97
        0
 75
     0
 76
     1
 52
0.0
 41
0.0393700787
 77
     0
 78
     1
 53
45.0
 43
0.0
 44
0.0
 45
-0.0883883476483184
 46
0.0883883476483184
 79
     0
 98
        1
 10
0.0
 20
0.0
  0
HATCH
  5
449
330
1F
100
AcDbEntity
  8
部品
 62
   104
100
AcDbHatch
 10
0.0
 20
0.0
 30
0.0
210
0.0
220
0.0
230
1.0
  2
ANSI31
 70
     0
 71
     0
 91
        1
 92
        0
 93
        1
 72
     2
 10
156.1250297508339
 20
128.0999747882323
 40
0.2500000000000002
 50
0.0
 51
360.0
 73
     1
 97
        0
 75
     0
 76
     1
 52
0.0
 41
0.0393700787
 77
     0
 78
     1
 53
45.0
 43
0.0
 44
0.0
 45
-0.0883883476483184
 46
0.0883883476483184
 79
     0
 98
        1
 10
0.0
 20
0.0
  0
HATCH
  5
44A
330
1F
100
AcDbEntity
  8
部品
 62
   104
100
AcDbHatch
 10
0.0
 20
0.0
 30
0.0
210
0.0
220
0.0
230
1.0
  2
ANSI31
 70
     0
 71
     0
 91
        1
 92
        0
 93
        1
 72
     2
 10
156.1250297508339
 20
122.2799747882324
 40
0.2500000000000002
 50
0.0
 51
360.0
 73
     1
 97
        0
 75
     0
 76
     1
 52
0.0
 41
0.0393700787
 77
     0
 78
     1
 53
45.0
 43
0.0
 44
0.0
 45
-0.0883883476483184
 46
0.0883883476483184
 79
     0
 98
        1
 10
0.0
 20
0.0
  0
HATCH
  5
44B
330
1F
100
AcDbEntity
  8
部品
 62
   104
100
AcDbHatch
 10
0.0
 20
0.0
 30
0.0
210
0.0
220
0.0
230
1.0
  2
ANSI31
 70
     0
 71
     0
 91
        1
 92
        0
 93
        1
 72
     2
 10
156.1250297508339
 20
120.8199747882324
 40
0.2500000000000002
 50
0.0
 51
360.0
 73
     1
 97
        0
 75
     0
 76
     1
 52
0.0
 41
0.0393700787
 77
     0
 78
     1
 53
45.0
 43
0.0
 44
0.0
 45
-0.0883883476483184
 46
0.0883883476483184
 79
     0
 98
        1
 10
0.0
 20
0.0
  0
ENDSEC
  0
SECTION
  2
OBJECTS
  0
DICTIONARY
  5
C
330
0
100
AcDbDictionary
281
     1
  3
ACAD_GROUP
350
D
  3
ACAD_LAYOUT
350
1A
  3
ACAD_MLINESTYLE
350
17
  3
ACAD_PLOTSETTINGS
350
19
  3
ACAD_PLOTSTYLENAME
350
E
  0
DICTIONARY
  5
D
102
{ACAD_REACTORS
330
C
102
}
330
C
100
AcDbDictionary
281
     1
  0
DICTIONARY
  5
1A
102
{ACAD_REACTORS
330
C
102
}
330
C
100
AcDbDictionary
281
     1
  3
Layout1
350
1E
  3
Layout2
350
26
  3
Model
350
22
  0
DICTIONARY
  5
17
102
{ACAD_REACTORS
330
C
102
}
330
C
100
AcDbDictionary
281
     1
  3
Standard
350
18
  0
DICTIONARY
  5
19
102
{ACAD_REACTORS
330
C
102
}
330
C
100
AcDbDictionary
281
     1
  0
ACDBDICTIONARYWDFLT
  5
E
102
{ACAD_REACTORS
330
C
102
}
330
C
100
AcDbDictionary
281
     1
  3
Normal
350
F
100
AcDbDictionaryWithDefault
340
F
  0
LAYOUT
  5
1E
102
{ACAD_REACTORS
330
1A
102
}
330
1A
100
AcDbPlotSettings
  1

  2
none_device
  4

  6

 40
0.0
 41
0.0
 42
0.0
 43
0.0
 44
0.0
 45
0.0
 46
0.0
 47
0.0
 48
0.0
 49
0.0
140
0.0
141
0.0
142
1.0
143
1.0
 70
   688
 72
     0
 73
     0
 74
     5
  7

 75
    16
147
1.0
148
0.0
149
0.0
100
AcDbLayout
  1
Layout1
 70
     1
 71
     1
 10
0.0
 20
0.0
 11
420.0
 21
297.0
 12
0.0
 22
0.0
 32
0.0
 14
1.0000000000E+20
 24
1.0000000000E+20
 34
1.0000000000E+20
 15
-1.0000000000E+20
 25
-1.0000000000E+20
 35
-1.0000000000E+20
146
0.0
 13
0.0
 23
0.0
 33
0.0
 16
1.0
 26
0.0
 36
0.0
 17
0.0
 27
1.0
 37
0.0
 76
     0
330
1B
  0
LAYOUT
  5
26
102
{ACAD_REACTORS
330
1A
102
}
330
1A
100
AcDbPlotSettings
  1

  2
none_device
  4

  6

 40
0.0
 41
0.0
 42
0.0
 43
0.0
 44
0.0
 45
0.0
 46
0.0
 47
0.0
 48
0.0
 49
0.0
140
0.0
141
0.0
142
1.0
143
1.0
 70
   688
 72
     0
 73
     0
 74
     5
  7

 75
    16
147
1.0
148
0.0
149
0.0
100
AcDbLayout
  1
Layout2
 70
     1
 71
     2
 10
0.0
 20
0.0
 11
0.0
 21
0.0
 12
0.0
 22
0.0
 32
0.0
 14
0.0
 24
0.0
 34
0.0
 15
0.0
 25
0.0
 35
0.0
146
0.0
 13
0.0
 23
0.0
 33
0.0
 16
1.0
 26
0.0
 36
0.0
 17
0.0
 27
1.0
 37
0.0
 76
     0
330
23
  0
LAYOUT
  5
22
102
{ACAD_REACTORS
330
1A
102
}
330
1A
100
AcDbPlotSettings
  1

  2
none_device
  4

  6

 40
0.0
 41
0.0
 42
0.0
 43
0.0
 44
0.0
 45
0.0
 46
0.0
 47
0.0
 48
0.0
 49
0.0
140
0.0
141
0.0
142
1.0
143
1.0
 70
  1712
 72
     0
 73
     0
 74
     0
  7

 75
     0
147
1.0
148
0.0
149
0.0
100
AcDbLayout
  1
Model
 70
     1
 71
     0
 10
0.0
 20
0.0
 11
0.0
 21
0.0
 12
0.0
 22
0.0
 32
0.0
 14
0.0
 24
0.0
 34
0.0
 15
297.0
 25
210.0
 35
0.0
146
0.0
 13
0.0
 23
0.0
 33
0.0
 16
1.0
 26
0.0
 36
0.0
 17
0.0
 27
1.0
 37
0.0
 76
     0
330
1F
  0
MLINESTYLE
  5
18
102
{ACAD_REACTORS
330
17
102
}
330
17
100
AcDbMlineStyle
  2
Standard
 70
     0
  3

 62
   256
 51
90.0
 52
90.0
 71
     2
 49
0.5
 62
   256
  6
BYLAYER
 49
-0.5
 62
   256
  6
BYLAYER
  0
ACDBPLACEHOLDER
  5
F
102
{ACAD_REACTORS
330
E
102
}
330
E
  0
ENDSEC
  0
EOF
