  0
SECTION
  2
HEADER
  9
$ACADVER
  1
AC1015
  9
$ACADMAINTVER
 70
     6
  9
$DWGCODEPAGE
  3
ANSI_932
  9
$INSBASE
 10
0.0
 20
0.0
 30
0.0
  9
$EXTMIN
 10
-297.0
 20
-0.283333331347
 30
0.0
  9
$EXTMAX
 10
8.102596369743466
 20
209.7166595458999
 30
0.0
  9
$LIMMIN
 10
-354.629
 20
-43.78333689299999
  9
$LIMMAX
 10
65.37099999999998
 20
253.2166631069999
  9
$ORTHOMODE
 70
     0
  9
$REGENMODE
 70
     1
  9
$FILLMODE
 70
     1
  9
$QTEXTMODE
 70
     0
  9
$MIRRTEXT
 70
     1
  9
$LTSCALE
 40
0.2
  9
$ATTMODE
 70
     1
  9
$TEXTSIZE
 40
3.2
  9
$TRACEWID
 40
1.0
  9
$TEXTSTYLE
  7
KCADTEXTSTANDARD
  9
$CLAYER
  8
0
  9
$CELTYPE
  6
Continuous
  9
$CECOLOR
 62
   134
  9
$CELTSCALE
 40
1.0
  9
$DISPSILH
 70
     0
  9
$DIMSCALE
 40
1.0
  9
$DIMASZ
 40
3.0
  9
$DIMEXO
 40
1.0
  9
$DIMDLI
 40
8.0
  9
$DIMRND
 40
0.0
  9
$DIMDLE
 40
0.0
  9
$DIMEXE
 40
1.0
  9
$DIMTP
 40
0.0
  9
$DIMTM
 40
0.0
  9
$DIMTXT
 40
3.2
  9
$DIMCEN
 40
2.5
  9
$DIMTSZ
 40
0.0
  9
$DIMTOL
 70
     0
  9
$DIMLIM
 70
     0
  9
$DIMTIH
 70
     0
  9
$DIMTOH
 70
     0
  9
$DIMSE1
 70
     0
  9
$DIMSE2
 70
     0
  9
$DIMTAD
 70
     1
  9
$DIMZIN
 70
     8
  9
$DIMBLK
  1

  9
$DIMASO
 70
     1
  9
$DIMSHO
 70
     1
  9
$DIMPOST
  1

  9
$DIMAPOST
  1

  9
$DIMALT
 70
     0
  9
$DIMALTD
 70
     2
  9
$DIMALTF
 40
25.4
  9
$DIMLFAC
 40
1.0
  9
$DIMTOFL
 70
     1
  9
$DIMTVP
 40
0.0
  9
$DIMTIX
 70
     0
  9
$DIMSOXD
 70
     0
  9
$DIMSAH
 70
     1
  9
$DIMBLK1
  1
KCAD_OPEN30
  9
$DIMBLK2
  1
KCAD_OPEN30
  9
$DIMSTYLE
  2
Standard
  9
$DIMCLRD
 70
     0
  9
$DIMCLRE
 70
     0
  9
$DIMCLRT
 70
     0
  9
$DIMTFAC
 40
0.667
  9
$DIMGAP
 40
0.5333000000000001
  9
$DIMJUST
 70
     0
  9
$DIMSD1
 70
     0
  9
$DIMSD2
 70
     0
  9
$DIMTOLJ
 70
     1
  9
$DIMTZIN
 70
     8
  9
$DIMALTZ
 70
     0
  9
$DIMALTTZ
 70
     0
  9
$DIMUPT
 70
     0
  9
$DIMDEC
 70
     3
  9
$DIMTDEC
 70
     3
  9
$DIMALTU
 70
     2
  9
$DIMALTTD
 70
     2
  9
$DIMTXSTY
  7
KCADDIMSTANDARD
  9
$DIMAUNIT
 70
     0
  9
$DIMADEC
 70
     3
  9
$DIMALTRND
 40
0.0
  9
$DIMAZIN
 70
     2
  9
$DIMDSEP
 70
    46
  9
$DIMATFIT
 70
     3
  9
$DIMFRAC
 70
     0
  9
$DIMLDRBLK
  1
KCAD_OPEN
  9
$DIMLUNIT
 70
     2
  9
$DIMLWD
 70
    -2
  9
$DIMLWE
 70
    -2
  9
$DIMTMOVE
 70
     0
  9
$LUNITS
 70
     2
  9
$LUPREC
 70
     4
  9
$SKETCHINC
 40
1.0
  9
$FILLETRAD
 40
5.0
  9
$AUNITS
 70
     0
  9
$AUPREC
 70
     0
  9
$MENU
  1
.
  9
$ELEVATION
 40
0.0
  9
$PELEVATION
 40
0.0
  9
$THICKNESS
 40
0.0
  9
$LIMCHECK
 70
     0
  9
$CHAMFERA
 40
5.0
  9
$CHAMFERB
 40
5.0
  9
$CHAMFERC
 40
5.0
  9
$CHAMFERD
 40
0.7853981633974483
  9
$SKPOLY
 70
     0
  9
$TDCREATE
 40
2453354.092125822
  9
$TDUCREATE
 40
2453353.717125822
  9
$TDUPDATE
 40
2453294.453907292
  9
$TDUUPDATE
 40
2453294.078907292
  9
$TDINDWG
 40
0.0552896065
  9
$TDUSRTIMER
 40
0.0552431366
  9
$USRTIMER
 70
     1
  9
$ANGBASE
 50
0.0
  9
$ANGDIR
 70
     0
  9
$PDMODE
 70
     0
  9
$PDSIZE
 40
0.0
  9
$PLINEWID
 40
0.0
  9
$SPLFRAME
 70
     0
  9
$SPLINETYPE
 70
     6
  9
$SPLINESEGS
 70
     8
  9
$HANDSEED
  5
F47
  9
$SURFTAB1
 70
     6
  9
$SURFTAB2
 70
     6
  9
$SURFTYPE
 70
     6
  9
$SURFU
 70
     6
  9
$SURFV
 70
     6
  9
$UCSBASE
  2

  9
$UCSNAME
  2

  9
$UCSORG
 10
0.0
 20
0.0
 30
0.0
  9
$UCSXDIR
 10
1.0
 20
0.0
 30
0.0
  9
$UCSYDIR
 10
0.0
 20
1.0
 30
0.0
  9
$UCSORTHOREF
  2

  9
$UCSORTHOVIEW
 70
     0
  9
$UCSORGTOP
 10
0.0
 20
0.0
 30
0.0
  9
$UCSORGBOTTOM
 10
0.0
 20
0.0
 30
0.0
  9
$UCSORGLEFT
 10
0.0
 20
0.0
 30
0.0
  9
$UCSORGRIGHT
 10
0.0
 20
0.0
 30
0.0
  9
$UCSORGFRONT
 10
0.0
 20
0.0
 30
0.0
  9
$UCSORGBACK
 10
0.0
 20
0.0
 30
0.0
  9
$PUCSBASE
  2

  9
$PUCSNAME
  2

  9
$PUCSORG
 10
0.0
 20
0.0
 30
0.0
  9
$PUCSXDIR
 10
1.0
 20
0.0
 30
0.0
  9
$PUCSYDIR
 10
0.0
 20
1.0
 30
0.0
  9
$PUCSORTHOREF
  2

  9
$PUCSORTHOVIEW
 70
     0
  9
$PUCSORGTOP
 10
0.0
 20
0.0
 30
0.0
  9
$PUCSORGBOTTOM
 10
0.0
 20
0.0
 30
0.0
  9
$PUCSORGLEFT
 10
0.0
 20
0.0
 30
0.0
  9
$PUCSORGRIGHT
 10
0.0
 20
0.0
 30
0.0
  9
$PUCSORGFRONT
 10
0.0
 20
0.0
 30
0.0
  9
$PUCSORGBACK
 10
0.0
 20
0.0
 30
0.0
  9
$USERI1
 70
     0
  9
$USERI2
 70
     0
  9
$USERI3
 70
     0
  9
$USERI4
 70
   257
  9
$USERI5
 70
     0
  9
$USERR1
 40
0.0
  9
$USERR2
 40
0.0
  9
$USERR3
 40
0.0
  9
$USERR4
 40
0.0
  9
$USERR5
 40
0.0
  9
$WORLDVIEW
 70
     1
  9
$SHADEDGE
 70
     3
  9
$SHADEDIF
 70
    70
  9
$TILEMODE
 70
     1
  9
$MAXACTVP
 70
    48
  9
$PINSBASE
 10
0.0
 20
0.0
 30
0.0
  9
$PLIMCHECK
 70
     0
  9
$PEXTMIN
 10
0.0
 20
0.0
 30
0.0
  9
$PEXTMAX
 10
0.0
 20
0.0
 30
0.0
  9
$PLIMMIN
 10
0.0
 20
0.0
  9
$PLIMMAX
 10
12.0
 20
9.0
  9
$UNITMODE
 70
     0
  9
$VISRETAIN
 70
     1
  9
$PLINEGEN
 70
     0
  9
$PSLTSCALE
 70
     1
  9
$TREEDEPTH
 70
  3020
  9
$CMLSTYLE
  2
Standard
  9
$CMLJUST
 70
     0
  9
$CMLSCALE
 40
20.0
  9
$PROXYGRAPHICS
 70
     1
  9
$MEASUREMENT
 70
     1
  9
$CELWEIGHT
370
    15
  9
$ENDCAPS
280
     0
  9
$JOINSTYLE
280
     0
  9
$LWDISPLAY
290
     0
  9
$INSUNITS
 70
     0
  9
$HYPERLINKBASE
  1

  9
$STYLESHEET
  1

  9
$XEDIT
290
     0
  9
$CEPSNTYPE
380
     0
  9
$PSTYLEMODE
290
     1
  9
$FINGERPRINTGUID
  2
{1989D620-E742-11D2-9219-00105A146177}
  9
$VERSIONGUID
  2
{C67B541E-D681-4449-B2A1-C78FF6105738}
  9
$EXTNAMES
290
     1
  9
$PSVPSCALE
 40
0.0
  9
$OLESTARTUP
290
     0
  0
ENDSEC
  0
SECTION
  2
CLASSES
  0
CLASS
  1
ACDBDICTIONARYWDFLT
  2
AcDbDictionaryWithDefault
  3
ObjectDBX Classes
 90
        0
280
     0
281
     0
  0
CLASS
  1
ACDBPLACEHOLDER
  2
AcDbPlaceHolder
  3
ObjectDBX Classes
 90
        0
280
     0
281
     0
  0
CLASS
  1
LAYOUT
  2
AcDbLayout
  3
ObjectDBX Classes
 90
        0
280
     0
281
     0
  0
CLASS
  1
DICTIONARYVAR
  2
AcDbDictionaryVar
  3
ObjectDBX Classes
 90
        0
280
     0
281
     0
  0
CLASS
  1
TABLESTYLE
  2
AcDbTableStyle
  3
ObjectDBX Classes
 90
     2047
280
     0
281
     0
  0
ENDSEC
  0
SECTION
  2
TABLES
  0
TABLE
  2
VPORT
  5
8
330
0
100
AcDbSymbolTable
 70
     2
  0
VPORT
  5
97
330
8
100
AcDbSymbolTableRecord
100
AcDbViewportTableRecord
  2
*Active
 70
     0
 10
0.0
 20
0.0
 11
1.0
 21
1.0
 12
-144.4487018151283
 22
104.7166631072764
 13
0.0
 23
0.0
 14
10.0
 24
10.0
 15
10.0
 25
10.0
 16
0.0
 26
0.0
 36
1.0
 17
0.0
 27
0.0
 37
0.0
 40
252.8173759418733
 41
2.20035778175313
 42
50.0
 43
0.0
 44
0.0
 50
0.0
 51
0.0
 71
    16
 72
 20000
 73
     1
 74
     1
 75
     0
 76
     0
 77
     0
 78
     0
281
     0
 65
     0
110
0.0
120
0.0
130
0.0
111
1.0
121
0.0
131
0.0
112
0.0
122
1.0
132
0.0
 79
     0
146
0.0
  0
ENDTAB
  0
TABLE
  2
LTYPE
  5
5
330
0
100
AcDbSymbolTable
 70
     6
  0
LTYPE
  5
14
330
5
100
AcDbSymbolTableRecord
100
AcDbLinetypeTableRecord
  2
ByBlock
 70
     0
  3

 72
    65
 73
     0
 40
0.0
  0
LTYPE
  5
15
330
5
100
AcDbSymbolTableRecord
100
AcDbLinetypeTableRecord
  2
ByLayer
 70
     0
  3

 72
    65
 73
     0
 40
0.0
  0
LTYPE
  5
16
330
5
100
AcDbSymbolTableRecord
100
AcDbLinetypeTableRecord
  2
Continuous
 70
     0
  3
Solid line
 72
    65
 73
     0
 40
0.0
  0
LTYPE
  5
EC3
330
5
100
AcDbSymbolTableRecord
100
AcDbLinetypeTableRecord
  2
CENTER
 70
     0
  3
Center ____ _ ____ _ ____ _ ____ _ ____ _ ____
 72
    65
 73
     4
 40
50.8
 49
31.75
 74
     4
 75
     0
340
0
 46
1.0
 50
0.0
 44
0.0
 45
0.0
 49
-6.349999999999999
 74
     4
 75
     0
340
0
 46
1.0
 50
0.0
 44
0.0
 45
0.0
 49
6.349999999999999
 74
     4
 75
     0
340
0
 46
1.0
 50
0.0
 44
0.0
 45
0.0
 49
-6.349999999999999
 74
     4
 75
     0
340
0
 46
1.0
 50
0.0
 44
0.0
 45
0.0
  0
LTYPE
  5
EC4
330
5
100
AcDbSymbolTableRecord
100
AcDbLinetypeTableRecord
  2
DASHED
 70
     0
  3
Dashed __ __ __ __ __ __ __ __ __ __ __ __ __ _
 72
    65
 73
     2
 40
19.05
 49
12.7
 74
     4
 75
     0
340
0
 46
1.0
 50
0.0
 44
0.0
 45
0.0
 49
-6.349999999999999
 74
     4
 75
     0
340
0
 46
1.0
 50
0.0
 44
0.0
 45
0.0
  0
LTYPE
  5
EC5
330
5
100
AcDbSymbolTableRecord
100
AcDbLinetypeTableRecord
  2
HIDDEN
 70
     0
  3
Hidden __ __ __ __ __ __ __ __ __ __ __ __ __ _
 72
    65
 73
     2
 40
9.524999999999999
 49
6.349999999999999
 74
     4
 75
     0
340
0
 46
1.0
 50
0.0
 44
0.0
 45
0.0
 49
-3.174999999999999
 74
     4
 75
     0
340
0
 46
1.0
 50
0.0
 44
0.0
 45
0.0
  0
LTYPE
  5
EC6
330
5
100
AcDbSymbolTableRecord
100
AcDbLinetypeTableRecord
  2
PHANTOM
 70
     0
  3
Phantom ______  __  __  ______  __  __  ______
 72
    65
 73
     6
 40
63.50000000000001
 49
31.75
 74
     4
 75
     0
340
0
 46
1.0
 50
0.0
 44
0.0
 45
0.0
 49
-6.349999999999999
 74
     4
 75
     0
340
0
 46
1.0
 50
0.0
 44
0.0
 45
0.0
 49
6.349999999999999
 74
     4
 75
     0
340
0
 46
1.0
 50
0.0
 44
0.0
 45
0.0
 49
-6.349999999999999
 74
     4
 75
     0
340
0
 46
1.0
 50
0.0
 44
0.0
 45
0.0
 49
6.349999999999999
 74
     4
 75
     0
340
0
 46
1.0
 50
0.0
 44
0.0
 45
0.0
 49
-6.349999999999999
 74
     4
 75
     0
340
0
 46
1.0
 50
0.0
 44
0.0
 45
0.0
  0
LTYPE
  5
EC7
330
5
100
AcDbSymbolTableRecord
100
AcDbLinetypeTableRecord
  2
RUPTURE
 70
     0
  3
Rupture line
 72
    65
 73
     4
 40
45.72
 49
25.4
 74
     4
 75
     0
340
0
 46
1.0
 50
0.0
 44
0.0
 45
0.0
 49
-5.08
 74
     4
 75
   131
340
11
 46
5.08
 50
0.0
 44
-5.08
 45
0.0
 49
-10.16
 74
     4
 75
   131
340
11
 46
5.08
 50
180.0
 44
5.08
 45
0.0
 49
-5.08
 74
     4
 75
     0
340
0
 46
1.0
 50
0.0
 44
0.0
 45
0.0
  0
ENDTAB
  0
TABLE
  2
LAYER
  5
2
330
0
100
AcDbSymbolTable
 70
    15
  0
LAYER
  5
10
330
2
100
AcDbSymbolTableRecord
100
AcDbLayerTableRecord
  2
0
 70
     0
 62
     7
  6
Continuous
370
    -3
390
F
  0
LAYER
  5
C9B
330
2
100
AcDbSymbolTableRecord
100
AcDbLayerTableRecord
  2
KCAD_DIMS
 70
     0
 62
   134
  6
Continuous
370
    15
390
F
  0
LAYER
  5
4F
330
2
100
AcDbSymbolTableRecord
100
AcDbLayerTableRecord
  2
DEFPOINTS
 70
     0
 62
     7
  6
Continuous
290
     0
370
    -3
390
F
  0
LAYER
  5
20B
330
2
100
AcDbSymbolTableRecord
100
AcDbLayerTableRecord
  2
KCAD_ASST
 70
     0
 62
   134
  6
Continuous
370
    15
390
F
  0
LAYER
  5
20C
330
2
100
AcDbSymbolTableRecord
100
AcDbLayerTableRecord
  2
KCAD_RASTER
 70
     0
 62
     7
  6
Continuous
370
    30
390
F
  0
LAYER
  5
20D
330
2
100
AcDbSymbolTableRecord
100
AcDbLayerTableRecord
  2
SYBCENTER
 70
     0
 62
   134
  6
CENTER
370
    15
390
F
  0
LAYER
  5
20E
330
2
100
AcDbSymbolTableRecord
100
AcDbLayerTableRecord
  2
SYBHIDE
 70
     0
 62
   134
  6
HIDDEN
370
    15
390
F
  0
LAYER
  5
20F
330
2
100
AcDbSymbolTableRecord
100
AcDbLayerTableRecord
  2
SYBOUTLINE
 70
     0
 62
     7
  6
Continuous
370
    30
390
F
  0
LAYER
  5
210
330
2
100
AcDbSymbolTableRecord
100
AcDbLayerTableRecord
  2
SYBTHREAD
 70
     0
 62
   134
  6
Continuous
370
    15
390
F
  0
LAYER
  5
211
330
2
100
AcDbSymbolTableRecord
100
AcDbLayerTableRecord
  2
SYBTHRHID
 70
     0
 62
   134
  6
HIDDEN
370
    15
390
F
  0
LAYER
  5
282
330
2
100
AcDbSymbolTableRecord
100
AcDbLayerTableRecord
  2
KCAD_UIR_TMP_LAYER_
 70
     0
 62
     7
  6
Continuous
370
    -3
390
F
  0
LAYER
  5
2A8
330
2
100
AcDbSymbolTableRecord
100
AcDbLayerTableRecord
  2
KCAD_CPM_MAX_LAYER
 70
     3
 62
     7
  6
Continuous
370
    -3
390
F
  0
LAYER
  5
2F1
330
2
100
AcDbSymbolTableRecord
100
AcDbLayerTableRecord
  2
1
 70
     0
 62
     7
  6
Continuous
370
    -3
390
F
  0
LAYER
  5
306
330
2
100
AcDbSymbolTableRecord
100
AcDbLayerTableRecord
  2
99
 70
     0
 62
     7
  6
Continuous
370
    -3
390
F
  0
LAYER
  5
38F
330
2
100
AcDbSymbolTableRecord
100
AcDbLayerTableRecord
  2
2
 70
     0
 62
     7
  6
Continuous
370
    -3
390
F
  0
ENDTAB
  0
TABLE
  2
STYLE
  5
3
330
0
100
AcDbSymbolTable
 70
     5
  0
STYLE
  5
11
330
3
100
AcDbSymbolTableRecord
100
AcDbTextStyleTableRecord
  2
Standard
 70
     0
 40
0.0
 41
1.0
 50
0.0
 71
     0
 42
3.2
  3
txt.shx
  4
bigfont.shx
  0
STYLE
  5
17F
330
3
100
AcDbSymbolTableRecord
100
AcDbTextStyleTableRecord
  2

 70
     1
 40
0.0
 41
1.0
 50
0.0
 71
     0
 42
3.2
  3
ltypeshp.shx
  4

  0
STYLE
  5
189
330
3
100
AcDbSymbolTableRecord
100
AcDbTextStyleTableRecord
  2
KCADDIMSTANDARD
 70
     0
 40
0.0
 41
1.0
 50
0.0
 71
     0
 42
3.2
  3
txt.shx
  4
bigfont.shx
  0
STYLE
  5
18A
330
3
100
AcDbSymbolTableRecord
100
AcDbTextStyleTableRecord
  2
KCADTEXTSTANDARD
 70
     0
 40
0.0
 41
1.0
 50
0.0
 71
     0
 42
3.2
  3
txt.shx
  4
bigfont.shx
  0
STYLE
  5
1AD
330
3
100
AcDbSymbolTableRecord
100
AcDbTextStyleTableRecord
  2
KCADTEXT2
 70
     0
 40
0.0
 41
1.0
 50
0.0
 71
     0
 42
3.2
  3
txt.shx
  4
extfont.shx
  0
ENDTAB
  0
TABLE
  2
VIEW
  5
6
330
0
100
AcDbSymbolTable
 70
     0
  0
ENDTAB
  0
TABLE
  2
UCS
  5
7
330
0
100
AcDbSymbolTable
 70
     0
  0
ENDTAB
  0
TABLE
  2
APPID
  5
9
330
0
100
AcDbSymbolTable
 70
     3
  0
APPID
  5
12
330
9
100
AcDbSymbolTableRecord
100
AcDbRegAppTableRecord
  2
ACAD
 70
     0
  0
APPID
  5
EC1
330
9
100
AcDbSymbolTableRecord
100
AcDbRegAppTableRecord
  2
Sigma
 70
     0
  0
APPID
  5
EC2
330
9
100
AcDbSymbolTableRecord
100
AcDbRegAppTableRecord
  2
KCAD_DIM_EXT
 70
     0
  0
ENDTAB
  0
TABLE
  2
DIMSTYLE
  5
A
330
0
100
AcDbSymbolTable
 70
     1
100
AcDbDimStyleTable
  0
DIMSTYLE
105
27
102
{ACAD_REACTORS
330
564
330
5AC
330
5E8
330
624
330
660
330
862
330
89E
330
8E6
330
924
330
962
330
9C2
330
9FE
330
A3A
330
A7E
330
ABA
330
B00
102
}
330
A
100
AcDbSymbolTableRecord
100
AcDbDimStyleTableRecord
  2
Standard
 70
     0
340
11
  0
ENDTAB
  0
TABLE
  2
BLOCK_RECORD
  5
1
330
0
100
AcDbSymbolTable
 70
    61
  0
BLOCK_RECORD
  5
1F
330
1
100
AcDbSymbolTableRecord
100
AcDbBlockTableRecord
  2
*Model_Space
340
22
  0
BLOCK_RECORD
  5
73
330
1
100
AcDbSymbolTableRecord
100
AcDbBlockTableRecord
  2
*Paper_Space
340
22F
  0
BLOCK_RECORD
  5
C9C
330
1
100
AcDbSymbolTableRecord
100
AcDbBlockTableRecord
  2
KCAD_OPEN
340
0
  0
BLOCK_RECORD
  5
3C
330
1
100
AcDbSymbolTableRecord
100
AcDbBlockTableRecord
  2
KCAD_DOTSMALL
340
0
  0
BLOCK_RECORD
  5
44
330
1
100
AcDbSymbolTableRecord
100
AcDbBlockTableRecord
  2
KCAD_NONE
340
0
  0
BLOCK_RECORD
  5
FC
330
1
100
AcDbSymbolTableRecord
100
AcDbBlockTableRecord
  2
_CLOSED
340
0
  0
BLOCK_RECORD
  5
103
330
1
100
AcDbSymbolTableRecord
100
AcDbBlockTableRecord
  2
_DOT
340
0
  0
BLOCK_RECORD
  5
10B
330
1
100
AcDbSymbolTableRecord
100
AcDbBlockTableRecord
  2
_CLOSEDBLANK
340
0
  0
BLOCK_RECORD
  5
111
330
1
100
AcDbSymbolTableRecord
100
AcDbBlockTableRecord
  2
_OBLIQUE
340
0
  0
BLOCK_RECORD
  5
115
330
1
100
AcDbSymbolTableRecord
100
AcDbBlockTableRecord
  2
_ARCHTICK
340
0
  0
BLOCK_RECORD
  5
11C
330
1
100
AcDbSymbolTableRecord
100
AcDbBlockTableRecord
  2
_OPEN
340
0
  0
BLOCK_RECORD
  5
122
330
1
100
AcDbSymbolTableRecord
100
AcDbBlockTableRecord
  2
_ORIGIN
340
0
  0
BLOCK_RECORD
  5
127
330
1
100
AcDbSymbolTableRecord
100
AcDbBlockTableRecord
  2
_OPEN90
340
0
  0
BLOCK_RECORD
  5
12D
330
1
100
AcDbSymbolTableRecord
100
AcDbBlockTableRecord
  2
_OPEN30
340
0
102
{BLKREFS
331
5A3
331
5A4
331
5E1
331
5E2
331
61D
331
61E
331
659
331
65A
331
695
331
696
331
897
331
898
331
8D3
331
8D4
331
91B
331
91C
331
959
331
95A
331
997
331
998
331
9F7
331
9F8
331
A33
331
A34
331
A77
331
A78
331
AB3
331
AB4
331
AF9
331
AFA
331
B35
331
B36
331
BA4
331
8E2
331
B63
331
B65
102
}
  0
BLOCK_RECORD
  5
133
330
1
100
AcDbSymbolTableRecord
100
AcDbBlockTableRecord
  2
_DOTBLANK
340
0
  0
BLOCK_RECORD
  5
138
330
1
100
AcDbSymbolTableRecord
100
AcDbBlockTableRecord
  2
_DOTSMALL
340
0
  0
BLOCK_RECORD
  5
13F
330
1
100
AcDbSymbolTableRecord
100
AcDbBlockTableRecord
  2
_BOXFILLED
340
0
  0
BLOCK_RECORD
  5
144
330
1
100
AcDbSymbolTableRecord
100
AcDbBlockTableRecord
  2
_BOXBLANK
340
0
  0
BLOCK_RECORD
  5
14C
330
1
100
AcDbSymbolTableRecord
100
AcDbBlockTableRecord
  2
_DATUMFILLED
340
0
  0
BLOCK_RECORD
  5
150
330
1
100
AcDbSymbolTableRecord
100
AcDbBlockTableRecord
  2
_DATUMBLANK
340
0
  0
BLOCK_RECORD
  5
156
330
1
100
AcDbSymbolTableRecord
100
AcDbBlockTableRecord
  2
_INTEGRAL
340
0
  0
BLOCK_RECORD
  5
1F1
330
1
100
AcDbSymbolTableRecord
100
AcDbBlockTableRecord
  2
_Origin2
340
0
  0
BLOCK_RECORD
  5
1F7
330
1
100
AcDbSymbolTableRecord
100
AcDbBlockTableRecord
  2
KCAD_OPEN30
340
0
  0
BLOCK_RECORD
  5
222
330
1
100
AcDbSymbolTableRecord
100
AcDbBlockTableRecord
  2
_None
340
0
  0
BLOCK_RECORD
  5
283
330
1
100
AcDbSymbolTableRecord
100
AcDbBlockTableRecord
  2
_Small
340
0
  0
BLOCK_RECORD
  5
287
330
1
100
AcDbSymbolTableRecord
100
AcDbBlockTableRecord
  2
KCAD_OPEN_2
340
0
  0
BLOCK_RECORD
  5
28E
330
1
100
AcDbSymbolTableRecord
100
AcDbBlockTableRecord
  2
KCAD_OPEN30_2
340
0
  0
BLOCK_RECORD
  5
2AD
330
1
100
AcDbSymbolTableRecord
100
AcDbBlockTableRecord
  2
KCAD_OPEN30ANG
340
0
  0
BLOCK_RECORD
  5
2B6
330
1
100
AcDbSymbolTableRecord
100
AcDbBlockTableRecord
  2
KCAD_DOTANG
340
0
  0
BLOCK_RECORD
  5
565
330
1
100
AcDbSymbolTableRecord
100
AcDbBlockTableRecord
  2
*D27
340
0
  0
BLOCK_RECORD
  5
5AD
330
1
100
AcDbSymbolTableRecord
100
AcDbBlockTableRecord
  2
*D28
340
0
  0
BLOCK_RECORD
  5
5E9
330
1
100
AcDbSymbolTableRecord
100
AcDbBlockTableRecord
  2
*D29
340
0
  0
BLOCK_RECORD
  5
625
330
1
100
AcDbSymbolTableRecord
100
AcDbBlockTableRecord
  2
*D30
340
0
  0
BLOCK_RECORD
  5
661
330
1
100
AcDbSymbolTableRecord
100
AcDbBlockTableRecord
  2
*D31
340
0
  0
BLOCK_RECORD
  5
863
330
1
100
AcDbSymbolTableRecord
100
AcDbBlockTableRecord
  2
*D32
340
0
  0
BLOCK_RECORD
  5
89F
330
1
100
AcDbSymbolTableRecord
100
AcDbBlockTableRecord
  2
*D33
340
0
  0
BLOCK_RECORD
  5
8E7
330
1
100
AcDbSymbolTableRecord
100
AcDbBlockTableRecord
  2
*D34
340
0
  0
BLOCK_RECORD
  5
925
330
1
100
AcDbSymbolTableRecord
100
AcDbBlockTableRecord
  2
*D35
340
0
  0
BLOCK_RECORD
  5
963
330
1
100
AcDbSymbolTableRecord
100
AcDbBlockTableRecord
  2
*D36
340
0
  0
BLOCK_RECORD
  5
9C3
330
1
100
AcDbSymbolTableRecord
100
AcDbBlockTableRecord
  2
*D37
340
0
  0
BLOCK_RECORD
  5
9FF
330
1
100
AcDbSymbolTableRecord
100
AcDbBlockTableRecord
  2
*D38
340
0
  0
BLOCK_RECORD
  5
A3B
330
1
100
AcDbSymbolTableRecord
100
AcDbBlockTableRecord
  2
*D39
340
0
  0
BLOCK_RECORD
  5
A7F
330
1
100
AcDbSymbolTableRecord
100
AcDbBlockTableRecord
  2
*D40
340
0
  0
BLOCK_RECORD
  5
ABB
330
1
100
AcDbSymbolTableRecord
100
AcDbBlockTableRecord
  2
*D41
340
0
  0
BLOCK_RECORD
  5
B01
330
1
100
AcDbSymbolTableRecord
100
AcDbBlockTableRecord
  2
*D42
340
0
  0
BLOCK_RECORD
  5
B77
330
1
100
AcDbSymbolTableRecord
100
AcDbBlockTableRecord
  2
*D43
340
0
  0
BLOCK_RECORD
  5
BCF
330
1
100
AcDbSymbolTableRecord
100
AcDbBlockTableRecord
  2
*D44
340
0
  0
BLOCK_RECORD
  5
BDB
330
1
100
AcDbSymbolTableRecord
100
AcDbBlockTableRecord
  2
*D45
340
0
  0
BLOCK_RECORD
  5
BE7
330
1
100
AcDbSymbolTableRecord
100
AcDbBlockTableRecord
  2
*D46
340
0
  0
BLOCK_RECORD
  5
BF3
330
1
100
AcDbSymbolTableRecord
100
AcDbBlockTableRecord
  2
*D47
340
0
  0
BLOCK_RECORD
  5
BFF
330
1
100
AcDbSymbolTableRecord
100
AcDbBlockTableRecord
  2
*D48
340
0
  0
BLOCK_RECORD
  5
C0B
330
1
100
AcDbSymbolTableRecord
100
AcDbBlockTableRecord
  2
*D49
340
0
  0
BLOCK_RECORD
  5
C17
330
1
100
AcDbSymbolTableRecord
100
AcDbBlockTableRecord
  2
*D50
340
0
  0
BLOCK_RECORD
  5
C23
330
1
100
AcDbSymbolTableRecord
100
AcDbBlockTableRecord
  2
*D51
340
0
  0
BLOCK_RECORD
  5
C2F
330
1
100
AcDbSymbolTableRecord
100
AcDbBlockTableRecord
  2
*D52
340
0
  0
BLOCK_RECORD
  5
C3B
330
1
100
AcDbSymbolTableRecord
100
AcDbBlockTableRecord
  2
*D53
340
0
  0
BLOCK_RECORD
  5
C47
330
1
100
AcDbSymbolTableRecord
100
AcDbBlockTableRecord
  2
*D54
340
0
  0
BLOCK_RECORD
  5
C53
330
1
100
AcDbSymbolTableRecord
100
AcDbBlockTableRecord
  2
*D55
340
0
  0
BLOCK_RECORD
  5
C5F
330
1
100
AcDbSymbolTableRecord
100
AcDbBlockTableRecord
  2
*D56
340
0
  0
BLOCK_RECORD
  5
C6B
330
1
100
AcDbSymbolTableRecord
100
AcDbBlockTableRecord
  2
*D57
340
0
  0
BLOCK_RECORD
  5
C78
330
1
100
AcDbSymbolTableRecord
100
AcDbBlockTableRecord
  2
*D58
340
0
  0
BLOCK_RECORD
  5
C84
330
1
100
AcDbSymbolTableRecord
100
AcDbBlockTableRecord
  2
*D59
340
0
  0
BLOCK_RECORD
  5
C8F
330
1
100
AcDbSymbolTableRecord
100
AcDbBlockTableRecord
  2
*D60
340
0
  0
ENDTAB
  0
ENDSEC
  0
SECTION
  2
BLOCKS
  0
BLOCK
  5
20
330
1F
100
AcDbEntity
  8
0
100
AcDbBlockBegin
  2
*Model_Space
 70
     0
 71
     0
 10
0.0
 20
0.0
 30
0.0
  3
*Model_Space
  1

  0
ENDBLK
  5
21
330
1F
100
AcDbEntity
  8
0
100
AcDbBlockEnd
  0
BLOCK
  5
75
330
73
100
AcDbEntity
 67
     1
  8
0
100
AcDbBlockBegin
  2
*Paper_Space
 70
     0
 71
     0
 10
0.0
 20
0.0
 30
0.0
  3
*Paper_Space
  1

  0
ENDBLK
  5
76
330
73
100
AcDbEntity
 67
     1
  8
0
100
AcDbBlockEnd
  0
BLOCK
  5
EC8
330
C9C
100
AcDbEntity
  8
KCAD_DIMS
100
AcDbBlockBegin
  2
KCAD_OPEN
 70
     0
 71
     0
 10
0.0
 20
0.0
 30
0.0
  3
KCAD_OPEN
  1

  0
LINE
  5
D17
330
C9C
100
AcDbEntity
  8
0
  6
Continuous
 62
     0
370
    -2
100
AcDbLine
 10
0.0
 20
0.0
 30
0.0
 11
-1.0
 21
0.0
 31
0.0
  0
LINE
  5
23
330
C9C
100
AcDbEntity
  8
0
  6
Continuous
 62
     0
370
    -2
100
AcDbLine
 10
0.0
 20
0.0
 30
0.0
 11
-1.0
 21
0.158384
 31
0.0
  0
LINE
  5
24
330
C9C
100
AcDbEntity
  8
0
  6
Continuous
 62
     0
370
    -2
100
AcDbLine
 10
0.0
 20
0.0
 30
0.0
 11
-1.0
 21
-0.158384
 31
0.0
  0
ENDBLK
  5
EC9
330
C9C
100
AcDbEntity
  8
KCAD_DIMS
100
AcDbBlockEnd
  0
BLOCK
  5
ECA
330
3C
100
AcDbEntity
  8
KCAD_DIMS
100
AcDbBlockBegin
  2
KCAD_DOTSMALL
 70
     0
 71
     0
 10
0.0
 20
0.0
 30
0.0
  3
KCAD_DOTSMALL
  1

  0
LWPOLYLINE
  5
3D
330
3C
100
AcDbEntity
  8
KCAD_DIMS
 62
     0
100
AcDbPolyline
 90
        2
 70
     1
 43
0.5
 10
0.06252
 20
0.0
 42
1.0
 10
-0.06262
 20
0.0
 42
1.0
  0
LINE
  5
41
330
3C
100
AcDbEntity
  8
0
  6
Continuous
 62
     0
370
    -2
100
AcDbLine
 10
0.0
 20
0.0
 30
0.0
 11
-1.0
 21
0.0
 31
0.0
  0
ENDBLK
  5
ECB
330
3C
100
AcDbEntity
  8
0
100
AcDbBlockEnd
  0
BLOCK
  5
ECC
330
44
100
AcDbEntity
  8
KCAD_DIMS
100
AcDbBlockBegin
  2
KCAD_NONE
 70
     0
 71
     0
 10
0.0
 20
0.0
 30
0.0
  3
KCAD_NONE
  1

  0
LINE
  5
45
330
44
100
AcDbEntity
  8
0
  6
Continuous
 62
     0
370
    -2
100
AcDbLine
 10
0.0
 20
0.0
 30
0.0
 11
-1.0
 21
0.0
 31
0.0
  0
ENDBLK
  5
ECD
330
44
100
AcDbEntity
  8
0
100
AcDbBlockEnd
  0
BLOCK
  5
ECE
330
FC
100
AcDbEntity
  8
0
100
AcDbBlockBegin
  2
_CLOSED
 70
     0
 71
     0
 10
0.0
 20
0.0
 30
0.0
  3
_CLOSED
  1

  0
LINE
  5
FE
330
FC
100
AcDbEntity
  8
0
  6
Continuous
 62
     0
370
    -2
100
AcDbLine
 10
-1.0
 20
0.166667
 30
0.0
 11
0.0
 21
0.0
 31
0.0
  0
LINE
  5
FF
330
FC
100
AcDbEntity
  8
0
  6
Continuous
 62
     0
370
    -2
100
AcDbLine
 10
0.0
 20
0.0
 30
0.0
 11
-1.0
 21
-0.166667
 31
0.0
  0
LINE
  5
100
330
FC
100
AcDbEntity
  8
0
  6
Continuous
 62
     0
370
    -2
100
AcDbLine
 10
-1.0
 20
0.166667
 30
0.0
 11
-1.0
 21
-0.166667
 31
0.0
  0
LINE
  5
101
330
FC
100
AcDbEntity
  8
0
  6
Continuous
 62
     0
370
    -2
100
AcDbLine
 10
0.0
 20
0.0
 30
0.0
 11
-1.0
 21
0.0
 31
0.0
  0
ENDBLK
  5
ECF
330
FC
100
AcDbEntity
  8
0
100
AcDbBlockEnd
  0
BLOCK
  5
ED0
330
103
100
AcDbEntity
  8
0
100
AcDbBlockBegin
  2
_DOT
 70
     0
 71
     0
 10
0.0
 20
0.0
 30
0.0
  3
_DOT
  1

  0
LWPOLYLINE
  5
105
330
103
100
AcDbEntity
  8
0
  6
ByBlock
 62
     0
100
AcDbPolyline
 90
        2
 70
     1
 43
0.5
 10
-0.25
 20
0.0
 42
1.0
 10
0.25
 20
0.0
 42
1.0
  0
LINE
  5
109
330
103
100
AcDbEntity
  8
0
  6
Continuous
 62
     0
370
    -2
100
AcDbLine
 10
-0.5
 20
0.0
 30
0.0
 11
-1.0
 21
0.0
 31
0.0
  0
ENDBLK
  5
ED1
330
103
100
AcDbEntity
  8
0
100
AcDbBlockEnd
  0
BLOCK
  5
ED2
330
10B
100
AcDbEntity
  8
0
100
AcDbBlockBegin
  2
_CLOSEDBLANK
 70
     0
 71
     0
 10
0.0
 20
0.0
 30
0.0
  3
_CLOSEDBLANK
  1

  0
LINE
  5
10D
330
10B
100
AcDbEntity
  8
0
  6
Continuous
 62
     0
370
    -2
100
AcDbLine
 10
-1.0
 20
0.166667
 30
0.0
 11
0.0
 21
0.0
 31
0.0
  0
LINE
  5
10E
330
10B
100
AcDbEntity
  8
0
  6
Continuous
 62
     0
370
    -2
100
AcDbLine
 10
0.0
 20
0.0
 30
0.0
 11
-1.0
 21
-0.166667
 31
0.0
  0
LINE
  5
10F
330
10B
100
AcDbEntity
  8
0
  6
Continuous
 62
     0
370
    -2
100
AcDbLine
 10
-1.0
 20
0.166667
 30
0.0
 11
-1.0
 21
-0.166667
 31
0.0
  0
ENDBLK
  5
ED3
330
10B
100
AcDbEntity
  8
0
100
AcDbBlockEnd
  0
BLOCK
  5
ED4
330
111
100
AcDbEntity
  8
0
100
AcDbBlockBegin
  2
_OBLIQUE
 70
     0
 71
     0
 10
0.0
 20
0.0
 30
0.0
  3
_OBLIQUE
  1

  0
LINE
  5
113
330
111
100
AcDbEntity
  8
0
  6
Continuous
 62
     0
370
    -2
100
AcDbLine
 10
-0.5
 20
-0.5
 30
0.0
 11
0.5
 21
0.5
 31
0.0
  0
ENDBLK
  5
ED5
330
111
100
AcDbEntity
  8
0
100
AcDbBlockEnd
  0
BLOCK
  5
ED6
330
115
100
AcDbEntity
  8
0
100
AcDbBlockBegin
  2
_ARCHTICK
 70
     0
 71
     0
 10
0.0
 20
0.0
 30
0.0
  3
_ARCHTICK
  1

  0
LWPOLYLINE
  5
117
330
115
100
AcDbEntity
  8
0
  6
ByBlock
 62
     0
100
AcDbPolyline
 90
        2
 70
     0
 43
0.15
 10
-0.5
 20
-0.5
 10
0.5
 20
0.5
  0
ENDBLK
  5
ED7
330
115
100
AcDbEntity
  8
0
100
AcDbBlockEnd
  0
BLOCK
  5
ED8
330
11C
100
AcDbEntity
  8
0
100
AcDbBlockBegin
  2
_OPEN
 70
     0
 71
     0
 10
0.0
 20
0.0
 30
0.0
  3
_OPEN
  1

  0
LINE
  5
11E
330
11C
100
AcDbEntity
  8
0
  6
Continuous
 62
     0
370
    -2
100
AcDbLine
 10
-1.0
 20
0.166667
 30
0.0
 11
0.0
 21
0.0
 31
0.0
  0
LINE
  5
11F
330
11C
100
AcDbEntity
  8
0
  6
Continuous
 62
     0
370
    -2
100
AcDbLine
 10
0.0
 20
0.0
 30
0.0
 11
-1.0
 21
-0.166667
 31
0.0
  0
LINE
  5
120
330
11C
100
AcDbEntity
  8
0
  6
Continuous
 62
     0
370
    -2
100
AcDbLine
 10
0.0
 20
0.0
 30
0.0
 11
-1.0
 21
0.0
 31
0.0
  0
ENDBLK
  5
ED9
330
11C
100
AcDbEntity
  8
0
100
AcDbBlockEnd
  0
BLOCK
  5
EDA
330
122
100
AcDbEntity
  8
0
100
AcDbBlockBegin
  2
_ORIGIN
 70
     0
 71
     0
 10
0.0
 20
0.0
 30
0.0
  3
_ORIGIN
  1

  0
CIRCLE
  5
124
330
122
100
AcDbEntity
  8
0
  6
ByBlock
 62
     0
100
AcDbCircle
 10
0.0
 20
0.0
 30
0.0
 40
0.5
  0
LINE
  5
125
330
122
100
AcDbEntity
  8
0
  6
Continuous
 62
     0
370
    -2
100
AcDbLine
 10
0.0
 20
0.0
 30
0.0
 11
-1.0
 21
0.0
 31
0.0
  0
ENDBLK
  5
EDB
330
122
100
AcDbEntity
  8
0
100
AcDbBlockEnd
  0
BLOCK
  5
EDC
330
127
100
AcDbEntity
  8
0
100
AcDbBlockBegin
  2
_OPEN90
 70
     0
 71
     0
 10
0.0
 20
0.0
 30
0.0
  3
_OPEN90
  1

  0
LINE
  5
129
330
127
100
AcDbEntity
  8
0
  6
Continuous
 62
     0
370
    -2
100
AcDbLine
 10
-0.5
 20
0.5
 30
0.0
 11
0.0
 21
0.0
 31
0.0
  0
LINE
  5
12A
330
127
100
AcDbEntity
  8
0
  6
Continuous
 62
     0
370
    -2
100
AcDbLine
 10
0.0
 20
0.0
 30
0.0
 11
-0.5
 21
-0.5
 31
0.0
  0
LINE
  5
12B
330
127
100
AcDbEntity
  8
0
  6
Continuous
 62
     0
370
    -2
100
AcDbLine
 10
0.0
 20
0.0
 30
0.0
 11
-1.0
 21
0.0
 31
0.0
  0
ENDBLK
  5
EDD
330
127
100
AcDbEntity
  8
0
100
AcDbBlockEnd
  0
BLOCK
  5
EDE
330
12D
100
AcDbEntity
  8
0
100
AcDbBlockBegin
  2
_OPEN30
 70
     0
 71
     0
 10
0.0
 20
0.0
 30
0.0
  3
_OPEN30
  1

  0
LINE
  5
12F
330
12D
100
AcDbEntity
  8
0
  6
Continuous
 62
     0
370
    -2
100
AcDbLine
 10
-1.0
 20
0.267949
 30
0.0
 11
0.0
 21
0.0
 31
0.0
  0
LINE
  5
130
330
12D
100
AcDbEntity
  8
0
  6
Continuous
 62
     0
370
    -2
100
AcDbLine
 10
0.0
 20
0.0
 30
0.0
 11
-1.0
 21
-0.267949
 31
0.0
  0
LINE
  5
131
330
12D
100
AcDbEntity
  8
0
  6
Continuous
 62
     0
370
    -2
100
AcDbLine
 10
0.0
 20
0.0
 30
0.0
 11
-1.0
 21
0.0
 31
0.0
  0
ENDBLK
  5
EDF
330
12D
100
AcDbEntity
  8
0
100
AcDbBlockEnd
  0
BLOCK
  5
EE0
330
133
100
AcDbEntity
  8
0
100
AcDbBlockBegin
  2
_DOTBLANK
 70
     0
 71
     0
 10
0.0
 20
0.0
 30
0.0
  3
_DOTBLANK
  1

  0
CIRCLE
  5
135
330
133
100
AcDbEntity
  8
0
  6
ByBlock
 62
     0
100
AcDbCircle
 10
0.0
 20
0.0
 30
0.0
 40
0.5
  0
LINE
  5
136
330
133
100
AcDbEntity
  8
0
  6
Continuous
 62
     0
370
    -2
100
AcDbLine
 10
-0.5
 20
0.0
 30
0.0
 11
-1.0
 21
0.0
 31
0.0
  0
ENDBLK
  5
EE1
330
133
100
AcDbEntity
  8
0
100
AcDbBlockEnd
  0
BLOCK
  5
EE2
330
138
100
AcDbEntity
  8
0
100
AcDbBlockBegin
  2
_DOTSMALL
 70
     0
 71
     0
 10
0.0
 20
0.0
 30
0.0
  3
_DOTSMALL
  1

  0
LWPOLYLINE
  5
13A
330
138
100
AcDbEntity
  8
0
  6
ByBlock
 62
     0
100
AcDbPolyline
 90
        2
 70
     1
 43
0.5
 10
-0.0625
 20
0.0
 42
1.0
 10
0.0625
 20
0.0
 42
1.0
  0
ENDBLK
  5
EE3
330
138
100
AcDbEntity
  8
0
100
AcDbBlockEnd
  0
BLOCK
  5
EE4
330
13F
100
AcDbEntity
  8
0
100
AcDbBlockBegin
  2
_BOXFILLED
 70
     0
 71
     0
 10
0.0
 20
0.0
 30
0.0
  3
_BOXFILLED
  1

  0
SOLID
  5
141
330
13F
100
AcDbEntity
  8
0
  6
ByBlock
 62
     0
100
AcDbTrace
 10
-0.5
 20
0.5
 30
0.0
 11
0.5
 21
0.5
 31
0.0
 12
-0.5
 22
-0.5
 32
0.0
 13
0.5
 23
-0.5
 33
0.0
  0
LINE
  5
142
330
13F
100
AcDbEntity
  8
0
  6
Continuous
 62
     0
370
    -2
100
AcDbLine
 10
-0.5
 20
0.0
 30
0.0
 11
-1.0
 21
0.0
 31
0.0
  0
ENDBLK
  5
EE5
330
13F
100
AcDbEntity
  8
0
100
AcDbBlockEnd
  0
BLOCK
  5
EE6
330
144
100
AcDbEntity
  8
0
100
AcDbBlockBegin
  2
_BOXBLANK
 70
     0
 71
     0
 10
0.0
 20
0.0
 30
0.0
  3
_BOXBLANK
  1

  0
LINE
  5
146
330
144
100
AcDbEntity
  8
0
  6
Continuous
 62
     0
370
    -2
100
AcDbLine
 10
-0.5
 20
-0.5
 30
0.0
 11
0.5
 21
-0.5
 31
0.0
  0
LINE
  5
147
330
144
100
AcDbEntity
  8
0
  6
Continuous
 62
     0
370
    -2
100
AcDbLine
 10
0.5
 20
-0.5
 30
0.0
 11
0.5
 21
0.5
 31
0.0
  0
LINE
  5
148
330
144
100
AcDbEntity
  8
0
  6
Continuous
 62
     0
370
    -2
100
AcDbLine
 10
0.5
 20
0.5
 30
0.0
 11
-0.5
 21
0.5
 31
0.0
  0
LINE
  5
149
330
144
100
AcDbEntity
  8
0
  6
Continuous
 62
     0
370
    -2
100
AcDbLine
 10
-0.5
 20
0.5
 30
0.0
 11
-0.5
 21
-0.5
 31
0.0
  0
LINE
  5
14A
330
144
100
AcDbEntity
  8
0
  6
Continuous
 62
     0
370
    -2
100
AcDbLine
 10
-0.5
 20
0.0
 30
0.0
 11
-1.0
 21
0.0
 31
0.0
  0
ENDBLK
  5
EE7
330
144
100
AcDbEntity
  8
0
100
AcDbBlockEnd
  0
BLOCK
  5
EE8
330
14C
100
AcDbEntity
  8
0
100
AcDbBlockBegin
  2
_DATUMFILLED
 70
     0
 71
     0
 10
0.0
 20
0.0
 30
0.0
  3
_DATUMFILLED
  1

  0
SOLID
  5
14E
330
14C
100
AcDbEntity
  8
0
  6
ByBlock
 62
     0
100
AcDbTrace
 10
0.0
 20
0.5773500000000001
 30
0.0
 11
-1.0
 21
0.0
 31
0.0
 12
0.0
 22
-0.5773500000000001
 32
0.0
 13
0.0
 23
-0.5773500000000001
 33
0.0
  0
ENDBLK
  5
EE9
330
14C
100
AcDbEntity
  8
0
100
AcDbBlockEnd
  0
BLOCK
  5
EEA
330
150
100
AcDbEntity
  8
0
100
AcDbBlockBegin
  2
_DATUMBLANK
 70
     0
 71
     0
 10
0.0
 20
0.0
 30
0.0
  3
_DATUMBLANK
  1

  0
LINE
  5
152
330
150
100
AcDbEntity
  8
0
  6
Continuous
 62
     0
370
    -2
100
AcDbLine
 10
0.0
 20
0.5773500000000001
 30
0.0
 11
-1.0
 21
0.0
 31
0.0
  0
LINE
  5
153
330
150
100
AcDbEntity
  8
0
  6
Continuous
 62
     0
370
    -2
100
AcDbLine
 10
-1.0
 20
0.0
 30
0.0
 11
0.0
 21
-0.5773500000000001
 31
0.0
  0
LINE
  5
154
330
150
100
AcDbEntity
  8
0
  6
Continuous
 62
     0
370
    -2
100
AcDbLine
 10
0.0
 20
-0.5773500000000001
 30
0.0
 11
0.0
 21
0.5773500000000001
 31
0.0
  0
ENDBLK
  5
EEB
330
150
100
AcDbEntity
  8
0
100
AcDbBlockEnd
  0
BLOCK
  5
EEC
330
156
100
AcDbEntity
  8
0
100
AcDbBlockBegin
  2
_INTEGRAL
 70
     0
 71
     0
 10
0.0
 20
0.0
 30
0.0
  3
_INTEGRAL
  1

  0
ARC
  5
158
330
156
100
AcDbEntity
  8
0
  6
ByBlock
 62
     0
100
AcDbCircle
 10
0.444888
 20
-0.091335
 30
0.0
 40
0.454167
100
AcDbArc
 50
102.0
 51
168.0
  0
ARC
  5
159
330
156
100
AcDbEntity
  8
0
  6
ByBlock
 62
     0
100
AcDbCircle
 10
-0.444888
 20
0.091335
 30
0.0
 40
0.454167
100
AcDbArc
 50
282.0
 51
348.0
  0
ENDBLK
  5
EED
330
156
100
AcDbEntity
  8
0
100
AcDbBlockEnd
  0
BLOCK
  5
EEE
330
1F1
100
AcDbEntity
  8
0
100
AcDbBlockBegin
  2
_Origin2
 70
     0
 71
     0
 10
0.0
 20
0.0
 30
0.0
  3
_Origin2
  1

  0
CIRCLE
  5
1F2
330
1F1
100
AcDbEntity
  8
0
  6
Continuous
 62
     0
370
    -2
100
AcDbCircle
 10
0.0
 20
0.0
 30
0.0
 40
0.5
  0
CIRCLE
  5
1F3
330
1F1
100
AcDbEntity
  8
0
  6
Continuous
 62
     0
370
    -2
100
AcDbCircle
 10
0.0
 20
0.0
 30
0.0
 40
0.25
  0
LINE
  5
1F4
330
1F1
100
AcDbEntity
  8
0
  6
Continuous
 62
     0
370
    -2
100
AcDbLine
 10
-0.5
 20
0.0
 30
0.0
 11
-1.0
 21
0.0
 31
0.0
  0
ENDBLK
  5
EEF
330
1F1
100
AcDbEntity
  8
0
100
AcDbBlockEnd
  0
BLOCK
  5
EF0
330
1F7
100
AcDbEntity
  8
0
100
AcDbBlockBegin
  2
KCAD_OPEN30
 70
     0
 71
     0
 10
0.0
 20
0.0
 30
0.0
  3
KCAD_OPEN30
  1

  0
LINE
  5
1F8
330
1F7
100
AcDbEntity
  8
0
  6
Continuous
 62
     0
370
    -2
100
AcDbLine
 10
0.0
 20
0.0
 30
0.0
 11
-1.0
 21
0.0
 31
0.0
  0
LINE
  5
1F9
330
1F7
100
AcDbEntity
  8
0
  6
Continuous
 62
     0
370
    -2
100
AcDbLine
 10
0.0
 20
0.0
 30
0.0
 11
-1.0
 21
0.2679491924311227
 31
0.0
  0
LINE
  5
1FA
330
1F7
100
AcDbEntity
  8
0
  6
Continuous
 62
     0
370
    -2
100
AcDbLine
 10
0.0
 20
0.0
 30
0.0
 11
-1.0
 21
-0.2679491924311227
 31
0.0
  0
ENDBLK
  5
EF1
330
1F7
100
AcDbEntity
  8
0
100
AcDbBlockEnd
  0
BLOCK
  5
EF2
330
222
100
AcDbEntity
  8
0
100
AcDbBlockBegin
  2
_None
 70
     0
 71
     0
 10
0.0
 20
0.0
 30
0.0
  3
_None
  1

  0
ENDBLK
  5
EF3
330
222
100
AcDbEntity
  8
0
100
AcDbBlockEnd
  0
BLOCK
  5
EF4
330
283
100
AcDbEntity
  8
0
100
AcDbBlockBegin
  2
_Small
 70
     0
 71
     0
 10
0.0
 20
0.0
 30
0.0
  3
_Small
  1

  0
CIRCLE
  5
284
330
283
100
AcDbEntity
  8
0
  6
ByBlock
 62
     0
370
    -2
100
AcDbCircle
 10
0.0
 20
0.0
 30
0.0
 40
0.25
  0
ENDBLK
  5
EF5
330
283
100
AcDbEntity
  8
0
100
AcDbBlockEnd
  0
BLOCK
  5
EF6
330
287
100
AcDbEntity
  8
0
100
AcDbBlockBegin
  2
KCAD_OPEN_2
 70
     0
 71
     0
 10
0.0
 20
0.0
 30
0.0
  3
KCAD_OPEN_2
  1

  0
LINE
  5
288
330
287
100
AcDbEntity
  8
0
  6
Continuous
 62
     0
370
    -2
100
AcDbLine
 10
0.0
 20
0.0
 30
0.0
 11
-2.0
 21
0.0
 31
0.0
  0
LINE
  5
289
330
287
100
AcDbEntity
  8
0
  6
Continuous
 62
     0
370
    -2
100
AcDbLine
 10
0.0
 20
0.0
 30
0.0
 11
-2.0
 21
0.3167688806490725
 31
0.0
  0
LINE
  5
28A
330
287
100
AcDbEntity
  8
0
  6
Continuous
 62
     0
370
    -2
100
AcDbLine
 10
0.0
 20
0.0
 30
0.0
 11
-2.0
 21
-0.3167688806490725
 31
0.0
  0
LINE
  5
28B
330
287
100
AcDbEntity
  8
0
  6
Continuous
 62
     0
370
    -2
100
AcDbLine
 10
-2.0
 20
0.0
 30
0.0
 11
-4.0
 21
0.0
 31
0.0
  0
ENDBLK
  5
EF7
330
287
100
AcDbEntity
  8
0
100
AcDbBlockEnd
  0
BLOCK
  5
EF8
330
28E
100
AcDbEntity
  8
0
100
AcDbBlockBegin
  2
KCAD_OPEN30_2
 70
     0
 71
     0
 10
0.0
 20
0.0
 30
0.0
  3
KCAD_OPEN30_2
  1

  0
LINE
  5
28F
330
28E
100
AcDbEntity
  8
0
  6
Continuous
 62
     0
370
    -2
100
AcDbLine
 10
0.0
 20
0.0
 30
0.0
 11
-2.0
 21
0.0
 31
0.0
  0
LINE
  5
290
330
28E
100
AcDbEntity
  8
0
  6
Continuous
 62
     0
370
    -2
100
AcDbLine
 10
0.0
 20
0.0
 30
0.0
 11
-2.0
 21
0.5358983848622455
 31
0.0
  0
LINE
  5
291
330
28E
100
AcDbEntity
  8
0
  6
Continuous
 62
     0
370
    -2
100
AcDbLine
 10
0.0
 20
0.0
 30
0.0
 11
-2.0
 21
-0.5358983848622455
 31
0.0
  0
LINE
  5
292
330
28E
100
AcDbEntity
  8
0
  6
Continuous
 62
     0
370
    -2
100
AcDbLine
 10
-2.0
 20
0.0
 30
0.0
 11
-4.0
 21
0.0
 31
0.0
  0
ENDBLK
  5
EF9
330
28E
100
AcDbEntity
  8
0
100
AcDbBlockEnd
  0
BLOCK
  5
EFA
330
2AD
100
AcDbEntity
  8
0
100
AcDbBlockBegin
  2
KCAD_OPEN30ANG
 70
     0
 71
     0
 10
0.0
 20
0.0
 30
0.0
  3
KCAD_OPEN30ANG
  1

  0
LINE
  5
2D7
330
2AD
100
AcDbEntity
  8
0
  6
Continuous
 62
     0
370
    -2
100
AcDbLine
 10
0.0
 20
0.0
 30
0.0
 11
-1.0
 21
-0.267949
 31
0.0
  0
LINE
  5
2D8
330
2AD
100
AcDbEntity
  8
0
  6
Continuous
 62
     0
370
    -2
100
AcDbLine
 10
-1.0
 20
0.267949
 30
0.0
 11
0.0
 21
0.0
 31
0.0
  0
ENDBLK
  5
EFB
330
2AD
100
AcDbEntity
  8
0
100
AcDbBlockEnd
  0
BLOCK
  5
EFC
330
2B6
100
AcDbEntity
  8
0
100
AcDbBlockBegin
  2
KCAD_DOTANG
 70
     0
 71
     0
 10
0.0
 20
0.0
 30
0.0
  3
KCAD_DOTANG
  1

  0
LWPOLYLINE
  5
2DD
330
2B6
100
AcDbEntity
  8
0
  6
ByBlock
 62
     0
100
AcDbPolyline
 90
        2
 70
     1
 43
0.5
 10
-0.25
 20
0.0
 42
1.0
 10
0.25
 20
0.0
 42
1.0
  0
ENDBLK
  5
EFD
330
2B6
100
AcDbEntity
  8
0
100
AcDbBlockEnd
  0
BLOCK
  5
EFE
330
565
100
AcDbEntity
  8
0
100
AcDbBlockBegin
  2
*D27
 70
     1
 71
     0
 10
0.0
 20
0.0
 30
0.0
  3
*D27
  1

  0
LINE
  5
5A1
330
565
100
AcDbEntity
  8
KCAD_DIMS
 62
     0
370
    -2
100
AcDbLine
 10
-73.28722166622
 20
122.90948225594
 30
0.0
 11
-73.28722166622
 21
100.8433018852469
 31
0.0
  0
LINE
  5
5A2
330
565
100
AcDbEntity
  8
KCAD_DIMS
 62
     0
370
    -2
100
AcDbLine
 10
-69.28722166622
 20
122.90948225594
 30
0.0
 11
-69.28722166622
 21
94.42279388901
 31
0.0
  0
INSERT
  5
5A3
330
565
100
AcDbEntity
  8
KCAD_DIMS
 62
     0
370
    -2
100
AcDbBlockReference
  2
_OPEN30
 10
-73.28722166622
 20
120.90948225594
 30
0.0
 41
2.5
 42
2.5
 43
2.5
  0
INSERT
  5
5A4
330
565
100
AcDbEntity
  8
KCAD_DIMS
 62
     0
370
    -2
100
AcDbBlockReference
  2
_OPEN30
 10
-69.28722166622
 20
120.90948225594
 30
0.0
 41
2.5
 42
2.5
 43
2.5
 50
180.0
  0
LINE
  5
5A5
330
565
100
AcDbEntity
  8
KCAD_DIMS
 62
     0
370
    -2
100
AcDbLine
 10
-73.28722166622
 20
120.90948225594
 30
0.0
 11
-69.28722166622
 21
120.90948225594
 31
0.0
  0
LINE
  5
5A6
330
565
100
AcDbEntity
  8
KCAD_DIMS
 62
     0
370
    -2
100
AcDbLine
 10
-75.78722166622
 20
120.90948225594
 30
0.0
 11
-83.28722166622
 21
120.90948225594
 31
0.0
  0
LINE
  5
5A7
330
565
100
AcDbEntity
  8
KCAD_DIMS
 62
     0
370
    -2
100
AcDbLine
 10
-66.78722166622
 20
120.90948225594
 30
0.0
 11
-53.80512405740801
 21
120.90948225594
 31
0.0
  0
POINT
  5
5A8
330
565
100
AcDbEntity
  8
DEFPOINTS
 62
     0
370
    15
100
AcDbPoint
 10
-73.28722166622
 20
98.843301885247
 30
0.0
  0
POINT
  5
5A9
330
565
100
AcDbEntity
  8
DEFPOINTS
 62
     0
370
    15
100
AcDbPoint
 10
-69.28722166622
 20
92.42279388901
 30
0.0
  0
POINT
  5
5AA
330
565
100
AcDbEntity
  8
DEFPOINTS
 62
     0
370
    15
100
AcDbPoint
 10
-69.28722166622
 20
120.90948225594
 30
0.0
  0
MTEXT
  5
5AB
330
565
100
AcDbEntity
  8
KCAD_DIMS
 62
     0
100
AcDbMText
 10
-55.30512406578999
 20
123.57614825594
 30
0.0
 40
3.2
 41
0.0
 71
     5
 72
     1
  1
\A1;4
  7
KCADDIMSTANDARD
 73
     1
 44
1.0
  0
ENDBLK
  5
EFF
330
565
100
AcDbEntity
  8
0
100
AcDbBlockEnd
  0
BLOCK
  5
F00
330
5AD
100
AcDbEntity
  8
0
100
AcDbBlockBegin
  2
*D28
 70
     1
 71
     0
 10
0.0
 20
0.0
 30
0.0
  3
*D28
  1

  0
LINE
  5
5DF
330
5AD
100
AcDbEntity
  8
KCAD_DIMS
 62
     0
370
    -2
100
AcDbLine
 10
-73.28722166622
 20
119.65677889732
 30
0.0
 11
-73.28722166622
 21
104.76384481597
 31
0.0
  0
LINE
  5
5E0
330
5AD
100
AcDbEntity
  8
KCAD_DIMS
 62
     0
370
    -2
100
AcDbLine
 10
-189.8872216662
 20
119.65677889732
 30
0.0
 11
-189.8872216662
 21
99.95672910848099
 31
0.0
  0
INSERT
  5
5E1
330
5AD
100
AcDbEntity
  8
KCAD_DIMS
 62
     0
370
    -2
100
AcDbBlockReference
  2
_OPEN30
 10
-73.28722166622
 20
117.65677889732
 30
0.0
 41
2.5
 42
2.5
 43
2.5
  0
INSERT
  5
5E2
330
5AD
100
AcDbEntity
  8
KCAD_DIMS
 62
     0
370
    -2
100
AcDbBlockReference
  2
_OPEN30
 10
-189.8872216662
 20
117.65677889732
 30
0.0
 41
2.5
 42
2.5
 43
2.5
 50
180.0
  0
LINE
  5
5E3
330
5AD
100
AcDbEntity
  8
KCAD_DIMS
 62
     0
370
    -2
100
AcDbLine
 10
-75.78722166622
 20
117.65677889732
 30
0.0
 11
-187.3872216661999
 21
117.65677889732
 31
0.0
  0
POINT
  5
5E4
330
5AD
100
AcDbEntity
  8
DEFPOINTS
 62
     0
370
    15
100
AcDbPoint
 10
-73.28722166622
 20
102.76384481597
 30
0.0
  0
POINT
  5
5E5
330
5AD
100
AcDbEntity
  8
DEFPOINTS
 62
     0
370
    15
100
AcDbPoint
 10
-189.8872216662
 20
97.956729108481
 30
0.0
  0
POINT
  5
5E6
330
5AD
100
AcDbEntity
  8
DEFPOINTS
 62
     0
370
    15
100
AcDbPoint
 10
-189.8872216662
 20
117.65677889732
 30
0.0
  0
MTEXT
  5
5E7
330
5AD
100
AcDbEntity
  8
KCAD_DIMS
 62
     0
100
AcDbMText
 10
-131.5872216662
 20
120.32344489732
 30
0.0
 40
3.2
 41
0.0
 71
     5
 72
     1
  1
\A1;116.6
  7
KCADDIMSTANDARD
 73
     1
 44
1.0
  0
ENDBLK
  5
F01
330
5AD
100
AcDbEntity
  8
0
100
AcDbBlockEnd
  0
BLOCK
  5
F02
330
5E9
100
AcDbEntity
  8
0
100
AcDbBlockBegin
  2
*D29
 70
     1
 71
     0
 10
0.0
 20
0.0
 30
0.0
  3
*D29
  1

  0
LINE
  5
61B
330
5E9
100
AcDbEntity
  8
KCAD_DIMS
 62
     0
370
    -2
100
AcDbLine
 10
-140.2872216661999
 20
111.8509716176399
 30
0.0
 11
-140.2872216661999
 21
99.10179350871302
 31
0.0
  0
LINE
  5
61C
330
5E9
100
AcDbEntity
  8
KCAD_DIMS
 62
     0
370
    -2
100
AcDbLine
 10
-73.28722166622
 20
111.8509716176399
 30
0.0
 11
-73.28722166622
 21
104.76384481597
 31
0.0
  0
INSERT
  5
61D
330
5E9
100
AcDbEntity
  8
KCAD_DIMS
 62
     0
370
    -2
100
AcDbBlockReference
  2
_OPEN30
 10
-140.2872216661999
 20
109.8509716176399
 30
0.0
 41
2.5
 42
2.5
 43
2.5
 50
180.0
  0
INSERT
  5
61E
330
5E9
100
AcDbEntity
  8
KCAD_DIMS
 62
     0
370
    -2
100
AcDbBlockReference
  2
_OPEN30
 10
-73.28722166622
 20
109.8509716176399
 30
0.0
 41
2.5
 42
2.5
 43
2.5
  0
LINE
  5
61F
330
5E9
100
AcDbEntity
  8
KCAD_DIMS
 62
     0
370
    -2
100
AcDbLine
 10
-137.7872216662
 20
109.8509716176399
 30
0.0
 11
-75.78722166622
 21
109.8509716176399
 31
0.0
  0
POINT
  5
620
330
5E9
100
AcDbEntity
  8
DEFPOINTS
 62
     0
370
    15
100
AcDbPoint
 10
-140.2872216661999
 20
97.101793508713
 30
0.0
  0
POINT
  5
621
330
5E9
100
AcDbEntity
  8
DEFPOINTS
 62
     0
370
    15
100
AcDbPoint
 10
-73.28722166622
 20
102.76384481597
 30
0.0
  0
POINT
  5
622
330
5E9
100
AcDbEntity
  8
DEFPOINTS
 62
     0
370
    15
100
AcDbPoint
 10
-73.28722166622
 20
109.8509716176399
 30
0.0
  0
MTEXT
  5
623
330
5E9
100
AcDbEntity
  8
KCAD_DIMS
 62
     0
100
AcDbMText
 10
-106.7872216662
 20
112.5176376176399
 30
0.0
 40
3.2
 41
0.0
 71
     5
 72
     1
  1
\A1;67
  7
KCADDIMSTANDARD
 73
     1
 44
1.0
  0
ENDBLK
  5
F03
330
5E9
100
AcDbEntity
  8
0
100
AcDbBlockEnd
  0
BLOCK
  5
F04
330
625
100
AcDbEntity
  8
0
100
AcDbBlockBegin
  2
*D30
 70
     1
 71
     0
 10
0.0
 20
0.0
 30
0.0
  3
*D30
  1

  0
LINE
  5
657
330
625
100
AcDbEntity
  8
KCAD_DIMS
 62
     0
370
    -2
100
AcDbLine
 10
-209.8909660224999
 20
69.763844815962
 30
0.0
 11
-184.8063283161
 21
69.763844815962
 31
0.0
  0
LINE
  5
658
330
625
100
AcDbEntity
  8
KCAD_DIMS
 62
     0
370
    -2
100
AcDbLine
 10
-209.8909660224999
 20
101.76384481597
 30
0.0
 11
-184.6087742239
 21
101.76384481597
 31
0.0
  0
INSERT
  5
659
330
625
100
AcDbEntity
  8
KCAD_DIMS
 62
     0
370
    -2
100
AcDbBlockReference
  2
_OPEN30
 10
-207.8909660225
 20
69.763844815962
 30
0.0
 41
2.5
 42
2.5
 43
2.5
 50
270.0
  0
INSERT
  5
65A
330
625
100
AcDbEntity
  8
KCAD_DIMS
 62
     0
370
    -2
100
AcDbBlockReference
  2
_OPEN30
 10
-207.8909660225
 20
101.76384481597
 30
0.0
 41
2.5
 42
2.5
 43
2.5
 50
90.0
  0
LINE
  5
65B
330
625
100
AcDbEntity
  8
KCAD_DIMS
 62
     0
370
    -2
100
AcDbLine
 10
-207.8909660225
 20
72.263844815962
 30
0.0
 11
-207.8909660225
 21
99.26384481597
 31
0.0
  0
POINT
  5
65C
330
625
100
AcDbEntity
  8
DEFPOINTS
 62
     0
370
    15
100
AcDbPoint
 10
-182.8063283161
 20
69.763844815962
 30
0.0
  0
POINT
  5
65D
330
625
100
AcDbEntity
  8
DEFPOINTS
 62
     0
370
    15
100
AcDbPoint
 10
-182.6087742239
 20
101.76384481597
 30
0.0
  0
POINT
  5
65E
330
625
100
AcDbEntity
  8
DEFPOINTS
 62
     0
370
    15
100
AcDbPoint
 10
-207.8909660225
 20
101.76384481597
 30
0.0
  0
MTEXT
  5
65F
330
625
100
AcDbEntity
  8
KCAD_DIMS
 62
     0
100
AcDbMText
 10
-210.5576320224999
 20
85.763844815972
 30
0.0
 40
3.2
 41
0.0
 71
     5
 72
     1
  1
\A1;%%c32
  7
KCADDIMSTANDARD
 11
1.000000000000000E-16
 21
1.0
 31
0.0
 73
     1
 44
1.0
  0
ENDBLK
  5
F05
330
625
100
AcDbEntity
  8
0
100
AcDbBlockEnd
  0
BLOCK
  5
F06
330
661
100
AcDbEntity
  8
0
100
AcDbBlockBegin
  2
*D31
 70
     1
 71
     0
 10
0.0
 20
0.0
 30
0.0
  3
*D31
  1

  0
LINE
  5
693
330
661
100
AcDbEntity
  8
KCAD_DIMS
 62
     0
370
    -2
100
AcDbLine
 10
-36.19200082967002
 20
67.763844815972
 30
0.0
 11
-75.06550047036998
 21
67.763844815972
 31
0.0
  0
LINE
  5
694
330
661
100
AcDbEntity
  8
KCAD_DIMS
 62
     0
370
    -2
100
AcDbLine
 10
-36.19200082967002
 20
103.76384481597
 30
0.0
 11
-77.9794233302
 21
103.76384481597
 31
0.0
  0
INSERT
  5
695
330
661
100
AcDbEntity
  8
KCAD_DIMS
 62
     0
370
    -2
100
AcDbBlockReference
  2
_OPEN30
 10
-38.19200082967002
 20
67.763844815972
 30
0.0
 41
2.5
 42
2.5
 43
2.5
 50
270.0
  0
INSERT
  5
696
330
661
100
AcDbEntity
  8
KCAD_DIMS
 62
     0
370
    -2
100
AcDbBlockReference
  2
_OPEN30
 10
-38.19200082967002
 20
103.76384481597
 30
0.0
 41
2.5
 42
2.5
 43
2.5
 50
90.0
  0
LINE
  5
697
330
661
100
AcDbEntity
  8
KCAD_DIMS
 62
     0
370
    -2
100
AcDbLine
 10
-38.19200082967002
 20
70.263844815972
 30
0.0
 11
-38.19200082967002
 21
101.2638448159699
 31
0.0
  0
POINT
  5
698
330
661
100
AcDbEntity
  8
DEFPOINTS
 62
     0
370
    15
100
AcDbPoint
 10
-77.06550047037
 20
67.763844815972
 30
0.0
  0
POINT
  5
699
330
661
100
AcDbEntity
  8
DEFPOINTS
 62
     0
370
    15
100
AcDbPoint
 10
-79.9794233302
 20
103.76384481597
 30
0.0
  0
POINT
  5
69A
330
661
100
AcDbEntity
  8
DEFPOINTS
 62
     0
370
    15
100
AcDbPoint
 10
-38.19200082967002
 20
103.76384481597
 30
0.0
  0
MTEXT
  5
69B
330
661
100
AcDbEntity
  8
KCAD_DIMS
 62
     0
100
AcDbMText
 10
-40.85866682967
 20
85.763844815972
 30
0.0
 40
3.2
 41
0.0
 71
     5
 72
     1
  1
\A1;%%c36
  7
KCADDIMSTANDARD
 11
1.000000000000000E-16
 21
1.0
 31
0.0
 73
     1
 44
1.0
  0
ENDBLK
  5
F07
330
661
100
AcDbEntity
  8
0
100
AcDbBlockEnd
  0
BLOCK
  5
F08
330
863
100
AcDbEntity
  8
0
100
AcDbBlockBegin
  2
*D32
 70
     1
 71
     0
 10
0.0
 20
0.0
 30
0.0
  3
*D32
  1

  0
LINE
  5
895
330
863
100
AcDbEntity
  8
KCAD_DIMS
 62
     0
370
    -2
100
AcDbLine
 10
-73.28722166622
 20
184.83720337841
 30
0.0
 11
-73.28722166622
 21
164.81849677035
 31
0.0
  0
LINE
  5
896
330
863
100
AcDbEntity
  8
KCAD_DIMS
 62
     0
370
    -2
100
AcDbLine
 10
-164.8872216662
 20
184.83720337841
 30
0.0
 11
-164.8872216662
 21
155.20408954963
 31
0.0
  0
INSERT
  5
897
330
863
100
AcDbEntity
  8
KCAD_DIMS
 62
     0
370
    -2
100
AcDbBlockReference
  2
_OPEN30
 10
-73.28722166622
 20
182.83720337841
 30
0.0
 41
2.5
 42
2.5
 43
2.5
  0
INSERT
  5
898
330
863
100
AcDbEntity
  8
KCAD_DIMS
 62
     0
370
    -2
100
AcDbBlockReference
  2
_OPEN30
 10
-164.8872216662
 20
182.83720337841
 30
0.0
 41
2.5
 42
2.5
 43
2.5
 50
180.0
  0
LINE
  5
899
330
863
100
AcDbEntity
  8
KCAD_DIMS
 62
     0
370
    -2
100
AcDbLine
 10
-75.78722166622
 20
182.83720337841
 30
0.0
 11
-162.3872216661999
 21
182.83720337841
 31
0.0
  0
POINT
  5
89A
330
863
100
AcDbEntity
  8
DEFPOINTS
 62
     0
370
    15
100
AcDbPoint
 10
-73.28722166622
 20
162.81849677035
 30
0.0
  0
POINT
  5
89B
330
863
100
AcDbEntity
  8
DEFPOINTS
 62
     0
370
    15
100
AcDbPoint
 10
-164.8872216662
 20
153.20408954963
 30
0.0
  0
POINT
  5
89C
330
863
100
AcDbEntity
  8
DEFPOINTS
 62
     0
370
    15
100
AcDbPoint
 10
-164.8872216662
 20
182.83720337841
 30
0.0
  0
MTEXT
  5
89D
330
863
100
AcDbEntity
  8
KCAD_DIMS
 62
     0
100
AcDbMText
 10
-119.0872216662
 20
185.50386937841
 30
0.0
 40
3.2
 41
0.0
 71
     5
 72
     1
  1
\A1;91.6
  7
KCADDIMSTANDARD
 73
     1
 44
1.0
  0
ENDBLK
  5
F09
330
863
100
AcDbEntity
  8
0
100
AcDbBlockEnd
  0
BLOCK
  5
F0A
330
89F
100
AcDbEntity
  8
0
100
AcDbBlockBegin
  2
*D33
 70
     1
 71
     0
 10
0.0
 20
0.0
 30
0.0
  3
*D33
  1

  0
LINE
  5
8D1
330
89F
100
AcDbEntity
  8
KCAD_DIMS
 62
     0
370
    -2
100
AcDbLine
 10
-115.2872216662
 20
173.1815119390899
 30
0.0
 11
-115.2872216662
 21
164.81849677035
 31
0.0
  0
LINE
  5
8D2
330
89F
100
AcDbEntity
  8
KCAD_DIMS
 62
     0
370
    -2
100
AcDbLine
 10
-73.28722166622
 20
173.1815119390899
 30
0.0
 11
-73.28722166622
 21
156.19186001058
 31
0.0
  0
INSERT
  5
8D3
330
89F
100
AcDbEntity
  8
KCAD_DIMS
 62
     0
370
    -2
100
AcDbBlockReference
  2
_OPEN30
 10
-115.2872216662
 20
171.18151193909
 30
0.0
 41
2.5
 42
2.5
 43
2.5
 50
180.0
  0
INSERT
  5
8D4
330
89F
100
AcDbEntity
  8
KCAD_DIMS
 62
     0
370
    -2
100
AcDbBlockReference
  2
_OPEN30
 10
-73.28722166622
 20
171.18151193909
 30
0.0
 41
2.5
 42
2.5
 43
2.5
  0
LINE
  5
8D5
330
89F
100
AcDbEntity
  8
KCAD_DIMS
 62
     0
370
    -2
100
AcDbLine
 10
-112.7872216662
 20
171.18151193909
 30
0.0
 11
-75.78722166622
 21
171.18151193909
 31
0.0
  0
POINT
  5
8D6
330
89F
100
AcDbEntity
  8
DEFPOINTS
 62
     0
370
    15
100
AcDbPoint
 10
-115.2872216662
 20
162.81849677035
 30
0.0
  0
POINT
  5
8D7
330
89F
100
AcDbEntity
  8
DEFPOINTS
 62
     0
370
    15
100
AcDbPoint
 10
-73.28722166622
 20
154.19186001058
 30
0.0
  0
POINT
  5
8D8
330
89F
100
AcDbEntity
  8
DEFPOINTS
 62
     0
370
    15
100
AcDbPoint
 10
-73.28722166622
 20
171.18151193909
 30
0.0
  0
MTEXT
  5
8D9
330
89F
100
AcDbEntity
  8
KCAD_DIMS
 62
     0
100
AcDbMText
 10
-94.28722166622
 20
173.8481779390899
 30
0.0
 40
3.2
 41
0.0
 71
     5
 72
     1
  1
\A1;42
  7
KCADDIMSTANDARD
 73
     1
 44
1.0
  0
ENDBLK
  5
F0B
330
89F
100
AcDbEntity
  8
0
100
AcDbBlockEnd
  0
BLOCK
  5
F0C
330
8E7
100
AcDbEntity
  8
0
100
AcDbBlockBegin
  2
*D34
 70
     1
 71
     0
 10
0.0
 20
0.0
 30
0.0
  3
*D34
  1

  0
LINE
  5
919
330
8E7
100
AcDbEntity
  8
KCAD_DIMS
 62
     0
370
    -2
100
AcDbLine
 10
-73.28722166622
 20
109.8509716176399
 30
0.0
 11
-73.28722166622
 21
102.76384481597
 31
0.0
  0
LINE
  5
91A
330
8E7
100
AcDbEntity
  8
KCAD_DIMS
 62
     0
370
    -2
100
AcDbLine
 10
-55.76122166622
 20
109.8509716176399
 30
0.0
 11
-55.76122166622
 21
85.763844815962
 31
0.0
  0
INSERT
  5
91B
330
8E7
100
AcDbEntity
  8
KCAD_DIMS
 62
     0
370
    -2
100
AcDbBlockReference
  2
_OPEN30
 10
-73.28722166622
 20
109.8509716176399
 30
0.0
 41
2.5
 42
2.5
 43
2.5
  0
INSERT
  5
91C
330
8E7
100
AcDbEntity
  8
KCAD_DIMS
 62
     0
370
    -2
100
AcDbBlockReference
  2
_OPEN30
 10
-55.76122166622
 20
109.8509716176399
 30
0.0
 41
2.5
 42
2.5
 43
2.5
 50
180.0
  0
LINE
  5
91D
330
8E7
100
AcDbEntity
  8
KCAD_DIMS
 62
     0
370
    -2
100
AcDbLine
 10
-73.28722166622
 20
109.8509716176399
 30
0.0
 11
-55.76122166622
 21
109.8509716176399
 31
0.0
  0
LINE
  5
91E
330
8E7
100
AcDbEntity
  8
KCAD_DIMS
 62
     0
370
    -2
100
AcDbLine
 10
-75.78722166622
 20
109.8509716176399
 30
0.0
 11
-78.28722166622
 21
109.8509716176399
 31
0.0
  0
LINE
  5
91F
330
8E7
100
AcDbEntity
  8
KCAD_DIMS
 62
     0
370
    -2
100
AcDbLine
 10
-53.26122166622
 20
109.8509716176399
 30
0.0
 11
-39.012056242874
 21
109.8509716176399
 31
0.0
  0
POINT
  5
920
330
8E7
100
AcDbEntity
  8
DEFPOINTS
 62
     0
370
    15
100
AcDbPoint
 10
-73.28722166622
 20
102.76384481597
 30
0.0
  0
POINT
  5
921
330
8E7
100
AcDbEntity
  8
DEFPOINTS
 62
     0
370
    15
100
AcDbPoint
 10
-55.76122166622
 20
85.763844815962
 30
0.0
  0
POINT
  5
922
330
8E7
100
AcDbEntity
  8
DEFPOINTS
 62
     0
370
    15
100
AcDbPoint
 10
-55.76122166622
 20
109.8509716176399
 30
0.0
  0
MTEXT
  5
923
330
8E7
100
AcDbEntity
  8
KCAD_DIMS
 62
     0
100
AcDbMText
 10
-45.35806867357
 20
111.9843046176399
 30
0.0
 40
3.2
 41
0.0
 71
     5
 72
     1
  1
\A1;FB 17.526
  7
KCADDIMSTANDARD
 73
     1
 44
1.0
  0
ENDBLK
  5
F0D
330
8E7
100
AcDbEntity
  8
0
100
AcDbBlockEnd
  0
BLOCK
  5
F0E
330
925
100
AcDbEntity
  8
0
100
AcDbBlockBegin
  2
*D35
 70
     1
 71
     0
 10
0.0
 20
0.0
 30
0.0
  3
*D35
  1

  0
LINE
  5
957
330
925
100
AcDbEntity
  8
KCAD_DIMS
 62
     0
370
    -2
100
AcDbLine
 10
-247.2372819615999
 20
117.65677889732
 30
0.0
 11
-247.2372819615999
 21
85.763844815962
 31
0.0
  0
LINE
  5
958
330
925
100
AcDbEntity
  8
KCAD_DIMS
 62
     0
370
    -2
100
AcDbLine
 10
-189.8872216662
 20
117.65677889732
 30
0.0
 11
-189.8872216662
 21
85.763844815972
 31
0.0
  0
INSERT
  5
959
330
925
100
AcDbEntity
  8
KCAD_DIMS
 62
     0
370
    -2
100
AcDbBlockReference
  2
_OPEN30
 10
-247.2372819615999
 20
117.65677889732
 30
0.0
 41
2.5
 42
2.5
 43
2.5
 50
180.0
  0
INSERT
  5
95A
330
925
100
AcDbEntity
  8
KCAD_DIMS
 62
     0
370
    -2
100
AcDbBlockReference
  2
_OPEN30
 10
-189.8872216662
 20
117.65677889732
 30
0.0
 41
2.5
 42
2.5
 43
2.5
  0
LINE
  5
95B
330
925
100
AcDbEntity
  8
KCAD_DIMS
 62
     0
370
    -2
100
AcDbLine
 10
-244.7372819616
 20
117.65677889732
 30
0.0
 11
-192.3872216661999
 21
117.65677889732
 31
0.0
  0
POINT
  5
95C
330
925
100
AcDbEntity
  8
DEFPOINTS
 62
     0
370
    15
100
AcDbPoint
 10
-247.2372819615999
 20
85.763844815962
 30
0.0
  0
POINT
  5
95D
330
925
100
AcDbEntity
  8
DEFPOINTS
 62
     0
370
    15
100
AcDbPoint
 10
-189.8872216662
 20
85.763844815972
 30
0.0
  0
POINT
  5
95E
330
925
100
AcDbEntity
  8
DEFPOINTS
 62
     0
370
    15
100
AcDbPoint
 10
-189.8872216662
 20
117.65677889732
 30
0.0
  0
MTEXT
  5
95F
330
925
100
AcDbEntity
  8
KCAD_DIMS
 62
     0
100
AcDbMText
 10
-218.5622518139
 20
119.7901118973199
 30
0.0
 40
3.2
 41
0.0
 71
     5
 72
     1
  1
\A1;\A1;WD 67
  7
KCADDIMSTANDARD
 73
     1
 44
1.0
  0
ENDBLK
  5
F0F
330
925
100
AcDbEntity
  8
0
100
AcDbBlockEnd
  0
BLOCK
  5
F10
330
963
100
AcDbEntity
  8
0
100
AcDbBlockBegin
  2
*D36
 70
     1
 71
     0
 10
0.0
 20
0.0
 30
0.0
  3
*D36
  1

  0
LINE
  5
995
330
963
100
AcDbEntity
  8
KCAD_DIMS
 62
     0
370
    -2
100
AcDbLine
 10
-247.2372819615999
 20
182.83720337841
 30
0.0
 11
-247.2372819615999
 21
145.81849677035
 31
0.0
  0
LINE
  5
996
330
963
100
AcDbEntity
  8
KCAD_DIMS
 62
     0
370
    -2
100
AcDbLine
 10
-164.8872216662
 20
182.83720337841
 30
0.0
 11
-164.8872216662
 21
145.81849677035
 31
0.0
  0
INSERT
  5
997
330
963
100
AcDbEntity
  8
KCAD_DIMS
 62
     0
370
    -2
100
AcDbBlockReference
  2
_OPEN30
 10
-247.2372819615999
 20
182.83720337841
 30
0.0
 41
2.5
 42
2.5
 43
2.5
 50
180.0
  0
INSERT
  5
998
330
963
100
AcDbEntity
  8
KCAD_DIMS
 62
     0
370
    -2
100
AcDbBlockReference
  2
_OPEN30
 10
-164.8872216662
 20
182.83720337841
 30
0.0
 41
2.5
 42
2.5
 43
2.5
  0
LINE
  5
999
330
963
100
AcDbEntity
  8
KCAD_DIMS
 62
     0
370
    -2
100
AcDbLine
 10
-244.7372819616
 20
182.83720337841
 30
0.0
 11
-167.3872216661999
 21
182.83720337841
 31
0.0
  0
POINT
  5
99A
330
963
100
AcDbEntity
  8
DEFPOINTS
 62
     0
370
    15
100
AcDbPoint
 10
-247.2372819615999
 20
145.81849677035
 30
0.0
  0
POINT
  5
99B
330
963
100
AcDbEntity
  8
DEFPOINTS
 62
     0
370
    15
100
AcDbPoint
 10
-164.8872216662
 20
145.81849677035
 30
0.0
  0
POINT
  5
99C
330
963
100
AcDbEntity
  8
DEFPOINTS
 62
     0
370
    15
100
AcDbPoint
 10
-164.8872216662
 20
182.83720337841
 30
0.0
  0
MTEXT
  5
99D
330
963
100
AcDbEntity
  8
KCAD_DIMS
 62
     0
100
AcDbMText
 10
-206.0622518139
 20
184.97053637841
 30
0.0
 40
3.2
 41
0.0
 71
     5
 72
     1
  1
\A1;\A1;WD 117
  7
KCADDIMSTANDARD
 73
     1
 44
1.0
  0
ENDBLK
  5
F11
330
963
100
AcDbEntity
  8
0
100
AcDbBlockEnd
  0
BLOCK
  5
F12
330
9C3
100
AcDbEntity
  8
0
100
AcDbBlockBegin
  2
*D37
 70
     1
 71
     0
 10
0.0
 20
0.0
 30
0.0
  3
*D37
  1

  0
LINE
  5
9F5
330
9C3
100
AcDbEntity
  8
KCAD_DIMS
 62
     0
370
    -2
100
AcDbLine
 10
-88.28722166622
 20
166.0872283979299
 30
0.0
 11
-88.28722166622
 21
163.31849677035
 31
0.0
  0
LINE
  5
9F6
330
9C3
100
AcDbEntity
  8
KCAD_DIMS
 62
     0
370
    -2
100
AcDbLine
 10
-73.28722166622
 20
166.0872283979299
 30
0.0
 11
-73.28722166622
 21
162.81849677035
 31
0.0
  0
INSERT
  5
9F7
330
9C3
100
AcDbEntity
  8
KCAD_DIMS
 62
     0
370
    -2
100
AcDbBlockReference
  2
_OPEN30
 10
-88.28722166622
 20
166.0872283979299
 30
0.0
 41
2.5
 42
2.5
 43
2.5
 50
180.0
  0
INSERT
  5
9F8
330
9C3
100
AcDbEntity
  8
KCAD_DIMS
 62
     0
370
    -2
100
AcDbBlockReference
  2
_OPEN30
 10
-73.28722166622
 20
166.0872283979299
 30
0.0
 41
2.5
 42
2.5
 43
2.5
  0
LINE
  5
9F9
330
9C3
100
AcDbEntity
  8
KCAD_DIMS
 62
     0
370
    -2
100
AcDbLine
 10
-85.78722166622
 20
166.0872283979299
 30
0.0
 11
-75.78722166622
 21
166.0872283979299
 31
0.0
  0
POINT
  5
9FA
330
9C3
100
AcDbEntity
  8
DEFPOINTS
 62
     0
370
    15
100
AcDbPoint
 10
-88.28722166622
 20
163.31849677035
 30
0.0
  0
POINT
  5
9FB
330
9C3
100
AcDbEntity
  8
DEFPOINTS
 62
     0
370
    15
100
AcDbPoint
 10
-73.28722166622
 20
162.81849677035
 30
0.0
  0
POINT
  5
9FC
330
9C3
100
AcDbEntity
  8
DEFPOINTS
 62
     0
370
    15
100
AcDbPoint
 10
-73.28722166622
 20
166.0872283979299
 30
0.0
  0
MTEXT
  5
9FD
330
9C3
100
AcDbEntity
  8
KCAD_DIMS
 62
     0
100
AcDbMText
 10
-80.78722166622
 20
168.22056139793
 30
0.0
 40
3.2
 41
0.0
 71
     5
 72
     1
  1
\A1;15
  7
KCADDIMSTANDARD
 73
     1
 44
1.0
  0
ENDBLK
  5
F13
330
9C3
100
AcDbEntity
  8
0
100
AcDbBlockEnd
  0
BLOCK
  5
F14
330
9FF
100
AcDbEntity
  8
0
100
AcDbBlockBegin
  2
*D38
 70
     1
 71
     0
 10
0.0
 20
0.0
 30
0.0
  3
*D38
  1

  0
LINE
  5
A31
330
9FF
100
AcDbEntity
  8
KCAD_DIMS
 62
     0
370
    -2
100
AcDbLine
 10
-115.2872216662
 20
166.0872283979299
 30
0.0
 11
-115.2872216662
 21
162.81849677035
 31
0.0
  0
LINE
  5
A32
330
9FF
100
AcDbEntity
  8
KCAD_DIMS
 62
     0
370
    -2
100
AcDbLine
 10
-88.28722166622
 20
166.0872283979299
 30
0.0
 11
-88.28722166622
 21
163.31849677035
 31
0.0
  0
INSERT
  5
A33
330
9FF
100
AcDbEntity
  8
KCAD_DIMS
 62
     0
370
    -2
100
AcDbBlockReference
  2
_OPEN30
 10
-115.2872216662
 20
166.0872283979299
 30
0.0
 41
2.5
 42
2.5
 43
2.5
 50
180.0
  0
INSERT
  5
A34
330
9FF
100
AcDbEntity
  8
KCAD_DIMS
 62
     0
370
    -2
100
AcDbBlockReference
  2
_OPEN30
 10
-88.28722166622
 20
166.0872283979299
 30
0.0
 41
2.5
 42
2.5
 43
2.5
  0
LINE
  5
A35
330
9FF
100
AcDbEntity
  8
KCAD_DIMS
 62
     0
370
    -2
100
AcDbLine
 10
-112.7872216662
 20
166.0872283979299
 30
0.0
 11
-90.78722166622
 21
166.0872283979299
 31
0.0
  0
POINT
  5
A36
330
9FF
100
AcDbEntity
  8
DEFPOINTS
 62
     0
370
    15
100
AcDbPoint
 10
-115.2872216662
 20
162.81849677035
 30
0.0
  0
POINT
  5
A37
330
9FF
100
AcDbEntity
  8
DEFPOINTS
 62
     0
370
    15
100
AcDbPoint
 10
-88.28722166622
 20
163.31849677035
 30
0.0
  0
POINT
  5
A38
330
9FF
100
AcDbEntity
  8
DEFPOINTS
 62
     0
370
    15
100
AcDbPoint
 10
-88.28722166622
 20
166.0872283979299
 30
0.0
  0
MTEXT
  5
A39
330
9FF
100
AcDbEntity
  8
KCAD_DIMS
 62
     0
100
AcDbMText
 10
-101.7872216662
 20
168.22056139793
 30
0.0
 40
3.2
 41
0.0
 71
     5
 72
     1
  1
\A1;27
  7
KCADDIMSTANDARD
 73
     1
 44
1.0
  0
ENDBLK
  5
F15
330
9FF
100
AcDbEntity
  8
0
100
AcDbBlockEnd
  0
BLOCK
  5
F16
330
A3B
100
AcDbEntity
  8
0
100
AcDbBlockBegin
  2
*D39
 70
     1
 71
     0
 10
0.0
 20
0.0
 30
0.0
  3
*D39
  1

  0
LINE
  5
A75
330
A3B
100
AcDbEntity
  8
KCAD_DIMS
 62
     0
370
    -2
100
AcDbLine
 10
-115.2872216662
 20
166.0872283979299
 30
0.0
 11
-115.2872216662
 21
162.81849677035
 31
0.0
  0
LINE
  5
A76
330
A3B
100
AcDbEntity
  8
KCAD_DIMS
 62
     0
370
    -2
100
AcDbLine
 10
-122.2872216662
 20
166.0872283979299
 30
0.0
 11
-122.2872216662
 21
163.31849677035
 31
0.0
  0
INSERT
  5
A77
330
A3B
100
AcDbEntity
  8
KCAD_DIMS
 62
     0
370
    -2
100
AcDbBlockReference
  2
_OPEN30
 10
-115.2872216662
 20
166.0872283979299
 30
0.0
 41
2.5
 42
2.5
 43
2.5
  0
INSERT
  5
A78
330
A3B
100
AcDbEntity
  8
KCAD_DIMS
 62
     0
370
    -2
100
AcDbBlockReference
  2
_OPEN30
 10
-122.2872216662
 20
166.0872283979299
 30
0.0
 41
2.5
 42
2.5
 43
2.5
 50
180.0
  0
LINE
  5
A79
330
A3B
100
AcDbEntity
  8
KCAD_DIMS
 62
     0
370
    -2
100
AcDbLine
 10
-117.7872216661999
 20
166.0872283979299
 30
0.0
 11
-119.7872216661999
 21
166.0872283979299
 31
0.0
  0
POINT
  5
A7A
330
A3B
100
AcDbEntity
  8
DEFPOINTS
 62
     0
370
    15
100
AcDbPoint
 10
-115.2872216662
 20
162.81849677035
 30
0.0
  0
POINT
  5
A7B
330
A3B
100
AcDbEntity
  8
DEFPOINTS
 62
     0
370
    15
100
AcDbPoint
 10
-122.2872216662
 20
163.31849677035
 30
0.0
  0
POINT
  5
A7C
330
A3B
100
AcDbEntity
  8
DEFPOINTS
 62
     0
370
    15
100
AcDbPoint
 10
-122.2872216662
 20
166.0872283979299
 30
0.0
  0
MTEXT
  5
A7D
330
A3B
100
AcDbEntity
  8
KCAD_DIMS
 62
     0
100
AcDbMText
 10
-118.7872216661999
 20
168.22056139793
 30
0.0
 40
3.2
 41
0.0
 71
     5
 72
     1
  1
\A1;7
  7
KCADDIMSTANDARD
 73
     1
 44
1.0
  0
ENDBLK
  5
F17
330
A3B
100
AcDbEntity
  8
0
100
AcDbBlockEnd
  0
BLOCK
  5
F18
330
A7F
100
AcDbEntity
  8
0
100
AcDbBlockBegin
  2
*D40
 70
     1
 71
     0
 10
0.0
 20
0.0
 30
0.0
  3
*D40
  1

  0
LINE
  5
AB1
330
A7F
100
AcDbEntity
  8
KCAD_DIMS
 62
     0
370
    -2
100
AcDbLine
 10
-122.2872216662
 20
166.0872283979299
 30
0.0
 11
-122.2872216662
 21
163.31849677035
 31
0.0
  0
LINE
  5
AB2
330
A7F
100
AcDbEntity
  8
KCAD_DIMS
 62
     0
370
    -2
100
AcDbLine
 10
-138.2872216662
 20
166.0872283979299
 30
0.0
 11
-138.2872216662
 21
162.81849677035
 31
0.0
  0
INSERT
  5
AB3
330
A7F
100
AcDbEntity
  8
KCAD_DIMS
 62
     0
370
    -2
100
AcDbBlockReference
  2
_OPEN30
 10
-122.2872216662
 20
166.0872283979299
 30
0.0
 41
2.5
 42
2.5
 43
2.5
  0
INSERT
  5
AB4
330
A7F
100
AcDbEntity
  8
KCAD_DIMS
 62
     0
370
    -2
100
AcDbBlockReference
  2
_OPEN30
 10
-138.2872216662
 20
166.0872283979299
 30
0.0
 41
2.5
 42
2.5
 43
2.5
 50
180.0
  0
LINE
  5
AB5
330
A7F
100
AcDbEntity
  8
KCAD_DIMS
 62
     0
370
    -2
100
AcDbLine
 10
-124.7872216661999
 20
166.0872283979299
 30
0.0
 11
-135.7872216662
 21
166.0872283979299
 31
0.0
  0
POINT
  5
AB6
330
A7F
100
AcDbEntity
  8
DEFPOINTS
 62
     0
370
    15
100
AcDbPoint
 10
-122.2872216662
 20
163.31849677035
 30
0.0
  0
POINT
  5
AB7
330
A7F
100
AcDbEntity
  8
DEFPOINTS
 62
     0
370
    15
100
AcDbPoint
 10
-138.2872216662
 20
162.81849677035
 30
0.0
  0
POINT
  5
AB8
330
A7F
100
AcDbEntity
  8
DEFPOINTS
 62
     0
370
    15
100
AcDbPoint
 10
-138.2872216662
 20
166.0872283979299
 30
0.0
  0
MTEXT
  5
AB9
330
A7F
100
AcDbEntity
  8
KCAD_DIMS
 62
     0
100
AcDbMText
 10
-130.2872216661999
 20
168.22056139793
 30
0.0
 40
3.2
 41
0.0
 71
     5
 72
     1
  1
\A1;16
  7
KCADDIMSTANDARD
 73
     1
 44
1.0
  0
ENDBLK
  5
F19
330
A7F
100
AcDbEntity
  8
0
100
AcDbBlockEnd
  0
BLOCK
  5
F1A
330
ABB
100
AcDbEntity
  8
0
100
AcDbBlockBegin
  2
*D41
 70
     1
 71
     0
 10
0.0
 20
0.0
 30
0.0
  3
*D41
  1

  0
LINE
  5
AF7
330
ABB
100
AcDbEntity
  8
KCAD_DIMS
 62
     0
370
    -2
100
AcDbLine
 10
-138.2872216662
 20
166.0872283979299
 30
0.0
 11
-138.2872216662
 21
162.81849677035
 31
0.0
  0
LINE
  5
AF8
330
ABB
100
AcDbEntity
  8
KCAD_DIMS
 62
     0
370
    -2
100
AcDbLine
 10
-141.2872216662
 20
166.0872283979299
 30
0.0
 11
-141.2872216662
 21
161.81849677035
 31
0.0
  0
INSERT
  5
AF9
330
ABB
100
AcDbEntity
  8
KCAD_DIMS
 62
     0
370
    -2
100
AcDbBlockReference
  2
_OPEN30
 10
-138.2872216662
 20
166.0872283979299
 30
0.0
 41
2.5
 42
2.5
 43
2.5
  0
INSERT
  5
AFA
330
ABB
100
AcDbEntity
  8
KCAD_DIMS
 62
     0
370
    -2
100
AcDbBlockReference
  2
_OPEN30
 10
-141.2872216662
 20
166.0872283979299
 30
0.0
 41
2.5
 42
2.5
 43
2.5
 50
180.0
  0
LINE
  5
AFB
330
ABB
100
AcDbEntity
  8
KCAD_DIMS
 62
     0
370
    -2
100
AcDbLine
 10
-140.7872216661999
 20
166.0872283979299
 30
0.0
 11
-138.7872216661999
 21
166.0872283979299
 31
0.0
  0
POINT
  5
AFC
330
ABB
100
AcDbEntity
  8
DEFPOINTS
 62
     0
370
    15
100
AcDbPoint
 10
-138.2872216662
 20
162.81849677035
 30
0.0
  0
POINT
  5
AFD
330
ABB
100
AcDbEntity
  8
DEFPOINTS
 62
     0
370
    15
100
AcDbPoint
 10
-141.2872216662
 20
161.81849677035
 30
0.0
  0
POINT
  5
AFE
330
ABB
100
AcDbEntity
  8
DEFPOINTS
 62
     0
370
    15
100
AcDbPoint
 10
-141.2872216662
 20
166.0872283979299
 30
0.0
  0
MTEXT
  5
AFF
330
ABB
100
AcDbEntity
  8
KCAD_DIMS
 62
     0
100
AcDbMText
 10
-139.7872216661999
 20
168.22056139793
 30
0.0
 40
3.2
 41
0.0
 71
     5
 72
     1
  1
\A1;3
  7
KCADDIMSTANDARD
 73
     1
 44
1.0
  0
ENDBLK
  5
F1B
330
ABB
100
AcDbEntity
  8
0
100
AcDbBlockEnd
  0
BLOCK
  5
F1C
330
B01
100
AcDbEntity
  8
0
100
AcDbBlockBegin
  2
*D42
 70
     1
 71
     0
 10
0.0
 20
0.0
 30
0.0
  3
*D42
  1

  0
LINE
  5
B33
330
B01
100
AcDbEntity
  8
KCAD_DIMS
 62
     0
370
    -2
100
AcDbLine
 10
-141.2872216662
 20
166.0872283979299
 30
0.0
 11
-141.2872216662
 21
161.81849677035
 31
0.0
  0
LINE
  5
B34
330
B01
100
AcDbEntity
  8
KCAD_DIMS
 62
     0
370
    -2
100
AcDbLine
 10
-164.8872216662
 20
166.0872283979299
 30
0.0
 11
-164.8872216662
 21
161.5184967703499
 31
0.0
  0
INSERT
  5
B35
330
B01
100
AcDbEntity
  8
KCAD_DIMS
 62
     0
370
    -2
100
AcDbBlockReference
  2
_OPEN30
 10
-141.2872216662
 20
166.0872283979299
 30
0.0
 41
2.5
 42
2.5
 43
2.5
  0
INSERT
  5
B36
330
B01
100
AcDbEntity
  8
KCAD_DIMS
 62
     0
370
    -2
100
AcDbBlockReference
  2
_OPEN30
 10
-164.8872216662
 20
166.0872283979299
 30
0.0
 41
2.5
 42
2.5
 43
2.5
 50
180.0
  0
LINE
  5
B37
330
B01
100
AcDbEntity
  8
KCAD_DIMS
 62
     0
370
    -2
100
AcDbLine
 10
-143.7872216661999
 20
166.0872283979299
 30
0.0
 11
-162.3872216661999
 21
166.0872283979299
 31
0.0
  0
POINT
  5
B38
330
B01
100
AcDbEntity
  8
DEFPOINTS
 62
     0
370
    15
100
AcDbPoint
 10
-141.2872216662
 20
161.81849677035
 30
0.0
  0
POINT
  5
B39
330
B01
100
AcDbEntity
  8
DEFPOINTS
 62
     0
370
    15
100
AcDbPoint
 10
-164.8872216662
 20
161.5184967703499
 30
0.0
  0
POINT
  5
B3A
330
B01
100
AcDbEntity
  8
DEFPOINTS
 62
     0
370
    15
100
AcDbPoint
 10
-164.8872216662
 20
166.0872283979299
 30
0.0
  0
MTEXT
  5
B3B
330
B01
100
AcDbEntity
  8
KCAD_DIMS
 62
     0
100
AcDbMText
 10
-153.0872216662
 20
168.22056139793
 30
0.0
 40
3.2
 41
0.0
 71
     5
 72
     1
  1
\A1;23.6
  7
KCADDIMSTANDARD
 73
     1
 44
1.0
  0
ENDBLK
  5
F1D
330
B01
100
AcDbEntity
  8
0
100
AcDbBlockEnd
  0
BLOCK
  5
F1E
330
B77
100
AcDbEntity
  8
0
100
AcDbBlockBegin
  2
*D43
 70
     1
 71
     0
 10
0.0
 20
0.0
 30
0.0
  3
*D43
  1

  0
LINE
  5
BA3
330
B77
100
AcDbEntity
  8
KCAD_DIMS
 62
     0
370
    -2
100
AcDbLine
 10
-175.2004957666999
 20
161.06849677035
 30
0.0
 11
-164.8872216662
 21
161.06849677035
 31
0.0
  0
INSERT
  5
BA4
330
B77
100
AcDbEntity
  8
KCAD_DIMS
 62
     0
370
    -2
100
AcDbBlockReference
  2
_OPEN30
 10
-175.2004957666999
 20
161.06849677035
 30
0.0
 41
2.5
 42
2.5
 43
2.5
 50
90.0
  0
LINE
  5
BA5
330
B77
100
AcDbEntity
  8
KCAD_DIMS
 62
     0
370
    -2
100
AcDbLine
 10
-175.2004957666999
 20
158.56849677035
 30
0.0
 11
-175.2004957666999
 21
134.6790362580599
 31
0.0
  0
POINT
  5
BA6
330
B77
100
AcDbEntity
  8
DEFPOINTS
 62
     0
370
    15
100
AcDbPoint
 10
-164.8872216662
 20
161.06849677035
 30
0.0
  0
POINT
  5
BA7
330
B77
100
AcDbEntity
  8
DEFPOINTS
 62
     0
370
    15
100
AcDbPoint
 10
-204.1922338283999
 20
145.81849677035
 30
0.0
  0
POINT
  5
BA8
330
B77
100
AcDbEntity
  8
DEFPOINTS
 62
     0
370
    15
100
AcDbPoint
 10
-175.2004957666999
 20
145.8184967703499
 30
0.0
  0
MTEXT
  5
BA9
330
B77
100
AcDbEntity
  8
KCAD_DIMS
 62
     0
100
AcDbMText
 10
-177.3338287666999
 20
145.54451132861
 30
0.0
 40
3.2
 41
0.0
 71
     5
 72
     1
  1
\A1;M30.5 P0.5
  7
KCADDIMSTANDARD
 11
1.000000000000000E-16
 21
1.0
 31
0.0
 73
     1
 44
1.0
  0
ENDBLK
  5
F1F
330
B77
100
AcDbEntity
  8
0
100
AcDbBlockEnd
  0
BLOCK
  5
F20
330
BCF
100
AcDbEntity
  8
0
100
AcDbBlockBegin
  2
*D44
 70
     1
 71
     0
 10
0.0
 20
0.0
 30
0.0
  3
*D44
  1

  0
POINT
  5
BC4
330
BCF
100
AcDbEntity
  8
DEFPOINTS
  6
ByBlock
 62
     0
370
    15
100
AcDbPoint
 10
-73.28722166622
 20
98.843301885247
 30
0.0
  0
POINT
  5
BC5
330
BCF
100
AcDbEntity
  8
DEFPOINTS
  6
ByBlock
 62
     0
370
    15
100
AcDbPoint
 10
-69.28722166622
 20
92.42279388901
 30
0.0
  0
LINE
  5
BC6
330
BCF
100
AcDbEntity
  8
0
  6
ByBlock
 62
     0
370
    -2
100
AcDbLine
 10
-73.28722166622
 20
100.843301885247
 30
0.0
 11
-73.28722166622
 21
122.90948225594
 31
0.0
  0
LINE
  5
BC7
330
BCF
100
AcDbEntity
  8
0
  6
ByBlock
 62
     0
370
    -2
100
AcDbLine
 10
-69.28722166622
 20
94.42279388901
 30
0.0
 11
-69.28722166622
 21
122.90948225594
 31
0.0
  0
LINE
  5
BC8
330
BCF
100
AcDbEntity
  8
0
  6
ByBlock
 62
     0
370
    -2
100
AcDbLine
 10
-75.78722166622
 20
120.90948225594
 30
0.0
 11
-78.28722166622
 21
120.90948225594
 31
0.0
  0
SOLID
  5
BC9
330
BCF
100
AcDbEntity
  8
0
  6
ByBlock
 62
     0
370
    15
100
AcDbTrace
 10
-73.28722166622
 20
120.90948225594
 30
0.0
 11
-75.78722166622
 21
120.4928155892732
 31
0.0
 12
-75.78722166622
 22
121.3261489226068
 32
0.0
 13
-75.78722166622
 23
121.3261489226068
 33
0.0
  0
LINE
  5
BCA
330
BCF
100
AcDbEntity
  8
0
  6
ByBlock
 62
     0
370
    -2
100
AcDbLine
 10
-66.78722166622
 20
120.90948225594
 30
0.0
 11
-64.28722166622
 21
120.90948225594
 31
0.0
  0
SOLID
  5
BCB
330
BCF
100
AcDbEntity
  8
0
  6
ByBlock
 62
     0
370
    15
100
AcDbTrace
 10
-69.28722166622
 20
120.90948225594
 30
0.0
 11
-66.78722166622
 21
120.4928155892732
 31
0.0
 12
-66.78722166622
 22
121.3261489226068
 32
0.0
 13
-66.78722166622
 23
121.3261489226068
 33
0.0
  0
LINE
  5
BCC
330
BCF
100
AcDbEntity
  8
0
  6
ByBlock
 62
     0
370
    -2
100
AcDbLine
 10
-73.28722166622
 20
120.90948225594
 30
0.0
 11
-69.28722166622
 21
120.90948225594
 31
0.0
  0
MTEXT
  5
BCD
330
BCF
100
AcDbEntity
  8
0
  6
ByBlock
 62
     0
100
AcDbMText
 10
-55.30512406578999
 20
123.57614825594
 30
0.0
 40
3.2
 41
0.0
 71
     5
 72
     1
  1
4
  7
KCADDIMSTANDARD
 73
     1
 44
1.0
  0
ENDBLK
  5
F21
330
BCF
100
AcDbEntity
  8
0
100
AcDbBlockEnd
  0
BLOCK
  5
F22
330
BDB
100
AcDbEntity
  8
0
100
AcDbBlockBegin
  2
*D45
 70
     1
 71
     0
 10
0.0
 20
0.0
 30
0.0
  3
*D45
  1

  0
POINT
  5
BD1
330
BDB
100
AcDbEntity
  8
DEFPOINTS
  6
ByBlock
 62
     0
370
    15
100
AcDbPoint
 10
-73.28722166622
 20
102.76384481597
 30
0.0
  0
POINT
  5
BD2
330
BDB
100
AcDbEntity
  8
DEFPOINTS
  6
ByBlock
 62
     0
370
    15
100
AcDbPoint
 10
-189.8872216662
 20
97.956729108481
 30
0.0
  0
LINE
  5
BD3
330
BDB
100
AcDbEntity
  8
0
  6
ByBlock
 62
     0
370
    -2
100
AcDbLine
 10
-73.28722166622
 20
104.76384481597
 30
0.0
 11
-73.28722166622
 21
119.65677889732
 31
0.0
  0
LINE
  5
BD4
330
BDB
100
AcDbEntity
  8
0
  6
ByBlock
 62
     0
370
    -2
100
AcDbLine
 10
-189.8872216662
 20
99.956729108481
 30
0.0
 11
-189.8872216662
 21
119.65677889732
 31
0.0
  0
LINE
  5
BD5
330
BDB
100
AcDbEntity
  8
0
  6
ByBlock
 62
     0
370
    -2
100
AcDbLine
 10
-73.28722166622
 20
117.65677889732
 30
0.0
 11
-189.8872216662
 21
117.65677889732
 31
0.0
  0
SOLID
  5
BD6
330
BDB
100
AcDbEntity
  8
0
  6
ByBlock
 62
     0
370
    15
100
AcDbTrace
 10
-73.28722166622
 20
117.65677889732
 30
0.0
 11
-75.78722166622
 21
118.0734455639868
 31
0.0
 12
-75.78722166622
 22
117.2401122306532
 32
0.0
 13
-75.78722166622
 23
117.2401122306532
 33
0.0
  0
SOLID
  5
BD7
330
BDB
100
AcDbEntity
  8
0
  6
ByBlock
 62
     0
370
    15
100
AcDbTrace
 10
-189.8872216662
 20
117.65677889732
 30
0.0
 11
-187.3872216662
 21
118.0734455639868
 31
0.0
 12
-187.3872216662
 22
117.2401122306532
 32
0.0
 13
-187.3872216662
 23
117.2401122306532
 33
0.0
  0
LINE
  5
BD8
330
BDB
100
AcDbEntity
  8
0
  6
ByBlock
 62
     0
370
    -2
100
AcDbLine
 10
-73.28722166622
 20
102.76384481597
 30
0.0
 11
-73.28722166622
 21
102.76384481597
 31
0.0
  0
MTEXT
  5
BD9
330
BDB
100
AcDbEntity
  8
0
  6
ByBlock
 62
     0
100
AcDbMText
 10
-131.5872216662
 20
120.32344489732
 30
0.0
 40
3.2
 41
0.0
 71
     5
 72
     1
  1
116.6
  7
KCADDIMSTANDARD
 73
     1
 44
1.0
  0
ENDBLK
  5
F23
330
BDB
100
AcDbEntity
  8
0
100
AcDbBlockEnd
  0
BLOCK
  5
F24
330
BE7
100
AcDbEntity
  8
0
100
AcDbBlockBegin
  2
*D46
 70
     1
 71
     0
 10
0.0
 20
0.0
 30
0.0
  3
*D46
  1

  0
POINT
  5
BDD
330
BE7
100
AcDbEntity
  8
DEFPOINTS
  6
ByBlock
 62
     0
370
    15
100
AcDbPoint
 10
-140.2872216661999
 20
97.101793508713
 30
0.0
  0
POINT
  5
BDE
330
BE7
100
AcDbEntity
  8
DEFPOINTS
  6
ByBlock
 62
     0
370
    15
100
AcDbPoint
 10
-73.28722166622
 20
102.76384481597
 30
0.0
  0
LINE
  5
BDF
330
BE7
100
AcDbEntity
  8
0
  6
ByBlock
 62
     0
370
    -2
100
AcDbLine
 10
-140.2872216661999
 20
99.101793508713
 30
0.0
 11
-140.2872216661999
 21
111.8509716176399
 31
0.0
  0
LINE
  5
BE0
330
BE7
100
AcDbEntity
  8
0
  6
ByBlock
 62
     0
370
    -2
100
AcDbLine
 10
-73.28722166622
 20
104.76384481597
 30
0.0
 11
-73.28722166622
 21
111.8509716176399
 31
0.0
  0
LINE
  5
BE1
330
BE7
100
AcDbEntity
  8
0
  6
ByBlock
 62
     0
370
    -2
100
AcDbLine
 10
-140.2872216661999
 20
109.8509716176399
 30
0.0
 11
-73.28722166622
 21
109.8509716176399
 31
0.0
  0
SOLID
  5
BE2
330
BE7
100
AcDbEntity
  8
0
  6
ByBlock
 62
     0
370
    15
100
AcDbTrace
 10
-140.2872216661999
 20
109.8509716176399
 30
0.0
 11
-137.7872216661999
 21
109.4343049509731
 31
0.0
 12
-137.7872216661999
 22
110.2676382843067
 32
0.0
 13
-137.7872216661999
 23
110.2676382843067
 33
0.0
  0
SOLID
  5
BE3
330
BE7
100
AcDbEntity
  8
0
  6
ByBlock
 62
     0
370
    15
100
AcDbTrace
 10
-73.28722166622
 20
109.8509716176399
 30
0.0
 11
-75.78722166622
 21
109.4343049509731
 31
0.0
 12
-75.78722166622
 22
110.2676382843067
 32
0.0
 13
-75.78722166622
 23
110.2676382843067
 33
0.0
  0
LINE
  5
BE4
330
BE7
100
AcDbEntity
  8
0
  6
ByBlock
 62
     0
370
    -2
100
AcDbLine
 10
-140.2872216661999
 20
97.101793508713
 30
0.0
 11
-140.2872216661999
 21
97.101793508713
 31
0.0
  0
MTEXT
  5
BE5
330
BE7
100
AcDbEntity
  8
0
  6
ByBlock
 62
     0
100
AcDbMText
 10
-106.7872216662
 20
112.5176376176399
 30
0.0
 40
3.2
 41
0.0
 71
     5
 72
     1
  1
67
  7
KCADDIMSTANDARD
 73
     1
 44
1.0
  0
ENDBLK
  5
F25
330
BE7
100
AcDbEntity
  8
0
100
AcDbBlockEnd
  0
BLOCK
  5
F26
330
BF3
100
AcDbEntity
  8
0
100
AcDbBlockBegin
  2
*D47
 70
     1
 71
     0
 10
0.0
 20
0.0
 30
0.0
  3
*D47
  1

  0
POINT
  5
BE9
330
BF3
100
AcDbEntity
  8
DEFPOINTS
  6
ByBlock
 62
     0
370
    15
100
AcDbPoint
 10
-182.8063283161
 20
69.763844815962
 30
0.0
  0
POINT
  5
BEA
330
BF3
100
AcDbEntity
  8
DEFPOINTS
  6
ByBlock
 62
     0
370
    15
100
AcDbPoint
 10
-182.6087742239
 20
101.76384481597
 30
0.0
  0
LINE
  5
BEB
330
BF3
100
AcDbEntity
  8
0
  6
ByBlock
 62
     0
370
    -2
100
AcDbLine
 10
-184.8063283161
 20
69.763844815962
 30
0.0
 11
-209.8909660225
 21
69.763844815962
 31
0.0
  0
LINE
  5
BEC
330
BF3
100
AcDbEntity
  8
0
  6
ByBlock
 62
     0
370
    -2
100
AcDbLine
 10
-184.6087742239
 20
101.76384481597
 30
0.0
 11
-209.8909660225
 21
101.76384481597
 31
0.0
  0
LINE
  5
BED
330
BF3
100
AcDbEntity
  8
0
  6
ByBlock
 62
     0
370
    -2
100
AcDbLine
 10
-207.8909660225
 20
69.763844815962
 30
0.0
 11
-207.8909660225
 21
101.76384481597
 31
0.0
  0
SOLID
  5
BEE
330
BF3
100
AcDbEntity
  8
0
  6
ByBlock
 62
     0
370
    15
100
AcDbTrace
 10
-207.8909660225
 20
69.763844815962
 30
0.0
 11
-207.4742993558333
 21
72.263844815962
 31
0.0
 12
-208.3076326891668
 22
72.263844815962
 32
0.0
 13
-208.3076326891668
 23
72.263844815962
 33
0.0
  0
SOLID
  5
BEF
330
BF3
100
AcDbEntity
  8
0
  6
ByBlock
 62
     0
370
    15
100
AcDbTrace
 10
-207.8909660225
 20
101.76384481597
 30
0.0
 11
-207.4742993558333
 21
99.26384481597
 31
0.0
 12
-208.3076326891668
 22
99.26384481597
 32
0.0
 13
-208.3076326891668
 23
99.26384481597
 33
0.0
  0
LINE
  5
BF0
330
BF3
100
AcDbEntity
  8
0
  6
ByBlock
 62
     0
370
    -2
100
AcDbLine
 10
-182.8063283161
 20
69.763844815962
 30
0.0
 11
-182.8063283161
 21
69.763844815962
 31
0.0
  0
MTEXT
  5
BF1
330
BF3
100
AcDbEntity
  8
0
  6
ByBlock
 62
     0
100
AcDbMText
 10
-210.5576320224999
 20
85.763844815972
 30
0.0
 40
3.2
 41
0.0
 71
     5
 72
     1
  1
\A1;%%c32
  7
KCADDIMSTANDARD
 11
6.123031769111886E-17
 21
1.0
 31
0.0
 73
     1
 44
1.0
  0
ENDBLK
  5
F27
330
BF3
100
AcDbEntity
  8
0
100
AcDbBlockEnd
  0
BLOCK
  5
F28
330
BFF
100
AcDbEntity
  8
0
100
AcDbBlockBegin
  2
*D48
 70
     1
 71
     0
 10
0.0
 20
0.0
 30
0.0
  3
*D48
  1

  0
POINT
  5
BF5
330
BFF
100
AcDbEntity
  8
DEFPOINTS
  6
ByBlock
 62
     0
370
    15
100
AcDbPoint
 10
-77.06550047037
 20
67.763844815972
 30
0.0
  0
POINT
  5
BF6
330
BFF
100
AcDbEntity
  8
DEFPOINTS
  6
ByBlock
 62
     0
370
    15
100
AcDbPoint
 10
-79.9794233302
 20
103.76384481597
 30
0.0
  0
LINE
  5
BF7
330
BFF
100
AcDbEntity
  8
0
  6
ByBlock
 62
     0
370
    -2
100
AcDbLine
 10
-75.06550047037
 20
67.763844815972
 30
0.0
 11
-36.19200082967002
 21
67.763844815972
 31
0.0
  0
LINE
  5
BF8
330
BFF
100
AcDbEntity
  8
0
  6
ByBlock
 62
     0
370
    -2
100
AcDbLine
 10
-77.9794233302
 20
103.76384481597
 30
0.0
 11
-36.19200082967002
 21
103.76384481597
 31
0.0
  0
LINE
  5
BF9
330
BFF
100
AcDbEntity
  8
0
  6
ByBlock
 62
     0
370
    -2
100
AcDbLine
 10
-38.19200082967002
 20
67.763844815972
 30
0.0
 11
-38.19200082967002
 21
103.76384481597
 31
0.0
  0
SOLID
  5
BFA
330
BFF
100
AcDbEntity
  8
0
  6
ByBlock
 62
     0
370
    15
100
AcDbTrace
 10
-38.19200082967002
 20
67.763844815972
 30
0.0
 11
-37.77533416300327
 21
70.263844815972
 31
0.0
 12
-38.60866749633677
 22
70.263844815972
 32
0.0
 13
-38.60866749633677
 23
70.263844815972
 33
0.0
  0
SOLID
  5
BFB
330
BFF
100
AcDbEntity
  8
0
  6
ByBlock
 62
     0
370
    15
100
AcDbTrace
 10
-38.19200082967002
 20
103.76384481597
 30
0.0
 11
-37.77533416300327
 21
101.26384481597
 31
0.0
 12
-38.60866749633677
 22
101.26384481597
 32
0.0
 13
-38.60866749633677
 23
101.26384481597
 33
0.0
  0
LINE
  5
BFC
330
BFF
100
AcDbEntity
  8
0
  6
ByBlock
 62
     0
370
    -2
100
AcDbLine
 10
-77.06550047037
 20
67.763844815972
 30
0.0
 11
-77.06550047037
 21
67.763844815972
 31
0.0
  0
MTEXT
  5
BFD
330
BFF
100
AcDbEntity
  8
0
  6
ByBlock
 62
     0
100
AcDbMText
 10
-40.85866682967
 20
85.763844815972
 30
0.0
 40
3.2
 41
0.0
 71
     5
 72
     1
  1
\A1;%%c36
  7
KCADDIMSTANDARD
 11
6.123031769111886E-17
 21
1.0
 31
0.0
 73
     1
 44
1.0
  0
ENDBLK
  5
F29
330
BFF
100
AcDbEntity
  8
0
100
AcDbBlockEnd
  0
BLOCK
  5
F2A
330
C0B
100
AcDbEntity
  8
0
100
AcDbBlockBegin
  2
*D49
 70
     1
 71
     0
 10
0.0
 20
0.0
 30
0.0
  3
*D49
  1

  0
POINT
  5
C01
330
C0B
100
AcDbEntity
  8
DEFPOINTS
  6
ByBlock
 62
     0
370
    15
100
AcDbPoint
 10
-73.28722166622
 20
162.81849677035
 30
0.0
  0
POINT
  5
C02
330
C0B
100
AcDbEntity
  8
DEFPOINTS
  6
ByBlock
 62
     0
370
    15
100
AcDbPoint
 10
-164.8872216662
 20
153.20408954963
 30
0.0
  0
LINE
  5
C03
330
C0B
100
AcDbEntity
  8
0
  6
ByBlock
 62
     0
370
    -2
100
AcDbLine
 10
-73.28722166622
 20
164.81849677035
 30
0.0
 11
-73.28722166622
 21
184.83720337841
 31
0.0
  0
LINE
  5
C04
330
C0B
100
AcDbEntity
  8
0
  6
ByBlock
 62
     0
370
    -2
100
AcDbLine
 10
-164.8872216662
 20
155.20408954963
 30
0.0
 11
-164.8872216662
 21
184.83720337841
 31
0.0
  0
LINE
  5
C05
330
C0B
100
AcDbEntity
  8
0
  6
ByBlock
 62
     0
370
    -2
100
AcDbLine
 10
-73.28722166622
 20
182.83720337841
 30
0.0
 11
-164.8872216662
 21
182.83720337841
 31
0.0
  0
SOLID
  5
C06
330
C0B
100
AcDbEntity
  8
0
  6
ByBlock
 62
     0
370
    15
100
AcDbTrace
 10
-73.28722166622
 20
182.83720337841
 30
0.0
 11
-75.78722166622
 21
183.2538700450768
 31
0.0
 12
-75.78722166622
 22
182.4205367117433
 32
0.0
 13
-75.78722166622
 23
182.4205367117433
 33
0.0
  0
SOLID
  5
C07
330
C0B
100
AcDbEntity
  8
0
  6
ByBlock
 62
     0
370
    15
100
AcDbTrace
 10
-164.8872216662
 20
182.83720337841
 30
0.0
 11
-162.3872216662
 21
183.2538700450768
 31
0.0
 12
-162.3872216662
 22
182.4205367117433
 32
0.0
 13
-162.3872216662
 23
182.4205367117433
 33
0.0
  0
LINE
  5
C08
330
C0B
100
AcDbEntity
  8
0
  6
ByBlock
 62
     0
370
    -2
100
AcDbLine
 10
-73.28722166622
 20
162.81849677035
 30
0.0
 11
-73.28722166622
 21
162.81849677035
 31
0.0
  0
MTEXT
  5
C09
330
C0B
100
AcDbEntity
  8
0
  6
ByBlock
 62
     0
100
AcDbMText
 10
-119.0872216662
 20
185.50386937841
 30
0.0
 40
3.2
 41
0.0
 71
     5
 72
     1
  1
91.6
  7
KCADDIMSTANDARD
 73
     1
 44
1.0
  0
ENDBLK
  5
F2B
330
C0B
100
AcDbEntity
  8
0
100
AcDbBlockEnd
  0
BLOCK
  5
F2C
330
C17
100
AcDbEntity
  8
0
100
AcDbBlockBegin
  2
*D50
 70
     1
 71
     0
 10
0.0
 20
0.0
 30
0.0
  3
*D50
  1

  0
POINT
  5
C0D
330
C17
100
AcDbEntity
  8
DEFPOINTS
  6
ByBlock
 62
     0
370
    15
100
AcDbPoint
 10
-115.2872216662
 20
162.81849677035
 30
0.0
  0
POINT
  5
C0E
330
C17
100
AcDbEntity
  8
DEFPOINTS
  6
ByBlock
 62
     0
370
    15
100
AcDbPoint
 10
-73.28722166622
 20
154.19186001058
 30
0.0
  0
LINE
  5
C0F
330
C17
100
AcDbEntity
  8
0
  6
ByBlock
 62
     0
370
    -2
100
AcDbLine
 10
-115.2872216662
 20
164.81849677035
 30
0.0
 11
-115.2872216662
 21
173.18151193909
 31
0.0
  0
LINE
  5
C10
330
C17
100
AcDbEntity
  8
0
  6
ByBlock
 62
     0
370
    -2
100
AcDbLine
 10
-73.28722166622
 20
156.19186001058
 30
0.0
 11
-73.28722166622
 21
173.18151193909
 31
0.0
  0
LINE
  5
C11
330
C17
100
AcDbEntity
  8
0
  6
ByBlock
 62
     0
370
    -2
100
AcDbLine
 10
-115.2872216662
 20
171.18151193909
 30
0.0
 11
-73.28722166622
 21
171.18151193909
 31
0.0
  0
SOLID
  5
C12
330
C17
100
AcDbEntity
  8
0
  6
ByBlock
 62
     0
370
    15
100
AcDbTrace
 10
-115.2872216662
 20
171.18151193909
 30
0.0
 11
-112.7872216662
 21
170.7648452724233
 31
0.0
 12
-112.7872216662
 22
171.5981786057567
 32
0.0
 13
-112.7872216662
 23
171.5981786057567
 33
0.0
  0
SOLID
  5
C13
330
C17
100
AcDbEntity
  8
0
  6
ByBlock
 62
     0
370
    15
100
AcDbTrace
 10
-73.28722166622
 20
171.18151193909
 30
0.0
 11
-75.78722166622
 21
170.7648452724233
 31
0.0
 12
-75.78722166622
 22
171.5981786057567
 32
0.0
 13
-75.78722166622
 23
171.5981786057567
 33
0.0
  0
LINE
  5
C14
330
C17
100
AcDbEntity
  8
0
  6
ByBlock
 62
     0
370
    -2
100
AcDbLine
 10
-115.2872216662
 20
162.81849677035
 30
0.0
 11
-115.2872216662
 21
162.81849677035
 31
0.0
  0
MTEXT
  5
C15
330
C17
100
AcDbEntity
  8
0
  6
ByBlock
 62
     0
100
AcDbMText
 10
-94.28722166622
 20
173.8481779390899
 30
0.0
 40
3.2
 41
0.0
 71
     5
 72
     1
  1
42
  7
KCADDIMSTANDARD
 73
     1
 44
1.0
  0
ENDBLK
  5
F2D
330
C17
100
AcDbEntity
  8
0
100
AcDbBlockEnd
  0
BLOCK
  5
F2E
330
C23
100
AcDbEntity
  8
0
100
AcDbBlockBegin
  2
*D51
 70
     1
 71
     0
 10
0.0
 20
0.0
 30
0.0
  3
*D51
  1

  0
POINT
  5
C19
330
C23
100
AcDbEntity
  8
DEFPOINTS
  6
ByBlock
 62
     0
370
    15
100
AcDbPoint
 10
-73.28722166622
 20
102.76384481597
 30
0.0
  0
POINT
  5
C1A
330
C23
100
AcDbEntity
  8
DEFPOINTS
  6
ByBlock
 62
     0
370
    15
100
AcDbPoint
 10
-55.76122166622
 20
85.763844815962
 30
0.0
  0
LINE
  5
C1B
330
C23
100
AcDbEntity
  8
0
  6
ByBlock
 62
     0
370
    -2
100
AcDbLine
 10
-73.28722166622
 20
102.76384481597
 30
0.0
 11
-73.28722166622
 21
109.8509716176399
 31
0.0
  0
LINE
  5
C1C
330
C23
100
AcDbEntity
  8
0
  6
ByBlock
 62
     0
370
    -2
100
AcDbLine
 10
-55.76122166622
 20
85.763844815962
 30
0.0
 11
-55.76122166622
 21
109.8509716176399
 31
0.0
  0
LINE
  5
C1D
330
C23
100
AcDbEntity
  8
0
  6
ByBlock
 62
     0
370
    -2
100
AcDbLine
 10
-73.28722166622
 20
109.8509716176399
 30
0.0
 11
-55.76122166622
 21
109.8509716176399
 31
0.0
  0
SOLID
  5
C1E
330
C23
100
AcDbEntity
  8
0
  6
ByBlock
 62
     0
370
    15
100
AcDbTrace
 10
-73.28722166622
 20
109.8509716176399
 30
0.0
 11
-70.78722166622
 21
109.4343049509731
 31
0.0
 12
-70.78722166622
 22
110.2676382843067
 32
0.0
 13
-70.78722166622
 23
110.2676382843067
 33
0.0
  0
SOLID
  5
C1F
330
C23
100
AcDbEntity
  8
0
  6
ByBlock
 62
     0
370
    15
100
AcDbTrace
 10
-55.76122166622
 20
109.8509716176399
 30
0.0
 11
-58.26122166622
 21
109.4343049509731
 31
0.0
 12
-58.26122166622
 22
110.2676382843067
 32
0.0
 13
-58.26122166622
 23
110.2676382843067
 33
0.0
  0
LINE
  5
C20
330
C23
100
AcDbEntity
  8
0
  6
ByBlock
 62
     0
370
    -2
100
AcDbLine
 10
-73.28722166622
 20
102.76384481597
 30
0.0
 11
-73.28722166622
 21
102.76384481597
 31
0.0
  0
MTEXT
  5
C21
330
C23
100
AcDbEntity
  8
0
  6
ByBlock
 62
     0
100
AcDbMText
 10
-45.35806867357
 20
111.9843046176399
 30
0.0
 40
3.2
 41
0.0
 71
     5
 72
     1
  1
\A1;FB 17.526
  7
KCADDIMSTANDARD
 73
     1
 44
1.0
  0
ENDBLK
  5
F2F
330
C23
100
AcDbEntity
  8
0
100
AcDbBlockEnd
  0
BLOCK
  5
F30
330
C2F
100
AcDbEntity
  8
0
100
AcDbBlockBegin
  2
*D52
 70
     1
 71
     0
 10
0.0
 20
0.0
 30
0.0
  3
*D52
  1

  0
POINT
  5
C25
330
C2F
100
AcDbEntity
  8
DEFPOINTS
  6
ByBlock
 62
     0
370
    15
100
AcDbPoint
 10
-247.2372819615999
 20
85.763844815962
 30
0.0
  0
POINT
  5
C26
330
C2F
100
AcDbEntity
  8
DEFPOINTS
  6
ByBlock
 62
     0
370
    15
100
AcDbPoint
 10
-189.8872216662
 20
85.763844815972
 30
0.0
  0
LINE
  5
C27
330
C2F
100
AcDbEntity
  8
0
  6
ByBlock
 62
     0
370
    -2
100
AcDbLine
 10
-247.2372819615999
 20
85.763844815962
 30
0.0
 11
-247.2372819615999
 21
117.65677889732
 31
0.0
  0
LINE
  5
C28
330
C2F
100
AcDbEntity
  8
0
  6
ByBlock
 62
     0
370
    -2
100
AcDbLine
 10
-189.8872216662
 20
85.763844815972
 30
0.0
 11
-189.8872216662
 21
117.65677889732
 31
0.0
  0
LINE
  5
C29
330
C2F
100
AcDbEntity
  8
0
  6
ByBlock
 62
     0
370
    -2
100
AcDbLine
 10
-247.2372819615999
 20
117.65677889732
 30
0.0
 11
-189.8872216662
 21
117.65677889732
 31
0.0
  0
SOLID
  5
C2A
330
C2F
100
AcDbEntity
  8
0
  6
ByBlock
 62
     0
370
    15
100
AcDbTrace
 10
-247.2372819615999
 20
117.65677889732
 30
0.0
 11
-244.7372819615999
 21
117.2401122306532
 31
0.0
 12
-244.7372819615999
 22
118.0734455639868
 32
0.0
 13
-244.7372819615999
 23
118.0734455639868
 33
0.0
  0
SOLID
  5
C2B
330
C2F
100
AcDbEntity
  8
0
  6
ByBlock
 62
     0
370
    15
100
AcDbTrace
 10
-189.8872216662
 20
117.65677889732
 30
0.0
 11
-192.3872216662
 21
117.2401122306532
 31
0.0
 12
-192.3872216662
 22
118.0734455639868
 32
0.0
 13
-192.3872216662
 23
118.0734455639868
 33
0.0
  0
LINE
  5
C2C
330
C2F
100
AcDbEntity
  8
0
  6
ByBlock
 62
     0
370
    -2
100
AcDbLine
 10
-247.2372819615999
 20
85.763844815962
 30
0.0
 11
-247.2372819615999
 21
85.763844815962
 31
0.0
  0
MTEXT
  5
C2D
330
C2F
100
AcDbEntity
  8
0
  6
ByBlock
 62
     0
100
AcDbMText
 10
-218.5622518139
 20
119.7901118973199
 30
0.0
 40
3.2
 41
0.0
 71
     5
 72
     1
  1
\A1;WD 67
  7
KCADDIMSTANDARD
 73
     1
 44
1.0
  0
ENDBLK
  5
F31
330
C2F
100
AcDbEntity
  8
0
100
AcDbBlockEnd
  0
BLOCK
  5
F32
330
C3B
100
AcDbEntity
  8
0
100
AcDbBlockBegin
  2
*D53
 70
     1
 71
     0
 10
0.0
 20
0.0
 30
0.0
  3
*D53
  1

  0
POINT
  5
C31
330
C3B
100
AcDbEntity
  8
DEFPOINTS
  6
ByBlock
 62
     0
370
    15
100
AcDbPoint
 10
-247.2372819615999
 20
145.81849677035
 30
0.0
  0
POINT
  5
C32
330
C3B
100
AcDbEntity
  8
DEFPOINTS
  6
ByBlock
 62
     0
370
    15
100
AcDbPoint
 10
-164.8872216662
 20
145.81849677035
 30
0.0
  0
LINE
  5
C33
330
C3B
100
AcDbEntity
  8
0
  6
ByBlock
 62
     0
370
    -2
100
AcDbLine
 10
-247.2372819615999
 20
145.81849677035
 30
0.0
 11
-247.2372819615999
 21
182.83720337841
 31
0.0
  0
LINE
  5
C34
330
C3B
100
AcDbEntity
  8
0
  6
ByBlock
 62
     0
370
    -2
100
AcDbLine
 10
-164.8872216662
 20
145.81849677035
 30
0.0
 11
-164.8872216662
 21
182.83720337841
 31
0.0
  0
LINE
  5
C35
330
C3B
100
AcDbEntity
  8
0
  6
ByBlock
 62
     0
370
    -2
100
AcDbLine
 10
-247.2372819615999
 20
182.83720337841
 30
0.0
 11
-164.8872216662
 21
182.83720337841
 31
0.0
  0
SOLID
  5
C36
330
C3B
100
AcDbEntity
  8
0
  6
ByBlock
 62
     0
370
    15
100
AcDbTrace
 10
-247.2372819615999
 20
182.83720337841
 30
0.0
 11
-244.7372819615999
 21
182.4205367117433
 31
0.0
 12
-244.7372819615999
 22
183.2538700450768
 32
0.0
 13
-244.7372819615999
 23
183.2538700450768
 33
0.0
  0
SOLID
  5
C37
330
C3B
100
AcDbEntity
  8
0
  6
ByBlock
 62
     0
370
    15
100
AcDbTrace
 10
-164.8872216662
 20
182.83720337841
 30
0.0
 11
-167.3872216662
 21
182.4205367117433
 31
0.0
 12
-167.3872216662
 22
183.2538700450768
 32
0.0
 13
-167.3872216662
 23
183.2538700450768
 33
0.0
  0
LINE
  5
C38
330
C3B
100
AcDbEntity
  8
0
  6
ByBlock
 62
     0
370
    -2
100
AcDbLine
 10
-247.2372819615999
 20
145.81849677035
 30
0.0
 11
-247.2372819615999
 21
145.81849677035
 31
0.0
  0
MTEXT
  5
C39
330
C3B
100
AcDbEntity
  8
0
  6
ByBlock
 62
     0
100
AcDbMText
 10
-206.0622518139
 20
184.97053637841
 30
0.0
 40
3.2
 41
0.0
 71
     5
 72
     1
  1
\A1;WD 117
  7
KCADDIMSTANDARD
 73
     1
 44
1.0
  0
ENDBLK
  5
F33
330
C3B
100
AcDbEntity
  8
0
100
AcDbBlockEnd
  0
BLOCK
  5
F34
330
C47
100
AcDbEntity
  8
0
100
AcDbBlockBegin
  2
*D54
 70
     1
 71
     0
 10
0.0
 20
0.0
 30
0.0
  3
*D54
  1

  0
POINT
  5
C3D
330
C47
100
AcDbEntity
  8
DEFPOINTS
  6
ByBlock
 62
     0
370
    15
100
AcDbPoint
 10
-88.28722166622
 20
163.31849677035
 30
0.0
  0
POINT
  5
C3E
330
C47
100
AcDbEntity
  8
DEFPOINTS
  6
ByBlock
 62
     0
370
    15
100
AcDbPoint
 10
-73.28722166622
 20
162.81849677035
 30
0.0
  0
LINE
  5
C3F
330
C47
100
AcDbEntity
  8
0
  6
ByBlock
 62
     0
370
    -2
100
AcDbLine
 10
-88.28722166622
 20
163.31849677035
 30
0.0
 11
-88.28722166622
 21
166.0872283979299
 31
0.0
  0
LINE
  5
C40
330
C47
100
AcDbEntity
  8
0
  6
ByBlock
 62
     0
370
    -2
100
AcDbLine
 10
-73.28722166622
 20
162.81849677035
 30
0.0
 11
-73.28722166622
 21
166.0872283979299
 31
0.0
  0
LINE
  5
C41
330
C47
100
AcDbEntity
  8
0
  6
ByBlock
 62
     0
370
    -2
100
AcDbLine
 10
-88.28722166622
 20
166.0872283979299
 30
0.0
 11
-73.28722166622
 21
166.0872283979299
 31
0.0
  0
SOLID
  5
C42
330
C47
100
AcDbEntity
  8
0
  6
ByBlock
 62
     0
370
    15
100
AcDbTrace
 10
-88.28722166622
 20
166.0872283979299
 30
0.0
 11
-85.78722166622
 21
165.6705617312631
 31
0.0
 12
-85.78722166622
 22
166.5038950645966
 32
0.0
 13
-85.78722166622
 23
166.5038950645966
 33
0.0
  0
SOLID
  5
C43
330
C47
100
AcDbEntity
  8
0
  6
ByBlock
 62
     0
370
    15
100
AcDbTrace
 10
-73.28722166622
 20
166.0872283979299
 30
0.0
 11
-75.78722166622
 21
165.6705617312631
 31
0.0
 12
-75.78722166622
 22
166.5038950645966
 32
0.0
 13
-75.78722166622
 23
166.5038950645966
 33
0.0
  0
LINE
  5
C44
330
C47
100
AcDbEntity
  8
0
  6
ByBlock
 62
     0
370
    -2
100
AcDbLine
 10
-88.28722166622
 20
163.31849677035
 30
0.0
 11
-88.28722166622
 21
163.31849677035
 31
0.0
  0
MTEXT
  5
C45
330
C47
100
AcDbEntity
  8
0
  6
ByBlock
 62
     0
100
AcDbMText
 10
-80.78722166622
 20
168.22056139793
 30
0.0
 40
3.2
 41
0.0
 71
     5
 72
     1
  1
15
  7
KCADDIMSTANDARD
 73
     1
 44
1.0
  0
ENDBLK
  5
F35
330
C47
100
AcDbEntity
  8
0
100
AcDbBlockEnd
  0
BLOCK
  5
F36
330
C53
100
AcDbEntity
  8
0
100
AcDbBlockBegin
  2
*D55
 70
     1
 71
     0
 10
0.0
 20
0.0
 30
0.0
  3
*D55
  1

  0
POINT
  5
C49
330
C53
100
AcDbEntity
  8
DEFPOINTS
  6
ByBlock
 62
     0
370
    15
100
AcDbPoint
 10
-115.2872216662
 20
162.81849677035
 30
0.0
  0
POINT
  5
C4A
330
C53
100
AcDbEntity
  8
DEFPOINTS
  6
ByBlock
 62
     0
370
    15
100
AcDbPoint
 10
-88.28722166622
 20
163.31849677035
 30
0.0
  0
LINE
  5
C4B
330
C53
100
AcDbEntity
  8
0
  6
ByBlock
 62
     0
370
    -2
100
AcDbLine
 10
-115.2872216662
 20
162.81849677035
 30
0.0
 11
-115.2872216662
 21
166.0872283979299
 31
0.0
  0
LINE
  5
C4C
330
C53
100
AcDbEntity
  8
0
  6
ByBlock
 62
     0
370
    -2
100
AcDbLine
 10
-88.28722166622
 20
163.31849677035
 30
0.0
 11
-88.28722166622
 21
166.0872283979299
 31
0.0
  0
LINE
  5
C4D
330
C53
100
AcDbEntity
  8
0
  6
ByBlock
 62
     0
370
    -2
100
AcDbLine
 10
-115.2872216662
 20
166.0872283979299
 30
0.0
 11
-88.28722166622
 21
166.0872283979299
 31
0.0
  0
SOLID
  5
C4E
330
C53
100
AcDbEntity
  8
0
  6
ByBlock
 62
     0
370
    15
100
AcDbTrace
 10
-115.2872216662
 20
166.0872283979299
 30
0.0
 11
-112.7872216662
 21
165.6705617312631
 31
0.0
 12
-112.7872216662
 22
166.5038950645966
 32
0.0
 13
-112.7872216662
 23
166.5038950645966
 33
0.0
  0
SOLID
  5
C4F
330
C53
100
AcDbEntity
  8
0
  6
ByBlock
 62
     0
370
    15
100
AcDbTrace
 10
-88.28722166622
 20
166.0872283979299
 30
0.0
 11
-90.78722166622
 21
165.6705617312631
 31
0.0
 12
-90.78722166622
 22
166.5038950645966
 32
0.0
 13
-90.78722166622
 23
166.5038950645966
 33
0.0
  0
LINE
  5
C50
330
C53
100
AcDbEntity
  8
0
  6
ByBlock
 62
     0
370
    -2
100
AcDbLine
 10
-115.2872216662
 20
162.81849677035
 30
0.0
 11
-115.2872216662
 21
162.81849677035
 31
0.0
  0
MTEXT
  5
C51
330
C53
100
AcDbEntity
  8
0
  6
ByBlock
 62
     0
100
AcDbMText
 10
-101.7872216662
 20
168.22056139793
 30
0.0
 40
3.2
 41
0.0
 71
     5
 72
     1
  1
27
  7
KCADDIMSTANDARD
 73
     1
 44
1.0
  0
ENDBLK
  5
F37
330
C53
100
AcDbEntity
  8
0
100
AcDbBlockEnd
  0
BLOCK
  5
F38
330
C5F
100
AcDbEntity
  8
0
100
AcDbBlockBegin
  2
*D56
 70
     1
 71
     0
 10
0.0
 20
0.0
 30
0.0
  3
*D56
  1

  0
POINT
  5
C55
330
C5F
100
AcDbEntity
  8
DEFPOINTS
  6
ByBlock
 62
     0
370
    15
100
AcDbPoint
 10
-115.2872216662
 20
162.81849677035
 30
0.0
  0
POINT
  5
C56
330
C5F
100
AcDbEntity
  8
DEFPOINTS
  6
ByBlock
 62
     0
370
    15
100
AcDbPoint
 10
-122.2872216662
 20
163.31849677035
 30
0.0
  0
LINE
  5
C57
330
C5F
100
AcDbEntity
  8
0
  6
ByBlock
 62
     0
370
    -2
100
AcDbLine
 10
-115.2872216662
 20
162.81849677035
 30
0.0
 11
-115.2872216662
 21
166.0872283979299
 31
0.0
  0
LINE
  5
C58
330
C5F
100
AcDbEntity
  8
0
  6
ByBlock
 62
     0
370
    -2
100
AcDbLine
 10
-122.2872216662
 20
163.31849677035
 30
0.0
 11
-122.2872216662
 21
166.0872283979299
 31
0.0
  0
LINE
  5
C59
330
C5F
100
AcDbEntity
  8
0
  6
ByBlock
 62
     0
370
    -2
100
AcDbLine
 10
-115.2872216662
 20
166.0872283979299
 30
0.0
 11
-122.2872216662
 21
166.0872283979299
 31
0.0
  0
SOLID
  5
C5A
330
C5F
100
AcDbEntity
  8
0
  6
ByBlock
 62
     0
370
    15
100
AcDbTrace
 10
-115.2872216662
 20
166.0872283979299
 30
0.0
 11
-117.7872216662
 21
166.5038950645966
 31
0.0
 12
-117.7872216662
 22
165.6705617312631
 32
0.0
 13
-117.7872216662
 23
165.6705617312631
 33
0.0
  0
SOLID
  5
C5B
330
C5F
100
AcDbEntity
  8
0
  6
ByBlock
 62
     0
370
    15
100
AcDbTrace
 10
-122.2872216662
 20
166.0872283979299
 30
0.0
 11
-119.7872216662
 21
166.5038950645966
 31
0.0
 12
-119.7872216662
 22
165.6705617312631
 32
0.0
 13
-119.7872216662
 23
165.6705617312631
 33
0.0
  0
LINE
  5
C5C
330
C5F
100
AcDbEntity
  8
0
  6
ByBlock
 62
     0
370
    -2
100
AcDbLine
 10
-115.2872216662
 20
162.81849677035
 30
0.0
 11
-115.2872216662
 21
162.81849677035
 31
0.0
  0
MTEXT
  5
C5D
330
C5F
100
AcDbEntity
  8
0
  6
ByBlock
 62
     0
100
AcDbMText
 10
-118.7872216661999
 20
168.22056139793
 30
0.0
 40
3.2
 41
0.0
 71
     5
 72
     1
  1
7
  7
KCADDIMSTANDARD
 73
     1
 44
1.0
  0
ENDBLK
  5
F39
330
C5F
100
AcDbEntity
  8
0
100
AcDbBlockEnd
  0
BLOCK
  5
F3A
330
C6B
100
AcDbEntity
  8
0
100
AcDbBlockBegin
  2
*D57
 70
     1
 71
     0
 10
0.0
 20
0.0
 30
0.0
  3
*D57
  1

  0
POINT
  5
C61
330
C6B
100
AcDbEntity
  8
DEFPOINTS
  6
ByBlock
 62
     0
370
    15
100
AcDbPoint
 10
-122.2872216662
 20
163.31849677035
 30
0.0
  0
POINT
  5
C62
330
C6B
100
AcDbEntity
  8
DEFPOINTS
  6
ByBlock
 62
     0
370
    15
100
AcDbPoint
 10
-138.2872216662
 20
162.81849677035
 30
0.0
  0
LINE
  5
C63
330
C6B
100
AcDbEntity
  8
0
  6
ByBlock
 62
     0
370
    -2
100
AcDbLine
 10
-122.2872216662
 20
163.31849677035
 30
0.0
 11
-122.2872216662
 21
166.0872283979299
 31
0.0
  0
LINE
  5
C64
330
C6B
100
AcDbEntity
  8
0
  6
ByBlock
 62
     0
370
    -2
100
AcDbLine
 10
-138.2872216662
 20
162.81849677035
 30
0.0
 11
-138.2872216662
 21
166.0872283979299
 31
0.0
  0
LINE
  5
C65
330
C6B
100
AcDbEntity
  8
0
  6
ByBlock
 62
     0
370
    -2
100
AcDbLine
 10
-122.2872216662
 20
166.0872283979299
 30
0.0
 11
-138.2872216662
 21
166.0872283979299
 31
0.0
  0
SOLID
  5
C66
330
C6B
100
AcDbEntity
  8
0
  6
ByBlock
 62
     0
370
    15
100
AcDbTrace
 10
-122.2872216662
 20
166.0872283979299
 30
0.0
 11
-124.7872216662
 21
166.5038950645966
 31
0.0
 12
-124.7872216662
 22
165.6705617312631
 32
0.0
 13
-124.7872216662
 23
165.6705617312631
 33
0.0
  0
SOLID
  5
C67
330
C6B
100
AcDbEntity
  8
0
  6
ByBlock
 62
     0
370
    15
100
AcDbTrace
 10
-138.2872216662
 20
166.0872283979299
 30
0.0
 11
-135.7872216662
 21
166.5038950645966
 31
0.0
 12
-135.7872216662
 22
165.6705617312631
 32
0.0
 13
-135.7872216662
 23
165.6705617312631
 33
0.0
  0
LINE
  5
C68
330
C6B
100
AcDbEntity
  8
0
  6
ByBlock
 62
     0
370
    -2
100
AcDbLine
 10
-122.2872216662
 20
163.31849677035
 30
0.0
 11
-122.2872216662
 21
163.31849677035
 31
0.0
  0
MTEXT
  5
C69
330
C6B
100
AcDbEntity
  8
0
  6
ByBlock
 62
     0
100
AcDbMText
 10
-130.2872216661999
 20
168.22056139793
 30
0.0
 40
3.2
 41
0.0
 71
     5
 72
     1
  1
16
  7
KCADDIMSTANDARD
 73
     1
 44
1.0
  0
ENDBLK
  5
F3B
330
C6B
100
AcDbEntity
  8
0
100
AcDbBlockEnd
  0
BLOCK
  5
F3C
330
C78
100
AcDbEntity
  8
0
100
AcDbBlockBegin
  2
*D58
 70
     1
 71
     0
 10
0.0
 20
0.0
 30
0.0
  3
*D58
  1

  0
POINT
  5
C6D
330
C78
100
AcDbEntity
  8
DEFPOINTS
  6
ByBlock
 62
     0
370
    15
100
AcDbPoint
 10
-138.2872216662
 20
162.81849677035
 30
0.0
  0
POINT
  5
C6E
330
C78
100
AcDbEntity
  8
DEFPOINTS
  6
ByBlock
 62
     0
370
    15
100
AcDbPoint
 10
-141.2872216662
 20
161.81849677035
 30
0.0
  0
LINE
  5
C6F
330
C78
100
AcDbEntity
  8
0
  6
ByBlock
 62
     0
370
    -2
100
AcDbLine
 10
-138.2872216662
 20
162.81849677035
 30
0.0
 11
-138.2872216662
 21
166.0872283979299
 31
0.0
  0
LINE
  5
C70
330
C78
100
AcDbEntity
  8
0
  6
ByBlock
 62
     0
370
    -2
100
AcDbLine
 10
-141.2872216662
 20
161.81849677035
 30
0.0
 11
-141.2872216662
 21
166.0872283979299
 31
0.0
  0
LINE
  5
C71
330
C78
100
AcDbEntity
  8
0
  6
ByBlock
 62
     0
370
    -2
100
AcDbLine
 10
-135.7872216662
 20
166.0872283979299
 30
0.0
 11
-133.2872216662
 21
166.0872283979299
 31
0.0
  0
SOLID
  5
C72
330
C78
100
AcDbEntity
  8
0
  6
ByBlock
 62
     0
370
    15
100
AcDbTrace
 10
-138.2872216662
 20
166.0872283979299
 30
0.0
 11
-135.7872216662
 21
166.5038950645966
 31
0.0
 12
-135.7872216662
 22
165.6705617312631
 32
0.0
 13
-135.7872216662
 23
165.6705617312631
 33
0.0
  0
LINE
  5
C73
330
C78
100
AcDbEntity
  8
0
  6
ByBlock
 62
     0
370
    -2
100
AcDbLine
 10
-143.7872216662
 20
166.0872283979299
 30
0.0
 11
-146.2872216662
 21
166.0872283979299
 31
0.0
  0
SOLID
  5
C74
330
C78
100
AcDbEntity
  8
0
  6
ByBlock
 62
     0
370
    15
100
AcDbTrace
 10
-141.2872216662
 20
166.0872283979299
 30
0.0
 11
-143.7872216662
 21
166.5038950645966
 31
0.0
 12
-143.7872216662
 22
165.6705617312631
 32
0.0
 13
-143.7872216662
 23
165.6705617312631
 33
0.0
  0
LINE
  5
C75
330
C78
100
AcDbEntity
  8
0
  6
ByBlock
 62
     0
370
    -2
100
AcDbLine
 10
-138.2872216662
 20
166.0872283979299
 30
0.0
 11
-141.2872216662
 21
166.0872283979299
 31
0.0
  0
MTEXT
  5
C76
330
C78
100
AcDbEntity
  8
0
  6
ByBlock
 62
     0
100
AcDbMText
 10
-139.7872216661999
 20
168.22056139793
 30
0.0
 40
3.2
 41
0.0
 71
     5
 72
     1
  1
3
  7
KCADDIMSTANDARD
 73
     1
 44
1.0
  0
ENDBLK
  5
F3D
330
C78
100
AcDbEntity
  8
0
100
AcDbBlockEnd
  0
BLOCK
  5
F3E
330
C84
100
AcDbEntity
  8
0
100
AcDbBlockBegin
  2
*D59
 70
     1
 71
     0
 10
0.0
 20
0.0
 30
0.0
  3
*D59
  1

  0
POINT
  5
C7A
330
C84
100
AcDbEntity
  8
DEFPOINTS
  6
ByBlock
 62
     0
370
    15
100
AcDbPoint
 10
-141.2872216662
 20
161.81849677035
 30
0.0
  0
POINT
  5
C7B
330
C84
100
AcDbEntity
  8
DEFPOINTS
  6
ByBlock
 62
     0
370
    15
100
AcDbPoint
 10
-164.8872216662
 20
161.5184967703499
 30
0.0
  0
LINE
  5
C7C
330
C84
100
AcDbEntity
  8
0
  6
ByBlock
 62
     0
370
    -2
100
AcDbLine
 10
-141.2872216662
 20
161.81849677035
 30
0.0
 11
-141.2872216662
 21
166.0872283979299
 31
0.0
  0
LINE
  5
C7D
330
C84
100
AcDbEntity
  8
0
  6
ByBlock
 62
     0
370
    -2
100
AcDbLine
 10
-164.8872216662
 20
161.5184967703499
 30
0.0
 11
-164.8872216662
 21
166.0872283979299
 31
0.0
  0
LINE
  5
C7E
330
C84
100
AcDbEntity
  8
0
  6
ByBlock
 62
     0
370
    -2
100
AcDbLine
 10
-141.2872216662
 20
166.0872283979299
 30
0.0
 11
-164.8872216662
 21
166.0872283979299
 31
0.0
  0
SOLID
  5
C7F
330
C84
100
AcDbEntity
  8
0
  6
ByBlock
 62
     0
370
    15
100
AcDbTrace
 10
-141.2872216662
 20
166.0872283979299
 30
0.0
 11
-143.7872216662
 21
166.5038950645966
 31
0.0
 12
-143.7872216662
 22
165.6705617312631
 32
0.0
 13
-143.7872216662
 23
165.6705617312631
 33
0.0
  0
SOLID
  5
C80
330
C84
100
AcDbEntity
  8
0
  6
ByBlock
 62
     0
370
    15
100
AcDbTrace
 10
-164.8872216662
 20
166.0872283979299
 30
0.0
 11
-162.3872216662
 21
166.5038950645966
 31
0.0
 12
-162.3872216662
 22
165.6705617312631
 32
0.0
 13
-162.3872216662
 23
165.6705617312631
 33
0.0
  0
LINE
  5
C81
330
C84
100
AcDbEntity
  8
0
  6
ByBlock
 62
     0
370
    -2
100
AcDbLine
 10
-141.2872216662
 20
161.81849677035
 30
0.0
 11
-141.2872216662
 21
161.81849677035
 31
0.0
  0
MTEXT
  5
C82
330
C84
100
AcDbEntity
  8
0
  6
ByBlock
 62
     0
100
AcDbMText
 10
-153.0872216662
 20
168.22056139793
 30
0.0
 40
3.2
 41
0.0
 71
     5
 72
     1
  1
23.6
  7
KCADDIMSTANDARD
 73
     1
 44
1.0
  0
ENDBLK
  5
F3F
330
C84
100
AcDbEntity
  8
0
100
AcDbBlockEnd
  0
BLOCK
  5
F40
330
C8F
100
AcDbEntity
  8
0
100
AcDbBlockBegin
  2
*D60
 70
     1
 71
     0
 10
0.0
 20
0.0
 30
0.0
  3
*D60
  1

  0
POINT
  5
C86
330
C8F
100
AcDbEntity
  8
DEFPOINTS
  6
ByBlock
 62
     0
370
    15
100
AcDbPoint
 10
-164.8872216662
 20
161.06849677035
 30
0.0
  0
POINT
  5
C87
330
C8F
100
AcDbEntity
  8
DEFPOINTS
  6
ByBlock
 62
     0
370
    15
100
AcDbPoint
 10
-204.1922338283999
 20
145.81849677035
 30
0.0
  0
LINE
  5
C88
330
C8F
100
AcDbEntity
  8
0
  6
ByBlock
 62
     0
370
    -2
100
AcDbLine
 10
-164.8872216662
 20
161.06849677035
 30
0.0
 11
-175.2004957666999
 21
161.06849677035
 31
0.0
  0
LINE
  5
C89
330
C8F
100
AcDbEntity
  8
0
  6
ByBlock
 62
     0
370
    -2
100
AcDbLine
 10
-175.2004957666999
 20
161.06849677035
 30
0.0
 11
-175.2004957666999
 21
145.81849677035
 31
0.0
  0
SOLID
  5
C8A
330
C8F
100
AcDbEntity
  8
0
  6
ByBlock
 62
     0
370
    15
100
AcDbTrace
 10
-175.2004957666999
 20
161.06849677035
 30
0.0
 11
-175.6171624333666
 21
158.56849677035
 31
0.0
 12
-174.7838291000332
 22
158.56849677035
 32
0.0
 13
-174.7838291000332
 23
158.56849677035
 33
0.0
  0
SOLID
  5
C8B
330
C8F
100
AcDbEntity
  8
0
  6
ByBlock
 62
     0
370
    15
100
AcDbTrace
 10
-175.2004957666999
 20
145.81849677035
 30
0.0
 11
-175.6171624333666
 21
148.31849677035
 31
0.0
 12
-174.7838291000332
 22
148.31849677035
 32
0.0
 13
-174.7838291000332
 23
148.31849677035
 33
0.0
  0
LINE
  5
C8C
330
C8F
100
AcDbEntity
  8
0
  6
ByBlock
 62
     0
370
    -2
100
AcDbLine
 10
-164.8872216662
 20
161.06849677035
 30
0.0
 11
-164.8872216662
 21
161.06849677035
 31
0.0
  0
MTEXT
  5
C8D
330
C8F
100
AcDbEntity
  8
0
  6
ByBlock
 62
     0
100
AcDbMText
 10
-177.3338287666999
 20
145.54451132861
 30
0.0
 40
3.2
 41
0.0
 71
     5
 72
     1
  1
\A1;M30.5 P0.5
  7
KCADDIMSTANDARD
 11
6.123031769111886E-17
 21
1.0
 31
0.0
 73
     1
 44
1.0
  0
ENDBLK
  5
F41
330
C8F
100
AcDbEntity
  8
0
100
AcDbBlockEnd
  0
ENDSEC
  0
SECTION
  2
ENTITIES
  0
TEXT
  5
2EF
330
1F
100
AcDbEntity
  8
0
  6
Continuous
 62
     7
370
    30
100
AcDbText
 10
4.901999995708585
 20
4.331666647195785
 30
0.0
 40
2.880000042915344
  1
Ａ４
 41
0.5748197425183692
  7
KCADTEXTSTANDARD
100
AcDbText
1001
Sigma
1000

  0
POINT
  5
2F2
330
1F
100
AcDbEntity
  8
1
  6
Continuous
 62
     7
370
    15
100
AcDbPoint
 10
0.0000000000001
 20
-0.283333331347
 30
0.0
1001
Sigma
1000

  0
POINT
  5
2F4
330
1F
100
AcDbEntity
  8
1
  6
Continuous
 62
     7
370
    15
100
AcDbPoint
 10
-297.0
 20
209.7166595458999
 30
0.0
1001
Sigma
1000

  0
LINE
  5
2F6
330
1F
100
AcDbEntity
  8
DEFPOINTS
  6
HIDDEN
 62
   253
370
    15
100
AcDbLine
 10
0.0000000000001
 20
209.7166595458999
 30
0.0
 11
0.0000000000001
 21
-0.283333331347
 31
0.0
1001
Sigma
1000

  0
LINE
  5
2F8
330
1F
100
AcDbEntity
  8
DEFPOINTS
  6
HIDDEN
 62
   253
370
    15
100
AcDbLine
 10
-297.0
 20
-0.283333331347
 30
0.0
 11
0.0000000000001
 21
-0.283333331347
 31
0.0
1001
Sigma
1000

  0
LINE
  5
2FA
330
1F
100
AcDbEntity
  8
DEFPOINTS
  6
HIDDEN
 62
   253
370
    15
100
AcDbLine
 10
-297.0
 20
209.7166595458999
 30
0.0
 11
-297.0
 21
-0.283333331347
 31
0.0
1001
Sigma
1000

  0
LINE
  5
2FC
330
1F
100
AcDbEntity
  8
DEFPOINTS
  6
HIDDEN
 62
   253
370
    15
100
AcDbLine
 10
-297.0
 20
209.7166595458999
 30
0.0
 11
0.0000000000001
 21
209.7166595458999
 31
0.0
1001
Sigma
1000

  0
LINE
  5
2FE
330
1F
100
AcDbEntity
  8
1
  6
Continuous
 62
     7
370
    30
100
AcDbLine
 10
-15.0
 20
194.7166595459
 30
0.0
 11
-15.0
 21
14.716666221619
 31
0.0
1001
Sigma
1000

  0
LINE
  5
300
330
1F
100
AcDbEntity
  8
1
  6
Continuous
 62
     7
370
    30
100
AcDbLine
 10
-282.0
 20
194.7166595459
 30
0.0
 11
-282.0
 21
14.716666221619
 31
0.0
1001
Sigma
1000

  0
LINE
  5
302
330
1F
100
AcDbEntity
  8
1
  6
Continuous
 62
     7
370
    30
100
AcDbLine
 10
-282.0
 20
14.716666221619
 30
0.0
 11
-15.0
 21
14.716666221619
 31
0.0
1001
Sigma
1000

  0
LINE
  5
304
330
1F
100
AcDbEntity
  8
1
  6
Continuous
 62
     7
370
    30
100
AcDbLine
 10
-15.0
 20
194.7166595459
 30
0.0
 11
-282.0
 21
194.7166595459
 31
0.0
1001
Sigma
1000

  0
LINE
  5
307
330
1F
100
AcDbEntity
  8
99
  6
Continuous
 62
     7
370
    30
100
AcDbLine
 10
-205.0
 20
62.216666221619
 30
0.0
 11
-15.0
 21
62.216666221619
 31
0.0
1001
Sigma
1000

  0
LINE
  5
309
330
1F
100
AcDbEntity
  8
99
  6
Continuous
 62
     7
370
    30
100
AcDbLine
 10
-76.0
 20
14.716666221619
 30
0.0
 11
-76.0
 21
62.216666221619
 31
0.0
1001
Sigma
1000

  0
LINE
  5
30B
330
1F
100
AcDbEntity
  8
99
  6
Continuous
 62
     7
370
    30
100
AcDbLine
 10
-136.0
 20
34.716666221619
 30
0.0
 11
-15.0
 21
34.716666221619
 31
0.0
1001
Sigma
1000

  0
LINE
  5
30D
330
1F
100
AcDbEntity
  8
99
  6
Continuous
 62
     7
370
    30
100
AcDbLine
 10
-91.0
 20
14.716666221619
 30
0.0
 11
-91.0
 21
34.716666221619
 31
0.0
1001
Sigma
1000

  0
LINE
  5
30F
330
1F
100
AcDbEntity
  8
99
  6
Continuous
 62
     7
370
    30
100
AcDbLine
 10
-106.0
 20
14.716666221619
 30
0.0
 11
-106.0
 21
34.716666221619
 31
0.0
1001
Sigma
1000

  0
LINE
  5
311
330
1F
100
AcDbEntity
  8
99
  6
Continuous
 62
     7
370
    30
100
AcDbLine
 10
-121.0
 20
14.716666221619
 30
0.0
 11
-121.0
 21
62.216666221619
 31
0.0
1001
Sigma
1000

  0
LINE
  5
313
330
1F
100
AcDbEntity
  8
99
  6
Continuous
 62
     7
370
    30
100
AcDbLine
 10
-136.0
 20
14.716666221619
 30
0.0
 11
-136.0
 21
62.216666221619
 31
0.0
1001
Sigma
1000

  0
LINE
  5
315
330
1F
100
AcDbEntity
  8
99
  6
Continuous
 62
     7
370
    15
100
AcDbLine
 10
-205.0
 20
19.716666221619
 30
0.0
 11
-136.0
 21
19.716666221619
 31
0.0
1001
Sigma
1000

  0
LINE
  5
317
330
1F
100
AcDbEntity
  8
99
  6
Continuous
 62
     7
370
    15
100
AcDbLine
 10
-205.0
 20
24.716666221619
 30
0.0
 11
-136.0
 21
24.716666221619
 31
0.0
1001
Sigma
1000

  0
LINE
  5
319
330
1F
100
AcDbEntity
  8
99
  6
Continuous
 62
     7
370
    15
100
AcDbLine
 10
-205.0
 20
29.716666221619
 30
0.0
 11
-76.0
 21
29.716666221619
 31
0.0
1001
Sigma
1000

  0
LINE
  5
31B
330
1F
100
AcDbEntity
  8
99
  6
Continuous
 62
     7
370
    15
100
AcDbLine
 10
-205.0
 20
34.716666221619
 30
0.0
 11
-136.0
 21
34.716666221619
 31
0.0
1001
Sigma
1000

  0
LINE
  5
31D
330
1F
100
AcDbEntity
  8
99
  6
Continuous
 62
     7
370
    15
100
AcDbLine
 10
-205.0
 20
39.716666221619
 30
0.0
 11
-136.0
 21
39.716666221619
 31
0.0
1001
Sigma
1000

  0
LINE
  5
31F
330
1F
100
AcDbEntity
  8
99
  6
Continuous
 62
     7
370
    15
100
AcDbLine
 10
-184.0
 20
14.716666221619
 30
0.0
 11
-184.0
 21
49.716666221619
 31
0.0
1001
Sigma
1000

  0
LINE
  5
321
330
1F
100
AcDbEntity
  8
99
  6
Continuous
 62
     7
370
    15
100
AcDbLine
 10
-173.0
 20
14.716666221619
 30
0.0
 11
-173.0
 21
49.716666221619
 31
0.0
1001
Sigma
1000

  0
LINE
  5
323
330
1F
100
AcDbEntity
  8
99
  6
Continuous
 62
     7
370
    15
100
AcDbLine
 10
-71.0
 20
14.716666221619
 30
0.0
 11
-71.0
 21
49.716666221619
 31
0.0
1001
Sigma
1000

  0
LINE
  5
325
330
1F
100
AcDbEntity
  8
99
  6
Continuous
 62
     7
370
    30
100
AcDbLine
 10
-76.0
 20
24.716666221619
 30
0.0
 11
-15.0
 21
24.716666221619
 31
0.0
1001
Sigma
1000

  0
TEXT
  5
327
330
1F
100
AcDbEntity
  8
99
  6
Continuous
 62
     7
370
    30
100
AcDbText
 10
-75.27008573849
 20
31.60221805921899
 30
0.0
 40
2.7
  1
製
 41
1.266666666666666
  7
KCADTEXTSTANDARD
100
AcDbText
1001
Sigma
1000

  0
TEXT
  5
329
330
1F
100
AcDbEntity
  8
99
  6
Continuous
 62
     7
370
    30
100
AcDbText
 10
-121.775
 20
43.941666221619
 30
0.0
 40
4.049999999999999
  1
 三角法
 41
0.7916666674531168
  7
KCADTEXTSTANDARD
100
AcDbText
1001
Sigma
1000

  0
TEXT
  5
32B
330
1F
100
AcDbEntity
  8
99
  6
Continuous
 62
     7
370
    30
100
AcDbText
 10
-75.27008573849
 20
28.50221805921899
 30
0.0
 40
2.7
  1
品
 41
1.266666666666666
  7
KCADTEXTSTANDARD
100
AcDbText
1001
Sigma
1000

  0
LINE
  5
32D
330
1F
100
AcDbEntity
  8
99
  6
Continuous
 62
     7
370
    15
100
AcDbLine
 10
-200.8678058472999
 20
20.41713907611899
 30
0.0
 11
-204.0678058472999
 21
20.41713907611899
 31
0.0
1001
Sigma
1000

  0
TEXT
  5
32F
330
1F
100
AcDbEntity
  8
99
  6
Continuous
 62
     7
370
    30
100
AcDbText
 10
-75.27008573849
 20
25.402218059219
 30
0.0
 40
2.7
  1
名
 41
1.266666666666666
  7
KCADTEXTSTANDARD
100
AcDbText
1001
Sigma
1000

  0
TEXT
  5
331
330
1F
100
AcDbEntity
  8
99
  6
Continuous
 62
     7
370
    30
100
AcDbText
 10
-136.1521317828999
 20
30.517732464819
 30
0.0
 40
3.6
  1
 設計 
 41
1.009374999999999
  7
KCADTEXTSTANDARD
100
AcDbText
1001
Sigma
1000

  0
TEXT
  5
333
330
1F
100
AcDbEntity
  8
99
  6
Continuous
 62
     7
370
    30
100
AcDbText
 10
-200.4927110779
 20
15.520021661919
 30
0.0
 40
3.6
  1
 年月日 
 41
0.8431249999999998
  7
KCADTEXTSTANDARD
100
AcDbText
1001
Sigma
1000

  0
TEXT
  5
335
330
1F
100
AcDbEntity
  8
99
  6
Continuous
 62
     7
370
    30
100
AcDbText
 10
-204.29609375
 20
15.686421658819
 30
0.0
 40
3.6
  1
符号
 41
0.4987500003539026
  7
KCADTEXTSTANDARD
100
AcDbText
1001
Sigma
1000

  0
LINE
  5
337
330
1F
100
AcDbEntity
  8
99
  6
Continuous
 62
     7
370
    15
100
AcDbLine
 10
-200.8678058472999
 20
40.41713907611899
 30
0.0
 11
-204.0678058472999
 21
40.41713907611899
 31
0.0
1001
Sigma
1000

  0
LINE
  5
339
330
1F
100
AcDbEntity
  8
99
  6
Continuous
 62
     7
370
    15
100
AcDbLine
 10
-202.4678058472999
 20
43.881240691319
 30
0.0
 11
-200.8678058472999
 21
40.41713907611899
 31
0.0
1001
Sigma
1000

  0
TEXT
  5
33B
330
1F
100
AcDbEntity
  8
99
  6
Continuous
 62
     7
370
    15
100
AcDbText
 10
-202.8658964625725
 20
41.00344399634615
 30
0.0
 40
2.082815953445434
  1
5
 41
0.577433628318584
  7
KCADTEXTSTANDARD
100
AcDbText
1001
Sigma
1000

  0
LINE
  5
33D
330
1F
100
AcDbEntity
  8
99
  6
Continuous
 62
     7
370
    15
100
AcDbLine
 10
-204.0678058472999
 20
40.41713907611899
 30
0.0
 11
-202.4678058472999
 21
43.881240691319
 31
0.0
1001
Sigma
1000

  0
LINE
  5
33F
330
1F
100
AcDbEntity
  8
99
  6
Continuous
 62
     7
370
    15
100
AcDbLine
 10
-200.8678058472999
 20
35.41713907611899
 30
0.0
 11
-204.0678058472999
 21
35.41713907611899
 31
0.0
1001
Sigma
1000

  0
LINE
  5
341
330
1F
100
AcDbEntity
  8
99
  6
Continuous
 62
     7
370
    15
100
AcDbLine
 10
-202.4678058472999
 20
38.881240691319
 30
0.0
 11
-200.8678058472999
 21
35.41713907611899
 31
0.0
1001
Sigma
1000

  0
TEXT
  5
343
330
1F
100
AcDbEntity
  8
99
  6
Continuous
 62
     7
370
    15
100
AcDbText
 10
-202.8658964625725
 20
36.00344399634615
 30
0.0
 40
2.082815953445434
  1
4
 41
0.577433628318584
  7
KCADTEXTSTANDARD
100
AcDbText
1001
Sigma
1000

  0
LINE
  5
345
330
1F
100
AcDbEntity
  8
99
  6
Continuous
 62
     7
370
    15
100
AcDbLine
 10
-204.0678058472999
 20
35.41713907611899
 30
0.0
 11
-202.4678058472999
 21
38.881240691319
 31
0.0
1001
Sigma
1000

  0
LINE
  5
347
330
1F
100
AcDbEntity
  8
99
  6
Continuous
 62
     7
370
    15
100
AcDbLine
 10
-200.8678058472999
 20
30.41713907611899
 30
0.0
 11
-204.0678058472999
 21
30.41713907611899
 31
0.0
1001
Sigma
1000

  0
LINE
  5
349
330
1F
100
AcDbEntity
  8
99
  6
Continuous
 62
     7
370
    15
100
AcDbLine
 10
-202.4678058472999
 20
33.881240691319
 30
0.0
 11
-200.8678058472999
 21
30.41713907611899
 31
0.0
1001
Sigma
1000

  0
TEXT
  5
34B
330
1F
100
AcDbEntity
  8
99
  6
Continuous
 62
     7
370
    15
100
AcDbText
 10
-202.8658964625725
 20
31.00344399634616
 30
0.0
 40
2.082815953445434
  1
3
 41
0.577433628318584
  7
KCADTEXTSTANDARD
100
AcDbText
1001
Sigma
1000

  0
LINE
  5
34D
330
1F
100
AcDbEntity
  8
99
  6
Continuous
 62
     7
370
    15
100
AcDbLine
 10
-202.4678058472999
 20
23.881240691319
 30
0.0
 11
-200.8678058472999
 21
20.41713907611899
 31
0.0
1001
Sigma
1000

  0
LINE
  5
34F
330
1F
100
AcDbEntity
  8
99
  6
Continuous
 62
     7
370
    15
100
AcDbLine
 10
-204.0678058472999
 20
20.41713907611899
 30
0.0
 11
-202.4678058472999
 21
23.881240691319
 31
0.0
1001
Sigma
1000

  0
LINE
  5
351
330
1F
100
AcDbEntity
  8
99
  6
Continuous
 62
     7
370
    15
100
AcDbLine
 10
-204.0678058472999
 20
30.41713907611899
 30
0.0
 11
-202.4678058472999
 21
33.881240691319
 31
0.0
1001
Sigma
1000

  0
TEXT
  5
353
330
1F
100
AcDbEntity
  8
99
  6
Continuous
 62
     7
370
    15
100
AcDbText
 10
-202.8658964625725
 20
26.00344399634616
 30
0.0
 40
2.082815953445434
  1
2
 41
0.577433628318584
  7
KCADTEXTSTANDARD
100
AcDbText
1001
Sigma
1000

  0
LINE
  5
355
330
1F
100
AcDbEntity
  8
99
  6
Continuous
 62
     7
370
    15
100
AcDbLine
 10
-200.8678058472999
 20
25.41713907611899
 30
0.0
 11
-204.0678058472999
 21
25.41713907611899
 31
0.0
1001
Sigma
1000

  0
LINE
  5
357
330
1F
100
AcDbEntity
  8
99
  6
Continuous
 62
     7
370
    15
100
AcDbLine
 10
-202.4678058472999
 20
28.881240691319
 30
0.0
 11
-200.8678058472999
 21
25.41713907611899
 31
0.0
1001
Sigma
1000

  0
LINE
  5
359
330
1F
100
AcDbEntity
  8
99
  6
Continuous
 62
     7
370
    15
100
AcDbLine
 10
-204.0678058472999
 20
25.41713907611899
 30
0.0
 11
-202.4678058472999
 21
28.881240691319
 31
0.0
1001
Sigma
1000

  0
TEXT
  5
35B
330
1F
100
AcDbEntity
  8
99
  6
Continuous
 62
     7
370
    15
100
AcDbText
 10
-202.8658964625725
 20
21.00344399634616
 30
0.0
 40
2.082815953445434
  1
1
 41
0.577433628318584
  7
KCADTEXTSTANDARD
100
AcDbText
1001
Sigma
1000

  0
TEXT
  5
35D
330
1F
100
AcDbEntity
  8
99
  6
Continuous
 62
     7
370
    30
100
AcDbText
 10
-75.28208594037
 20
35.47853668441899
 30
0.0
 40
2.7
  1
差
 41
1.266666666666666
  7
KCADTEXTSTANDARD
100
AcDbText
1001
Sigma
1000

  0
TEXT
  5
35F
330
1F
100
AcDbEntity
  8
99
  6
Continuous
 62
     7
370
    30
100
AcDbText
 10
-75.28208594037
 20
38.978536684419
 30
0.0
 40
2.7
  1
公
 41
1.266666666666666
  7
KCADTEXTSTANDARD
100
AcDbText
1001
Sigma
1000

  0
TEXT
  5
361
330
1F
100
AcDbEntity
  8
99
  6
Continuous
 62
     7
370
    30
100
AcDbText
 10
-105.1820859165581
 20
46.47853668441899
 30
0.0
 40
2.7
  1
面
 41
1.203333318233489
  7
KCADTEXTSTANDARD
100
AcDbText
1001
Sigma
1000

  0
TEXT
  5
363
330
1F
100
AcDbEntity
  8
99
  6
Continuous
 62
     7
370
    30
100
AcDbText
 10
-75.28208594037
 20
42.97853668441899
 30
0.0
 40
2.7
  1
上
 41
1.266666666666666
  7
KCADTEXTSTANDARD
100
AcDbText
1001
Sigma
1000

  0
TEXT
  5
365
330
1F
100
AcDbEntity
  8
99
  6
Continuous
 62
     7
370
    30
100
AcDbText
 10
-75.28208594037
 20
46.47853668441899
 30
0.0
 40
2.7
  1
仕
 41
1.266666666666666
  7
KCADTEXTSTANDARD
100
AcDbText
1001
Sigma
1000

  0
LINE
  5
367
330
1F
100
AcDbEntity
  8
99
  6
Continuous
 62
     7
370
    30
100
AcDbLine
 10
-184.0
 20
49.716666221619
 30
0.0
 11
-184.0
 21
62.216666221619
 31
0.0
1001
Sigma
1000

  0
TEXT
  5
369
330
1F
100
AcDbEntity
  8
99
  6
Continuous
 62
     7
370
    30
100
AcDbText
 10
-75.35
 20
20.86666622161899
 30
0.0
 40
2.7
  1
図
 41
1.266666666666666
  7
KCADTEXTSTANDARD
100
AcDbText
1001
Sigma
1000

  0
TEXT
  5
36B
330
1F
100
AcDbEntity
  8
99
  6
Continuous
 62
     7
370
    30
100
AcDbText
 10
-75.35
 20
16.36666622161899
 30
0.0
 40
2.7
  1
番
 41
1.266666666666666
  7
KCADTEXTSTANDARD
100
AcDbText
1001
Sigma
1000

  0
LINE
  5
36D
330
1F
100
AcDbEntity
  8
99
  6
Continuous
 62
     7
370
    15
100
AcDbLine
 10
-205.0
 20
54.716666221619
 30
0.0
 11
-15.0
 21
54.716666221619
 31
0.0
1001
Sigma
1000

  0
LINE
  5
36F
330
1F
100
AcDbEntity
  8
99
  6
Continuous
 62
     7
370
    15
100
AcDbLine
 10
-101.0
 20
49.716666221619
 30
0.0
 11
-101.0
 21
42.216666221619
 31
0.0
1001
Sigma
1000

  0
TEXT
  5
371
330
1F
100
AcDbEntity
  8
99
  6
Continuous
 62
     7
370
    30
100
AcDbText
 10
-133.6081081080999
 20
45.618798708019
 30
0.0
 40
3.6
  1
尺度
 41
1.1875
  7
KCADTEXTSTANDARD
100
AcDbText
1001
Sigma
1000

  0
LINE
  5
373
330
1F
100
AcDbEntity
  8
99
  6
Continuous
 62
     7
370
    15
100
AcDbLine
 10
-204.0678058472999
 20
45.41713907611899
 30
0.0
 11
-202.4678058472999
 21
48.881240691289
 31
0.0
1001
Sigma
1000

  0
TEXT
  5
375
330
1F
100
AcDbEntity
  8
99
  6
Continuous
 62
     7
370
    15
100
AcDbText
 10
-202.8658964625725
 20
46.00344399634615
 30
0.0
 40
2.082815953445434
  1
6
 41
0.577433628318584
  7
KCADTEXTSTANDARD
100
AcDbText
1001
Sigma
1000

  0
LINE
  5
377
330
1F
100
AcDbEntity
  8
99
  6
Continuous
 62
     7
370
    15
100
AcDbLine
 10
-202.4678058472999
 20
48.881240691289
 30
0.0
 11
-200.8678058472999
 21
45.41713907611899
 31
0.0
1001
Sigma
1000

  0
LINE
  5
379
330
1F
100
AcDbEntity
  8
99
  6
Continuous
 62
     7
370
    15
100
AcDbLine
 10
-200.8678058472999
 20
45.41713907611899
 30
0.0
 11
-204.0678058472999
 21
45.41713907611899
 31
0.0
1001
Sigma
1000

  0
LINE
  5
37B
330
1F
100
AcDbEntity
  8
99
  6
Continuous
 62
     7
370
    30
100
AcDbLine
 10
-106.0
 20
42.216666221619
 30
0.0
 11
-106.0
 21
49.716666221619
 31
0.0
1001
Sigma
1000

  0
LINE
  5
37D
330
1F
100
AcDbEntity
  8
99
  6
Continuous
 62
     7
370
    30
100
AcDbLine
 10
-205.0
 20
49.716666221619
 30
0.0
 11
-15.0
 21
49.716666221619
 31
0.0
1001
Sigma
1000

  0
LINE
  5
37F
330
1F
100
AcDbEntity
  8
99
  6
Continuous
 62
     7
370
    15
100
AcDbLine
 10
-205.0
 20
44.716666221619
 30
0.0
 11
-121.0
 21
44.716666221619
 31
0.0
1001
Sigma
1000

  0
LINE
  5
381
330
1F
100
AcDbEntity
  8
99
  6
Continuous
 62
     7
370
    15
100
AcDbLine
 10
-200.0
 20
14.716666221619
 30
0.0
 11
-200.0
 21
49.716666221619
 31
0.0
1001
Sigma
1000

  0
TEXT
  5
383
330
1F
100
AcDbEntity
  8
99
  6
Continuous
 62
     7
370
    30
100
AcDbText
 10
-203.1653020558
 20
50.421401326519
 30
0.0
 40
3.6
  1
部品番号    
 41
0.8267968730535358
  7
KCADTEXTSTANDARD
100
AcDbText
1001
Sigma
1000

  0
TEXT
  5
385
330
1F
100
AcDbEntity
  8
99
  6
Continuous
 62
     7
370
    30
100
AcDbText
 10
-133.6081081080999
 20
50.718798708009
 30
0.0
 40
3.6
  1
個数
 41
1.1875
  7
KCADTEXTSTANDARD
100
AcDbText
1001
Sigma
1000

  0
TEXT
  5
387
330
1F
100
AcDbEntity
  8
99
  6
Continuous
 62
     7
370
    30
100
AcDbText
 10
-112.1521317828999
 20
50.717732464809
 30
0.0
 40
3.6
  1
材       質 
 41
0.6614374984428287
  7
KCADTEXTSTANDARD
100
AcDbText
1001
Sigma
1000

  0
LINE
  5
389
330
1F
100
AcDbEntity
  8
99
  6
Continuous
 62
     7
370
    30
100
AcDbLine
 10
-205.0
 20
62.216666221619
 30
0.0
 11
-205.0
 21
14.716666221619
 31
0.0
1001
Sigma
1000

  0
TEXT
  5
38B
330
1F
100
AcDbEntity
  8
99
  6
Continuous
 62
     7
370
    30
100
AcDbText
 10
-133.3655760645
 20
37.986448023019
 30
0.0
 40
4.067999999999999
  1
1/1
 41
1.222959685349064
  7
KCADTEXTSTANDARD
100
AcDbText
1001
Sigma
1000

  0
TEXT
  5
38D
330
1F
100
AcDbEntity
  8
99
  6
Continuous
 62
     7
370
    30
100
AcDbText
 10
-62.65426971142
 20
16.706267477219
 30
0.0
 40
5.695199999999999
  1
TSTM-169
 41
0.8686740987625945
  7
KCADTEXTSTANDARD
100
AcDbText
1001
Sigma
1000

  0
TEXT
  5
390
330
1F
100
AcDbEntity
  8
2
  6
Continuous
 62
     7
370
    30
100
AcDbText
 10
-166.7067561390423
 20
56.92863863166967
 30
0.0
 40
3.307499957084655
  1
組立図
 41
0.9771428572895999
  7
KCADTEXTSTANDARD
100
AcDbText
1001
Sigma
1000

  0
TEXT
  5
392
330
1F
100
AcDbEntity
  8
2
  6
Continuous
 62
     7
370
    30
100
AcDbText
 10
-199.1131169717
 20
57.435557675046
 30
0.0
 40
2.3625
  1
１００
 41
1.007904760610489
  7
KCADTEXTSTANDARD
100
AcDbText
1001
Sigma
1000

  0
TEXT
  5
394
330
1F
100
AcDbEntity
  8
99
  6
Continuous
 62
     7
370
    30
100
AcDbText
 10
-59.62926971291011
 20
26.706267477219
 30
0.0
 40
5.695199999999999
  1
KCM-50NII
 41
0.6776142956438168
  7
KCADTEXTSTANDARD
100
AcDbText
1001
Sigma
1000

  0
TEXT
  5
396
330
1F
100
AcDbEntity
  8
99
  6
Continuous
 62
     7
370
    30
100
AcDbText
 10
-59.02459426456999
 20
55.749164937239
 30
0.0
 40
4.5
  1
梨地黒アルマイト
 41
0.653125
  7
KCADTEXTSTANDARD
100
AcDbText
1001
Sigma
1000

  0
LINE
  5
398
330
1F
100
AcDbEntity
  8
99
  6
Continuous
 62
     7
370
    30
100
AcDbLine
 10
-121.0
 20
42.216666221619
 30
0.0
 11
-15.0
 21
42.216666221619
 31
0.0
1001
Sigma
1000

  0
TEXT
  5
39A
330
1F
100
AcDbEntity
  8
1
  6
Continuous
 62
     7
370
    30
100
AcDbText
 10
-117.4617236061846
 20
36.99777818025034
 30
0.0
 40
3.239999914169311
  1
２００１年８月９日
 41
0.9558641977735955
  7
KCADTEXTSTANDARD
100
AcDbText
1001
Sigma
1000

  0
LINE
  5
39C
330
1F
100
AcDbEntity
  8
0
  6
CENTER
 62
     7
370
    15
100
AcDbLine
 10
-54.49021343550001
 20
85.763844815962
 30
0.0
 11
-205.5867845719999
 21
85.763844815962
 31
0.0
1001
Sigma
1000

  0
LINE
  5
39E
330
1F
100
AcDbEntity
  8
0
  6
Continuous
 62
     7
370
    30
100
AcDbLine
 10
-69.28722166622
 20
85.763844815972
 30
0.0
 11
-69.28722166622
 21
73.513844815972
 31
0.0
1001
Sigma
1000

  0
LINE
  5
3A0
330
1F
100
AcDbEntity
  8
0
  6
Continuous
 62
     7
370
    30
100
AcDbLine
 10
-69.54702928736
 20
73.063844815972
 30
0.0
 11
-72.80120332191
 21
73.063844815972
 31
0.0
1001
Sigma
1000

  0
LINE
  5
3A2
330
1F
100
AcDbEntity
  8
0
  6
Continuous
 62
     7
370
    30
100
AcDbLine
 10
-73.28722166622
 20
85.763844815972
 30
0.0
 11
-73.28722166622
 21
68.763844815972
 31
0.0
1001
Sigma
1000

  0
LINE
  5
3A4
330
1F
100
AcDbEntity
  8
0
  6
Continuous
 62
     7
370
    30
100
AcDbLine
 10
-75.28722166622
 20
67.763844815972
 30
0.0
 11
-75.28722166622
 21
85.763844815972
 31
0.0
1001
Sigma
1000

  0
LINE
  5
3A6
330
1F
100
AcDbEntity
  8
0
  6
Continuous
 62
     7
370
    30
100
AcDbLine
 10
-112.1872216662
 20
85.763844815972
 30
0.0
 11
-112.1872216662
 21
67.763844815972
 31
0.0
1001
Sigma
1000

  0
LINE
  5
3A8
330
1F
100
AcDbEntity
  8
0
  6
Continuous
 62
     7
370
    30
100
AcDbLine
 10
-73.78722166622
 20
68.263844815972
 30
0.0
 11
-74.78722166622
 21
68.263844815972
 31
0.0
1001
Sigma
1000

  0
LINE
  5
3AA
330
1F
100
AcDbEntity
  8
0
  6
Continuous
 62
     7
370
    30
100
AcDbLine
 10
-74.78722166622
 20
68.263844815972
 30
0.0
 11
-74.78722166622
 21
85.763844815972
 31
0.0
1001
Sigma
1000

  0
LINE
  5
3AC
330
1F
100
AcDbEntity
  8
0
  6
Continuous
 62
     7
370
    30
100
AcDbLine
 10
-110.6872216661999
 20
85.763844815972
 30
0.0
 11
-110.6872216661999
 21
67.763844815972
 31
0.0
1001
Sigma
1000

  0
LINE
  5
3AE
330
1F
100
AcDbEntity
  8
0
  6
Continuous
 62
     7
370
    30
100
AcDbLine
 10
-73.28722166622
 20
68.763844815972
 30
0.0
 11
-73.78722166622
 21
68.263844815972
 31
0.0
1001
Sigma
1000

  0
LINE
  5
3B0
330
1F
100
AcDbEntity
  8
0
  6
Continuous
 62
     7
370
    30
100
AcDbLine
 10
-109.1872216662
 20
85.763844815972
 30
0.0
 11
-109.1872216662
 21
67.763844815972
 31
0.0
1001
Sigma
1000

  0
LINE
  5
3B2
330
1F
100
AcDbEntity
  8
0
  6
Continuous
 62
     7
370
    30
100
AcDbLine
 10
-107.6872216661999
 20
85.763844815972
 30
0.0
 11
-107.6872216661999
 21
67.763844815972
 31
0.0
1001
Sigma
1000

  0
LINE
  5
3B4
330
1F
100
AcDbEntity
  8
0
  6
Continuous
 62
     7
370
    30
100
AcDbLine
 10
-75.28722166622
 20
67.763844815972
 30
0.0
 11
-87.78722166622
 21
67.763844815972
 31
0.0
1001
Sigma
1000

  0
LINE
  5
3B6
330
1F
100
AcDbEntity
  8
0
  6
Continuous
 62
     7
370
    30
100
AcDbLine
 10
-89.28722166622
 20
68.263844815972
 30
0.0
 11
-89.28722166622
 21
85.763844815972
 31
0.0
1001
Sigma
1000

  0
LINE
  5
3B8
330
1F
100
AcDbEntity
  8
0
  6
Continuous
 62
     7
370
    30
100
AcDbLine
 10
-106.1872216662
 20
85.763844815972
 30
0.0
 11
-106.1872216662
 21
67.763844815972
 31
0.0
1001
Sigma
1000

  0
LINE
  5
3BA
330
1F
100
AcDbEntity
  8
0
  6
Continuous
 62
     7
370
    30
100
AcDbLine
 10
-104.6872216662
 20
85.763844815972
 30
0.0
 11
-104.6872216662
 21
67.763844815972
 31
0.0
1001
Sigma
1000

  0
LINE
  5
3BC
330
1F
100
AcDbEntity
  8
0
  6
Continuous
 62
     7
370
    30
100
AcDbLine
 10
-103.1872216662
 20
85.763844815972
 30
0.0
 11
-103.1872216662
 21
67.763844815972
 31
0.0
1001
Sigma
1000

  0
LINE
  5
3BE
330
1F
100
AcDbEntity
  8
0
  6
Continuous
 62
     7
370
    30
100
AcDbLine
 10
-74.78722166622
 20
68.263844815972
 30
0.0
 11
-75.28722166622
 21
67.763844815972
 31
0.0
1001
Sigma
1000

  0
LINE
  5
3C0
330
1F
100
AcDbEntity
  8
0
  6
Continuous
 62
     7
370
    30
100
AcDbLine
 10
-87.78722166622
 20
67.763844815972
 30
0.0
 11
-88.28722166622
 21
68.263844815972
 31
0.0
1001
Sigma
1000

  0
LINE
  5
3C2
330
1F
100
AcDbEntity
  8
0
  6
Continuous
 62
     7
370
    30
100
AcDbLine
 10
-101.6872216662
 20
85.763844815972
 30
0.0
 11
-101.6872216662
 21
67.763844815972
 31
0.0
1001
Sigma
1000

  0
LINE
  5
3C4
330
1F
100
AcDbEntity
  8
0
  6
Continuous
 62
     7
370
    30
100
AcDbLine
 10
-89.78722166622
 20
67.763844815972
 30
0.0
 11
-91.78722166622
 21
67.763844815972
 31
0.0
1001
Sigma
1000

  0
LINE
  5
3C6
330
1F
100
AcDbEntity
  8
0
  6
Continuous
 62
     7
370
    30
100
AcDbLine
 10
-91.78722166622
 20
67.763844815972
 30
0.0
 11
-91.78722166622
 21
85.763844815972
 31
0.0
1001
Sigma
1000

  0
LINE
  5
3C8
330
1F
100
AcDbEntity
  8
0
  6
Continuous
 62
     7
370
    30
100
AcDbLine
 10
-100.1872216661999
 20
85.763844815972
 30
0.0
 11
-100.1872216661999
 21
67.763844815972
 31
0.0
1001
Sigma
1000

  0
LINE
  5
3CA
330
1F
100
AcDbEntity
  8
0
  6
Continuous
 62
     7
370
    30
100
AcDbLine
 10
-98.68722166621998
 20
85.763844815972
 30
0.0
 11
-98.68722166621998
 21
67.763844815972
 31
0.0
1001
Sigma
1000

  0
LINE
  5
3CC
330
1F
100
AcDbEntity
  8
0
  6
Continuous
 62
     7
370
    30
100
AcDbLine
 10
-113.6872216662
 20
85.763844815972
 30
0.0
 11
-113.6872216662
 21
67.763844815972
 31
0.0
1001
Sigma
1000

  0
LINE
  5
3CE
330
1F
100
AcDbEntity
  8
0
  6
Continuous
 62
     7
370
    30
100
AcDbLine
 10
-97.18722166622001
 20
85.763844815972
 30
0.0
 11
-97.18722166622001
 21
67.763844815972
 31
0.0
1001
Sigma
1000

  0
LINE
  5
3D0
330
1F
100
AcDbEntity
  8
0
  6
Continuous
 62
     7
370
    30
100
AcDbLine
 10
-95.68722166622
 20
85.763844815972
 30
0.0
 11
-95.68722166622
 21
67.763844815972
 31
0.0
1001
Sigma
1000

  0
LINE
  5
3D2
330
1F
100
AcDbEntity
  8
0
  6
Continuous
 62
     7
370
    30
100
AcDbLine
 10
-113.6872216662
 20
67.763844815972
 30
0.0
 11
-115.2872216662
 21
67.763844815972
 31
0.0
1001
Sigma
1000

  0
LINE
  5
3D4
330
1F
100
AcDbEntity
  8
0
  6
Continuous
 62
     7
370
    30
100
AcDbLine
 10
-140.2872216661999
 20
68.763844815972
 30
0.0
 11
-140.2872216661999
 21
85.763844815972
 31
0.0
1001
Sigma
1000

  0
LINE
  5
3D6
330
1F
100
AcDbEntity
  8
0
  6
Continuous
 62
     7
370
    30
100
AcDbLine
 10
-94.18722166622
 20
85.763844815972
 30
0.0
 11
-94.18722166622
 21
67.763844815972
 31
0.0
1001
Sigma
1000

  0
LINE
  5
3D8
330
1F
100
AcDbEntity
  8
0
  6
Continuous
 62
     7
370
    30
100
AcDbLine
 10
-89.28722166622
 20
68.263844815972
 30
0.0
 11
-89.78722166622
 21
67.763844815972
 31
0.0
1001
Sigma
1000

  0
LINE
  5
3DA
330
1F
100
AcDbEntity
  8
0
  6
Continuous
 62
     7
370
    30
100
AcDbLine
 10
-92.68722166622
 20
85.763844815972
 30
0.0
 11
-92.68722166622
 21
67.763844815972
 31
0.0
1001
Sigma
1000

  0
LINE
  5
3DC
330
1F
100
AcDbEntity
  8
0
  6
Continuous
 62
     7
370
    30
100
AcDbLine
 10
-113.6872216662
 20
84.203844815972
 30
0.0
 11
-91.78722166622
 21
84.203844815972
 31
0.0
1001
Sigma
1000

  0
LINE
  5
3DE
330
1F
100
AcDbEntity
  8
0
  6
Continuous
 62
     7
370
    30
100
AcDbLine
 10
-115.2872216662
 20
67.763844815972
 30
0.0
 11
-116.2872216662
 21
68.763844815972
 31
0.0
1001
Sigma
1000

  0
LINE
  5
3E0
330
1F
100
AcDbEntity
  8
0
  6
Continuous
 62
     7
370
    30
100
AcDbLine
 10
-73.78722166622
 20
68.263844815972
 30
0.0
 11
-73.78722166622
 21
85.763844815972
 31
0.0
1001
Sigma
1000

  0
LINE
  5
3E2
330
1F
100
AcDbEntity
  8
0
  6
Continuous
 62
     7
370
    30
100
AcDbLine
 10
-141.2872216662
 20
67.763844815972
 30
0.0
 11
-146.7872216662
 21
67.763844815972
 31
0.0
1001
Sigma
1000

  0
LINE
  5
3E4
330
1F
100
AcDbEntity
  8
0
  6
Continuous
 62
     7
370
    30
100
AcDbLine
 10
-87.78722166622
 20
67.763844815972
 30
0.0
 11
-87.78722166622
 21
85.763844815972
 31
0.0
1001
Sigma
1000

  0
LINE
  5
3E6
330
1F
100
AcDbEntity
  8
0
  6
Continuous
 62
     7
370
    30
100
AcDbLine
 10
-113.6872216662
 20
82.643844815972
 30
0.0
 11
-91.78722166622
 21
82.643844815972
 31
0.0
1001
Sigma
1000

  0
LINE
  5
3E8
330
1F
100
AcDbEntity
  8
0
  6
Continuous
 62
     7
370
    30
100
AcDbLine
 10
-147.2872216662
 20
68.263844815972
 30
0.0
 11
-147.2872216662
 21
85.763844815962
 31
0.0
1001
Sigma
1000

  0
LINE
  5
3EA
330
1F
100
AcDbEntity
  8
0
  6
Continuous
 62
     7
370
    30
100
AcDbLine
 10
-147.7872216661999
 20
67.763844815972
 30
0.0
 11
-156.7872216662
 21
67.763844815972
 31
0.0
1001
Sigma
1000

  0
LINE
  5
3EC
330
1F
100
AcDbEntity
  8
0
  6
Continuous
 62
     7
370
    30
100
AcDbLine
 10
-89.78722166622
 20
67.763844815972
 30
0.0
 11
-89.78722166622
 21
85.763844815972
 31
0.0
1001
Sigma
1000

  0
LINE
  5
3EE
330
1F
100
AcDbEntity
  8
0
  6
Continuous
 62
     7
370
    30
100
AcDbLine
 10
-113.6872216662
 20
81.103844815972
 30
0.0
 11
-91.78722166622
 21
81.103844815972
 31
0.0
1001
Sigma
1000

  0
LINE
  5
3F0
330
1F
100
AcDbEntity
  8
0
  6
Continuous
 62
     7
370
    30
100
AcDbLine
 10
-157.2872216661999
 20
68.263844815972
 30
0.0
 11
-157.2872216661999
 21
85.763844815962
 31
0.0
1001
Sigma
1000

  0
LINE
  5
3F2
330
1F
100
AcDbEntity
  8
0
  6
Continuous
 62
     7
370
    30
100
AcDbLine
 10
-162.7872216662
 20
68.263844815972
 30
0.0
 11
-157.2872216661999
 21
68.263844815972
 31
0.0
1001
Sigma
1000

  0
LINE
  5
3F4
330
1F
100
AcDbEntity
  8
0
  6
Continuous
 62
     7
370
    30
100
AcDbLine
 10
-115.2872216662
 20
67.763844815972
 30
0.0
 11
-115.2872216662
 21
85.763844815972
 31
0.0
1001
Sigma
1000

  0
LINE
  5
3F6
330
1F
100
AcDbEntity
  8
0
  6
Continuous
 62
     7
370
    30
100
AcDbLine
 10
-113.6872216662
 20
79.613844815972
 30
0.0
 11
-91.78722166622
 21
79.613844815972
 31
0.0
1001
Sigma
1000

  0
LINE
  5
3F8
330
1F
100
AcDbEntity
  8
0
  6
Continuous
 62
     7
370
    30
100
AcDbLine
 10
-163.2872216662
 20
68.763844815972
 30
0.0
 11
-163.2872216662
 21
85.763844815962
 31
0.0
1001
Sigma
1000

  0
LINE
  5
3FA
330
1F
100
AcDbEntity
  8
0
  6
Continuous
 62
     7
370
    30
100
AcDbLine
 10
-165.2872216661999
 20
68.763844815972
 30
0.0
 11
-163.2872216662
 21
68.763844815972
 31
0.0
1001
Sigma
1000

  0
LINE
  5
3FC
330
1F
100
AcDbEntity
  8
0
  6
Continuous
 62
     7
370
    30
100
AcDbLine
 10
-113.6872216662
 20
78.153844815972
 30
0.0
 11
-91.78722166622
 21
78.153844815972
 31
0.0
1001
Sigma
1000

  0
LINE
  5
3FE
330
1F
100
AcDbEntity
  8
0
  6
Continuous
 62
     7
370
    30
100
AcDbLine
 10
-113.6872216662
 20
76.763844815972
 30
0.0
 11
-91.78722166622
 21
76.763844815972
 31
0.0
1001
Sigma
1000

  0
LINE
  5
400
330
1F
100
AcDbEntity
  8
0
  6
Continuous
 62
     7
370
    30
100
AcDbLine
 10
-166.2872216662
 20
69.763844815962
 30
0.0
 11
-166.2872216662
 21
85.763844815962
 31
0.0
1001
Sigma
1000

  0
LINE
  5
402
330
1F
100
AcDbEntity
  8
0
  6
Continuous
 62
     7
370
    30
100
AcDbLine
 10
-166.2872216662
 20
69.763844815962
 30
0.0
 11
-189.5872216662
 21
69.763844815962
 31
0.0
1001
Sigma
1000

  0
LINE
  5
404
330
1F
100
AcDbEntity
  8
0
  6
Continuous
 62
     7
370
    30
100
AcDbLine
 10
-189.8872216662
 20
70.06384481596199
 30
0.0
 11
-189.8872216662
 21
85.763844815962
 31
0.0
1001
Sigma
1000

  0
LINE
  5
406
330
1F
100
AcDbEntity
  8
0
  6
Continuous
 62
     7
370
    30
100
AcDbLine
 10
-189.5872216662
 20
69.763844815962
 30
0.0
 11
-189.8872216662
 21
70.06384481596199
 31
0.0
1001
Sigma
1000

  0
LINE
  5
408
330
1F
100
AcDbEntity
  8
0
  6
Continuous
 62
     7
370
    30
100
AcDbLine
 10
-113.6872216662
 20
75.443844815972
 30
0.0
 11
-91.78722166622
 21
75.443844815972
 31
0.0
1001
Sigma
1000

  0
LINE
  5
40A
330
1F
100
AcDbEntity
  8
0
  6
Continuous
 62
     7
370
    30
100
AcDbLine
 10
-157.2872216661999
 20
68.263844815972
 30
0.0
 11
-156.7872216662
 21
67.763844815972
 31
0.0
1001
Sigma
1000

  0
LINE
  5
40C
330
1F
100
AcDbEntity
  8
0
  6
Continuous
 62
     7
370
    30
100
AcDbLine
 10
-163.2872216662
 20
68.763844815972
 30
0.0
 11
-162.7872216662
 21
68.263844815972
 31
0.0
1001
Sigma
1000

  0
LINE
  5
40E
330
1F
100
AcDbEntity
  8
0
  6
Continuous
 62
     7
370
    30
100
AcDbLine
 10
-113.6872216662
 20
74.193844815972
 30
0.0
 11
-91.78722166622
 21
74.193844815972
 31
0.0
1001
Sigma
1000

  0
LINE
  5
410
330
1F
100
AcDbEntity
  8
0
  6
Continuous
 62
     7
370
    30
100
AcDbLine
 10
-113.6872216662
 20
73.043844815972
 30
0.0
 11
-91.78722166622
 21
73.043844815972
 31
0.0
1001
Sigma
1000

  0
LINE
  5
412
330
1F
100
AcDbEntity
  8
0
  6
Continuous
 62
     7
370
    30
100
AcDbLine
 10
-147.7872216661999
 20
67.763844815972
 30
0.0
 11
-147.2872216662
 21
68.263844815972
 31
0.0
1001
Sigma
1000

  0
LINE
  5
414
330
1F
100
AcDbEntity
  8
0
  6
Continuous
 62
     7
370
    30
100
AcDbLine
 10
-113.6872216662
 20
71.973844815972
 30
0.0
 11
-91.78722166622
 21
71.973844815972
 31
0.0
1001
Sigma
1000

  0
LINE
  5
416
330
1F
100
AcDbEntity
  8
0
  6
Continuous
 62
     7
370
    30
100
AcDbLine
 10
-147.2872216662
 20
68.263844815972
 30
0.0
 11
-146.7872216662
 21
67.763844815972
 31
0.0
1001
Sigma
1000

  0
LINE
  5
418
330
1F
100
AcDbEntity
  8
0
  6
Continuous
 62
     7
370
    30
100
AcDbLine
 10
-113.6872216662
 20
71.063844815972
 30
0.0
 11
-91.78722166622
 21
71.063844815972
 31
0.0
1001
Sigma
1000

  0
LINE
  5
41A
330
1F
100
AcDbEntity
  8
0
  6
Continuous
 62
     7
370
    30
100
AcDbLine
 10
-113.6872216662
 20
70.16384481597198
 30
0.0
 11
-91.78722166622
 21
70.16384481597198
 31
0.0
1001
Sigma
1000

  0
LINE
  5
41C
330
1F
100
AcDbEntity
  8
0
  6
Continuous
 62
     7
370
    30
100
AcDbLine
 10
-140.2872216661999
 20
68.763844815972
 30
0.0
 11
-141.2872216662
 21
67.763844815972
 31
0.0
1001
Sigma
1000

  0
LINE
  5
41E
330
1F
100
AcDbEntity
  8
0
  6
Continuous
 62
     7
370
    30
100
AcDbLine
 10
-166.2872216662
 20
69.763844815962
 30
0.0
 11
-165.2872216661999
 21
68.763844815972
 31
0.0
1001
Sigma
1000

  0
LINE
  5
420
330
1F
100
AcDbEntity
  8
0
  6
Continuous
 62
     7
370
    30
100
AcDbLine
 10
-113.6872216662
 20
69.463844815972
 30
0.0
 11
-91.78722166622
 21
69.463844815972
 31
0.0
1001
Sigma
1000

  0
LINE
  5
422
330
1F
100
AcDbEntity
  8
0
  6
Continuous
 62
     7
370
    30
100
AcDbLine
 10
-141.2872216662
 20
67.763844815972
 30
0.0
 11
-141.2872216662
 21
85.763844815972
 31
0.0
1001
Sigma
1000

  0
LINE
  5
424
330
1F
100
AcDbEntity
  8
0
  6
Continuous
 62
     7
370
    30
100
AcDbLine
 10
-146.7872216662
 20
67.763844815972
 30
0.0
 11
-146.7872216662
 21
85.763844815962
 31
0.0
1001
Sigma
1000

  0
LINE
  5
426
330
1F
100
AcDbEntity
  8
0
  6
Continuous
 62
     7
370
    30
100
AcDbLine
 10
-147.7872216661999
 20
67.763844815972
 30
0.0
 11
-147.7872216661999
 21
85.763844815962
 31
0.0
1001
Sigma
1000

  0
LINE
  5
428
330
1F
100
AcDbEntity
  8
0
  6
Continuous
 62
     7
370
    30
100
AcDbLine
 10
-156.7872216662
 20
67.763844815972
 30
0.0
 11
-156.7872216662
 21
85.763844815962
 31
0.0
1001
Sigma
1000

  0
LINE
  5
42A
330
1F
100
AcDbEntity
  8
0
  6
Continuous
 62
     7
370
    30
100
AcDbLine
 10
-162.7872216662
 20
68.263844815972
 30
0.0
 11
-162.7872216662
 21
85.763844815962
 31
0.0
1001
Sigma
1000

  0
LINE
  5
42C
330
1F
100
AcDbEntity
  8
0
  6
Continuous
 62
     7
370
    30
100
AcDbLine
 10
-165.2872216661999
 20
68.763844815972
 30
0.0
 11
-165.2872216661999
 21
85.763844815962
 31
0.0
1001
Sigma
1000

  0
LINE
  5
42E
330
1F
100
AcDbEntity
  8
0
  6
Continuous
 62
     7
370
    30
100
AcDbLine
 10
-113.6872216662
 20
68.863844815972
 30
0.0
 11
-91.78722166622
 21
68.863844815972
 31
0.0
1001
Sigma
1000

  0
LINE
  5
430
330
1F
100
AcDbEntity
  8
0
  6
Continuous
 62
     7
370
    30
100
AcDbLine
 10
-113.6872216662
 20
68.363844815972
 30
0.0
 11
-91.78722166622
 21
68.363844815972
 31
0.0
1001
Sigma
1000

  0
LINE
  5
432
330
1F
100
AcDbEntity
  8
0
  6
Continuous
 62
     7
370
    30
100
AcDbLine
 10
-113.6872216662
 20
68.063844815972
 30
0.0
 11
-91.78722166622
 21
68.063844815972
 31
0.0
1001
Sigma
1000

  0
LINE
  5
434
330
1F
100
AcDbEntity
  8
0
  6
Continuous
 62
     7
370
    30
100
AcDbLine
 10
-113.6872216662
 20
67.863844815972
 30
0.0
 11
-91.78722166622
 21
67.863844815972
 31
0.0
1001
Sigma
1000

  0
LINE
  5
436
330
1F
100
AcDbEntity
  8
0
  6
Continuous
 62
     7
370
    30
100
AcDbLine
 10
-113.6872216662
 20
67.763844815972
 30
0.0
 11
-91.78722166622
 21
67.763844815972
 31
0.0
1001
Sigma
1000

  0
LINE
  5
438
330
1F
100
AcDbEntity
  8
0
  6
Continuous
 62
     7
370
    30
100
AcDbLine
 10
-87.78722166622
 20
82.643844815972
 30
0.0
 11
-75.28722166622
 21
82.643844815972
 31
0.0
1001
Sigma
1000

  0
LINE
  5
43A
330
1F
100
AcDbEntity
  8
0
  6
Continuous
 62
     7
370
    30
100
AcDbLine
 10
-87.78722166622
 20
79.613844815972
 30
0.0
 11
-75.28722166622
 21
79.613844815972
 31
0.0
1001
Sigma
1000

  0
LINE
  5
43C
330
1F
100
AcDbEntity
  8
0
  6
Continuous
 62
     7
370
    30
100
AcDbLine
 10
-87.78722166622
 20
76.763844815972
 30
0.0
 11
-75.28722166622
 21
76.763844815972
 31
0.0
1001
Sigma
1000

  0
LINE
  5
43E
330
1F
100
AcDbEntity
  8
0
  6
Continuous
 62
     7
370
    30
100
AcDbLine
 10
-87.78722166622
 20
74.193844815972
 30
0.0
 11
-75.28722166622
 21
74.193844815972
 31
0.0
1001
Sigma
1000

  0
LINE
  5
440
330
1F
100
AcDbEntity
  8
0
  6
Continuous
 62
     7
370
    30
100
AcDbLine
 10
-87.78722166622
 20
71.973844815972
 30
0.0
 11
-75.28722166622
 21
71.973844815972
 31
0.0
1001
Sigma
1000

  0
LINE
  5
442
330
1F
100
AcDbEntity
  8
0
  6
Continuous
 62
     7
370
    30
100
AcDbLine
 10
-87.78722166622
 20
70.16384481597198
 30
0.0
 11
-75.28722166622
 21
70.16384481597198
 31
0.0
1001
Sigma
1000

  0
LINE
  5
444
330
1F
100
AcDbEntity
  8
0
  6
Continuous
 62
     7
370
    30
100
AcDbLine
 10
-87.78722166622
 20
68.863844815972
 30
0.0
 11
-75.28722166622
 21
68.863844815972
 31
0.0
1001
Sigma
1000

  0
LINE
  5
446
330
1F
100
AcDbEntity
  8
0
  6
Continuous
 62
     7
370
    30
100
AcDbLine
 10
-87.78722166622
 20
68.063844815972
 30
0.0
 11
-75.28722166622
 21
68.063844815972
 31
0.0
1001
Sigma
1000

  0
LINE
  5
448
330
1F
100
AcDbEntity
  8
0
  6
Continuous
 62
     7
370
    30
100
AcDbLine
 10
-87.78722166622
 20
68.063844815972
 30
0.0
 11
-75.28722166622
 21
68.063844815972
 31
0.0
1001
Sigma
1000

  0
LINE
  5
44A
330
1F
100
AcDbEntity
  8
0
  6
Continuous
 62
     7
370
    30
100
AcDbLine
 10
-156.7872216662
 20
84.203844815972
 30
0.0
 11
-147.7872216661999
 21
84.203844815972
 31
0.0
1001
Sigma
1000

  0
LINE
  5
44C
330
1F
100
AcDbEntity
  8
0
  6
Continuous
 62
     7
370
    30
100
AcDbLine
 10
-156.7872216662
 20
82.643844815972
 30
0.0
 11
-147.7872216661999
 21
82.643844815972
 31
0.0
1001
Sigma
1000

  0
LINE
  5
44E
330
1F
100
AcDbEntity
  8
0
  6
Continuous
 62
     7
370
    30
100
AcDbLine
 10
-156.7872216662
 20
81.103844815972
 30
0.0
 11
-147.7872216661999
 21
81.103844815972
 31
0.0
1001
Sigma
1000

  0
LINE
  5
450
330
1F
100
AcDbEntity
  8
0
  6
Continuous
 62
     7
370
    30
100
AcDbLine
 10
-156.7872216662
 20
79.613844815972
 30
0.0
 11
-147.7872216661999
 21
79.613844815972
 31
0.0
1001
Sigma
1000

  0
LINE
  5
452
330
1F
100
AcDbEntity
  8
0
  6
Continuous
 62
     7
370
    30
100
AcDbLine
 10
-156.7872216662
 20
78.153844815972
 30
0.0
 11
-147.7872216661999
 21
78.153844815972
 31
0.0
1001
Sigma
1000

  0
LINE
  5
454
330
1F
100
AcDbEntity
  8
0
  6
Continuous
 62
     7
370
    30
100
AcDbLine
 10
-156.7872216662
 20
76.763844815972
 30
0.0
 11
-147.7872216661999
 21
76.763844815972
 31
0.0
1001
Sigma
1000

  0
LINE
  5
456
330
1F
100
AcDbEntity
  8
0
  6
Continuous
 62
     7
370
    30
100
AcDbLine
 10
-156.7872216662
 20
75.443844815972
 30
0.0
 11
-147.7872216661999
 21
75.443844815972
 31
0.0
1001
Sigma
1000

  0
LINE
  5
458
330
1F
100
AcDbEntity
  8
0
  6
Continuous
 62
     7
370
    30
100
AcDbLine
 10
-156.7872216662
 20
74.193844815972
 30
0.0
 11
-147.7872216661999
 21
74.193844815972
 31
0.0
1001
Sigma
1000

  0
LINE
  5
45A
330
1F
100
AcDbEntity
  8
0
  6
Continuous
 62
     7
370
    30
100
AcDbLine
 10
-156.7872216662
 20
73.043844815972
 30
0.0
 11
-147.7872216661999
 21
73.043844815972
 31
0.0
1001
Sigma
1000

  0
LINE
  5
45C
330
1F
100
AcDbEntity
  8
0
  6
Continuous
 62
     7
370
    30
100
AcDbLine
 10
-156.7872216662
 20
71.973844815972
 30
0.0
 11
-147.7872216661999
 21
71.973844815972
 31
0.0
1001
Sigma
1000

  0
LINE
  5
45E
330
1F
100
AcDbEntity
  8
0
  6
Continuous
 62
     7
370
    30
100
AcDbLine
 10
-156.7872216662
 20
71.063844815972
 30
0.0
 11
-147.7872216661999
 21
71.063844815972
 31
0.0
1001
Sigma
1000

  0
LINE
  5
460
330
1F
100
AcDbEntity
  8
0
  6
Continuous
 62
     7
370
    30
100
AcDbLine
 10
-156.7872216662
 20
70.16384481597198
 30
0.0
 11
-147.7872216661999
 21
70.16384481597198
 31
0.0
1001
Sigma
1000

  0
LINE
  5
462
330
1F
100
AcDbEntity
  8
0
  6
Continuous
 62
     7
370
    30
100
AcDbLine
 10
-156.7872216662
 20
69.463844815972
 30
0.0
 11
-147.7872216661999
 21
69.463844815972
 31
0.0
1001
Sigma
1000

  0
LINE
  5
464
330
1F
100
AcDbEntity
  8
0
  6
Continuous
 62
     7
370
    30
100
AcDbLine
 10
-156.7872216662
 20
68.863844815972
 30
0.0
 11
-147.7872216661999
 21
68.863844815972
 31
0.0
1001
Sigma
1000

  0
LINE
  5
466
330
1F
100
AcDbEntity
  8
0
  6
Continuous
 62
     7
370
    30
100
AcDbLine
 10
-156.7872216662
 20
68.363844815972
 30
0.0
 11
-147.7872216661999
 21
68.363844815972
 31
0.0
1001
Sigma
1000

  0
LINE
  5
468
330
1F
100
AcDbEntity
  8
0
  6
Continuous
 62
     7
370
    30
100
AcDbLine
 10
-156.7872216662
 20
68.063844815972
 30
0.0
 11
-147.7872216661999
 21
68.063844815972
 31
0.0
1001
Sigma
1000

  0
LINE
  5
46A
330
1F
100
AcDbEntity
  8
0
  6
Continuous
 62
     7
370
    30
100
AcDbLine
 10
-156.7872216662
 20
67.863844815972
 30
0.0
 11
-147.7872216661999
 21
67.863844815972
 31
0.0
1001
Sigma
1000

  0
LINE
  5
46C
330
1F
100
AcDbEntity
  8
0
  6
Continuous
 62
     7
370
    30
100
AcDbLine
 10
-189.5872216662
 20
69.763844815962
 30
0.0
 11
-189.5872216662
 21
85.763844815962
 31
0.0
1001
Sigma
1000

  0
LINE
  5
46E
330
1F
100
AcDbEntity
  8
0
  6
Continuous
 62
     7
370
    30
100
AcDbLine
 10
-73.28722166622
 20
73.513844815972
 30
0.0
 11
-69.28722166622
 21
73.513844815972
 31
0.0
1001
Sigma
1000

  0
LINE
  5
470
330
1F
100
AcDbEntity
  8
0
  6
Continuous
 62
     7
370
    30
100
AcDbLine
 10
-69.28722166622
 20
73.513844815972
 30
0.0
 11
-69.54702928736
 21
73.063844815972
 31
0.0
1001
Sigma
1000

  0
LINE
  5
472
330
1F
100
AcDbEntity
  8
0
  6
Continuous
 62
     7
370
    30
100
AcDbLine
 10
-69.28722166622
 20
85.763844815972
 30
0.0
 11
-69.28722166622
 21
98.013844815972
 31
0.0
1001
Sigma
1000

  0
LINE
  5
474
330
1F
100
AcDbEntity
  8
0
  6
Continuous
 62
     7
370
    30
100
AcDbLine
 10
-72.80120332191
 20
85.763844815972
 30
0.0
 11
-72.80120332191
 21
73.063844815972
 31
0.0
1001
Sigma
1000

  0
LINE
  5
476
330
1F
100
AcDbEntity
  8
0
  6
Continuous
 62
     7
370
    30
100
AcDbLine
 10
-69.54702928736
 20
73.063844815972
 30
0.0
 11
-69.54702928736
 21
85.763844815972
 31
0.0
1001
Sigma
1000

  0
LINE
  5
478
330
1F
100
AcDbEntity
  8
0
  6
Continuous
 62
     7
370
    30
100
AcDbLine
 10
-69.54702928736
 20
98.463844815972
 30
0.0
 11
-72.80120332191
 21
98.463844815972
 31
0.0
1001
Sigma
1000

  0
LINE
  5
47A
330
1F
100
AcDbEntity
  8
0
  6
Continuous
 62
     7
370
    30
100
AcDbLine
 10
-73.28722166622
 20
85.763844815972
 30
0.0
 11
-73.28722166622
 21
102.76384481597
 31
0.0
1001
Sigma
1000

  0
LINE
  5
47C
330
1F
100
AcDbEntity
  8
0
  6
Continuous
 62
     7
370
    30
100
AcDbLine
 10
-75.28722166622
 20
103.76384481597
 30
0.0
 11
-75.28722166622
 21
85.763844815972
 31
0.0
1001
Sigma
1000

  0
LINE
  5
47E
330
1F
100
AcDbEntity
  8
0
  6
Continuous
 62
     7
370
    30
100
AcDbLine
 10
-112.1872216662
 20
85.763844815972
 30
0.0
 11
-112.1872216662
 21
103.76384481597
 31
0.0
1001
Sigma
1000

  0
LINE
  5
480
330
1F
100
AcDbEntity
  8
0
  6
Continuous
 62
     7
370
    30
100
AcDbLine
 10
-73.78722166622
 20
103.2638448159699
 30
0.0
 11
-74.78722166622
 21
103.2638448159699
 31
0.0
1001
Sigma
1000

  0
LINE
  5
482
330
1F
100
AcDbEntity
  8
0
  6
Continuous
 62
     7
370
    30
100
AcDbLine
 10
-74.78722166622
 20
103.2638448159699
 30
0.0
 11
-74.78722166622
 21
85.763844815972
 31
0.0
1001
Sigma
1000

  0
LINE
  5
484
330
1F
100
AcDbEntity
  8
0
  6
Continuous
 62
     7
370
    30
100
AcDbLine
 10
-110.6872216661999
 20
85.763844815972
 30
0.0
 11
-110.6872216661999
 21
103.76384481597
 31
0.0
1001
Sigma
1000

  0
LINE
  5
486
330
1F
100
AcDbEntity
  8
0
  6
Continuous
 62
     7
370
    30
100
AcDbLine
 10
-73.28722166622
 20
102.76384481597
 30
0.0
 11
-73.78722166622
 21
103.2638448159699
 31
0.0
1001
Sigma
1000

  0
LINE
  5
488
330
1F
100
AcDbEntity
  8
0
  6
Continuous
 62
     7
370
    30
100
AcDbLine
 10
-109.1872216662
 20
85.763844815972
 30
0.0
 11
-109.1872216662
 21
103.76384481597
 31
0.0
1001
Sigma
1000

  0
LINE
  5
48A
330
1F
100
AcDbEntity
  8
0
  6
Continuous
 62
     7
370
    30
100
AcDbLine
 10
-107.6872216661999
 20
85.763844815972
 30
0.0
 11
-107.6872216661999
 21
103.76384481597
 31
0.0
1001
Sigma
1000

  0
LINE
  5
48C
330
1F
100
AcDbEntity
  8
0
  6
Continuous
 62
     7
370
    30
100
AcDbLine
 10
-75.28722166622
 20
103.76384481597
 30
0.0
 11
-87.78722166622
 21
103.76384481597
 31
0.0
1001
Sigma
1000

  0
LINE
  5
48E
330
1F
100
AcDbEntity
  8
0
  6
Continuous
 62
     7
370
    30
100
AcDbLine
 10
-89.28722166622
 20
103.2638448159699
 30
0.0
 11
-89.28722166622
 21
85.763844815972
 31
0.0
1001
Sigma
1000

  0
LINE
  5
490
330
1F
100
AcDbEntity
  8
0
  6
Continuous
 62
     7
370
    30
100
AcDbLine
 10
-106.1872216662
 20
85.763844815972
 30
0.0
 11
-106.1872216662
 21
103.76384481597
 31
0.0
1001
Sigma
1000

  0
LINE
  5
492
330
1F
100
AcDbEntity
  8
0
  6
Continuous
 62
     7
370
    30
100
AcDbLine
 10
-104.6872216662
 20
85.763844815972
 30
0.0
 11
-104.6872216662
 21
103.76384481597
 31
0.0
1001
Sigma
1000

  0
LINE
  5
494
330
1F
100
AcDbEntity
  8
0
  6
Continuous
 62
     7
370
    30
100
AcDbLine
 10
-103.1872216662
 20
85.763844815972
 30
0.0
 11
-103.1872216662
 21
103.76384481597
 31
0.0
1001
Sigma
1000

  0
LINE
  5
496
330
1F
100
AcDbEntity
  8
0
  6
Continuous
 62
     7
370
    30
100
AcDbLine
 10
-74.78722166622
 20
103.2638448159699
 30
0.0
 11
-75.28722166622
 21
103.76384481597
 31
0.0
1001
Sigma
1000

  0
LINE
  5
498
330
1F
100
AcDbEntity
  8
0
  6
Continuous
 62
     7
370
    30
100
AcDbLine
 10
-87.78722166622
 20
103.76384481597
 30
0.0
 11
-88.28722166622
 21
103.2638448159699
 31
0.0
1001
Sigma
1000

  0
LINE
  5
49A
330
1F
100
AcDbEntity
  8
0
  6
Continuous
 62
     7
370
    30
100
AcDbLine
 10
-101.6872216662
 20
85.763844815972
 30
0.0
 11
-101.6872216662
 21
103.76384481597
 31
0.0
1001
Sigma
1000

  0
LINE
  5
49C
330
1F
100
AcDbEntity
  8
0
  6
Continuous
 62
     7
370
    30
100
AcDbLine
 10
-89.78722166622
 20
103.76384481597
 30
0.0
 11
-91.78722166622
 21
103.76384481597
 31
0.0
1001
Sigma
1000

  0
LINE
  5
49E
330
1F
100
AcDbEntity
  8
0
  6
Continuous
 62
     7
370
    30
100
AcDbLine
 10
-91.78722166622
 20
103.76384481597
 30
0.0
 11
-91.78722166622
 21
85.763844815972
 31
0.0
1001
Sigma
1000

  0
LINE
  5
4A0
330
1F
100
AcDbEntity
  8
0
  6
Continuous
 62
     7
370
    30
100
AcDbLine
 10
-100.1872216661999
 20
85.763844815972
 30
0.0
 11
-100.1872216661999
 21
103.76384481597
 31
0.0
1001
Sigma
1000

  0
LINE
  5
4A2
330
1F
100
AcDbEntity
  8
0
  6
Continuous
 62
     7
370
    30
100
AcDbLine
 10
-98.68722166621998
 20
85.763844815972
 30
0.0
 11
-98.68722166621998
 21
103.76384481597
 31
0.0
1001
Sigma
1000

  0
LINE
  5
4A4
330
1F
100
AcDbEntity
  8
0
  6
Continuous
 62
     7
370
    30
100
AcDbLine
 10
-113.6872216662
 20
85.763844815972
 30
0.0
 11
-113.6872216662
 21
103.76384481597
 31
0.0
1001
Sigma
1000

  0
LINE
  5
4A6
330
1F
100
AcDbEntity
  8
0
  6
Continuous
 62
     7
370
    30
100
AcDbLine
 10
-97.18722166622001
 20
85.763844815972
 30
0.0
 11
-97.18722166622001
 21
103.76384481597
 31
0.0
1001
Sigma
1000

  0
LINE
  5
4A8
330
1F
100
AcDbEntity
  8
0
  6
Continuous
 62
     7
370
    30
100
AcDbLine
 10
-95.68722166622
 20
85.763844815972
 30
0.0
 11
-95.68722166622
 21
103.76384481597
 31
0.0
1001
Sigma
1000

  0
LINE
  5
4AA
330
1F
100
AcDbEntity
  8
0
  6
Continuous
 62
     7
370
    30
100
AcDbLine
 10
-113.6872216662
 20
103.76384481597
 30
0.0
 11
-115.2872216662
 21
103.76384481597
 31
0.0
1001
Sigma
1000

  0
LINE
  5
4AC
330
1F
100
AcDbEntity
  8
0
  6
Continuous
 62
     7
370
    30
100
AcDbLine
 10
-140.2872216661999
 20
102.76384481597
 30
0.0
 11
-140.2872216661999
 21
85.763844815972
 31
0.0
1001
Sigma
1000

  0
LINE
  5
4AE
330
1F
100
AcDbEntity
  8
0
  6
Continuous
 62
     7
370
    30
100
AcDbLine
 10
-94.18722166622
 20
85.763844815972
 30
0.0
 11
-94.18722166622
 21
103.76384481597
 31
0.0
1001
Sigma
1000

  0
LINE
  5
4B0
330
1F
100
AcDbEntity
  8
0
  6
Continuous
 62
     7
370
    30
100
AcDbLine
 10
-89.28722166622
 20
103.2638448159699
 30
0.0
 11
-89.78722166622
 21
103.76384481597
 31
0.0
1001
Sigma
1000

  0
LINE
  5
4B2
330
1F
100
AcDbEntity
  8
0
  6
Continuous
 62
     7
370
    30
100
AcDbLine
 10
-92.68722166622
 20
85.763844815972
 30
0.0
 11
-92.68722166622
 21
103.76384481597
 31
0.0
1001
Sigma
1000

  0
LINE
  5
4B4
330
1F
100
AcDbEntity
  8
0
  6
Continuous
 62
     7
370
    30
100
AcDbLine
 10
-113.6872216662
 20
87.323844815972
 30
0.0
 11
-91.78722166622
 21
87.323844815972
 31
0.0
1001
Sigma
1000

  0
LINE
  5
4B6
330
1F
100
AcDbEntity
  8
0
  6
Continuous
 62
     7
370
    30
100
AcDbLine
 10
-115.2872216662
 20
103.76384481597
 30
0.0
 11
-116.2872216662
 21
102.76384481597
 31
0.0
1001
Sigma
1000

  0
LINE
  5
4B8
330
1F
100
AcDbEntity
  8
0
  6
Continuous
 62
     7
370
    30
100
AcDbLine
 10
-73.78722166622
 20
103.2638448159699
 30
0.0
 11
-73.78722166622
 21
85.763844815972
 31
0.0
1001
Sigma
1000

  0
LINE
  5
4BA
330
1F
100
AcDbEntity
  8
0
  6
Continuous
 62
     7
370
    30
100
AcDbLine
 10
-141.2872216662
 20
103.76384481597
 30
0.0
 11
-146.7872216662
 21
103.76384481597
 31
0.0
1001
Sigma
1000

  0
LINE
  5
4BC
330
1F
100
AcDbEntity
  8
0
  6
Continuous
 62
     7
370
    30
100
AcDbLine
 10
-87.78722166622
 20
103.76384481597
 30
0.0
 11
-87.78722166622
 21
85.763844815972
 31
0.0
1001
Sigma
1000

  0
LINE
  5
4BE
330
1F
100
AcDbEntity
  8
0
  6
Continuous
 62
     7
370
    30
100
AcDbLine
 10
-113.6872216662
 20
88.88384481597198
 30
0.0
 11
-91.78722166622
 21
88.88384481597198
 31
0.0
1001
Sigma
1000

  0
LINE
  5
4C0
330
1F
100
AcDbEntity
  8
0
  6
Continuous
 62
     7
370
    30
100
AcDbLine
 10
-147.2872216662
 20
103.2638448159699
 30
0.0
 11
-147.2872216662
 21
85.763844815972
 31
0.0
1001
Sigma
1000

  0
LINE
  5
4C2
330
1F
100
AcDbEntity
  8
0
  6
Continuous
 62
     7
370
    30
100
AcDbLine
 10
-147.7872216661999
 20
103.76384481597
 30
0.0
 11
-156.7872216662
 21
103.76384481597
 31
0.0
1001
Sigma
1000

  0
LINE
  5
4C4
330
1F
100
AcDbEntity
  8
0
  6
Continuous
 62
     7
370
    30
100
AcDbLine
 10
-89.78722166622
 20
103.76384481597
 30
0.0
 11
-89.78722166622
 21
85.763844815972
 31
0.0
1001
Sigma
1000

  0
LINE
  5
4C6
330
1F
100
AcDbEntity
  8
0
  6
Continuous
 62
     7
370
    30
100
AcDbLine
 10
-113.6872216662
 20
90.423844815972
 30
0.0
 11
-91.78722166622
 21
90.423844815972
 31
0.0
1001
Sigma
1000

  0
LINE
  5
4C8
330
1F
100
AcDbEntity
  8
0
  6
Continuous
 62
     7
370
    30
100
AcDbLine
 10
-157.2872216661999
 20
103.2638448159699
 30
0.0
 11
-157.2872216661999
 21
85.763844815972
 31
0.0
1001
Sigma
1000

  0
LINE
  5
4CA
330
1F
100
AcDbEntity
  8
0
  6
Continuous
 62
     7
370
    30
100
AcDbLine
 10
-162.7872216662
 20
103.2638448159699
 30
0.0
 11
-157.2872216661999
 21
103.2638448159699
 31
0.0
1001
Sigma
1000

  0
LINE
  5
4CC
330
1F
100
AcDbEntity
  8
0
  6
Continuous
 62
     7
370
    30
100
AcDbLine
 10
-115.2872216662
 20
103.76384481597
 30
0.0
 11
-115.2872216662
 21
85.763844815972
 31
0.0
1001
Sigma
1000

  0
LINE
  5
4CE
330
1F
100
AcDbEntity
  8
0
  6
Continuous
 62
     7
370
    30
100
AcDbLine
 10
-113.6872216662
 20
91.913844815972
 30
0.0
 11
-91.78722166622
 21
91.913844815972
 31
0.0
1001
Sigma
1000

  0
LINE
  5
4D0
330
1F
100
AcDbEntity
  8
0
  6
Continuous
 62
     7
370
    30
100
AcDbLine
 10
-163.2872216662
 20
102.76384481597
 30
0.0
 11
-163.2872216662
 21
85.763844815972
 31
0.0
1001
Sigma
1000

  0
LINE
  5
4D2
330
1F
100
AcDbEntity
  8
0
  6
Continuous
 62
     7
370
    30
100
AcDbLine
 10
-165.2872216661999
 20
102.76384481597
 30
0.0
 11
-163.2872216662
 21
102.76384481597
 31
0.0
1001
Sigma
1000

  0
LINE
  5
4D4
330
1F
100
AcDbEntity
  8
0
  6
Continuous
 62
     7
370
    30
100
AcDbLine
 10
-113.6872216662
 20
93.373844815972
 30
0.0
 11
-91.78722166622
 21
93.373844815972
 31
0.0
1001
Sigma
1000

  0
LINE
  5
4D6
330
1F
100
AcDbEntity
  8
0
  6
Continuous
 62
     7
370
    30
100
AcDbLine
 10
-113.6872216662
 20
94.763844815972
 30
0.0
 11
-91.78722166622
 21
94.763844815972
 31
0.0
1001
Sigma
1000

  0
LINE
  5
4D8
330
1F
100
AcDbEntity
  8
0
  6
Continuous
 62
     7
370
    30
100
AcDbLine
 10
-166.2872216662
 20
101.76384481597
 30
0.0
 11
-166.2872216662
 21
85.763844815972
 31
0.0
1001
Sigma
1000

  0
LINE
  5
4DA
330
1F
100
AcDbEntity
  8
0
  6
Continuous
 62
     7
370
    30
100
AcDbLine
 10
-166.2872216662
 20
101.76384481597
 30
0.0
 11
-189.5872216662
 21
101.76384481597
 31
0.0
1001
Sigma
1000

  0
LINE
  5
4DC
330
1F
100
AcDbEntity
  8
0
  6
Continuous
 62
     7
370
    30
100
AcDbLine
 10
-189.8872216662
 20
101.46384481597
 30
0.0
 11
-189.8872216662
 21
85.763844815972
 31
0.0
1001
Sigma
1000

  0
LINE
  5
4DE
330
1F
100
AcDbEntity
  8
0
  6
Continuous
 62
     7
370
    30
100
AcDbLine
 10
-189.5872216662
 20
101.76384481597
 30
0.0
 11
-189.8872216662
 21
101.46384481597
 31
0.0
1001
Sigma
1000

  0
LINE
  5
4E0
330
1F
100
AcDbEntity
  8
0
  6
Continuous
 62
     7
370
    30
100
AcDbLine
 10
-113.6872216662
 20
96.083844815972
 30
0.0
 11
-91.78722166622
 21
96.083844815972
 31
0.0
1001
Sigma
1000

  0
LINE
  5
4E2
330
1F
100
AcDbEntity
  8
0
  6
Continuous
 62
     7
370
    30
100
AcDbLine
 10
-157.2872216661999
 20
103.2638448159699
 30
0.0
 11
-156.7872216662
 21
103.76384481597
 31
0.0
1001
Sigma
1000

  0
LINE
  5
4E4
330
1F
100
AcDbEntity
  8
0
  6
Continuous
 62
     7
370
    30
100
AcDbLine
 10
-163.2872216662
 20
102.76384481597
 30
0.0
 11
-162.7872216662
 21
103.2638448159699
 31
0.0
1001
Sigma
1000

  0
LINE
  5
4E6
330
1F
100
AcDbEntity
  8
0
  6
Continuous
 62
     7
370
    30
100
AcDbLine
 10
-113.6872216662
 20
97.333844815972
 30
0.0
 11
-91.78722166622
 21
97.333844815972
 31
0.0
1001
Sigma
1000

  0
LINE
  5
4E8
330
1F
100
AcDbEntity
  8
0
  6
Continuous
 62
     7
370
    30
100
AcDbLine
 10
-113.6872216662
 20
98.483844815972
 30
0.0
 11
-91.78722166622
 21
98.483844815972
 31
0.0
1001
Sigma
1000

  0
LINE
  5
4EA
330
1F
100
AcDbEntity
  8
0
  6
Continuous
 62
     7
370
    30
100
AcDbLine
 10
-147.7872216661999
 20
103.76384481597
 30
0.0
 11
-147.2872216662
 21
103.2638448159699
 31
0.0
1001
Sigma
1000

  0
LINE
  5
4EC
330
1F
100
AcDbEntity
  8
0
  6
Continuous
 62
     7
370
    30
100
AcDbLine
 10
-113.6872216662
 20
99.55384481597198
 30
0.0
 11
-91.78722166622
 21
99.55384481597198
 31
0.0
1001
Sigma
1000

  0
LINE
  5
4EE
330
1F
100
AcDbEntity
  8
0
  6
Continuous
 62
     7
370
    30
100
AcDbLine
 10
-147.2872216662
 20
103.2638448159699
 30
0.0
 11
-146.7872216662
 21
103.76384481597
 31
0.0
1001
Sigma
1000

  0
LINE
  5
4F0
330
1F
100
AcDbEntity
  8
0
  6
Continuous
 62
     7
370
    30
100
AcDbLine
 10
-113.6872216662
 20
100.46384481597
 30
0.0
 11
-91.78722166622
 21
100.46384481597
 31
0.0
1001
Sigma
1000

  0
LINE
  5
4F2
330
1F
100
AcDbEntity
  8
0
  6
Continuous
 62
     7
370
    30
100
AcDbLine
 10
-113.6872216662
 20
101.36384481597
 30
0.0
 11
-91.78722166622
 21
101.36384481597
 31
0.0
1001
Sigma
1000

  0
LINE
  5
4F4
330
1F
100
AcDbEntity
  8
0
  6
Continuous
 62
     7
370
    30
100
AcDbLine
 10
-140.2872216661999
 20
102.76384481597
 30
0.0
 11
-141.2872216662
 21
103.76384481597
 31
0.0
1001
Sigma
1000

  0
LINE
  5
4F6
330
1F
100
AcDbEntity
  8
0
  6
Continuous
 62
     7
370
    30
100
AcDbLine
 10
-166.2872216662
 20
101.76384481597
 30
0.0
 11
-165.2872216661999
 21
102.76384481597
 31
0.0
1001
Sigma
1000

  0
LINE
  5
4F8
330
1F
100
AcDbEntity
  8
0
  6
Continuous
 62
     7
370
    30
100
AcDbLine
 10
-113.6872216662
 20
102.0638448159699
 30
0.0
 11
-91.78722166622
 21
102.0638448159699
 31
0.0
1001
Sigma
1000

  0
LINE
  5
4FA
330
1F
100
AcDbEntity
  8
0
  6
Continuous
 62
     7
370
    30
100
AcDbLine
 10
-141.2872216662
 20
103.76384481597
 30
0.0
 11
-141.2872216662
 21
85.763844815972
 31
0.0
1001
Sigma
1000

  0
LINE
  5
4FC
330
1F
100
AcDbEntity
  8
0
  6
Continuous
 62
     7
370
    30
100
AcDbLine
 10
-146.7872216662
 20
103.76384481597
 30
0.0
 11
-146.7872216662
 21
85.763844815972
 31
0.0
1001
Sigma
1000

  0
LINE
  5
4FE
330
1F
100
AcDbEntity
  8
0
  6
Continuous
 62
     7
370
    30
100
AcDbLine
 10
-147.7872216661999
 20
103.76384481597
 30
0.0
 11
-147.7872216661999
 21
85.763844815972
 31
0.0
1001
Sigma
1000

  0
LINE
  5
500
330
1F
100
AcDbEntity
  8
0
  6
Continuous
 62
     7
370
    30
100
AcDbLine
 10
-156.7872216662
 20
103.76384481597
 30
0.0
 11
-156.7872216662
 21
85.763844815972
 31
0.0
1001
Sigma
1000

  0
LINE
  5
502
330
1F
100
AcDbEntity
  8
0
  6
Continuous
 62
     7
370
    30
100
AcDbLine
 10
-162.7872216662
 20
103.2638448159699
 30
0.0
 11
-162.7872216662
 21
85.763844815972
 31
0.0
1001
Sigma
1000

  0
LINE
  5
504
330
1F
100
AcDbEntity
  8
0
  6
Continuous
 62
     7
370
    30
100
AcDbLine
 10
-165.2872216661999
 20
102.76384481597
 30
0.0
 11
-165.2872216661999
 21
85.763844815972
 31
0.0
1001
Sigma
1000

  0
LINE
  5
506
330
1F
100
AcDbEntity
  8
0
  6
Continuous
 62
     7
370
    30
100
AcDbLine
 10
-113.6872216662
 20
102.6638448159699
 30
0.0
 11
-91.78722166622
 21
102.6638448159699
 31
0.0
1001
Sigma
1000

  0
LINE
  5
508
330
1F
100
AcDbEntity
  8
0
  6
Continuous
 62
     7
370
    30
100
AcDbLine
 10
-113.6872216662
 20
103.16384481597
 30
0.0
 11
-91.78722166622
 21
103.16384481597
 31
0.0
1001
Sigma
1000

  0
LINE
  5
50A
330
1F
100
AcDbEntity
  8
0
  6
Continuous
 62
     7
370
    30
100
AcDbLine
 10
-113.6872216662
 20
103.46384481597
 30
0.0
 11
-91.78722166622
 21
103.46384481597
 31
0.0
1001
Sigma
1000

  0
LINE
  5
50C
330
1F
100
AcDbEntity
  8
0
  6
Continuous
 62
     7
370
    30
100
AcDbLine
 10
-113.6872216662
 20
103.6638448159699
 30
0.0
 11
-91.78722166622
 21
103.6638448159699
 31
0.0
1001
Sigma
1000

  0
LINE
  5
50E
330
1F
100
AcDbEntity
  8
0
  6
Continuous
 62
     7
370
    30
100
AcDbLine
 10
-113.6872216662
 20
103.76384481597
 30
0.0
 11
-91.78722166622
 21
103.76384481597
 31
0.0
1001
Sigma
1000

  0
LINE
  5
510
330
1F
100
AcDbEntity
  8
0
  6
Continuous
 62
     7
370
    30
100
AcDbLine
 10
-87.78722166622
 20
88.88384481597198
 30
0.0
 11
-75.28722166622
 21
88.88384481597198
 31
0.0
1001
Sigma
1000

  0
LINE
  5
512
330
1F
100
AcDbEntity
  8
0
  6
Continuous
 62
     7
370
    30
100
AcDbLine
 10
-87.78722166622
 20
91.913844815972
 30
0.0
 11
-75.28722166622
 21
91.913844815972
 31
0.0
1001
Sigma
1000

  0
LINE
  5
514
330
1F
100
AcDbEntity
  8
0
  6
Continuous
 62
     7
370
    30
100
AcDbLine
 10
-87.78722166622
 20
94.763844815972
 30
0.0
 11
-75.28722166622
 21
94.763844815972
 31
0.0
1001
Sigma
1000

  0
LINE
  5
516
330
1F
100
AcDbEntity
  8
0
  6
Continuous
 62
     7
370
    30
100
AcDbLine
 10
-87.78722166622
 20
97.333844815972
 30
0.0
 11
-75.28722166622
 21
97.333844815972
 31
0.0
1001
Sigma
1000

  0
LINE
  5
518
330
1F
100
AcDbEntity
  8
0
  6
Continuous
 62
     7
370
    30
100
AcDbLine
 10
-87.78722166622
 20
99.55384481597198
 30
0.0
 11
-75.28722166622
 21
99.55384481597198
 31
0.0
1001
Sigma
1000

  0
LINE
  5
51A
330
1F
100
AcDbEntity
  8
0
  6
Continuous
 62
     7
370
    30
100
AcDbLine
 10
-87.78722166622
 20
101.36384481597
 30
0.0
 11
-75.28722166622
 21
101.36384481597
 31
0.0
1001
Sigma
1000

  0
LINE
  5
51C
330
1F
100
AcDbEntity
  8
0
  6
Continuous
 62
     7
370
    30
100
AcDbLine
 10
-87.78722166622
 20
102.6638448159699
 30
0.0
 11
-75.28722166622
 21
102.6638448159699
 31
0.0
1001
Sigma
1000

  0
LINE
  5
51E
330
1F
100
AcDbEntity
  8
0
  6
Continuous
 62
     7
370
    30
100
AcDbLine
 10
-87.78722166622
 20
103.46384481597
 30
0.0
 11
-75.28722166622
 21
103.46384481597
 31
0.0
1001
Sigma
1000

  0
LINE
  5
520
330
1F
100
AcDbEntity
  8
0
  6
Continuous
 62
     7
370
    30
100
AcDbLine
 10
-87.78722166622
 20
103.46384481597
 30
0.0
 11
-75.28722166622
 21
103.46384481597
 31
0.0
1001
Sigma
1000

  0
LINE
  5
522
330
1F
100
AcDbEntity
  8
0
  6
Continuous
 62
     7
370
    30
100
AcDbLine
 10
-156.7872216662
 20
87.323844815972
 30
0.0
 11
-147.7872216661999
 21
87.323844815972
 31
0.0
1001
Sigma
1000

  0
LINE
  5
524
330
1F
100
AcDbEntity
  8
0
  6
Continuous
 62
     7
370
    30
100
AcDbLine
 10
-156.7872216662
 20
88.88384481597198
 30
0.0
 11
-147.7872216661999
 21
88.88384481597198
 31
0.0
1001
Sigma
1000

  0
LINE
  5
526
330
1F
100
AcDbEntity
  8
0
  6
Continuous
 62
     7
370
    30
100
AcDbLine
 10
-156.7872216662
 20
90.423844815972
 30
0.0
 11
-147.7872216661999
 21
90.423844815972
 31
0.0
1001
Sigma
1000

  0
LINE
  5
528
330
1F
100
AcDbEntity
  8
0
  6
Continuous
 62
     7
370
    30
100
AcDbLine
 10
-156.7872216662
 20
91.913844815972
 30
0.0
 11
-147.7872216661999
 21
91.913844815972
 31
0.0
1001
Sigma
1000

  0
LINE
  5
52A
330
1F
100
AcDbEntity
  8
0
  6
Continuous
 62
     7
370
    30
100
AcDbLine
 10
-156.7872216662
 20
93.373844815972
 30
0.0
 11
-147.7872216661999
 21
93.373844815972
 31
0.0
1001
Sigma
1000

  0
LINE
  5
52C
330
1F
100
AcDbEntity
  8
0
  6
Continuous
 62
     7
370
    30
100
AcDbLine
 10
-156.7872216662
 20
94.763844815972
 30
0.0
 11
-147.7872216661999
 21
94.763844815972
 31
0.0
1001
Sigma
1000

  0
LINE
  5
52E
330
1F
100
AcDbEntity
  8
0
  6
Continuous
 62
     7
370
    30
100
AcDbLine
 10
-156.7872216662
 20
96.083844815972
 30
0.0
 11
-147.7872216661999
 21
96.083844815972
 31
0.0
1001
Sigma
1000

  0
LINE
  5
530
330
1F
100
AcDbEntity
  8
0
  6
Continuous
 62
     7
370
    30
100
AcDbLine
 10
-156.7872216662
 20
97.333844815972
 30
0.0
 11
-147.7872216661999
 21
97.333844815972
 31
0.0
1001
Sigma
1000

  0
LINE
  5
532
330
1F
100
AcDbEntity
  8
0
  6
Continuous
 62
     7
370
    30
100
AcDbLine
 10
-156.7872216662
 20
98.483844815972
 30
0.0
 11
-147.7872216661999
 21
98.483844815972
 31
0.0
1001
Sigma
1000

  0
LINE
  5
534
330
1F
100
AcDbEntity
  8
0
  6
Continuous
 62
     7
370
    30
100
AcDbLine
 10
-156.7872216662
 20
99.55384481597198
 30
0.0
 11
-147.7872216661999
 21
99.55384481597198
 31
0.0
1001
Sigma
1000

  0
LINE
  5
536
330
1F
100
AcDbEntity
  8
0
  6
Continuous
 62
     7
370
    30
100
AcDbLine
 10
-156.7872216662
 20
100.46384481597
 30
0.0
 11
-147.7872216661999
 21
100.46384481597
 31
0.0
1001
Sigma
1000

  0
LINE
  5
538
330
1F
100
AcDbEntity
  8
0
  6
Continuous
 62
     7
370
    30
100
AcDbLine
 10
-156.7872216662
 20
101.36384481597
 30
0.0
 11
-147.7872216661999
 21
101.36384481597
 31
0.0
1001
Sigma
1000

  0
LINE
  5
53A
330
1F
100
AcDbEntity
  8
0
  6
Continuous
 62
     7
370
    30
100
AcDbLine
 10
-156.7872216662
 20
102.0638448159699
 30
0.0
 11
-147.7872216661999
 21
102.0638448159699
 31
0.0
1001
Sigma
1000

  0
LINE
  5
53C
330
1F
100
AcDbEntity
  8
0
  6
Continuous
 62
     7
370
    30
100
AcDbLine
 10
-156.7872216662
 20
102.6638448159699
 30
0.0
 11
-147.7872216661999
 21
102.6638448159699
 31
0.0
1001
Sigma
1000

  0
LINE
  5
53E
330
1F
100
AcDbEntity
  8
0
  6
Continuous
 62
     7
370
    30
100
AcDbLine
 10
-156.7872216662
 20
103.16384481597
 30
0.0
 11
-147.7872216661999
 21
103.16384481597
 31
0.0
1001
Sigma
1000

  0
LINE
  5
540
330
1F
100
AcDbEntity
  8
0
  6
Continuous
 62
     7
370
    30
100
AcDbLine
 10
-156.7872216662
 20
103.46384481597
 30
0.0
 11
-147.7872216661999
 21
103.46384481597
 31
0.0
1001
Sigma
1000

  0
LINE
  5
542
330
1F
100
AcDbEntity
  8
0
  6
Continuous
 62
     7
370
    30
100
AcDbLine
 10
-156.7872216662
 20
103.6638448159699
 30
0.0
 11
-147.7872216661999
 21
103.6638448159699
 31
0.0
1001
Sigma
1000

  0
LINE
  5
544
330
1F
100
AcDbEntity
  8
0
  6
Continuous
 62
     7
370
    30
100
AcDbLine
 10
-189.5872216662
 20
101.76384481597
 30
0.0
 11
-189.5872216662
 21
85.763844815972
 31
0.0
1001
Sigma
1000

  0
LINE
  5
546
330
1F
100
AcDbEntity
  8
0
  6
Continuous
 62
     7
370
    30
100
AcDbLine
 10
-73.28722166622
 20
98.013844815972
 30
0.0
 11
-69.28722166622
 21
98.013844815972
 31
0.0
1001
Sigma
1000

  0
LINE
  5
548
330
1F
100
AcDbEntity
  8
0
  6
Continuous
 62
     7
370
    30
100
AcDbLine
 10
-69.28722166622
 20
98.013844815972
 30
0.0
 11
-69.54702928736
 21
98.463844815972
 31
0.0
1001
Sigma
1000

  0
LINE
  5
54A
330
1F
100
AcDbEntity
  8
0
  6
Continuous
 62
     7
370
    30
100
AcDbLine
 10
-72.80120332191
 20
85.763844815972
 30
0.0
 11
-72.80120332191
 21
98.463844815972
 31
0.0
1001
Sigma
1000

  0
LINE
  5
54C
330
1F
100
AcDbEntity
  8
0
  6
Continuous
 62
     7
370
    30
100
AcDbLine
 10
-69.54702928736
 20
98.463844815972
 30
0.0
 11
-69.54702928736
 21
85.763844815972
 31
0.0
1001
Sigma
1000

  0
LINE
  5
54E
330
1F
100
AcDbEntity
  8
0
  6
Continuous
 62
     7
370
    30
100
AcDbLine
 10
-88.28722166622
 20
68.263844815972
 30
0.0
 11
-88.28722166622
 21
103.2638448159699
 31
0.0
1001
Sigma
1000

  0
LINE
  5
550
330
1F
100
AcDbEntity
  8
0
  6
Continuous
 62
     7
370
    30
100
AcDbLine
 10
-116.2872216662
 20
102.76384481597
 30
0.0
 11
-116.2872216662
 21
68.763844815972
 31
0.0
1001
Sigma
1000

  0
LINE
  5
552
330
1F
100
AcDbEntity
  8
0
  6
Continuous
 62
     7
370
    30
100
AcDbLine
 10
-140.2872216661999
 20
69.763844815972
 30
0.0
 11
-116.2872216662
 21
69.763844815972
 31
0.0
1001
Sigma
1000

  0
LINE
  5
554
330
1F
100
AcDbEntity
  8
0
  6
Continuous
 62
     7
370
    30
100
AcDbLine
 10
-140.2872216661999
 20
101.76384481597
 30
0.0
 11
-116.2872216662
 21
101.76384481597
 31
0.0
1001
Sigma
1000

  0
LINE
  5
556
330
1F
100
AcDbEntity
  8
0
  6
Continuous
 62
     7
370
    30
100
AcDbLine
 10
-89.28722166622
 20
68.763844815972
 30
0.0
 11
-88.28722166622
 21
68.763844815972
 31
0.0
1001
Sigma
1000

  0
LINE
  5
558
330
1F
100
AcDbEntity
  8
0
  6
Continuous
 62
     7
370
    30
100
AcDbLine
 10
-89.28722166622
 20
102.76384481597
 30
0.0
 11
-88.28722166622
 21
102.76384481597
 31
0.0
1001
Sigma
1000

  0
LINE
  5
55A
330
1F
100
AcDbEntity
  8
0
  6
Continuous
 62
     7
370
    30
100
AcDbLine
 10
-156.7872216662
 20
85.763844815962
 30
0.0
 11
-147.7872216661999
 21
85.763844815972
 31
0.0
1001
Sigma
1000

  0
LINE
  5
55C
330
1F
100
AcDbEntity
  8
0
  6
Continuous
 62
     7
370
    30
100
AcDbLine
 10
-87.78722166622
 20
85.763844815972
 30
0.0
 11
-75.28722166622
 21
85.763844815972
 31
0.0
1001
Sigma
1000

  0
LINE
  5
55E
330
1F
100
AcDbEntity
  8
0
  6
Continuous
 62
     7
370
    30
100
AcDbLine
 10
-91.78722166622
 20
85.763844815972
 30
0.0
 11
-113.6872216662
 21
85.763844815972
 31
0.0
1001
Sigma
1000

  0
LINE
  5
560
330
1F
100
AcDbEntity
  8
0
  6
Continuous
 62
     7
370
    30
100
AcDbLine
 10
-247.2372819615999
 20
90.763844815962
 30
0.0
 11
-247.2372819615999
 21
80.763844815962
 31
0.0
1001
Sigma
1000

  0
LINE
  5
562
330
1F
100
AcDbEntity
  8
0
  6
Continuous
 62
     7
370
    30
100
AcDbLine
 10
-247.2372819615999
 20
80.763844815962
 30
0.0
 11
-247.2372819615999
 21
90.763844815962
 31
0.0
1001
Sigma
1000

  0
DIMENSION
  5
564
330
1F
100
AcDbEntity
  8
KCAD_DIMS
 62
     7
100
AcDbDimension
  2
*D44
 10
-69.28722166622
 20
120.90948225594
 30
0.0
 11
-55.30512406578999
 21
123.57614825594
 31
0.0
 70
    32
 71
     5
 42
-1.0
  3
Standard
100
AcDbAlignedDimension
 13
-73.28722166622
 23
98.843301885247
 33
0.0
 14
-69.28722166622
 24
92.42279388901
 34
0.0
100
AcDbRotatedDimension
1001
Sigma
1000
DIM_TPHO
1001
KCAD_DIM_EXT
1002
{
1071
 20001212
1070
     0
1070
     1
1070
     1
1040
2.5
1040
10.0
1040
15.48209760881199
1040
0.0
1040
0.0
1040
0.0
1040
0.0
1040
0.0
1070
     0
1040
50.0
1040
-1.0
1013
1.0
1023
0.0
1033
0.0
1040
0.0
1013
1.0
1023
0.0
1033
0.0
1000
_None
1040
1.0
1040
4.0
1070
     0
1070
     0
1070
     0
1012
1.0
1022
0.0
1032
0.0
1013
1.0
1023
0.0
1033
0.0
1002
}
1001
ACAD
1000
DSTYLE
1002
{
1070
    41
1040
2.5
1070
    42
1040
2.0
1070
    43
1040
8.0
1070
    44
1040
2.0
1070
    45
1040
0.0
1070
    73
1070
     0
1070
    74
1070
     0
1070
    77
1070
     1
1070
    78
1070
     8
1070
    79
1070
     2
1070
   140
1040
3.2
1070
   141
1040
2.5
1070
   145
1040
0.0001
1070
   146
1040
0.667
1070
   147
1040
0.5333000000000001
1070
   172
1070
     1
1070
   173
1070
     1
1070
   179
1070
     3
1070
   271
1070
     3
1070
   272
1070
     3
1070
   279
1070
     2
1070
   284
1070
     8
1070
   289
1070
     2
1070
   340
1005
189
1070
   341
1005
21
1070
   343
1005
12D
1070
   344
1005
12D
1002
}
  0
DIMENSION
  5
5AC
330
1F
100
AcDbEntity
  8
KCAD_DIMS
 62
     7
100
AcDbDimension
  2
*D45
 10
-189.8872216662
 20
117.65677889732
 30
0.0
 11
-131.5872216662
 21
120.32344489732
 31
0.0
 70
    32
 71
     5
 42
-1.0
  3
Standard
100
AcDbAlignedDimension
 13
-73.28722166622
 23
102.76384481597
 33
0.0
 14
-189.8872216662
 24
97.956729108481
 34
0.0
100
AcDbRotatedDimension
1001
Sigma
1000
DIM_TPHO
1001
KCAD_DIM_EXT
1002
{
1071
 20001212
1070
     0
1070
     2
1070
     2
1040
2.5
1040
0.0
1040
0.0
1040
0.0
1040
0.0
1040
0.0
1040
0.0
1040
0.0
1070
     0
1040
50.0
1040
-1.0
1013
1.0
1023
0.0
1033
0.0
1040
0.0
1013
1.0
1023
0.0
1033
0.0
1000
_None
1040
1.0
1040
116.5999999999999
1070
     0
1070
     0
1070
     0
1012
1.0
1022
0.0
1032
0.0
1013
1.0
1023
0.0
1033
0.0
1002
}
1001
ACAD
1000
DSTYLE
1002
{
1070
    41
1040
2.5
1070
    42
1040
2.0
1070
    43
1040
8.0
1070
    44
1040
2.0
1070
    45
1040
0.0
1070
    73
1070
     0
1070
    74
1070
     0
1070
    77
1070
     1
1070
    78
1070
     8
1070
    79
1070
     2
1070
   140
1040
3.2
1070
   141
1040
2.5
1070
   145
1040
0.0001
1070
   146
1040
0.667
1070
   147
1040
0.5333000000000001
1070
   172
1070
     1
1070
   173
1070
     1
1070
   179
1070
     3
1070
   271
1070
     3
1070
   272
1070
     3
1070
   279
1070
     2
1070
   284
1070
     8
1070
   289
1070
     2
1070
   340
1005
189
1070
   341
1005
21
1070
   343
1005
12D
1070
   344
1005
12D
1002
}
  0
DIMENSION
  5
5E8
330
1F
100
AcDbEntity
  8
KCAD_DIMS
 62
     7
100
AcDbDimension
  2
*D46
 10
-73.28722166622
 20
109.8509716176399
 30
0.0
 11
-106.7872216662
 21
112.5176376176399
 31
0.0
 70
    32
 71
     5
 42
-1.0
  3
Standard
100
AcDbAlignedDimension
 13
-140.2872216661999
 23
97.101793508713
 33
0.0
 14
-73.28722166622
 24
102.76384481597
 34
0.0
100
AcDbRotatedDimension
1001
Sigma
1000
DIM_TPHO
1001
KCAD_DIM_EXT
1002
{
1071
 20001212
1070
     0
1070
     2
1070
     2
1040
2.5
1040
0.0
1040
0.0
1040
0.0
1040
0.0
1040
0.0
1040
0.0
1040
0.0
1070
     0
1040
50.0
1040
-1.0
1013
1.0
1023
0.0
1033
0.0
1040
0.0
1013
1.0
1023
0.0
1033
0.0
1000
_None
1040
1.0
1040
67.0
1070
     0
1070
     0
1070
     0
1012
1.0
1022
0.0
1032
0.0
1013
1.0
1023
0.0
1033
0.0
1002
}
1001
ACAD
1000
DSTYLE
1002
{
1070
    41
1040
2.5
1070
    42
1040
2.0
1070
    43
1040
8.0
1070
    44
1040
2.0
1070
    45
1040
0.0
1070
    73
1070
     0
1070
    74
1070
     0
1070
    77
1070
     1
1070
    78
1070
     8
1070
    79
1070
     2
1070
   140
1040
3.2
1070
   141
1040
2.5
1070
   145
1040
0.0001
1070
   146
1040
0.667
1070
   147
1040
0.5333000000000001
1070
   172
1070
     1
1070
   173
1070
     1
1070
   179
1070
     3
1070
   271
1070
     3
1070
   272
1070
     3
1070
   279
1070
     2
1070
   284
1070
     8
1070
   289
1070
     2
1070
   340
1005
189
1070
   341
1005
21
1070
   343
1005
12D
1070
   344
1005
12D
1002
}
  0
DIMENSION
  5
624
330
1F
100
AcDbEntity
  8
KCAD_DIMS
 62
     7
100
AcDbDimension
  2
*D47
 10
-207.8909660225
 20
101.76384481597
 30
0.0
 11
-210.5576320224999
 21
85.763844815972
 31
0.0
 70
    32
 71
     5
 42
-1.0
 53
90.0
  3
Standard
100
AcDbAlignedDimension
 13
-182.8063283161
 23
69.763844815962
 33
0.0
 14
-182.6087742239
 24
101.76384481597
 34
0.0
 50
90.0
100
AcDbRotatedDimension
1001
Sigma
1000
DIM_TPVO
1001
KCAD_DIM_EXT
1002
{
1071
 20001212
1070
     0
1070
     2
1070
     2
1040
2.5
1040
0.0
1040
0.0
1040
0.0
1040
0.0
1040
0.0
1040
0.0
1040
0.0
1070
     0
1040
50.0
1040
-1.0
1013
1.0
1023
0.0
1033
0.0
1040
0.0
1013
1.0
1023
0.0
1033
0.0
1000
_None
1040
1.0
1040
32.000000000001
1070
     0
1070
     0
1070
     0
1012
1.0
1022
0.0
1032
0.0
1013
1.0
1023
0.0
1033
0.0
1002
}
1001
ACAD
1000
DSTYLE
1002
{
1070
     3
1000
%%c<>
1070
    41
1040
2.5
1070
    42
1040
2.0
1070
    43
1040
8.0
1070
    44
1040
2.0
1070
    45
1040
0.0
1070
    73
1070
     0
1070
    74
1070
     0
1070
    77
1070
     1
1070
    78
1070
     8
1070
    79
1070
     2
1070
   140
1040
3.2
1070
   141
1040
2.5
1070
   145
1040
0.0001
1070
   146
1040
0.667
1070
   147
1040
0.5333000000000001
1070
   172
1070
     1
1070
   173
1070
     1
1070
   179
1070
     3
1070
   271
1070
     3
1070
   272
1070
     3
1070
   279
1070
     2
1070
   284
1070
     8
1070
   289
1070
     2
1070
   340
1005
189
1070
   341
1005
21
1070
   343
1005
12D
1070
   344
1005
12D
1002
}
  0
DIMENSION
  5
660
330
1F
100
AcDbEntity
  8
KCAD_DIMS
 62
     7
100
AcDbDimension
  2
*D48
 10
-38.19200082967002
 20
103.76384481597
 30
0.0
 11
-40.85866682967
 21
85.763844815972
 31
0.0
 70
    32
 71
     5
 42
-1.0
 53
90.0
  3
Standard
100
AcDbAlignedDimension
 13
-77.06550047037
 23
67.763844815972
 33
0.0
 14
-79.9794233302
 24
103.76384481597
 34
0.0
 50
90.0
100
AcDbRotatedDimension
1001
Sigma
1000
DIM_TPVO
1001
KCAD_DIM_EXT
1002
{
1071
 20001212
1070
     0
1070
     2
1070
     2
1040
2.5
1040
0.0
1040
0.0
1040
0.0
1040
0.0
1040
0.0
1040
0.0
1040
0.0
1070
     0
1040
50.0
1040
-1.0
1013
1.0
1023
0.0
1033
0.0
1040
0.0
1013
1.0
1023
0.0
1033
0.0
1000
_None
1040
1.0
1040
36.0
1070
     0
1070
     0
1070
     0
1012
1.0
1022
0.0
1032
0.0
1013
1.0
1023
0.0
1033
0.0
1002
}
1001
ACAD
1000
DSTYLE
1002
{
1070
     3
1000
%%c<>
1070
    41
1040
2.5
1070
    42
1040
2.0
1070
    43
1040
8.0
1070
    44
1040
2.0
1070
    45
1040
0.0
1070
    73
1070
     0
1070
    74
1070
     0
1070
    77
1070
     1
1070
    78
1070
     8
1070
    79
1070
     2
1070
   140
1040
3.2
1070
   141
1040
2.5
1070
   145
1040
0.0001
1070
   146
1040
0.667
1070
   147
1040
0.5333000000000001
1070
   172
1070
     1
1070
   173
1070
     1
1070
   179
1070
     3
1070
   271
1070
     3
1070
   272
1070
     3
1070
   279
1070
     2
1070
   284
1070
     8
1070
   289
1070
     2
1070
   340
1005
189
1070
   341
1005
21
1070
   343
1005
12D
1070
   344
1005
12D
1002
}
  0
LINE
  5
69C
330
1F
100
AcDbEntity
  8
1
  6
CENTER
 62
     7
370
    15
100
AcDbLine
 10
-55.76122166622
 20
82.812442722342
 30
0.0
 11
-55.76122166622
 21
88.541511395902
 31
0.0
1001
Sigma
1000

  0
TEXT
  5
69E
330
1F
100
AcDbEntity
  8
1
  6
Continuous
 62
     7
370
    30
100
AcDbText
 10
-270.3903520246027
 20
83.83291565008075
 30
0.0
 40
4.320000171661376
  1
１．０Ｘ
 41
0.95
  7
KCADTEXTSTANDARD
100
AcDbText
1001
Sigma
1000

  0
LINE
  5
6A0
330
1F
100
AcDbEntity
  8
0
  6
CENTER
 62
     7
370
    15
100
AcDbLine
 10
-53.30488888235
 20
145.81849677035
 30
0.0
 11
-204.1922338283999
 21
145.81849677035
 31
0.0
1001
Sigma
1000

  0
LINE
  5
6A2
330
1F
100
AcDbEntity
  8
0
  6
Continuous
 62
     7
370
    30
100
AcDbLine
 10
-69.28722166622
 20
145.81849677035
 30
0.0
 11
-69.28722166622
 21
133.56849677035
 31
0.0
1001
Sigma
1000

  0
LINE
  5
6A4
330
1F
100
AcDbEntity
  8
0
  6
Continuous
 62
     7
370
    30
100
AcDbLine
 10
-69.54702928736
 20
133.1184967703499
 30
0.0
 11
-72.80120332191
 21
133.1184967703499
 31
0.0
1001
Sigma
1000

  0
LINE
  5
6A6
330
1F
100
AcDbEntity
  8
0
  6
Continuous
 62
     7
370
    30
100
AcDbLine
 10
-73.28722166622
 20
145.81849677035
 30
0.0
 11
-73.28722166622
 21
128.81849677035
 31
0.0
1001
Sigma
1000

  0
LINE
  5
6A8
330
1F
100
AcDbEntity
  8
0
  6
Continuous
 62
     7
370
    30
100
AcDbLine
 10
-75.28722166622
 20
127.8184967703499
 30
0.0
 11
-75.28722166622
 21
145.81849677035
 31
0.0
1001
Sigma
1000

  0
LINE
  5
6AA
330
1F
100
AcDbEntity
  8
0
  6
Continuous
 62
     7
370
    30
100
AcDbLine
 10
-111.1872216662
 20
145.81849677035
 30
0.0
 11
-111.1872216662
 21
127.8184967703499
 31
0.0
1001
Sigma
1000

  0
LINE
  5
6AC
330
1F
100
AcDbEntity
  8
0
  6
Continuous
 62
     7
370
    30
100
AcDbLine
 10
-73.78722166622
 20
128.31849677035
 30
0.0
 11
-74.78722166622
 21
128.31849677035
 31
0.0
1001
Sigma
1000

  0
LINE
  5
6AE
330
1F
100
AcDbEntity
  8
0
  6
Continuous
 62
     7
370
    30
100
AcDbLine
 10
-74.78722166622
 20
128.31849677035
 30
0.0
 11
-74.78722166622
 21
145.81849677035
 31
0.0
1001
Sigma
1000

  0
LINE
  5
6B0
330
1F
100
AcDbEntity
  8
0
  6
Continuous
 62
     7
370
    30
100
AcDbLine
 10
-109.6872216661999
 20
145.81849677035
 30
0.0
 11
-109.6872216661999
 21
127.8184967703499
 31
0.0
1001
Sigma
1000

  0
LINE
  5
6B2
330
1F
100
AcDbEntity
  8
0
  6
Continuous
 62
     7
370
    30
100
AcDbLine
 10
-73.28722166622
 20
128.81849677035
 30
0.0
 11
-73.78722166622
 21
128.31849677035
 31
0.0
1001
Sigma
1000

  0
LINE
  5
6B4
330
1F
100
AcDbEntity
  8
0
  6
Continuous
 62
     7
370
    30
100
AcDbLine
 10
-108.1872216662
 20
145.81849677035
 30
0.0
 11
-108.1872216662
 21
127.8184967703499
 31
0.0
1001
Sigma
1000

  0
LINE
  5
6B6
330
1F
100
AcDbEntity
  8
0
  6
Continuous
 62
     7
370
    30
100
AcDbLine
 10
-106.6872216662
 20
145.81849677035
 30
0.0
 11
-106.6872216662
 21
127.8184967703499
 31
0.0
1001
Sigma
1000

  0
LINE
  5
6B8
330
1F
100
AcDbEntity
  8
0
  6
Continuous
 62
     7
370
    30
100
AcDbLine
 10
-75.28722166622
 20
127.8184967703499
 30
0.0
 11
-87.78722166622
 21
127.8184967703499
 31
0.0
1001
Sigma
1000

  0
LINE
  5
6BA
330
1F
100
AcDbEntity
  8
0
  6
Continuous
 62
     7
370
    30
100
AcDbLine
 10
-88.28722166622
 20
128.31849677035
 30
0.0
 11
-88.28722166622
 21
145.81849677035
 31
0.0
1001
Sigma
1000

  0
LINE
  5
6BC
330
1F
100
AcDbEntity
  8
0
  6
Continuous
 62
     7
370
    30
100
AcDbLine
 10
-105.1872216662
 20
145.81849677035
 30
0.0
 11
-105.1872216662
 21
127.8184967703499
 31
0.0
1001
Sigma
1000

  0
LINE
  5
6BE
330
1F
100
AcDbEntity
  8
0
  6
Continuous
 62
     7
370
    30
100
AcDbLine
 10
-103.6872216662
 20
145.81849677035
 30
0.0
 11
-103.6872216662
 21
127.8184967703499
 31
0.0
1001
Sigma
1000

  0
LINE
  5
6C0
330
1F
100
AcDbEntity
  8
0
  6
Continuous
 62
     7
370
    30
100
AcDbLine
 10
-102.1872216662
 20
145.81849677035
 30
0.0
 11
-102.1872216662
 21
127.8184967703499
 31
0.0
1001
Sigma
1000

  0
LINE
  5
6C2
330
1F
100
AcDbEntity
  8
0
  6
Continuous
 62
     7
370
    30
100
AcDbLine
 10
-74.78722166622
 20
128.31849677035
 30
0.0
 11
-75.28722166622
 21
127.8184967703499
 31
0.0
1001
Sigma
1000

  0
LINE
  5
6C4
330
1F
100
AcDbEntity
  8
0
  6
Continuous
 62
     7
370
    30
100
AcDbLine
 10
-87.78722166622
 20
127.8184967703499
 30
0.0
 11
-88.28722166622
 21
128.31849677035
 31
0.0
1001
Sigma
1000

  0
LINE
  5
6C6
330
1F
100
AcDbEntity
  8
0
  6
Continuous
 62
     7
370
    30
100
AcDbLine
 10
-100.6872216662
 20
145.81849677035
 30
0.0
 11
-100.6872216662
 21
127.8184967703499
 31
0.0
1001
Sigma
1000

  0
LINE
  5
6C8
330
1F
100
AcDbEntity
  8
0
  6
Continuous
 62
     7
370
    30
100
AcDbLine
 10
-88.78722166622
 20
127.8184967703499
 30
0.0
 11
-90.78722166622
 21
127.8184967703499
 31
0.0
1001
Sigma
1000

  0
LINE
  5
6CA
330
1F
100
AcDbEntity
  8
0
  6
Continuous
 62
     7
370
    30
100
AcDbLine
 10
-90.78722166622
 20
127.8184967703499
 30
0.0
 11
-90.78722166622
 21
145.81849677035
 31
0.0
1001
Sigma
1000

  0
LINE
  5
6CC
330
1F
100
AcDbEntity
  8
0
  6
Continuous
 62
     7
370
    30
100
AcDbLine
 10
-99.18722166622
 20
145.81849677035
 30
0.0
 11
-99.18722166622
 21
127.8184967703499
 31
0.0
1001
Sigma
1000

  0
LINE
  5
6CE
330
1F
100
AcDbEntity
  8
0
  6
Continuous
 62
     7
370
    30
100
AcDbLine
 10
-97.68722166622
 20
145.81849677035
 30
0.0
 11
-97.68722166622
 21
127.8184967703499
 31
0.0
1001
Sigma
1000

  0
LINE
  5
6D0
330
1F
100
AcDbEntity
  8
0
  6
Continuous
 62
     7
370
    30
100
AcDbLine
 10
-112.6872216661999
 20
145.81849677035
 30
0.0
 11
-112.6872216661999
 21
127.8184967703499
 31
0.0
1001
Sigma
1000

  0
LINE
  5
6D2
330
1F
100
AcDbEntity
  8
0
  6
Continuous
 62
     7
370
    30
100
AcDbLine
 10
-96.18722166621998
 20
145.81849677035
 30
0.0
 11
-96.18722166621998
 21
127.8184967703499
 31
0.0
1001
Sigma
1000

  0
LINE
  5
6D4
330
1F
100
AcDbEntity
  8
0
  6
Continuous
 62
     7
370
    30
100
AcDbLine
 10
-94.68722166621998
 20
145.81849677035
 30
0.0
 11
-94.68722166621998
 21
127.8184967703499
 31
0.0
1001
Sigma
1000

  0
LINE
  5
6D6
330
1F
100
AcDbEntity
  8
0
  6
Continuous
 62
     7
370
    30
100
AcDbLine
 10
-112.6872216661999
 20
127.8184967703499
 30
0.0
 11
-114.2872216662
 21
127.8184967703499
 31
0.0
1001
Sigma
1000

  0
LINE
  5
6D8
330
1F
100
AcDbEntity
  8
0
  6
Continuous
 62
     7
370
    30
100
AcDbLine
 10
-115.2872216662
 20
128.81849677035
 30
0.0
 11
-115.2872216662
 21
145.81849677035
 31
0.0
1001
Sigma
1000

  0
LINE
  5
6DA
330
1F
100
AcDbEntity
  8
0
  6
Continuous
 62
     7
370
    30
100
AcDbLine
 10
-93.18722166622
 20
145.81849677035
 30
0.0
 11
-93.18722166622
 21
127.8184967703499
 31
0.0
1001
Sigma
1000

  0
LINE
  5
6DC
330
1F
100
AcDbEntity
  8
0
  6
Continuous
 62
     7
370
    30
100
AcDbLine
 10
-88.28722166622
 20
128.31849677035
 30
0.0
 11
-88.78722166622
 21
127.8184967703499
 31
0.0
1001
Sigma
1000

  0
LINE
  5
6DE
330
1F
100
AcDbEntity
  8
0
  6
Continuous
 62
     7
370
    30
100
AcDbLine
 10
-91.68722166622
 20
145.81849677035
 30
0.0
 11
-91.68722166622
 21
127.8184967703499
 31
0.0
1001
Sigma
1000

  0
LINE
  5
6E0
330
1F
100
AcDbEntity
  8
0
  6
Continuous
 62
     7
370
    30
100
AcDbLine
 10
-112.6872216661999
 20
144.25849677035
 30
0.0
 11
-90.78722166622
 21
144.25849677035
 31
0.0
1001
Sigma
1000

  0
LINE
  5
6E2
330
1F
100
AcDbEntity
  8
0
  6
Continuous
 62
     7
370
    30
100
AcDbLine
 10
-114.2872216662
 20
127.8184967703499
 30
0.0
 11
-115.2872216662
 21
128.81849677035
 31
0.0
1001
Sigma
1000

  0
LINE
  5
6E4
330
1F
100
AcDbEntity
  8
0
  6
Continuous
 62
     7
370
    30
100
AcDbLine
 10
-73.78722166622
 20
128.31849677035
 30
0.0
 11
-73.78722166622
 21
145.81849677035
 31
0.0
1001
Sigma
1000

  0
LINE
  5
6E6
330
1F
100
AcDbEntity
  8
0
  6
Continuous
 62
     7
370
    30
100
AcDbLine
 10
-116.2872216662
 20
127.8184967703499
 30
0.0
 11
-121.7872216661999
 21
127.8184967703499
 31
0.0
1001
Sigma
1000

  0
LINE
  5
6E8
330
1F
100
AcDbEntity
  8
0
  6
Continuous
 62
     7
370
    30
100
AcDbLine
 10
-87.78722166622
 20
127.8184967703499
 30
0.0
 11
-87.78722166622
 21
145.81849677035
 31
0.0
1001
Sigma
1000

  0
LINE
  5
6EA
330
1F
100
AcDbEntity
  8
0
  6
Continuous
 62
     7
370
    30
100
AcDbLine
 10
-112.6872216661999
 20
142.69849677035
 30
0.0
 11
-90.78722166622
 21
142.69849677035
 31
0.0
1001
Sigma
1000

  0
LINE
  5
6EC
330
1F
100
AcDbEntity
  8
0
  6
Continuous
 62
     7
370
    30
100
AcDbLine
 10
-122.2872216662
 20
128.31849677035
 30
0.0
 11
-122.2872216662
 21
145.81849677035
 31
0.0
1001
Sigma
1000

  0
LINE
  5
6EE
330
1F
100
AcDbEntity
  8
0
  6
Continuous
 62
     7
370
    30
100
AcDbLine
 10
-122.7872216661999
 20
127.8184967703499
 30
0.0
 11
-131.7872216662
 21
127.8184967703499
 31
0.0
1001
Sigma
1000

  0
LINE
  5
6F0
330
1F
100
AcDbEntity
  8
0
  6
Continuous
 62
     7
370
    30
100
AcDbLine
 10
-88.78722166622
 20
127.8184967703499
 30
0.0
 11
-88.78722166622
 21
145.81849677035
 31
0.0
1001
Sigma
1000

  0
LINE
  5
6F2
330
1F
100
AcDbEntity
  8
0
  6
Continuous
 62
     7
370
    30
100
AcDbLine
 10
-112.6872216661999
 20
141.15849677035
 30
0.0
 11
-90.78722166622
 21
141.15849677035
 31
0.0
1001
Sigma
1000

  0
LINE
  5
6F4
330
1F
100
AcDbEntity
  8
0
  6
Continuous
 62
     7
370
    30
100
AcDbLine
 10
-132.2872216661999
 20
128.31849677035
 30
0.0
 11
-132.2872216661999
 21
145.81849677035
 31
0.0
1001
Sigma
1000

  0
LINE
  5
6F6
330
1F
100
AcDbEntity
  8
0
  6
Continuous
 62
     7
370
    30
100
AcDbLine
 10
-137.7872216662
 20
128.31849677035
 30
0.0
 11
-132.2872216661999
 21
128.31849677035
 31
0.0
1001
Sigma
1000

  0
LINE
  5
6F8
330
1F
100
AcDbEntity
  8
0
  6
Continuous
 62
     7
370
    30
100
AcDbLine
 10
-114.2872216662
 20
127.8184967703499
 30
0.0
 11
-114.2872216662
 21
145.81849677035
 31
0.0
1001
Sigma
1000

  0
LINE
  5
6FA
330
1F
100
AcDbEntity
  8
0
  6
Continuous
 62
     7
370
    30
100
AcDbLine
 10
-112.6872216661999
 20
139.66849677035
 30
0.0
 11
-90.78722166622
 21
139.66849677035
 31
0.0
1001
Sigma
1000

  0
LINE
  5
6FC
330
1F
100
AcDbEntity
  8
0
  6
Continuous
 62
     7
370
    30
100
AcDbLine
 10
-138.2872216662
 20
128.81849677035
 30
0.0
 11
-138.2872216662
 21
145.81849677035
 31
0.0
1001
Sigma
1000

  0
LINE
  5
6FE
330
1F
100
AcDbEntity
  8
0
  6
Continuous
 62
     7
370
    30
100
AcDbLine
 10
-140.2872216661999
 20
128.81849677035
 30
0.0
 11
-138.2872216662
 21
128.81849677035
 31
0.0
1001
Sigma
1000

  0
LINE
  5
700
330
1F
100
AcDbEntity
  8
0
  6
Continuous
 62
     7
370
    30
100
AcDbLine
 10
-112.6872216661999
 20
138.20849677035
 30
0.0
 11
-90.78722166622
 21
138.20849677035
 31
0.0
1001
Sigma
1000

  0
LINE
  5
702
330
1F
100
AcDbEntity
  8
0
  6
Continuous
 62
     7
370
    30
100
AcDbLine
 10
-112.6872216661999
 20
136.81849677035
 30
0.0
 11
-90.78722166622
 21
136.81849677035
 31
0.0
1001
Sigma
1000

  0
LINE
  5
704
330
1F
100
AcDbEntity
  8
0
  6
Continuous
 62
     7
370
    30
100
AcDbLine
 10
-141.2872216662
 20
129.81849677035
 30
0.0
 11
-141.2872216662
 21
145.81849677035
 31
0.0
1001
Sigma
1000

  0
LINE
  5
706
330
1F
100
AcDbEntity
  8
0
  6
Continuous
 62
     7
370
    30
100
AcDbLine
 10
-141.2872216662
 20
129.81849677035
 30
0.0
 11
-164.5872216662
 21
129.81849677035
 31
0.0
1001
Sigma
1000

  0
LINE
  5
708
330
1F
100
AcDbEntity
  8
0
  6
Continuous
 62
     7
370
    30
100
AcDbLine
 10
-164.8872216662
 20
130.1184967703499
 30
0.0
 11
-164.8872216662
 21
145.81849677035
 31
0.0
1001
Sigma
1000

  0
LINE
  5
70A
330
1F
100
AcDbEntity
  8
0
  6
Continuous
 62
     7
370
    30
100
AcDbLine
 10
-164.5872216662
 20
129.81849677035
 30
0.0
 11
-164.8872216662
 21
130.1184967703499
 31
0.0
1001
Sigma
1000

  0
LINE
  5
70C
330
1F
100
AcDbEntity
  8
0
  6
Continuous
 62
     7
370
    30
100
AcDbLine
 10
-112.6872216661999
 20
135.4984967703499
 30
0.0
 11
-90.78722166622
 21
135.4984967703499
 31
0.0
1001
Sigma
1000

  0
LINE
  5
70E
330
1F
100
AcDbEntity
  8
0
  6
Continuous
 62
     7
370
    30
100
AcDbLine
 10
-132.2872216661999
 20
128.31849677035
 30
0.0
 11
-131.7872216662
 21
127.8184967703499
 31
0.0
1001
Sigma
1000

  0
LINE
  5
710
330
1F
100
AcDbEntity
  8
0
  6
Continuous
 62
     7
370
    30
100
AcDbLine
 10
-138.2872216662
 20
128.81849677035
 30
0.0
 11
-137.7872216662
 21
128.31849677035
 31
0.0
1001
Sigma
1000

  0
LINE
  5
712
330
1F
100
AcDbEntity
  8
0
  6
Continuous
 62
     7
370
    30
100
AcDbLine
 10
-112.6872216661999
 20
134.24849677035
 30
0.0
 11
-90.78722166622
 21
134.24849677035
 31
0.0
1001
Sigma
1000

  0
LINE
  5
714
330
1F
100
AcDbEntity
  8
0
  6
Continuous
 62
     7
370
    30
100
AcDbLine
 10
-112.6872216661999
 20
133.09849677035
 30
0.0
 11
-90.78722166622
 21
133.09849677035
 31
0.0
1001
Sigma
1000

  0
LINE
  5
716
330
1F
100
AcDbEntity
  8
0
  6
Continuous
 62
     7
370
    30
100
AcDbLine
 10
-122.7872216661999
 20
127.8184967703499
 30
0.0
 11
-122.2872216662
 21
128.31849677035
 31
0.0
1001
Sigma
1000

  0
LINE
  5
718
330
1F
100
AcDbEntity
  8
0
  6
Continuous
 62
     7
370
    30
100
AcDbLine
 10
-112.6872216661999
 20
132.02849677035
 30
0.0
 11
-90.78722166622
 21
132.02849677035
 31
0.0
1001
Sigma
1000

  0
LINE
  5
71A
330
1F
100
AcDbEntity
  8
0
  6
Continuous
 62
     7
370
    30
100
AcDbLine
 10
-122.2872216662
 20
128.31849677035
 30
0.0
 11
-121.7872216661999
 21
127.8184967703499
 31
0.0
1001
Sigma
1000

  0
LINE
  5
71C
330
1F
100
AcDbEntity
  8
0
  6
Continuous
 62
     7
370
    30
100
AcDbLine
 10
-112.6872216661999
 20
131.1184967703499
 30
0.0
 11
-90.78722166622
 21
131.1184967703499
 31
0.0
1001
Sigma
1000

  0
LINE
  5
71E
330
1F
100
AcDbEntity
  8
0
  6
Continuous
 62
     7
370
    30
100
AcDbLine
 10
-112.6872216661999
 20
130.2184967703499
 30
0.0
 11
-90.78722166622
 21
130.2184967703499
 31
0.0
1001
Sigma
1000

  0
LINE
  5
720
330
1F
100
AcDbEntity
  8
0
  6
Continuous
 62
     7
370
    30
100
AcDbLine
 10
-115.2872216662
 20
128.81849677035
 30
0.0
 11
-116.2872216662
 21
127.8184967703499
 31
0.0
1001
Sigma
1000

  0
LINE
  5
722
330
1F
100
AcDbEntity
  8
0
  6
Continuous
 62
     7
370
    30
100
AcDbLine
 10
-141.2872216662
 20
129.81849677035
 30
0.0
 11
-140.2872216661999
 21
128.81849677035
 31
0.0
1001
Sigma
1000

  0
LINE
  5
724
330
1F
100
AcDbEntity
  8
0
  6
Continuous
 62
     7
370
    30
100
AcDbLine
 10
-112.6872216661999
 20
129.51849677035
 30
0.0
 11
-90.78722166622
 21
129.51849677035
 31
0.0
1001
Sigma
1000

  0
LINE
  5
726
330
1F
100
AcDbEntity
  8
0
  6
Continuous
 62
     7
370
    30
100
AcDbLine
 10
-116.2872216662
 20
127.8184967703499
 30
0.0
 11
-116.2872216662
 21
145.81849677035
 31
0.0
1001
Sigma
1000

  0
LINE
  5
728
330
1F
100
AcDbEntity
  8
0
  6
Continuous
 62
     7
370
    30
100
AcDbLine
 10
-121.7872216661999
 20
127.8184967703499
 30
0.0
 11
-121.7872216661999
 21
145.81849677035
 31
0.0
1001
Sigma
1000

  0
LINE
  5
72A
330
1F
100
AcDbEntity
  8
0
  6
Continuous
 62
     7
370
    30
100
AcDbLine
 10
-122.7872216661999
 20
127.8184967703499
 30
0.0
 11
-122.7872216661999
 21
145.81849677035
 31
0.0
1001
Sigma
1000

  0
LINE
  5
72C
330
1F
100
AcDbEntity
  8
0
  6
Continuous
 62
     7
370
    30
100
AcDbLine
 10
-131.7872216662
 20
127.8184967703499
 30
0.0
 11
-131.7872216662
 21
145.81849677035
 31
0.0
1001
Sigma
1000

  0
LINE
  5
72E
330
1F
100
AcDbEntity
  8
0
  6
Continuous
 62
     7
370
    30
100
AcDbLine
 10
-137.7872216662
 20
128.31849677035
 30
0.0
 11
-137.7872216662
 21
145.81849677035
 31
0.0
1001
Sigma
1000

  0
LINE
  5
730
330
1F
100
AcDbEntity
  8
0
  6
Continuous
 62
     7
370
    30
100
AcDbLine
 10
-140.2872216661999
 20
128.81849677035
 30
0.0
 11
-140.2872216661999
 21
145.81849677035
 31
0.0
1001
Sigma
1000

  0
LINE
  5
732
330
1F
100
AcDbEntity
  8
0
  6
Continuous
 62
     7
370
    30
100
AcDbLine
 10
-112.6872216661999
 20
128.91849677035
 30
0.0
 11
-90.78722166622
 21
128.91849677035
 31
0.0
1001
Sigma
1000

  0
LINE
  5
734
330
1F
100
AcDbEntity
  8
0
  6
Continuous
 62
     7
370
    30
100
AcDbLine
 10
-112.6872216661999
 20
128.4184967703499
 30
0.0
 11
-90.78722166622
 21
128.4184967703499
 31
0.0
1001
Sigma
1000

  0
LINE
  5
736
330
1F
100
AcDbEntity
  8
0
  6
Continuous
 62
     7
370
    30
100
AcDbLine
 10
-112.6872216661999
 20
128.1184967703499
 30
0.0
 11
-90.78722166622
 21
128.1184967703499
 31
0.0
1001
Sigma
1000

  0
LINE
  5
738
330
1F
100
AcDbEntity
  8
0
  6
Continuous
 62
     7
370
    30
100
AcDbLine
 10
-112.6872216661999
 20
127.91849677035
 30
0.0
 11
-90.78722166622
 21
127.91849677035
 31
0.0
1001
Sigma
1000

  0
LINE
  5
73A
330
1F
100
AcDbEntity
  8
0
  6
Continuous
 62
     7
370
    30
100
AcDbLine
 10
-112.6872216661999
 20
127.8184967703499
 30
0.0
 11
-90.78722166622
 21
127.8184967703499
 31
0.0
1001
Sigma
1000

  0
LINE
  5
73C
330
1F
100
AcDbEntity
  8
0
  6
Continuous
 62
     7
370
    30
100
AcDbLine
 10
-87.78722166622
 20
142.69849677035
 30
0.0
 11
-75.28722166622
 21
142.69849677035
 31
0.0
1001
Sigma
1000

  0
LINE
  5
73E
330
1F
100
AcDbEntity
  8
0
  6
Continuous
 62
     7
370
    30
100
AcDbLine
 10
-87.78722166622
 20
139.66849677035
 30
0.0
 11
-75.28722166622
 21
139.66849677035
 31
0.0
1001
Sigma
1000

  0
LINE
  5
740
330
1F
100
AcDbEntity
  8
0
  6
Continuous
 62
     7
370
    30
100
AcDbLine
 10
-87.78722166622
 20
136.81849677035
 30
0.0
 11
-75.28722166622
 21
136.81849677035
 31
0.0
1001
Sigma
1000

  0
LINE
  5
742
330
1F
100
AcDbEntity
  8
0
  6
Continuous
 62
     7
370
    30
100
AcDbLine
 10
-87.78722166622
 20
134.24849677035
 30
0.0
 11
-75.28722166622
 21
134.24849677035
 31
0.0
1001
Sigma
1000

  0
LINE
  5
744
330
1F
100
AcDbEntity
  8
0
  6
Continuous
 62
     7
370
    30
100
AcDbLine
 10
-87.78722166622
 20
132.02849677035
 30
0.0
 11
-75.28722166622
 21
132.02849677035
 31
0.0
1001
Sigma
1000

  0
LINE
  5
746
330
1F
100
AcDbEntity
  8
0
  6
Continuous
 62
     7
370
    30
100
AcDbLine
 10
-87.78722166622
 20
130.2184967703499
 30
0.0
 11
-75.28722166622
 21
130.2184967703499
 31
0.0
1001
Sigma
1000

  0
LINE
  5
748
330
1F
100
AcDbEntity
  8
0
  6
Continuous
 62
     7
370
    30
100
AcDbLine
 10
-87.78722166622
 20
128.91849677035
 30
0.0
 11
-75.28722166622
 21
128.91849677035
 31
0.0
1001
Sigma
1000

  0
LINE
  5
74A
330
1F
100
AcDbEntity
  8
0
  6
Continuous
 62
     7
370
    30
100
AcDbLine
 10
-87.78722166622
 20
128.1184967703499
 30
0.0
 11
-75.28722166622
 21
128.1184967703499
 31
0.0
1001
Sigma
1000

  0
LINE
  5
74C
330
1F
100
AcDbEntity
  8
0
  6
Continuous
 62
     7
370
    30
100
AcDbLine
 10
-87.78722166622
 20
128.1184967703499
 30
0.0
 11
-75.28722166622
 21
128.1184967703499
 31
0.0
1001
Sigma
1000

  0
LINE
  5
74E
330
1F
100
AcDbEntity
  8
0
  6
Continuous
 62
     7
370
    30
100
AcDbLine
 10
-131.7872216662
 20
144.25849677035
 30
0.0
 11
-122.7872216661999
 21
144.25849677035
 31
0.0
1001
Sigma
1000

  0
LINE
  5
750
330
1F
100
AcDbEntity
  8
0
  6
Continuous
 62
     7
370
    30
100
AcDbLine
 10
-131.7872216662
 20
142.69849677035
 30
0.0
 11
-122.7872216661999
 21
142.69849677035
 31
0.0
1001
Sigma
1000

  0
LINE
  5
752
330
1F
100
AcDbEntity
  8
0
  6
Continuous
 62
     7
370
    30
100
AcDbLine
 10
-131.7872216662
 20
141.15849677035
 30
0.0
 11
-122.7872216661999
 21
141.15849677035
 31
0.0
1001
Sigma
1000

  0
LINE
  5
754
330
1F
100
AcDbEntity
  8
0
  6
Continuous
 62
     7
370
    30
100
AcDbLine
 10
-131.7872216662
 20
139.66849677035
 30
0.0
 11
-122.7872216661999
 21
139.66849677035
 31
0.0
1001
Sigma
1000

  0
LINE
  5
756
330
1F
100
AcDbEntity
  8
0
  6
Continuous
 62
     7
370
    30
100
AcDbLine
 10
-131.7872216662
 20
138.20849677035
 30
0.0
 11
-122.7872216661999
 21
138.20849677035
 31
0.0
1001
Sigma
1000

  0
LINE
  5
758
330
1F
100
AcDbEntity
  8
0
  6
Continuous
 62
     7
370
    30
100
AcDbLine
 10
-131.7872216662
 20
136.81849677035
 30
0.0
 11
-122.7872216661999
 21
136.81849677035
 31
0.0
1001
Sigma
1000

  0
LINE
  5
75A
330
1F
100
AcDbEntity
  8
0
  6
Continuous
 62
     7
370
    30
100
AcDbLine
 10
-131.7872216662
 20
135.4984967703499
 30
0.0
 11
-122.7872216661999
 21
135.4984967703499
 31
0.0
1001
Sigma
1000

  0
LINE
  5
75C
330
1F
100
AcDbEntity
  8
0
  6
Continuous
 62
     7
370
    30
100
AcDbLine
 10
-131.7872216662
 20
134.24849677035
 30
0.0
 11
-122.7872216661999
 21
134.24849677035
 31
0.0
1001
Sigma
1000

  0
LINE
  5
75E
330
1F
100
AcDbEntity
  8
0
  6
Continuous
 62
     7
370
    30
100
AcDbLine
 10
-131.7872216662
 20
133.09849677035
 30
0.0
 11
-122.7872216661999
 21
133.09849677035
 31
0.0
1001
Sigma
1000

  0
LINE
  5
760
330
1F
100
AcDbEntity
  8
0
  6
Continuous
 62
     7
370
    30
100
AcDbLine
 10
-131.7872216662
 20
132.02849677035
 30
0.0
 11
-122.7872216661999
 21
132.02849677035
 31
0.0
1001
Sigma
1000

  0
LINE
  5
762
330
1F
100
AcDbEntity
  8
0
  6
Continuous
 62
     7
370
    30
100
AcDbLine
 10
-131.7872216662
 20
131.1184967703499
 30
0.0
 11
-122.7872216661999
 21
131.1184967703499
 31
0.0
1001
Sigma
1000

  0
LINE
  5
764
330
1F
100
AcDbEntity
  8
0
  6
Continuous
 62
     7
370
    30
100
AcDbLine
 10
-131.7872216662
 20
130.2184967703499
 30
0.0
 11
-122.7872216661999
 21
130.2184967703499
 31
0.0
1001
Sigma
1000

  0
LINE
  5
766
330
1F
100
AcDbEntity
  8
0
  6
Continuous
 62
     7
370
    30
100
AcDbLine
 10
-131.7872216662
 20
129.51849677035
 30
0.0
 11
-122.7872216661999
 21
129.51849677035
 31
0.0
1001
Sigma
1000

  0
LINE
  5
768
330
1F
100
AcDbEntity
  8
0
  6
Continuous
 62
     7
370
    30
100
AcDbLine
 10
-131.7872216662
 20
128.91849677035
 30
0.0
 11
-122.7872216661999
 21
128.91849677035
 31
0.0
1001
Sigma
1000

  0
LINE
  5
76A
330
1F
100
AcDbEntity
  8
0
  6
Continuous
 62
     7
370
    30
100
AcDbLine
 10
-131.7872216662
 20
128.4184967703499
 30
0.0
 11
-122.7872216661999
 21
128.4184967703499
 31
0.0
1001
Sigma
1000

  0
LINE
  5
76C
330
1F
100
AcDbEntity
  8
0
  6
Continuous
 62
     7
370
    30
100
AcDbLine
 10
-131.7872216662
 20
128.1184967703499
 30
0.0
 11
-122.7872216661999
 21
128.1184967703499
 31
0.0
1001
Sigma
1000

  0
LINE
  5
76E
330
1F
100
AcDbEntity
  8
0
  6
Continuous
 62
     7
370
    30
100
AcDbLine
 10
-131.7872216662
 20
127.91849677035
 30
0.0
 11
-122.7872216661999
 21
127.91849677035
 31
0.0
1001
Sigma
1000

  0
LINE
  5
770
330
1F
100
AcDbEntity
  8
0
  6
Continuous
 62
     7
370
    30
100
AcDbLine
 10
-164.5872216662
 20
129.81849677035
 30
0.0
 11
-164.5872216662
 21
145.81849677035
 31
0.0
1001
Sigma
1000

  0
LINE
  5
772
330
1F
100
AcDbEntity
  8
0
  6
Continuous
 62
     7
370
    30
100
AcDbLine
 10
-73.28722166622
 20
133.56849677035
 30
0.0
 11
-69.28722166622
 21
133.56849677035
 31
0.0
1001
Sigma
1000

  0
LINE
  5
774
330
1F
100
AcDbEntity
  8
0
  6
Continuous
 62
     7
370
    30
100
AcDbLine
 10
-69.28722166622
 20
133.56849677035
 30
0.0
 11
-69.54702928736
 21
133.1184967703499
 31
0.0
1001
Sigma
1000

  0
LINE
  5
776
330
1F
100
AcDbEntity
  8
0
  6
Continuous
 62
     7
370
    30
100
AcDbLine
 10
-69.28722166622
 20
145.81849677035
 30
0.0
 11
-69.28722166622
 21
158.06849677035
 31
0.0
1001
Sigma
1000

  0
LINE
  5
778
330
1F
100
AcDbEntity
  8
0
  6
Continuous
 62
     7
370
    30
100
AcDbLine
 10
-72.80120332191
 20
145.81849677035
 30
0.0
 11
-72.80120332191
 21
133.1184967703499
 31
0.0
1001
Sigma
1000

  0
LINE
  5
77A
330
1F
100
AcDbEntity
  8
0
  6
Continuous
 62
     7
370
    30
100
AcDbLine
 10
-69.54702928736
 20
133.1184967703499
 30
0.0
 11
-69.54702928736
 21
145.81849677035
 31
0.0
1001
Sigma
1000

  0
LINE
  5
77C
330
1F
100
AcDbEntity
  8
0
  6
Continuous
 62
     7
370
    30
100
AcDbLine
 10
-69.54702928736
 20
158.5184967703499
 30
0.0
 11
-72.80120332191
 21
158.5184967703499
 31
0.0
1001
Sigma
1000

  0
LINE
  5
77E
330
1F
100
AcDbEntity
  8
0
  6
Continuous
 62
     7
370
    30
100
AcDbLine
 10
-73.28722166622
 20
145.81849677035
 30
0.0
 11
-73.28722166622
 21
162.81849677035
 31
0.0
1001
Sigma
1000

  0
LINE
  5
780
330
1F
100
AcDbEntity
  8
0
  6
Continuous
 62
     7
370
    30
100
AcDbLine
 10
-75.28722166622
 20
163.81849677035
 30
0.0
 11
-75.28722166622
 21
145.81849677035
 31
0.0
1001
Sigma
1000

  0
LINE
  5
782
330
1F
100
AcDbEntity
  8
0
  6
Continuous
 62
     7
370
    30
100
AcDbLine
 10
-111.1872216662
 20
145.81849677035
 30
0.0
 11
-111.1872216662
 21
163.81849677035
 31
0.0
1001
Sigma
1000

  0
LINE
  5
784
330
1F
100
AcDbEntity
  8
0
  6
Continuous
 62
     7
370
    30
100
AcDbLine
 10
-73.78722166622
 20
163.31849677035
 30
0.0
 11
-74.78722166622
 21
163.31849677035
 31
0.0
1001
Sigma
1000

  0
LINE
  5
786
330
1F
100
AcDbEntity
  8
0
  6
Continuous
 62
     7
370
    30
100
AcDbLine
 10
-74.78722166622
 20
163.31849677035
 30
0.0
 11
-74.78722166622
 21
145.81849677035
 31
0.0
1001
Sigma
1000

  0
LINE
  5
788
330
1F
100
AcDbEntity
  8
0
  6
Continuous
 62
     7
370
    30
100
AcDbLine
 10
-109.6872216661999
 20
145.81849677035
 30
0.0
 11
-109.6872216661999
 21
163.81849677035
 31
0.0
1001
Sigma
1000

  0
LINE
  5
78A
330
1F
100
AcDbEntity
  8
0
  6
Continuous
 62
     7
370
    30
100
AcDbLine
 10
-73.28722166622
 20
162.81849677035
 30
0.0
 11
-73.78722166622
 21
163.31849677035
 31
0.0
1001
Sigma
1000

  0
LINE
  5
78C
330
1F
100
AcDbEntity
  8
0
  6
Continuous
 62
     7
370
    30
100
AcDbLine
 10
-108.1872216662
 20
145.81849677035
 30
0.0
 11
-108.1872216662
 21
163.81849677035
 31
0.0
1001
Sigma
1000

  0
LINE
  5
78E
330
1F
100
AcDbEntity
  8
0
  6
Continuous
 62
     7
370
    30
100
AcDbLine
 10
-106.6872216662
 20
145.81849677035
 30
0.0
 11
-106.6872216662
 21
163.81849677035
 31
0.0
1001
Sigma
1000

  0
LINE
  5
790
330
1F
100
AcDbEntity
  8
0
  6
Continuous
 62
     7
370
    30
100
AcDbLine
 10
-75.28722166622
 20
163.81849677035
 30
0.0
 11
-87.78722166622
 21
163.81849677035
 31
0.0
1001
Sigma
1000

  0
LINE
  5
792
330
1F
100
AcDbEntity
  8
0
  6
Continuous
 62
     7
370
    30
100
AcDbLine
 10
-88.28722166622
 20
163.31849677035
 30
0.0
 11
-88.28722166622
 21
145.81849677035
 31
0.0
1001
Sigma
1000

  0
LINE
  5
794
330
1F
100
AcDbEntity
  8
0
  6
Continuous
 62
     7
370
    30
100
AcDbLine
 10
-105.1872216662
 20
145.81849677035
 30
0.0
 11
-105.1872216662
 21
163.81849677035
 31
0.0
1001
Sigma
1000

  0
LINE
  5
796
330
1F
100
AcDbEntity
  8
0
  6
Continuous
 62
     7
370
    30
100
AcDbLine
 10
-103.6872216662
 20
145.81849677035
 30
0.0
 11
-103.6872216662
 21
163.81849677035
 31
0.0
1001
Sigma
1000

  0
LINE
  5
798
330
1F
100
AcDbEntity
  8
0
  6
Continuous
 62
     7
370
    30
100
AcDbLine
 10
-102.1872216662
 20
145.81849677035
 30
0.0
 11
-102.1872216662
 21
163.81849677035
 31
0.0
1001
Sigma
1000

  0
LINE
  5
79A
330
1F
100
AcDbEntity
  8
0
  6
Continuous
 62
     7
370
    30
100
AcDbLine
 10
-74.78722166622
 20
163.31849677035
 30
0.0
 11
-75.28722166622
 21
163.81849677035
 31
0.0
1001
Sigma
1000

  0
LINE
  5
79C
330
1F
100
AcDbEntity
  8
0
  6
Continuous
 62
     7
370
    30
100
AcDbLine
 10
-87.78722166622
 20
163.81849677035
 30
0.0
 11
-88.28722166622
 21
163.31849677035
 31
0.0
1001
Sigma
1000

  0
LINE
  5
79E
330
1F
100
AcDbEntity
  8
0
  6
Continuous
 62
     7
370
    30
100
AcDbLine
 10
-100.6872216662
 20
145.81849677035
 30
0.0
 11
-100.6872216662
 21
163.81849677035
 31
0.0
1001
Sigma
1000

  0
LINE
  5
7A0
330
1F
100
AcDbEntity
  8
0
  6
Continuous
 62
     7
370
    30
100
AcDbLine
 10
-88.78722166622
 20
163.81849677035
 30
0.0
 11
-90.78722166622
 21
163.81849677035
 31
0.0
1001
Sigma
1000

  0
LINE
  5
7A2
330
1F
100
AcDbEntity
  8
0
  6
Continuous
 62
     7
370
    30
100
AcDbLine
 10
-90.78722166622
 20
163.81849677035
 30
0.0
 11
-90.78722166622
 21
145.81849677035
 31
0.0
1001
Sigma
1000

  0
LINE
  5
7A4
330
1F
100
AcDbEntity
  8
0
  6
Continuous
 62
     7
370
    30
100
AcDbLine
 10
-99.18722166622
 20
145.81849677035
 30
0.0
 11
-99.18722166622
 21
163.81849677035
 31
0.0
1001
Sigma
1000

  0
LINE
  5
7A6
330
1F
100
AcDbEntity
  8
0
  6
Continuous
 62
     7
370
    30
100
AcDbLine
 10
-97.68722166622
 20
145.81849677035
 30
0.0
 11
-97.68722166622
 21
163.81849677035
 31
0.0
1001
Sigma
1000

  0
LINE
  5
7A8
330
1F
100
AcDbEntity
  8
0
  6
Continuous
 62
     7
370
    30
100
AcDbLine
 10
-112.6872216661999
 20
145.81849677035
 30
0.0
 11
-112.6872216661999
 21
163.81849677035
 31
0.0
1001
Sigma
1000

  0
LINE
  5
7AA
330
1F
100
AcDbEntity
  8
0
  6
Continuous
 62
     7
370
    30
100
AcDbLine
 10
-96.18722166621998
 20
145.81849677035
 30
0.0
 11
-96.18722166621998
 21
163.81849677035
 31
0.0
1001
Sigma
1000

  0
LINE
  5
7AC
330
1F
100
AcDbEntity
  8
0
  6
Continuous
 62
     7
370
    30
100
AcDbLine
 10
-94.68722166621998
 20
145.81849677035
 30
0.0
 11
-94.68722166621998
 21
163.81849677035
 31
0.0
1001
Sigma
1000

  0
LINE
  5
7AE
330
1F
100
AcDbEntity
  8
0
  6
Continuous
 62
     7
370
    30
100
AcDbLine
 10
-112.6872216661999
 20
163.81849677035
 30
0.0
 11
-114.2872216662
 21
163.81849677035
 31
0.0
1001
Sigma
1000

  0
LINE
  5
7B0
330
1F
100
AcDbEntity
  8
0
  6
Continuous
 62
     7
370
    30
100
AcDbLine
 10
-115.2872216662
 20
162.81849677035
 30
0.0
 11
-115.2872216662
 21
145.81849677035
 31
0.0
1001
Sigma
1000

  0
LINE
  5
7B2
330
1F
100
AcDbEntity
  8
0
  6
Continuous
 62
     7
370
    30
100
AcDbLine
 10
-93.18722166622
 20
145.81849677035
 30
0.0
 11
-93.18722166622
 21
163.81849677035
 31
0.0
1001
Sigma
1000

  0
LINE
  5
7B4
330
1F
100
AcDbEntity
  8
0
  6
Continuous
 62
     7
370
    30
100
AcDbLine
 10
-88.28722166622
 20
163.31849677035
 30
0.0
 11
-88.78722166622
 21
163.81849677035
 31
0.0
1001
Sigma
1000

  0
LINE
  5
7B6
330
1F
100
AcDbEntity
  8
0
  6
Continuous
 62
     7
370
    30
100
AcDbLine
 10
-91.68722166622
 20
145.81849677035
 30
0.0
 11
-91.68722166622
 21
163.81849677035
 31
0.0
1001
Sigma
1000

  0
LINE
  5
7B8
330
1F
100
AcDbEntity
  8
0
  6
Continuous
 62
     7
370
    30
100
AcDbLine
 10
-112.6872216661999
 20
147.37849677035
 30
0.0
 11
-90.78722166622
 21
147.37849677035
 31
0.0
1001
Sigma
1000

  0
LINE
  5
7BA
330
1F
100
AcDbEntity
  8
0
  6
Continuous
 62
     7
370
    30
100
AcDbLine
 10
-114.2872216662
 20
163.81849677035
 30
0.0
 11
-115.2872216662
 21
162.81849677035
 31
0.0
1001
Sigma
1000

  0
LINE
  5
7BC
330
1F
100
AcDbEntity
  8
0
  6
Continuous
 62
     7
370
    30
100
AcDbLine
 10
-73.78722166622
 20
163.31849677035
 30
0.0
 11
-73.78722166622
 21
145.81849677035
 31
0.0
1001
Sigma
1000

  0
LINE
  5
7BE
330
1F
100
AcDbEntity
  8
0
  6
Continuous
 62
     7
370
    30
100
AcDbLine
 10
-116.2872216662
 20
163.81849677035
 30
0.0
 11
-121.7872216661999
 21
163.81849677035
 31
0.0
1001
Sigma
1000

  0
LINE
  5
7C0
330
1F
100
AcDbEntity
  8
0
  6
Continuous
 62
     7
370
    30
100
AcDbLine
 10
-87.78722166622
 20
163.81849677035
 30
0.0
 11
-87.78722166622
 21
145.81849677035
 31
0.0
1001
Sigma
1000

  0
LINE
  5
7C2
330
1F
100
AcDbEntity
  8
0
  6
Continuous
 62
     7
370
    30
100
AcDbLine
 10
-112.6872216661999
 20
148.93849677035
 30
0.0
 11
-90.78722166622
 21
148.93849677035
 31
0.0
1001
Sigma
1000

  0
LINE
  5
7C4
330
1F
100
AcDbEntity
  8
0
  6
Continuous
 62
     7
370
    30
100
AcDbLine
 10
-122.2872216662
 20
163.31849677035
 30
0.0
 11
-122.2872216662
 21
145.81849677035
 31
0.0
1001
Sigma
1000

  0
LINE
  5
7C6
330
1F
100
AcDbEntity
  8
0
  6
Continuous
 62
     7
370
    30
100
AcDbLine
 10
-122.7872216661999
 20
163.81849677035
 30
0.0
 11
-131.7872216662
 21
163.81849677035
 31
0.0
1001
Sigma
1000

  0
LINE
  5
7C8
330
1F
100
AcDbEntity
  8
0
  6
Continuous
 62
     7
370
    30
100
AcDbLine
 10
-88.78722166622
 20
163.81849677035
 30
0.0
 11
-88.78722166622
 21
145.81849677035
 31
0.0
1001
Sigma
1000

  0
LINE
  5
7CA
330
1F
100
AcDbEntity
  8
0
  6
Continuous
 62
     7
370
    30
100
AcDbLine
 10
-112.6872216661999
 20
150.47849677035
 30
0.0
 11
-90.78722166622
 21
150.47849677035
 31
0.0
1001
Sigma
1000

  0
LINE
  5
7CC
330
1F
100
AcDbEntity
  8
0
  6
Continuous
 62
     7
370
    30
100
AcDbLine
 10
-132.2872216661999
 20
163.31849677035
 30
0.0
 11
-132.2872216661999
 21
145.81849677035
 31
0.0
1001
Sigma
1000

  0
LINE
  5
7CE
330
1F
100
AcDbEntity
  8
0
  6
Continuous
 62
     7
370
    30
100
AcDbLine
 10
-137.7872216662
 20
163.31849677035
 30
0.0
 11
-132.2872216661999
 21
163.31849677035
 31
0.0
1001
Sigma
1000

  0
LINE
  5
7D0
330
1F
100
AcDbEntity
  8
0
  6
Continuous
 62
     7
370
    30
100
AcDbLine
 10
-114.2872216662
 20
163.81849677035
 30
0.0
 11
-114.2872216662
 21
145.81849677035
 31
0.0
1001
Sigma
1000

  0
LINE
  5
7D2
330
1F
100
AcDbEntity
  8
0
  6
Continuous
 62
     7
370
    30
100
AcDbLine
 10
-112.6872216661999
 20
151.9684967703499
 30
0.0
 11
-90.78722166622
 21
151.9684967703499
 31
0.0
1001
Sigma
1000

  0
LINE
  5
7D4
330
1F
100
AcDbEntity
  8
0
  6
Continuous
 62
     7
370
    30
100
AcDbLine
 10
-138.2872216662
 20
162.81849677035
 30
0.0
 11
-138.2872216662
 21
145.81849677035
 31
0.0
1001
Sigma
1000

  0
LINE
  5
7D6
330
1F
100
AcDbEntity
  8
0
  6
Continuous
 62
     7
370
    30
100
AcDbLine
 10
-140.2872216661999
 20
162.81849677035
 30
0.0
 11
-138.2872216662
 21
162.81849677035
 31
0.0
1001
Sigma
1000

  0
LINE
  5
7D8
330
1F
100
AcDbEntity
  8
0
  6
Continuous
 62
     7
370
    30
100
AcDbLine
 10
-112.6872216661999
 20
153.4284967703499
 30
0.0
 11
-90.78722166622
 21
153.4284967703499
 31
0.0
1001
Sigma
1000

  0
LINE
  5
7DA
330
1F
100
AcDbEntity
  8
0
  6
Continuous
 62
     7
370
    30
100
AcDbLine
 10
-112.6872216661999
 20
154.81849677035
 30
0.0
 11
-90.78722166622
 21
154.81849677035
 31
0.0
1001
Sigma
1000

  0
LINE
  5
7DC
330
1F
100
AcDbEntity
  8
0
  6
Continuous
 62
     7
370
    30
100
AcDbLine
 10
-141.2872216662
 20
161.81849677035
 30
0.0
 11
-141.2872216662
 21
145.81849677035
 31
0.0
1001
Sigma
1000

  0
LINE
  5
7DE
330
1F
100
AcDbEntity
  8
0
  6
Continuous
 62
     7
370
    30
100
AcDbLine
 10
-141.2872216662
 20
161.81849677035
 30
0.0
 11
-164.5872216662
 21
161.81849677035
 31
0.0
1001
Sigma
1000

  0
LINE
  5
7E0
330
1F
100
AcDbEntity
  8
0
  6
Continuous
 62
     7
370
    30
100
AcDbLine
 10
-164.8872216662
 20
161.5184967703499
 30
0.0
 11
-164.8872216662
 21
145.81849677035
 31
0.0
1001
Sigma
1000

  0
LINE
  5
7E2
330
1F
100
AcDbEntity
  8
0
  6
Continuous
 62
     7
370
    30
100
AcDbLine
 10
-164.5872216662
 20
161.81849677035
 30
0.0
 11
-164.8872216662
 21
161.5184967703499
 31
0.0
1001
Sigma
1000

  0
LINE
  5
7E4
330
1F
100
AcDbEntity
  8
0
  6
Continuous
 62
     7
370
    30
100
AcDbLine
 10
-112.6872216661999
 20
156.13849677035
 30
0.0
 11
-90.78722166622
 21
156.13849677035
 31
0.0
1001
Sigma
1000

  0
LINE
  5
7E6
330
1F
100
AcDbEntity
  8
0
  6
Continuous
 62
     7
370
    30
100
AcDbLine
 10
-132.2872216661999
 20
163.31849677035
 30
0.0
 11
-131.7872216662
 21
163.81849677035
 31
0.0
1001
Sigma
1000

  0
LINE
  5
7E8
330
1F
100
AcDbEntity
  8
0
  6
Continuous
 62
     7
370
    30
100
AcDbLine
 10
-138.2872216662
 20
162.81849677035
 30
0.0
 11
-137.7872216662
 21
163.31849677035
 31
0.0
1001
Sigma
1000

  0
LINE
  5
7EA
330
1F
100
AcDbEntity
  8
0
  6
Continuous
 62
     7
370
    30
100
AcDbLine
 10
-112.6872216661999
 20
157.38849677035
 30
0.0
 11
-90.78722166622
 21
157.38849677035
 31
0.0
1001
Sigma
1000

  0
LINE
  5
7EC
330
1F
100
AcDbEntity
  8
0
  6
Continuous
 62
     7
370
    30
100
AcDbLine
 10
-112.6872216661999
 20
158.53849677035
 30
0.0
 11
-90.78722166622
 21
158.53849677035
 31
0.0
1001
Sigma
1000

  0
LINE
  5
7EE
330
1F
100
AcDbEntity
  8
0
  6
Continuous
 62
     7
370
    30
100
AcDbLine
 10
-122.7872216661999
 20
163.81849677035
 30
0.0
 11
-122.2872216662
 21
163.31849677035
 31
0.0
1001
Sigma
1000

  0
LINE
  5
7F0
330
1F
100
AcDbEntity
  8
0
  6
Continuous
 62
     7
370
    30
100
AcDbLine
 10
-112.6872216661999
 20
159.60849677035
 30
0.0
 11
-90.78722166622
 21
159.60849677035
 31
0.0
1001
Sigma
1000

  0
LINE
  5
7F2
330
1F
100
AcDbEntity
  8
0
  6
Continuous
 62
     7
370
    30
100
AcDbLine
 10
-122.2872216662
 20
163.31849677035
 30
0.0
 11
-121.7872216661999
 21
163.81849677035
 31
0.0
1001
Sigma
1000

  0
LINE
  5
7F4
330
1F
100
AcDbEntity
  8
0
  6
Continuous
 62
     7
370
    30
100
AcDbLine
 10
-112.6872216661999
 20
160.5184967703499
 30
0.0
 11
-90.78722166622
 21
160.5184967703499
 31
0.0
1001
Sigma
1000

  0
LINE
  5
7F6
330
1F
100
AcDbEntity
  8
0
  6
Continuous
 62
     7
370
    30
100
AcDbLine
 10
-112.6872216661999
 20
161.41849677035
 30
0.0
 11
-90.78722166622
 21
161.41849677035
 31
0.0
1001
Sigma
1000

  0
LINE
  5
7F8
330
1F
100
AcDbEntity
  8
0
  6
Continuous
 62
     7
370
    30
100
AcDbLine
 10
-115.2872216662
 20
162.81849677035
 30
0.0
 11
-116.2872216662
 21
163.81849677035
 31
0.0
1001
Sigma
1000

  0
LINE
  5
7FA
330
1F
100
AcDbEntity
  8
0
  6
Continuous
 62
     7
370
    30
100
AcDbLine
 10
-141.2872216662
 20
161.81849677035
 30
0.0
 11
-140.2872216661999
 21
162.81849677035
 31
0.0
1001
Sigma
1000

  0
LINE
  5
7FC
330
1F
100
AcDbEntity
  8
0
  6
Continuous
 62
     7
370
    30
100
AcDbLine
 10
-112.6872216661999
 20
162.1184967703499
 30
0.0
 11
-90.78722166622
 21
162.1184967703499
 31
0.0
1001
Sigma
1000

  0
LINE
  5
7FE
330
1F
100
AcDbEntity
  8
0
  6
Continuous
 62
     7
370
    30
100
AcDbLine
 10
-116.2872216662
 20
163.81849677035
 30
0.0
 11
-116.2872216662
 21
145.81849677035
 31
0.0
1001
Sigma
1000

  0
LINE
  5
800
330
1F
100
AcDbEntity
  8
0
  6
Continuous
 62
     7
370
    30
100
AcDbLine
 10
-121.7872216661999
 20
163.81849677035
 30
0.0
 11
-121.7872216661999
 21
145.81849677035
 31
0.0
1001
Sigma
1000

  0
LINE
  5
802
330
1F
100
AcDbEntity
  8
0
  6
Continuous
 62
     7
370
    30
100
AcDbLine
 10
-122.7872216661999
 20
163.81849677035
 30
0.0
 11
-122.7872216661999
 21
145.81849677035
 31
0.0
1001
Sigma
1000

  0
LINE
  5
804
330
1F
100
AcDbEntity
  8
0
  6
Continuous
 62
     7
370
    30
100
AcDbLine
 10
-131.7872216662
 20
163.81849677035
 30
0.0
 11
-131.7872216662
 21
145.81849677035
 31
0.0
1001
Sigma
1000

  0
LINE
  5
806
330
1F
100
AcDbEntity
  8
0
  6
Continuous
 62
     7
370
    30
100
AcDbLine
 10
-137.7872216662
 20
163.31849677035
 30
0.0
 11
-137.7872216662
 21
145.81849677035
 31
0.0
1001
Sigma
1000

  0
LINE
  5
808
330
1F
100
AcDbEntity
  8
0
  6
Continuous
 62
     7
370
    30
100
AcDbLine
 10
-140.2872216661999
 20
162.81849677035
 30
0.0
 11
-140.2872216661999
 21
145.81849677035
 31
0.0
1001
Sigma
1000

  0
LINE
  5
80A
330
1F
100
AcDbEntity
  8
0
  6
Continuous
 62
     7
370
    30
100
AcDbLine
 10
-112.6872216661999
 20
162.71849677035
 30
0.0
 11
-90.78722166622
 21
162.71849677035
 31
0.0
1001
Sigma
1000

  0
LINE
  5
80C
330
1F
100
AcDbEntity
  8
0
  6
Continuous
 62
     7
370
    30
100
AcDbLine
 10
-112.6872216661999
 20
163.2184967703499
 30
0.0
 11
-90.78722166622
 21
163.2184967703499
 31
0.0
1001
Sigma
1000

  0
LINE
  5
80E
330
1F
100
AcDbEntity
  8
0
  6
Continuous
 62
     7
370
    30
100
AcDbLine
 10
-112.6872216661999
 20
163.51849677035
 30
0.0
 11
-90.78722166622
 21
163.51849677035
 31
0.0
1001
Sigma
1000

  0
LINE
  5
810
330
1F
100
AcDbEntity
  8
0
  6
Continuous
 62
     7
370
    30
100
AcDbLine
 10
-112.6872216661999
 20
163.7184967703499
 30
0.0
 11
-90.78722166622
 21
163.7184967703499
 31
0.0
1001
Sigma
1000

  0
LINE
  5
812
330
1F
100
AcDbEntity
  8
0
  6
Continuous
 62
     7
370
    30
100
AcDbLine
 10
-112.6872216661999
 20
163.81849677035
 30
0.0
 11
-90.78722166622
 21
163.81849677035
 31
0.0
1001
Sigma
1000

  0
LINE
  5
814
330
1F
100
AcDbEntity
  8
0
  6
Continuous
 62
     7
370
    30
100
AcDbLine
 10
-87.78722166622
 20
148.93849677035
 30
0.0
 11
-75.28722166622
 21
148.93849677035
 31
0.0
1001
Sigma
1000

  0
LINE
  5
816
330
1F
100
AcDbEntity
  8
0
  6
Continuous
 62
     7
370
    30
100
AcDbLine
 10
-87.78722166622
 20
151.9684967703499
 30
0.0
 11
-75.28722166622
 21
151.9684967703499
 31
0.0
1001
Sigma
1000

  0
LINE
  5
818
330
1F
100
AcDbEntity
  8
0
  6
Continuous
 62
     7
370
    30
100
AcDbLine
 10
-87.78722166622
 20
154.81849677035
 30
0.0
 11
-75.28722166622
 21
154.81849677035
 31
0.0
1001
Sigma
1000

  0
LINE
  5
81A
330
1F
100
AcDbEntity
  8
0
  6
Continuous
 62
     7
370
    30
100
AcDbLine
 10
-87.78722166622
 20
157.38849677035
 30
0.0
 11
-75.28722166622
 21
157.38849677035
 31
0.0
1001
Sigma
1000

  0
LINE
  5
81C
330
1F
100
AcDbEntity
  8
0
  6
Continuous
 62
     7
370
    30
100
AcDbLine
 10
-87.78722166622
 20
159.60849677035
 30
0.0
 11
-75.28722166622
 21
159.60849677035
 31
0.0
1001
Sigma
1000

  0
LINE
  5
81E
330
1F
100
AcDbEntity
  8
0
  6
Continuous
 62
     7
370
    30
100
AcDbLine
 10
-87.78722166622
 20
161.41849677035
 30
0.0
 11
-75.28722166622
 21
161.41849677035
 31
0.0
1001
Sigma
1000

  0
LINE
  5
820
330
1F
100
AcDbEntity
  8
0
  6
Continuous
 62
     7
370
    30
100
AcDbLine
 10
-87.78722166622
 20
162.71849677035
 30
0.0
 11
-75.28722166622
 21
162.71849677035
 31
0.0
1001
Sigma
1000

  0
LINE
  5
822
330
1F
100
AcDbEntity
  8
0
  6
Continuous
 62
     7
370
    30
100
AcDbLine
 10
-87.78722166622
 20
163.51849677035
 30
0.0
 11
-75.28722166622
 21
163.51849677035
 31
0.0
1001
Sigma
1000

  0
LINE
  5
824
330
1F
100
AcDbEntity
  8
0
  6
Continuous
 62
     7
370
    30
100
AcDbLine
 10
-87.78722166622
 20
163.51849677035
 30
0.0
 11
-75.28722166622
 21
163.51849677035
 31
0.0
1001
Sigma
1000

  0
LINE
  5
826
330
1F
100
AcDbEntity
  8
0
  6
Continuous
 62
     7
370
    30
100
AcDbLine
 10
-131.7872216662
 20
147.37849677035
 30
0.0
 11
-122.7872216661999
 21
147.37849677035
 31
0.0
1001
Sigma
1000

  0
LINE
  5
828
330
1F
100
AcDbEntity
  8
0
  6
Continuous
 62
     7
370
    30
100
AcDbLine
 10
-131.7872216662
 20
148.93849677035
 30
0.0
 11
-122.7872216661999
 21
148.93849677035
 31
0.0
1001
Sigma
1000

  0
LINE
  5
82A
330
1F
100
AcDbEntity
  8
0
  6
Continuous
 62
     7
370
    30
100
AcDbLine
 10
-131.7872216662
 20
150.47849677035
 30
0.0
 11
-122.7872216661999
 21
150.47849677035
 31
0.0
1001
Sigma
1000

  0
LINE
  5
82C
330
1F
100
AcDbEntity
  8
0
  6
Continuous
 62
     7
370
    30
100
AcDbLine
 10
-131.7872216662
 20
151.9684967703499
 30
0.0
 11
-122.7872216661999
 21
151.9684967703499
 31
0.0
1001
Sigma
1000

  0
LINE
  5
82E
330
1F
100
AcDbEntity
  8
0
  6
Continuous
 62
     7
370
    30
100
AcDbLine
 10
-131.7872216662
 20
153.4284967703499
 30
0.0
 11
-122.7872216661999
 21
153.4284967703499
 31
0.0
1001
Sigma
1000

  0
LINE
  5
830
330
1F
100
AcDbEntity
  8
0
  6
Continuous
 62
     7
370
    30
100
AcDbLine
 10
-131.7872216662
 20
154.81849677035
 30
0.0
 11
-122.7872216661999
 21
154.81849677035
 31
0.0
1001
Sigma
1000

  0
LINE
  5
832
330
1F
100
AcDbEntity
  8
0
  6
Continuous
 62
     7
370
    30
100
AcDbLine
 10
-131.7872216662
 20
156.13849677035
 30
0.0
 11
-122.7872216661999
 21
156.13849677035
 31
0.0
1001
Sigma
1000

  0
LINE
  5
834
330
1F
100
AcDbEntity
  8
0
  6
Continuous
 62
     7
370
    30
100
AcDbLine
 10
-131.7872216662
 20
157.38849677035
 30
0.0
 11
-122.7872216661999
 21
157.38849677035
 31
0.0
1001
Sigma
1000

  0
LINE
  5
836
330
1F
100
AcDbEntity
  8
0
  6
Continuous
 62
     7
370
    30
100
AcDbLine
 10
-131.7872216662
 20
158.53849677035
 30
0.0
 11
-122.7872216661999
 21
158.53849677035
 31
0.0
1001
Sigma
1000

  0
LINE
  5
838
330
1F
100
AcDbEntity
  8
0
  6
Continuous
 62
     7
370
    30
100
AcDbLine
 10
-131.7872216662
 20
159.60849677035
 30
0.0
 11
-122.7872216661999
 21
159.60849677035
 31
0.0
1001
Sigma
1000

  0
LINE
  5
83A
330
1F
100
AcDbEntity
  8
0
  6
Continuous
 62
     7
370
    30
100
AcDbLine
 10
-131.7872216662
 20
160.5184967703499
 30
0.0
 11
-122.7872216661999
 21
160.5184967703499
 31
0.0
1001
Sigma
1000

  0
LINE
  5
83C
330
1F
100
AcDbEntity
  8
0
  6
Continuous
 62
     7
370
    30
100
AcDbLine
 10
-131.7872216662
 20
161.41849677035
 30
0.0
 11
-122.7872216661999
 21
161.41849677035
 31
0.0
1001
Sigma
1000

  0
LINE
  5
83E
330
1F
100
AcDbEntity
  8
0
  6
Continuous
 62
     7
370
    30
100
AcDbLine
 10
-131.7872216662
 20
162.1184967703499
 30
0.0
 11
-122.7872216661999
 21
162.1184967703499
 31
0.0
1001
Sigma
1000

  0
LINE
  5
840
330
1F
100
AcDbEntity
  8
0
  6
Continuous
 62
     7
370
    30
100
AcDbLine
 10
-131.7872216662
 20
162.71849677035
 30
0.0
 11
-122.7872216661999
 21
162.71849677035
 31
0.0
1001
Sigma
1000

  0
LINE
  5
842
330
1F
100
AcDbEntity
  8
0
  6
Continuous
 62
     7
370
    30
100
AcDbLine
 10
-131.7872216662
 20
163.2184967703499
 30
0.0
 11
-122.7872216661999
 21
163.2184967703499
 31
0.0
1001
Sigma
1000

  0
LINE
  5
844
330
1F
100
AcDbEntity
  8
0
  6
Continuous
 62
     7
370
    30
100
AcDbLine
 10
-131.7872216662
 20
163.51849677035
 30
0.0
 11
-122.7872216661999
 21
163.51849677035
 31
0.0
1001
Sigma
1000

  0
LINE
  5
846
330
1F
100
AcDbEntity
  8
0
  6
Continuous
 62
     7
370
    30
100
AcDbLine
 10
-131.7872216662
 20
163.7184967703499
 30
0.0
 11
-122.7872216661999
 21
163.7184967703499
 31
0.0
1001
Sigma
1000

  0
LINE
  5
848
330
1F
100
AcDbEntity
  8
0
  6
Continuous
 62
     7
370
    30
100
AcDbLine
 10
-164.5872216662
 20
161.81849677035
 30
0.0
 11
-164.5872216662
 21
145.81849677035
 31
0.0
1001
Sigma
1000

  0
LINE
  5
84A
330
1F
100
AcDbEntity
  8
0
  6
Continuous
 62
     7
370
    30
100
AcDbLine
 10
-73.28722166622
 20
158.06849677035
 30
0.0
 11
-69.28722166622
 21
158.06849677035
 31
0.0
1001
Sigma
1000

  0
LINE
  5
84C
330
1F
100
AcDbEntity
  8
0
  6
Continuous
 62
     7
370
    30
100
AcDbLine
 10
-69.28722166622
 20
158.06849677035
 30
0.0
 11
-69.54702928736
 21
158.5184967703499
 31
0.0
1001
Sigma
1000

  0
LINE
  5
84E
330
1F
100
AcDbEntity
  8
0
  6
Continuous
 62
     7
370
    30
100
AcDbLine
 10
-72.80120332191
 20
145.81849677035
 30
0.0
 11
-72.80120332191
 21
158.5184967703499
 31
0.0
1001
Sigma
1000

  0
LINE
  5
850
330
1F
100
AcDbEntity
  8
0
  6
Continuous
 62
     7
370
    30
100
AcDbLine
 10
-69.54702928736
 20
158.5184967703499
 30
0.0
 11
-69.54702928736
 21
145.81849677035
 31
0.0
1001
Sigma
1000

  0
LINE
  5
852
330
1F
100
AcDbEntity
  8
0
  6
Continuous
 62
     7
370
    30
100
AcDbLine
 10
-131.7872216662
 20
145.81849677035
 30
0.0
 11
-122.7872216661999
 21
145.81849677035
 31
0.0
1001
Sigma
1000

  0
LINE
  5
854
330
1F
100
AcDbEntity
  8
0
  6
Continuous
 62
     7
370
    30
100
AcDbLine
 10
-112.6872216661999
 20
145.81849677035
 30
0.0
 11
-90.78722166622
 21
145.81849677035
 31
0.0
1001
Sigma
1000

  0
LINE
  5
856
330
1F
100
AcDbEntity
  8
0
  6
Continuous
 62
     7
370
    30
100
AcDbLine
 10
-87.78722166622
 20
145.81849677035
 30
0.0
 11
-75.28722166622
 21
145.81849677035
 31
0.0
1001
Sigma
1000

  0
LINE
  5
858
330
1F
100
AcDbEntity
  8
0
  6
Continuous
 62
     7
370
    30
100
AcDbLine
 10
-247.2372819615999
 20
150.81849677035
 30
0.0
 11
-247.2372819615999
 21
140.81849677035
 31
0.0
1001
Sigma
1000

  0
LINE
  5
85A
330
1F
100
AcDbEntity
  8
0
  6
Continuous
 62
     7
370
    30
100
AcDbLine
 10
-247.2372819615999
 20
140.81849677035
 30
0.0
 11
-247.2372819615999
 21
150.81849677035
 31
0.0
1001
Sigma
1000

  0
LINE
  5
85C
330
1F
100
AcDbEntity
  8
0
  6
DASHED
 62
     7
370
    30
100
AcDbLine
 10
-160.8872216662
 20
145.81849677035
 30
0.0
 11
-160.8872216662
 21
161.06849677035
 31
0.0
1001
Sigma
1000

  0
LINE
  5
85E
330
1F
100
AcDbEntity
  8
0
  6
DASHED
 62
     7
370
    30
100
AcDbLine
 10
-160.8872216662
 20
161.06849677035
 30
0.0
 11
-164.8872216662
 21
161.06849677035
 31
0.0
1001
Sigma
1000

  0
LINE
  5
860
330
1F
100
AcDbEntity
  8
0
  6
Continuous
 62
     7
370
    30
100
AcDbLine
 10
-164.8872216662
 20
161.06849677035
 30
0.0
 11
-164.8872216662
 21
145.81849677035
 31
0.0
1001
Sigma
1000

  0
DIMENSION
  5
862
330
1F
100
AcDbEntity
  8
KCAD_DIMS
 62
     7
100
AcDbDimension
  2
*D49
 10
-164.8872216662
 20
182.83720337841
 30
0.0
 11
-119.0872216662
 21
185.50386937841
 31
0.0
 70
    32
 71
     5
 42
-1.0
  3
Standard
100
AcDbAlignedDimension
 13
-73.28722166622
 23
162.81849677035
 33
0.0
 14
-164.8872216662
 24
153.20408954963
 34
0.0
100
AcDbRotatedDimension
1001
Sigma
1000
DIM_TPHO
1001
KCAD_DIM_EXT
1002
{
1071
 20001212
1070
     0
1070
     2
1070
     2
1040
2.5
1040
0.0
1040
0.0
1040
0.0
1040
0.0
1040
0.0
1040
0.0
1040
0.0
1070
     0
1040
50.0
1040
-1.0
1013
1.0
1023
0.0
1033
0.0
1040
0.0
1013
1.0
1023
0.0
1033
0.0
1000
_None
1040
1.0
1040
91.6
1070
     0
1070
     0
1070
     0
1012
1.0
1022
0.0
1032
0.0
1013
1.0
1023
0.0
1033
0.0
1002
}
1001
ACAD
1000
DSTYLE
1002
{
1070
    41
1040
2.5
1070
    42
1040
2.0
1070
    43
1040
8.0
1070
    44
1040
2.0
1070
    45
1040
0.0
1070
    73
1070
     0
1070
    74
1070
     0
1070
    77
1070
     1
1070
    78
1070
     8
1070
    79
1070
     2
1070
   140
1040
3.2
1070
   141
1040
2.5
1070
   145
1040
0.0001
1070
   146
1040
0.667
1070
   147
1040
0.5333000000000001
1070
   172
1070
     1
1070
   173
1070
     1
1070
   179
1070
     3
1070
   271
1070
     3
1070
   272
1070
     3
1070
   279
1070
     2
1070
   284
1070
     8
1070
   289
1070
     2
1070
   340
1005
189
1070
   341
1005
21
1070
   343
1005
12D
1070
   344
1005
12D
1002
}
  0
DIMENSION
  5
89E
330
1F
100
AcDbEntity
  8
KCAD_DIMS
 62
     7
100
AcDbDimension
  2
*D50
 10
-73.28722166622
 20
171.18151193909
 30
0.0
 11
-94.28722166622
 21
173.8481779390899
 31
0.0
 70
    32
 71
     5
 42
-1.0
  3
Standard
100
AcDbAlignedDimension
 13
-115.2872216662
 23
162.81849677035
 33
0.0
 14
-73.28722166622
 24
154.19186001058
 34
0.0
100
AcDbRotatedDimension
1001
Sigma
1000
DIM_TPHO
1001
KCAD_DIM_EXT
1002
{
1071
 20001212
1070
     0
1070
     2
1070
     2
1040
2.5
1040
0.0
1040
0.0
1040
0.0
1040
0.0
1040
0.0
1040
0.0
1040
0.0
1070
     0
1040
50.0
1040
-1.0
1013
1.0
1023
0.0
1033
0.0
1040
0.0
1013
1.0
1023
0.0
1033
0.0
1000
_None
1040
1.0
1040
42.0
1070
     0
1070
     0
1070
     0
1012
1.0
1022
0.0
1032
0.0
1013
1.0
1023
0.0
1033
0.0
1002
}
1001
ACAD
1000
DSTYLE
1002
{
1070
    41
1040
2.5
1070
    42
1040
2.0
1070
    43
1040
8.0
1070
    44
1040
2.0
1070
    45
1040
0.0
1070
    73
1070
     0
1070
    74
1070
     0
1070
    77
1070
     1
1070
    78
1070
     8
1070
    79
1070
     2
1070
   140
1040
3.2
1070
   141
1040
2.5
1070
   145
1040
0.0001
1070
   146
1040
0.667
1070
   147
1040
0.5333000000000001
1070
   172
1070
     1
1070
   173
1070
     1
1070
   179
1070
     3
1070
   271
1070
     3
1070
   272
1070
     3
1070
   279
1070
     2
1070
   284
1070
     8
1070
   289
1070
     2
1070
   340
1005
189
1070
   341
1005
21
1070
   343
1005
12D
1070
   344
1005
12D
1002
}
  0
LINE
  5
8DB
102
{ACAD_REACTORS
330
8DA
102
}
330
1F
100
AcDbEntity
  8
1
  6
Continuous
 62
     7
370
    15
100
AcDbLine
 10
-52.08820899626999
 20
176.60609300111
 30
0.0
 11
-20.13207070841
 21
176.60609300111
 31
0.0
1001
Sigma
1000

  0
TEXT
  5
8DD
102
{ACAD_REACTORS
330
8DA
102
}
330
1F
100
AcDbEntity
  8
1
  6
Continuous
 62
     7
370
    15
100
AcDbText
 10
-49.83831118731
 20
177.43942300111
 30
0.0
 40
5.4
  1
Ｃマウント
 41
0.95
  7
KCADTEXTSTANDARD
100
AcDbText
1001
Sigma
1000

  0
LINE
  5
8E0
102
{ACAD_REACTORS
330
8DA
330
8DF
102
}
330
1F
100
AcDbEntity
  8
1
  6
Continuous
 62
     7
370
    15
100
AcDbLine
 10
-70.13021749408
 20
158.37270262535
 30
0.0
 11
-52.08820899626999
 21
176.60609300111
 31
0.0
1001
Sigma
1000

  0
INSERT
  5
8E2
102
{ACAD_REACTORS
330
8DA
330
8DF
102
}
330
1F
100
AcDbEntity
  8
1
  6
Continuous
 62
     7
370
    15
100
AcDbBlockReference
  2
_OPEN30
 10
-70.13021749408
 20
158.37270262535
 30
0.0
 41
3.0
 42
3.0
 43
3.0
 50
225.3022784721023
1001
Sigma
1000
_BRRS
  0
LINE
  5
8E4
330
1F
100
AcDbEntity
  8
1
  6
CENTER
 62
     7
370
    15
100
AcDbLine
 10
-55.76122166622
 20
142.86709467672
 30
0.0
 11
-55.76122166622
 21
148.5961633502799
 31
0.0
1001
Sigma
1000

  0
DIMENSION
  5
8E6
330
1F
100
AcDbEntity
  8
KCAD_DIMS
 62
     7
100
AcDbDimension
  2
*D51
 10
-55.76122166622
 20
109.8509716176399
 30
0.0
 11
-45.35806867357
 21
111.9843046176399
 31
0.0
 70
    32
 71
     5
 42
-1.0
  3
Standard
100
AcDbAlignedDimension
 13
-73.28722166622
 23
102.76384481597
 33
0.0
 14
-55.76122166622
 24
85.763844815962
 34
0.0
100
AcDbRotatedDimension
1001
Sigma
1000
DIM_TPHO
1001
KCAD_DIM_EXT
1002
{
1071
 20001212
1070
     0
1070
     1
1070
     1
1040
2.5
1040
5.0
1040
16.74916542334599
1040
0.0
1040
0.0
1040
0.0
1040
0.0
1040
0.0
1070
     0
1040
50.0
1040
-1.0
1013
1.0
1023
0.0
1033
0.0
1040
0.0
1013
1.0
1023
0.0
1033
0.0
1000
_None
1040
1.0
1040
17.526
1070
     0
1070
     0
1070
     0
1012
1.0
1022
0.0
1032
0.0
1013
1.0
1023
0.0
1033
0.0
1002
}
1001
ACAD
1000
DSTYLE
1002
{
1070
     3
1000
FB <>
1070
    41
1040
2.5
1070
    42
1040
0.0
1070
    43
1040
8.0
1070
    44
1040
0.0
1070
    45
1040
0.0
1070
    73
1070
     0
1070
    74
1070
     0
1070
    77
1070
     1
1070
    78
1070
     8
1070
    79
1070
     2
1070
   140
1040
3.2
1070
   141
1040
2.5
1070
   145
1040
0.0001
1070
   146
1040
0.667
1070
   147
1040
0.5333000000000001
1070
   172
1070
     1
1070
   173
1070
     1
1070
   179
1070
     3
1070
   271
1070
     3
1070
   272
1070
     3
1070
   279
1070
     2
1070
   284
1070
     8
1070
   289
1070
     2
1070
   340
1005
189
1070
   341
1005
21
1070
   343
1005
12D
1070
   344
1005
12D
1002
}
  0
DIMENSION
  5
924
330
1F
100
AcDbEntity
  8
KCAD_DIMS
 62
     7
100
AcDbDimension
  2
*D52
 10
-189.8872216662
 20
117.65677889732
 30
0.0
 11
-218.5622518139
 21
119.7901118973199
 31
0.0
 70
    32
  1
\A1;WD 67
 71
     5
 42
-1.0
  3
Standard
100
AcDbAlignedDimension
 13
-247.2372819615999
 23
85.763844815962
 33
0.0
 14
-189.8872216662
 24
85.763844815972
 34
0.0
100
AcDbRotatedDimension
1001
Sigma
1000
DIM_TPHO
1001
KCAD_DIM_EXT
1002
{
1071
 20001212
1070
     0
1070
     2
1070
     2
1040
2.5
1040
0.0
1040
0.0
1040
0.0
1040
0.0
1040
0.0
1040
0.0
1040
0.0
1070
     0
1040
50.0
1040
-1.0
1013
1.0
1023
0.0
1033
0.0
1040
0.0
1013
1.0
1023
0.0
1033
0.0
1000
_None
1040
1.0
1040
57.35006029535099
1070
     1
1070
     0
1070
     0
1012
1.0
1022
0.0
1032
0.0
1013
1.0
1023
0.0
1033
0.0
1002
}
1001
ACAD
1000
DSTYLE
1002
{
1070
    41
1040
2.5
1070
    42
1040
0.0
1070
    43
1040
8.0
1070
    44
1040
0.0
1070
    45
1040
0.0
1070
    73
1070
     0
1070
    74
1070
     0
1070
    77
1070
     1
1070
    78
1070
     8
1070
    79
1070
     2
1070
   140
1040
3.2
1070
   141
1040
2.5
1070
   145
1040
0.0001
1070
   146
1040
0.667
1070
   147
1040
0.5333000000000001
1070
   172
1070
     1
1070
   173
1070
     1
1070
   179
1070
     3
1070
   271
1070
     3
1070
   272
1070
     3
1070
   279
1070
     2
1070
   284
1070
     8
1070
   289
1070
     2
1070
   340
1005
189
1070
   341
1005
21
1070
   343
1005
12D
1070
   344
1005
12D
1002
}
  0
TEXT
  5
960
330
1F
100
AcDbEntity
  8
1
  6
Continuous
 62
     7
370
    30
100
AcDbText
 10
-270.3903520246027
 20
143.8875676044767
 30
0.0
 40
4.320000171661376
  1
０．５Ｘ
 41
0.95
  7
KCADTEXTSTANDARD
100
AcDbText
1001
Sigma
1000

  0
DIMENSION
  5
962
330
1F
100
AcDbEntity
  8
KCAD_DIMS
 62
     7
100
AcDbDimension
  2
*D53
 10
-164.8872216662
 20
182.83720337841
 30
0.0
 11
-206.0622518139
 21
184.97053637841
 31
0.0
 70
    32
  1
\A1;WD 117
 71
     5
 42
-1.0
  3
Standard
100
AcDbAlignedDimension
 13
-247.2372819615999
 23
145.81849677035
 33
0.0
 14
-164.8872216662
 24
145.81849677035
 34
0.0
100
AcDbRotatedDimension
1001
Sigma
1000
DIM_TPHO
1001
KCAD_DIM_EXT
1002
{
1071
 20001212
1070
     0
1070
     2
1070
     2
1040
2.5
1040
0.0
1040
0.0
1040
0.0
1040
0.0
1040
0.0
1040
0.0
1040
0.0
1070
     0
1040
50.0
1040
-1.0
1013
1.0
1023
0.0
1033
0.0
1040
0.0
1013
1.0
1023
0.0
1033
0.0
1000
_None
1040
1.0
1040
82.35006029535099
1070
     1
1070
     0
1070
     0
1012
1.0
1022
0.0
1032
0.0
1013
1.0
1023
0.0
1033
0.0
1002
}
1001
ACAD
1000
DSTYLE
1002
{
1070
    41
1040
2.5
1070
    42
1040
0.0
1070
    43
1040
8.0
1070
    44
1040
0.0
1070
    45
1040
0.0
1070
    73
1070
     0
1070
    74
1070
     0
1070
    77
1070
     1
1070
    78
1070
     8
1070
    79
1070
     2
1070
   140
1040
3.2
1070
   141
1040
2.5
1070
   145
1040
0.0001
1070
   146
1040
0.667
1070
   147
1040
0.5333000000000001
1070
   172
1070
     1
1070
   173
1070
     1
1070
   179
1070
     3
1070
   271
1070
     3
1070
   272
1070
     3
1070
   279
1070
     2
1070
   284
1070
     8
1070
   289
1070
     2
1070
   340
1005
189
1070
   341
1005
21
1070
   343
1005
12D
1070
   344
1005
12D
1002
}
  0
ARC
  5
99E
330
1F
100
AcDbEntity
  8
2
  6
Continuous
 62
     7
370
    30
100
AcDbCircle
 10
-200.4042388969
 20
146.342831255
 30
0.0
 40
7.3068321982416
100
AcDbArc
 50
127.80347569507
 51
193.9856308941079
1001
Sigma
1000

  0
ARC
  5
9A0
330
1F
100
AcDbEntity
  8
2
  6
Continuous
 62
     7
370
    30
100
AcDbCircle
 10
-214.7190205594999
 20
145.0845016844899
 30
0.0
 40
7.2989146208696
100
AcDbArc
 50
316.3916927633199
 51
353.1685131806501
1001
Sigma
1000

  0
ARC
  5
9A2
330
1F
100
AcDbEntity
  8
2
  6
Continuous
 62
     7
370
    30
100
AcDbCircle
 10
-208.4648264094
 20
144.33524810032
 30
0.0
 40
1.0
100
AcDbArc
 50
353.1685131806501
 51
13.985630894115
1001
Sigma
1000

  0
ARC
  5
9A4
330
1F
100
AcDbEntity
  8
2
  6
Continuous
 62
     7
370
    30
100
AcDbCircle
 10
-196.9042388969
 20
146.342831255
 30
0.0
 40
7.3068321982416
100
AcDbArc
 50
127.80347569507
 51
193.9856308941079
1001
Sigma
1000

  0
ARC
  5
9A6
330
1F
100
AcDbEntity
  8
2
  6
Continuous
 62
     7
370
    30
100
AcDbCircle
 10
-211.2190205595
 20
145.0845016844899
 30
0.0
 40
7.2989146208696
100
AcDbArc
 50
316.14209726972
 51
353.1685131806501
1001
Sigma
1000

  0
ARC
  5
9A8
330
1F
100
AcDbEntity
  8
2
  6
Continuous
 62
     7
370
    30
100
AcDbCircle
 10
-204.9648264093999
 20
144.33524810032
 30
0.0
 40
1.0
100
AcDbArc
 50
353.1685131806501
 51
13.985630894115
1001
Sigma
1000

  0
LINE
  5
9AA
330
1F
100
AcDbEntity
  8
0
  6
CENTER
 62
     7
370
    15
100
AcDbLine
 10
-247.2372819615999
 20
145.81849677035
 30
0.0
 11
-207.6922338284
 21
145.81849677035
 31
0.0
1001
Sigma
1000

  0
ARC
  5
9AC
330
1F
100
AcDbEntity
  8
2
  6
Continuous
 62
     7
370
    30
100
AcDbCircle
 10
-200.4042388969
 20
146.342831255
 30
0.0
 40
7.3068321982416
100
AcDbArc
 50
127.80347569507
 51
193.9856308941079
1001
Sigma
1000

  0
LINE
  5
9AE
330
1F
100
AcDbEntity
  8
0
  6
CENTER
 62
     7
370
    15
100
AcDbLine
 10
-247.2372819615999
 20
145.81849677035
 30
0.0
 11
-207.6922338284
 21
145.81849677035
 31
0.0
1001
Sigma
1000

  0
LINE
  5
9B0
330
1F
100
AcDbEntity
  8
0
  6
CENTER
 62
     7
370
    15
100
AcDbLine
 10
-247.2372819615999
 20
85.763844815962
 30
0.0
 11
-234.1210037629
 21
85.763844815962
 31
0.0
1001
Sigma
1000

  0
ARC
  5
9B2
330
1F
100
AcDbEntity
  8
2
  6
Continuous
 62
     7
370
    30
100
AcDbCircle
 10
-226.8330088314
 20
86.288179300606
 30
0.0
 40
7.3068321982416
100
AcDbArc
 50
127.80347569507
 51
193.9856308941079
1001
Sigma
1000

  0
ARC
  5
9B4
330
1F
100
AcDbEntity
  8
2
  6
Continuous
 62
     7
370
    30
100
AcDbCircle
 10
-241.1477904941
 20
85.029849730094
 30
0.0
 40
7.2989146208696
100
AcDbArc
 50
316.39169276331
 51
353.168513180643
1001
Sigma
1000

  0
ARC
  5
9B6
330
1F
100
AcDbEntity
  8
2
  6
Continuous
 62
     7
370
    30
100
AcDbCircle
 10
-223.3330088314
 20
86.288179300606
 30
0.0
 40
7.3068321982416
100
AcDbArc
 50
127.80347569507
 51
193.9856308941079
1001
Sigma
1000

  0
ARC
  5
9B8
330
1F
100
AcDbEntity
  8
2
  6
Continuous
 62
     7
370
    30
100
AcDbCircle
 10
-234.8935963439
 20
84.280596145925
 30
0.0
 40
1.0
100
AcDbArc
 50
353.1685131806501
 51
13.985630894115
1001
Sigma
1000

  0
ARC
  5
9BA
330
1F
100
AcDbEntity
  8
2
  6
Continuous
 62
     7
370
    30
100
AcDbCircle
 10
-237.6477904941
 20
85.029849730094
 30
0.0
 40
7.2989146208696
100
AcDbArc
 50
316.14209726972
 51
353.168513180645
1001
Sigma
1000

  0
ARC
  5
9BC
330
1F
100
AcDbEntity
  8
2
  6
Continuous
 62
     7
370
    30
100
AcDbCircle
 10
-231.3935963438999
 20
84.280596145925
 30
0.0
 40
1.0
100
AcDbArc
 50
353.1685131806501
 51
13.985630894115
1001
Sigma
1000

  0
ARC
  5
9BE
330
1F
100
AcDbEntity
  8
2
  6
Continuous
 62
     7
370
    30
100
AcDbCircle
 10
-226.8330088314
 20
86.288179300606
 30
0.0
 40
7.3068321982416
100
AcDbArc
 50
127.80347569507
 51
193.9856308941079
1001
Sigma
1000

  0
LINE
  5
9C0
330
1F
100
AcDbEntity
  8
0
  6
CENTER
 62
     7
370
    15
100
AcDbLine
 10
-230.6210037629
 20
85.763844815962
 30
0.0
 11
-215.3657121354999
 21
85.763844815962
 31
0.0
1001
Sigma
1000

  0
DIMENSION
  5
9C2
330
1F
100
AcDbEntity
  8
KCAD_DIMS
 62
     7
100
AcDbDimension
  2
*D54
 10
-73.28722166622
 20
166.0872283979299
 30
0.0
 11
-80.78722166622
 21
168.22056139793
 31
0.0
 70
    32
 71
     5
 42
-1.0
  3
Standard
100
AcDbAlignedDimension
 13
-88.28722166622
 23
163.31849677035
 33
0.0
 14
-73.28722166622
 24
162.81849677035
 34
0.0
100
AcDbRotatedDimension
1001
Sigma
1000
DIM_TPHO
1001
KCAD_DIM_EXT
1002
{
1071
 20001212
1070
     0
1070
     2
1070
     2
1040
2.5
1040
0.0
1040
0.0
1040
0.0
1040
0.0
1040
0.0
1040
0.0
1040
0.0
1070
     0
1040
50.0
1040
-1.0
1013
1.0
1023
0.0
1033
0.0
1040
0.0
1013
1.0
1023
0.0
1033
0.0
1000
_None
1040
1.0
1040
15.0
1070
     0
1070
     0
1070
     0
1012
1.0
1022
0.0
1032
0.0
1013
1.0
1023
0.0
1033
0.0
1002
}
1001
ACAD
1000
DSTYLE
1002
{
1070
    41
1040
2.5
1070
    42
1040
0.0
1070
    43
1040
8.0
1070
    44
1040
0.0
1070
    45
1040
0.0
1070
    73
1070
     0
1070
    74
1070
     0
1070
    77
1070
     1
1070
    78
1070
     8
1070
    79
1070
     2
1070
   140
1040
3.2
1070
   141
1040
2.5
1070
   145
1040
0.0001
1070
   146
1040
0.667
1070
   147
1040
0.5333000000000001
1070
   172
1070
     1
1070
   173
1070
     1
1070
   179
1070
     3
1070
   271
1070
     3
1070
   272
1070
     3
1070
   279
1070
     2
1070
   284
1070
     8
1070
   289
1070
     2
1070
   340
1005
189
1070
   341
1005
21
1070
   343
1005
12D
1070
   344
1005
12D
1002
}
  0
DIMENSION
  5
9FE
330
1F
100
AcDbEntity
  8
KCAD_DIMS
 62
     7
100
AcDbDimension
  2
*D55
 10
-88.28722166622
 20
166.0872283979299
 30
0.0
 11
-101.7872216662
 21
168.22056139793
 31
0.0
 70
    32
 71
     5
 42
-1.0
  3
Standard
100
AcDbAlignedDimension
 13
-115.2872216662
 23
162.81849677035
 33
0.0
 14
-88.28722166622
 24
163.31849677035
 34
0.0
100
AcDbRotatedDimension
1001
Sigma
1000
DIM_TPHO
1001
KCAD_DIM_EXT
1002
{
1071
 20001212
1070
     0
1070
     2
1070
     2
1040
2.5
1040
0.0
1040
0.0
1040
0.0
1040
0.0
1040
0.0
1040
0.0
1040
0.0
1070
     0
1040
50.0
1040
-1.0
1013
1.0
1023
0.0
1033
0.0
1040
0.0
1013
1.0
1023
0.0
1033
0.0
1000
_None
1040
1.0
1040
27.0
1070
     0
1070
     0
1070
     0
1012
1.0
1022
0.0
1032
0.0
1013
1.0
1023
0.0
1033
0.0
1002
}
1001
ACAD
1000
DSTYLE
1002
{
1070
    41
1040
2.5
1070
    42
1040
0.0
1070
    43
1040
8.0
1070
    44
1040
0.0
1070
    45
1040
0.0
1070
    73
1070
     0
1070
    74
1070
     0
1070
    77
1070
     1
1070
    78
1070
     8
1070
    79
1070
     2
1070
   140
1040
3.2
1070
   141
1040
2.5
1070
   145
1040
0.0001
1070
   146
1040
0.667
1070
   147
1040
0.5333000000000001
1070
   172
1070
     1
1070
   173
1070
     1
1070
   179
1070
     3
1070
   271
1070
     3
1070
   272
1070
     3
1070
   279
1070
     2
1070
   284
1070
     8
1070
   289
1070
     2
1070
   340
1005
189
1070
   341
1005
21
1070
   343
1005
12D
1070
   344
1005
12D
1002
}
  0
DIMENSION
  5
A3A
330
1F
100
AcDbEntity
  8
KCAD_DIMS
 62
     7
100
AcDbDimension
  2
*D56
 10
-122.2872216662
 20
166.0872283979299
 30
0.0
 11
-118.7872216661999
 21
168.22056139793
 31
0.0
 70
    32
 71
     5
 42
-1.0
  3
Standard
100
AcDbAlignedDimension
 13
-115.2872216662
 23
162.81849677035
 33
0.0
 14
-122.2872216662
 24
163.31849677035
 34
0.0
100
AcDbRotatedDimension
1001
Sigma
1000
DIM_TPHO
1001
KCAD_DIM_EXT
1002
{
1071
 20001212
1070
     0
1070
     2
1070
     2
1040
2.5
1040
0.0
1040
0.0
1040
0.0
1040
0.0
1040
0.0
1040
0.0
1040
0.0
1070
     0
1040
50.0
1040
-1.0
1013
1.0
1023
0.0
1033
0.0
1040
0.0
1013
1.0
1023
0.0
1033
0.0
1000
_None
1040
1.0
1040
6.999999999998999
1070
     0
1070
     0
1070
     0
1012
1.0
1022
0.0
1032
0.0
1013
1.0
1023
0.0
1033
0.0
1002
}
1001
ACAD
1000
DSTYLE
1002
{
1070
    41
1040
2.5
1070
    42
1040
0.0
1070
    43
1040
8.0
1070
    44
1040
0.0
1070
    45
1040
0.0
1070
    73
1070
     0
1070
    74
1070
     0
1070
    77
1070
     1
1070
    78
1070
     8
1070
    79
1070
     2
1070
   140
1040
3.2
1070
   141
1040
2.5
1070
   145
1040
0.0001
1070
   146
1040
0.667
1070
   147
1040
0.5333000000000001
1070
   172
1070
     1
1070
   173
1070
     1
1070
   179
1070
     3
1070
   271
1070
     3
1070
   272
1070
     3
1070
   279
1070
     2
1070
   284
1070
     8
1070
   289
1070
     2
1070
   340
1005
189
1070
   341
1005
21
1070
   343
1005
12D
1070
   344
1005
12D
1002
}
  0
DIMENSION
  5
A7E
330
1F
100
AcDbEntity
  8
KCAD_DIMS
 62
     7
100
AcDbDimension
  2
*D57
 10
-138.2872216662
 20
166.0872283979299
 30
0.0
 11
-130.2872216661999
 21
168.22056139793
 31
0.0
 70
    32
 71
     5
 42
-1.0
  3
Standard
100
AcDbAlignedDimension
 13
-122.2872216662
 23
163.31849677035
 33
0.0
 14
-138.2872216662
 24
162.81849677035
 34
0.0
100
AcDbRotatedDimension
1001
Sigma
1000
DIM_TPHO
1001
KCAD_DIM_EXT
1002
{
1071
 20001212
1070
     0
1070
     2
1070
     2
1040
2.5
1040
0.0
1040
0.0
1040
0.0
1040
0.0
1040
0.0
1040
0.0
1040
0.0
1070
     0
1040
50.0
1040
-1.0
1013
1.0
1023
0.0
1033
0.0
1040
0.0
1013
1.0
1023
0.0
1033
0.0
1000
_None
1040
1.0
1040
16.0
1070
     0
1070
     0
1070
     0
1012
1.0
1022
0.0
1032
0.0
1013
1.0
1023
0.0
1033
0.0
1002
}
1001
ACAD
1000
DSTYLE
1002
{
1070
    41
1040
2.5
1070
    42
1040
0.0
1070
    43
1040
8.0
1070
    44
1040
0.0
1070
    45
1040
0.0
1070
    73
1070
     0
1070
    74
1070
     0
1070
    77
1070
     1
1070
    78
1070
     8
1070
    79
1070
     2
1070
   140
1040
3.2
1070
   141
1040
2.5
1070
   145
1040
0.0001
1070
   146
1040
0.667
1070
   147
1040
0.5333000000000001
1070
   172
1070
     1
1070
   173
1070
     1
1070
   179
1070
     3
1070
   271
1070
     3
1070
   272
1070
     3
1070
   279
1070
     2
1070
   284
1070
     8
1070
   289
1070
     2
1070
   340
1005
189
1070
   341
1005
21
1070
   343
1005
12D
1070
   344
1005
12D
1002
}
  0
DIMENSION
  5
ABA
330
1F
100
AcDbEntity
  8
KCAD_DIMS
 62
     7
100
AcDbDimension
  2
*D58
 10
-141.2872216662
 20
166.0872283979299
 30
0.0
 11
-139.7872216661999
 21
168.22056139793
 31
0.0
 70
    32
 71
     5
 42
-1.0
  3
Standard
100
AcDbAlignedDimension
 13
-138.2872216662
 23
162.81849677035
 33
0.0
 14
-141.2872216662
 24
161.81849677035
 34
0.0
100
AcDbRotatedDimension
1001
Sigma
1000
DIM_TPHO
1001
KCAD_DIM_EXT
1002
{
1071
 20001212
1070
     0
1070
     2
1070
     2
1040
2.5
1040
0.0
1040
0.0
1040
0.0
1040
0.0
1040
0.0
1040
0.0
1040
0.0
1070
     0
1040
50.0
1040
-1.0
1013
1.0
1023
0.0
1033
0.0
1040
0.0
1013
1.0
1023
0.0
1033
0.0
1000
_None
1040
1.0
1040
3.0
1070
     0
1070
     0
1070
     0
1012
1.0
1022
0.0
1032
0.0
1013
1.0
1023
0.0
1033
0.0
1002
}
1001
ACAD
1000
DSTYLE
1002
{
1070
    41
1040
2.5
1070
    42
1040
0.0
1070
    43
1040
8.0
1070
    44
1040
0.0
1070
    45
1040
0.0
1070
    73
1070
     0
1070
    74
1070
     0
1070
    77
1070
     1
1070
    78
1070
     8
1070
    79
1070
     2
1070
   140
1040
3.2
1070
   141
1040
2.5
1070
   145
1040
0.0001
1070
   146
1040
0.667
1070
   147
1040
0.5333000000000001
1070
   172
1070
     1
1070
   173
1070
     1
1070
   179
1070
     3
1070
   271
1070
     3
1070
   272
1070
     3
1070
   279
1070
     2
1070
   284
1070
     8
1070
   289
1070
     2
1070
   340
1005
189
1070
   341
1005
21
1070
   343
1005
12D
1070
   344
1005
12D
1002
}
  0
DIMENSION
  5
B00
330
1F
100
AcDbEntity
  8
KCAD_DIMS
 62
     7
100
AcDbDimension
  2
*D59
 10
-164.8872216662
 20
166.0872283979299
 30
0.0
 11
-153.0872216662
 21
168.22056139793
 31
0.0
 70
    32
 71
     5
 42
-1.0
  3
Standard
100
AcDbAlignedDimension
 13
-141.2872216662
 23
161.81849677035
 33
0.0
 14
-164.8872216662
 24
161.5184967703499
 34
0.0
100
AcDbRotatedDimension
1001
Sigma
1000
DIM_TPHO
1001
KCAD_DIM_EXT
1002
{
1071
 20001212
1070
     0
1070
     2
1070
     2
1040
2.5
1040
0.0
1040
0.0
1040
0.0
1040
0.0
1040
0.0
1040
0.0
1040
0.0
1070
     0
1040
50.0
1040
-1.0
1013
1.0
1023
0.0
1033
0.0
1040
0.0
1013
1.0
1023
0.0
1033
0.0
1000
_None
1040
1.0
1040
23.6
1070
     0
1070
     0
1070
     0
1012
1.0
1022
0.0
1032
0.0
1013
1.0
1023
0.0
1033
0.0
1002
}
1001
ACAD
1000
DSTYLE
1002
{
1070
    41
1040
2.5
1070
    42
1040
0.0
1070
    43
1040
8.0
1070
    44
1040
0.0
1070
    45
1040
0.0
1070
    73
1070
     0
1070
    74
1070
     0
1070
    77
1070
     1
1070
    78
1070
     8
1070
    79
1070
     2
1070
   140
1040
3.2
1070
   141
1040
2.5
1070
   145
1040
0.0001
1070
   146
1040
0.667
1070
   147
1040
0.5333000000000001
1070
   172
1070
     1
1070
   173
1070
     1
1070
   179
1070
     3
1070
   271
1070
     3
1070
   272
1070
     3
1070
   279
1070
     2
1070
   284
1070
     8
1070
   289
1070
     2
1070
   340
1005
189
1070
   341
1005
21
1070
   343
1005
12D
1070
   344
1005
12D
1002
}
  0
LINE
  5
B3C
330
1F
100
AcDbEntity
  8
0
  6
Continuous
 62
     7
370
    50
100
AcDbLine
 10
-116.2872216662
 20
85.763844815962
 30
0.0
 11
-116.2872216662
 21
90.763844815962
 31
0.0
1001
Sigma
1000

  0
LINE
  5
B3E
330
1F
100
AcDbEntity
  8
0
  6
Continuous
 62
     7
370
    50
100
AcDbLine
 10
-116.2872216662
 20
85.763844815962
 30
0.0
 11
-116.2872216662
 21
80.763844815962
 31
0.0
1001
Sigma
1000

  0
LINE
  5
B40
330
1F
100
AcDbEntity
  8
0
  6
Continuous
 62
     7
370
    50
100
AcDbLine
 10
-121.2872216662
 20
85.763844815962
 30
0.0
 11
-121.2872216662
 21
90.763844815962
 31
0.0
1001
Sigma
1000

  0
LINE
  5
B42
330
1F
100
AcDbEntity
  8
0
  6
Continuous
 62
     7
370
    50
100
AcDbLine
 10
-121.2872216662
 20
85.763844815962
 30
0.0
 11
-121.2872216662
 21
80.763844815962
 31
0.0
1001
Sigma
1000

  0
LINE
  5
B44
330
1F
100
AcDbEntity
  8
0
  6
Continuous
 62
     7
370
    50
100
AcDbLine
 10
-126.2872216661999
 20
85.763844815962
 30
0.0
 11
-126.2872216661999
 21
90.763844815962
 31
0.0
1001
Sigma
1000

  0
LINE
  5
B46
330
1F
100
AcDbEntity
  8
0
  6
Continuous
 62
     7
370
    50
100
AcDbLine
 10
-126.2872216661999
 20
85.763844815962
 30
0.0
 11
-126.2872216661999
 21
80.763844815962
 31
0.0
1001
Sigma
1000

  0
LINE
  5
B48
330
1F
100
AcDbEntity
  8
0
  6
Continuous
 62
     7
370
    50
100
AcDbLine
 10
-131.2872216661999
 20
85.763844815962
 30
0.0
 11
-131.2872216661999
 21
90.763844815962
 31
0.0
1001
Sigma
1000

  0
LINE
  5
B4A
330
1F
100
AcDbEntity
  8
0
  6
Continuous
 62
     7
370
    50
100
AcDbLine
 10
-131.2872216661999
 20
85.763844815962
 30
0.0
 11
-131.2872216661999
 21
80.763844815962
 31
0.0
1001
Sigma
1000

  0
LINE
  5
B4C
330
1F
100
AcDbEntity
  8
0
  6
Continuous
 62
     7
370
    50
100
AcDbLine
 10
-136.2872216661999
 20
85.763844815962
 30
0.0
 11
-136.2872216661999
 21
90.763844815962
 31
0.0
1001
Sigma
1000

  0
LINE
  5
B4E
330
1F
100
AcDbEntity
  8
0
  6
Continuous
 62
     7
370
    50
100
AcDbLine
 10
-136.2872216661999
 20
85.763844815962
 30
0.0
 11
-136.2872216661999
 21
80.763844815962
 31
0.0
1001
Sigma
1000

  0
TEXT
  5
B50
330
1F
100
AcDbEntity
  8
0
  6
Continuous
 62
     7
370
    30
100
AcDbText
 10
-119.5825983066999
 20
88.32572282357899
 30
0.0
 40
2.847599999999999
  1
1.0
 50
270.0
 41
1.057030481809243
  7
KCADTEXTSTANDARD
100
AcDbText
1001
Sigma
1000

  0
TEXT
  5
B52
330
1F
100
AcDbEntity
  8
0
  6
Continuous
 62
     7
370
    30
100
AcDbText
 10
-124.5825983066999
 20
88.32572282357899
 30
0.0
 40
2.847599999999999
  1
0.9
 50
270.0
 41
0.8648431214802895
  7
KCADTEXTSTANDARD
100
AcDbText
1001
Sigma
1000

  0
TEXT
  5
B54
330
1F
100
AcDbEntity
  8
0
  6
Continuous
 62
     7
370
    30
100
AcDbText
 10
-129.5825983067
 20
88.32572282357899
 30
0.0
 40
2.847599999999999
  1
0.8
 50
270.0
 41
0.8648431214802897
  7
KCADTEXTSTANDARD
100
AcDbText
1001
Sigma
1000

  0
TEXT
  5
B56
330
1F
100
AcDbEntity
  8
0
  6
Continuous
 62
     7
370
    30
100
AcDbText
 10
-134.5825983066999
 20
88.32572282357899
 30
0.0
 40
2.847599999999999
  1
0.7
 50
270.0
 41
0.8648431214802897
  7
KCADTEXTSTANDARD
100
AcDbText
1001
Sigma
1000

  0
TEXT
  5
B58
330
1F
100
AcDbEntity
  8
0
  6
Continuous
 62
     7
370
    30
100
AcDbText
 10
-139.5825983066999
 20
88.32572282357899
 30
0.0
 40
2.847599999999999
  1
0.6
 50
270.0
 41
0.8648431214802897
  7
KCADTEXTSTANDARD
100
AcDbText
1001
Sigma
1000

  0
LINE
  5
B5A
330
1F
100
AcDbEntity
  8
0
  6
Continuous
 62
     7
370
    50
100
AcDbLine
 10
-165.7872216661999
 20
85.763844815972
 30
0.0
 11
-163.2872216662
 21
85.763844815962
 31
0.0
1001
Sigma
1000

  0
TEXT
  5
B5C
330
1F
100
AcDbEntity
  8
0
  6
Continuous
 62
     7
370
    30
100
AcDbText
 10
-162.0047855055474
 20
86.28407373730317
 30
0.0
 40
1.789920038795471
  1
C
 50
270.0
 41
1.154867256637168
  7
KCADTEXTSTANDARD
100
AcDbText
1001
Sigma
1000

  0
TEXT
  5
B5E
330
1F
100
AcDbEntity
  8
0
  6
Continuous
 62
     7
370
    30
100
AcDbText
 10
-162.0047855055474
 20
72.1440737134713
 30
0.0
 40
1.789920038795471
  1
0
 50
270.0
 41
0.7874094760950648
  7
KCADTEXTSTANDARD
100
AcDbText
1001
Sigma
1000

  0
LINE
  5
B61
102
{ACAD_REACTORS
330
B60
102
}
330
1F
100
AcDbEntity
  8
0
  6
Continuous
 62
     7
370
    50
100
AcDbLine
 10
-161.0722913923
 20
84.295737910347
 30
0.0
 11
-161.0722913923
 21
73.135737910347
 31
0.0
1001
Sigma
1000

  0
INSERT
  5
B63
102
{ACAD_REACTORS
330
B60
102
}
330
1F
100
AcDbEntity
  8
0
  6
Continuous
 62
     7
370
    50
100
AcDbBlockReference
  2
_OPEN30
 10
-161.0722913923
 20
84.295737910347
 30
0.0
 41
2.5
 42
2.5
 43
2.5
 50
90.0
1001
Sigma
1000
_BRRS
  0
INSERT
  5
B65
102
{ACAD_REACTORS
330
B60
102
}
330
1F
100
AcDbEntity
  8
0
  6
Continuous
 62
     7
370
    50
100
AcDbBlockReference
  2
_OPEN30
 10
-161.0722913923
 20
73.135737910347
 30
0.0
 41
1.5
 42
1.5
 43
1.5
 50
270.0
1001
Sigma
1000
_BRRE
  0
TEXT
  5
B68
102
{ACAD_REACTORS
330
B67
102
}
330
1F
100
AcDbEntity
  8
0
  6
Continuous
 62
     7
370
    30
100
AcDbText
 10
-137.5799125094158
 20
153.2715224687476
 30
0.0
 40
1.980000042915344
  1
ＫＣＭ－５０Ｎ
 50
270.0
 41
0.95
  7
KCADTEXTSTANDARD
100
AcDbText
1001
Sigma
1000

  0
LINE
  5
B6A
102
{ACAD_REACTORS
330
B67
102
}
330
1F
100
AcDbEntity
  8
0
  6
Continuous
 62
     7
370
    30
100
AcDbLine
 10
-137.4121020695999
 20
137.4593961888
 30
0.0
 11
-135.7668468955999
 21
137.4593961888
 31
0.0
1001
Sigma
1000

  0
LINE
  5
B6C
102
{ACAD_REACTORS
330
B67
102
}
330
1F
100
AcDbEntity
  8
0
  6
Continuous
 62
     7
370
    30
100
AcDbLine
 10
-137.4121020695999
 20
137.4593961888
 30
0.0
 11
-137.4121020695999
 21
137.7495537617099
 31
0.0
1001
Sigma
1000

  0
LINE
  5
B6E
102
{ACAD_REACTORS
330
B67
102
}
330
1F
100
AcDbEntity
  8
0
  6
Continuous
 62
     7
370
    30
100
AcDbLine
 10
-135.7668468955999
 20
137.4593961888
 30
0.0
 11
-135.7668468955999
 21
137.7495537617099
 31
0.0
1001
Sigma
1000

  0
LINE
  5
B70
102
{ACAD_REACTORS
330
B67
102
}
330
1F
100
AcDbEntity
  8
0
  6
Continuous
 62
     7
370
    30
100
AcDbLine
 10
-137.4121020695999
 20
137.4593961888
 30
0.0
 11
-137.4121020695999
 21
136.4284107701799
 31
0.0
1001
Sigma
1000

  0
LINE
  5
B72
102
{ACAD_REACTORS
330
B67
102
}
330
1F
100
AcDbEntity
  8
0
  6
Continuous
 62
     7
370
    30
100
AcDbLine
 10
-135.7668468955999
 20
137.4593961888
 30
0.0
 11
-135.7668468955999
 21
136.4284107701799
 31
0.0
1001
Sigma
1000

  0
LINE
  5
B74
102
{ACAD_REACTORS
330
B67
102
}
330
1F
100
AcDbEntity
  8
0
  6
Continuous
 62
     7
370
    30
100
AcDbLine
 10
-137.4121020695999
 20
136.71856834308
 30
0.0
 11
-135.7668468955999
 21
136.71856834308
 31
0.0
1001
Sigma
1000

  0
TEXT
  5
BAA
330
1F
100
AcDbEntity
  8
99
  6
Continuous
 62
     7
370
    30
100
AcDbText
 10
-184.7624664870999
 20
15.445938877347
 30
0.0
 40
3.6
  1
 担当   
 41
0.7026041666666667
  7
KCADTEXTSTANDARD
100
AcDbText
1001
Sigma
1000

  0
TEXT
  5
BAC
330
1F
100
AcDbEntity
  8
99
  6
Continuous
 62
     7
370
    30
100
AcDbText
 10
-171.1065398644
 20
15.66818723106299
 30
0.0
 40
3.6
  1
 訂 正 記 事
 41
0.78671875
  7
KCADTEXTSTANDARD
100
AcDbText
1001
Sigma
1000

  0
TEXT
  5
BAE
330
1F
100
AcDbEntity
  8
99
  6
Continuous
 62
     7
370
    30
100
AcDbText
 10
-179.8416896381
 20
50.816509510903
 30
0.0
 40
3.6
  1
 部   品   名
 41
0.7089374984428286
  7
KCADTEXTSTANDARD
100
AcDbText
1001
Sigma
1000

  0
TEXT
  5
BB0
330
1F
100
AcDbEntity
  8
99
  6
Continuous
 62
     7
370
    30
100
AcDbText
 10
-91.75184956276998
 20
30.56712098786699
 30
0.0
 40
3.6
  1
 承認
 41
1.029166666666666
  7
KCADTEXTSTANDARD
100
AcDbText
1001
Sigma
1000

  0
TEXT
  5
BB2
330
1F
100
AcDbEntity
  8
99
  6
Continuous
 62
     7
370
    30
100
AcDbText
 10
-106.5684064772
 20
30.172012803483
 30
0.0
 40
3.6
  1
 検図
 41
1.029166666666666
  7
KCADTEXTSTANDARD
100
AcDbText
1001
Sigma
1000

  0
TEXT
  5
BB4
330
1F
100
AcDbEntity
  8
99
  6
Continuous
 62
     7
370
    30
100
AcDbText
 10
-121.7306830529
 20
30.320178372627
 30
0.0
 40
3.6
  1
 製図
 41
1.029166666666666
  7
KCADTEXTSTANDARD
100
AcDbText
1001
Sigma
1000

  0
TEXT
  5
BB6
330
1F
100
AcDbEntity
  8
99
  6
Continuous
 62
     7
370
    30
100
AcDbText
 10
-67.49267740849
 20
50.915286557001
 30
0.0
 40
3.6
  1
  表  面  処  理
 41
0.7303124983484547
  7
KCADTEXTSTANDARD
100
AcDbText
1001
Sigma
1000

  0
TEXT
  5
BB8
330
1F
100
AcDbEntity
  8
99
  6
Continuous
 62
     7
370
    30
100
AcDbText
 10
-105.3302514856581
 20
43.21889416325199
 30
0.0
 40
2.7
  1
取
 41
1.203333318233489
  7
KCADTEXTSTANDARD
100
AcDbText
1001
Sigma
1000

  0
TEXT
  5
BBA
330
1F
100
AcDbEntity
  8
99
  6
Continuous
 62
     7
370
    30
100
AcDbText
 10
-200.2477110779
 20
20.920021661919
 30
0.0
 40
3.254399999999999
  1
 H13/8/23
 41
0.5852451601263381
  7
KCADTEXTSTANDARD
100
AcDbText
1001
Sigma
1000

  0
TEXT
  5
BBC
330
1F
100
AcDbEntity
  8
99
  6
Continuous
 62
     7
370
    30
100
AcDbText
 10
-184.4927110779
 20
20.520021661919
 30
0.0
 40
3.6
  1
 滝沢
 41
0.8510416666666667
  7
KCADTEXTSTANDARD
100
AcDbText
1001
Sigma
1000

  0
TEXT
  5
BBE
330
1F
100
AcDbEntity
  8
99
  6
Continuous
 62
     7
370
    30
100
AcDbText
 10
-173.4927110779
 20
20.520021661919
 30
0.0
 40
3.6
  1
 彫刻追加
 41
0.9381249999999999
  7
KCADTEXTSTANDARD
100
AcDbText
1001
Sigma
1000

  0
TEXT
  5
C90
330
1F
100
AcDbEntity
  8
1
  6
Continuous
 62
     7
100
AcDbText
 10
-97.14111664310384
 20
8.819183747258222
 30
0.0
 40
4.0
  1
株式会社 トキナー
100
AcDbText
  0
TEXT
  5
C91
330
1F
100
AcDbEntity
  8
1
  6
Continuous
 62
     7
100
AcDbText
 10
-50.56150480137694
 20
9.234522396988098
 30
0.0
 40
4.0
  1
Tokina Co. ,Ltd.
 41
0.7000000000000001
100
AcDbText
  0
OLE2FRAME
  5
C92
330
1F
100
AcDbEntity
  8
0
  6
Continuous
 62
   134
370
    15
100
AcDbOle2Frame
 70
     2
 10
-165.9981118079589
 20
13.47351449141762
 30
0.0
 11
-127.311667282273
 21
7.521753795158267
 31
0.0
 72
     0
 73
   205
 90
     9344
310
0055EA9D2C88F0BF64C03CA4CD7D70F22A4000000000000000002326545BF2D3
310
5FC03CA4CD7D70F22A4000000000000000002326545BF2D35FC016137BA04616
310
1E400000000000000000EA9D2C88F0BF64C016137BA046161E40000000000000
310
0000000000000100000000010000010000000100000000000100000000240000
310
D0CF11E0A1B11AE1000000000000000000000000000000003E000300FEFF0900
310
0600000000000000000000000100000001000000000000000010000002000000
310
01000000FEFFFFFF0000000000000000FFFFFFFFFFFFFFFFFFFFFFFFFFFFFFFF
310
FFFFFFFFFFFFFFFFFFFFFFFFFFFFFFFFFFFFFFFFFFFFFFFFFFFFFFFFFFFFFFFF
310
FFFFFFFFFFFFFFFFFFFFFFFFFFFFFFFFFFFFFFFFFFFFFFFFFFFFFFFFFFFFFFFF
310
FFFFFFFFFFFFFFFFFFFFFFFFFFFFFFFFFFFFFFFFFFFFFFFFFFFFFFFFFFFFFFFF
310
FFFFFFFFFFFFFFFFFFFFFFFFFFFFFFFFFFFFFFFFFFFFFFFFFFFFFFFFFFFFFFFF
310
FFFFFFFFFFFFFFFFFFFFFFFFFFFFFFFFFFFFFFFFFFFFFFFFFFFFFFFFFFFFFFFF
310
FFFFFFFFFFFFFFFFFFFFFFFFFFFFFFFFFFFFFFFFFFFFFFFFFFFFFFFFFFFFFFFF
310
FFFFFFFFFFFFFFFFFFFFFFFFFFFFFFFFFFFFFFFFFFFFFFFFFFFFFFFFFFFFFFFF
310
FFFFFFFFFFFFFFFFFFFFFFFFFFFFFFFFFFFFFFFFFFFFFFFFFFFFFFFFFFFFFFFF
310
FFFFFFFFFFFFFFFFFFFFFFFFFFFFFFFFFFFFFFFFFFFFFFFFFFFFFFFFFFFFFFFF
310
FFFFFFFFFFFFFFFFFFFFFFFFFFFFFFFFFFFFFFFFFFFFFFFFFFFFFFFFFFFFFFFF
310
FFFFFFFFFFFFFFFFFFFFFFFFFFFFFFFFFFFFFFFFFFFFFFFFFFFFFFFFFFFFFFFF
310
FFFFFFFFFFFFFFFFFFFFFFFFFFFFFFFFFFFFFFFFFFFFFFFFFFFFFFFFFFFFFFFF
310
FFFFFFFFFFFFFFFFFFFFFFFFFFFFFFFFFFFFFFFFFFFFFFFFFFFFFFFFFFFFFFFF
310
FDFFFFFFFEFFFFFFFEFFFFFFFEFFFFFF05000000060000000700000008000000
310
090000000A0000000B0000000C0000000D0000000E0000000F00000010000000
310
FEFFFFFFFFFFFFFFFFFFFFFFFFFFFFFFFFFFFFFFFFFFFFFFFFFFFFFFFFFFFFFF
310
FFFFFFFFFFFFFFFFFFFFFFFFFFFFFFFFFFFFFFFFFFFFFFFFFFFFFFFFFFFFFFFF
310
FFFFFFFFFFFFFFFFFFFFFFFFFFFFFFFFFFFFFFFFFFFFFFFFFFFFFFFFFFFFFFFF
310
FFFFFFFFFFFFFFFFFFFFFFFFFFFFFFFFFFFFFFFFFFFFFFFFFFFFFFFFFFFFFFFF
310
FFFFFFFFFFFFFFFFFFFFFFFFFFFFFFFFFFFFFFFFFFFFFFFFFFFFFFFFFFFFFFFF
310
FFFFFFFFFFFFFFFFFFFFFFFFFFFFFFFFFFFFFFFFFFFFFFFFFFFFFFFFFFFFFFFF
310
FFFFFFFFFFFFFFFFFFFFFFFFFFFFFFFFFFFFFFFFFFFFFFFFFFFFFFFFFFFFFFFF
310
FFFFFFFFFFFFFFFFFFFFFFFFFFFFFFFFFFFFFFFFFFFFFFFFFFFFFFFFFFFFFFFF
310
FFFFFFFFFFFFFFFFFFFFFFFFFFFFFFFFFFFFFFFFFFFFFFFFFFFFFFFFFFFFFFFF
310
FFFFFFFFFFFFFFFFFFFFFFFFFFFFFFFFFFFFFFFFFFFFFFFFFFFFFFFFFFFFFFFF
310
FFFFFFFFFFFFFFFFFFFFFFFFFFFFFFFFFFFFFFFFFFFFFFFFFFFFFFFFFFFFFFFF
310
FFFFFFFFFFFFFFFFFFFFFFFFFFFFFFFFFFFFFFFFFFFFFFFFFFFFFFFFFFFFFFFF
310
FFFFFFFFFFFFFFFFFFFFFFFFFFFFFFFFFFFFFFFFFFFFFFFFFFFFFFFFFFFFFFFF
310
FFFFFFFFFFFFFFFFFFFFFFFFFFFFFFFFFFFFFFFFFFFFFFFFFFFFFFFFFFFFFFFF
310
52006F006F007400200045006E00740072007900000000000000000000000000
310
0000000000000000000000000000000000000000000000000000000000000000
310
16000500FFFFFFFFFFFFFFFF020000000A00030000000000C000000000000046
310
000000000000000000000000804F50C0839FC80103000000C000000000000000
310
01004F006C006500000000000000000000000000000000000000000000000000
310
0000000000000000000000000000000000000000000000000000000000000000
310
0A000200FFFFFFFFFFFFFFFFFFFFFFFF00000000000000000000000000000000
310
0000000000000000000000000000000000000000000000001400000000000000
310
010043006F006D0070004F0062006A0000000000000000000000000000000000
310
0000000000000000000000000000000000000000000000000000000000000000
310
120002010100000003000000FFFFFFFF00000000000000000000000000000000
310
0000000000000000000000000000000000000000010000004D00000000000000
310
01004F006C006500310030004E00610074006900760065000000000000000000
310
0000000000000000000000000000000000000000000000000000000000000000
310
1A000200FFFFFFFFFFFFFFFFFFFFFFFF00000000000000000000000000000000
310
0000000000000000000000000000000000000000040000000419000000000000
310
FEFFFFFF02000000FEFFFFFFFFFFFFFFFFFFFFFFFFFFFFFFFFFFFFFFFFFFFFFF
310
FFFFFFFFFFFFFFFFFFFFFFFFFFFFFFFFFFFFFFFFFFFFFFFFFFFFFFFFFFFFFFFF
310
FFFFFFFFFFFFFFFFFFFFFFFFFFFFFFFFFFFFFFFFFFFFFFFFFFFFFFFFFFFFFFFF
310
FFFFFFFFFFFFFFFFFFFFFFFFFFFFFFFFFFFFFFFFFFFFFFFFFFFFFFFFFFFFFFFF
310
FFFFFFFFFFFFFFFFFFFFFFFFFFFFFFFFFFFFFFFFFFFFFFFFFFFFFFFFFFFFFFFF
310
FFFFFFFFFFFFFFFFFFFFFFFFFFFFFFFFFFFFFFFFFFFFFFFFFFFFFFFFFFFFFFFF
310
FFFFFFFFFFFFFFFFFFFFFFFFFFFFFFFFFFFFFFFFFFFFFFFFFFFFFFFFFFFFFFFF
310
FFFFFFFFFFFFFFFFFFFFFFFFFFFFFFFFFFFFFFFFFFFFFFFFFFFFFFFFFFFFFFFF
310
FFFFFFFFFFFFFFFFFFFFFFFFFFFFFFFFFFFFFFFFFFFFFFFFFFFFFFFFFFFFFFFF
310
FFFFFFFFFFFFFFFFFFFFFFFFFFFFFFFFFFFFFFFFFFFFFFFFFFFFFFFFFFFFFFFF
310
FFFFFFFFFFFFFFFFFFFFFFFFFFFFFFFFFFFFFFFFFFFFFFFFFFFFFFFFFFFFFFFF
310
FFFFFFFFFFFFFFFFFFFFFFFFFFFFFFFFFFFFFFFFFFFFFFFFFFFFFFFFFFFFFFFF
310
FFFFFFFFFFFFFFFFFFFFFFFFFFFFFFFFFFFFFFFFFFFFFFFFFFFFFFFFFFFFFFFF
310
FFFFFFFFFFFFFFFFFFFFFFFFFFFFFFFFFFFFFFFFFFFFFFFFFFFFFFFFFFFFFFFF
310
FFFFFFFFFFFFFFFFFFFFFFFFFFFFFFFFFFFFFFFFFFFFFFFFFFFFFFFFFFFFFFFF
310
FFFFFFFFFFFFFFFFFFFFFFFFFFFFFFFFFFFFFFFFFFFFFFFFFFFFFFFFFFFFFFFF
310
0100000200000000000000000000000000000000A80315000000000000000000
310
0000000000000000000000000000000000000000000000000000000000000000
310
0100FEFF030A0000FFFFFFFF0A00030000000000C00000000000004607000000
310
5042727573680007000000504272757368000700000050427275736800F439B2
310
7100000000000000000000000000000000000000000000000000000000000000
310
0000000000000000000000000000000000000000000000000000000000000000
310
0000000000000000000000000000000000000000000000000000000000000000
310
0000000000000000000000000000000000000000000000000000000000000000
310
0000000000000000000000000000000000000000000000000000000000000000
310
0000000000000000000000000000000000000000000000000000000000000000
310
0000000000000000000000000000000000000000000000000000000000000000
310
0000000000000000000000000000000000000000000000000000000000000000
310
0000000000000000000000000000000000000000000000000000000000000000
310
0000000000000000000000000000000011008A00000000010002150000021500
310
0000000000000000000000000000000000000000000000000000000000000000
310
5A24020000000000000000000000000000000000000000000000000000000000
310
00190000424DF618000000000000360000002800000075000000120000000100
310
180000000000C018000000000000000000000000000000000000FFFFFFFFFFFF
310
FFFFFFFFFFFFFFFFFFFFFFFFFFFFFFFFFFFF6666660808081212120C0C0C3535
310
35FFFFFFFFFFFFFFFFFFFFFFFFFFFFFFFFFFFFFFFFFFFFFFFFFFFFFFC0C0C045
310
4545151515121212121212121212131313141414151515151515161616181818
310
1818181919191919191E1E1E484848B0B0B0FFFFFFFFFFFFFFFFFFD4D4D42424
310
242424242424242E2E2EF1F1F1FFFFFFFFFFFFFFFFFFFFFFFFFFFFFFFFFFFFFF
310
FFFFDEDEDE4B4B4B3333333838383A3A3A3838382C2C2C5E5E5EEBEBEBFFFFFF
310
F1F1F14949494242424444444D4D4DF5F5F5FFFFFFA5A5A54343435050504848
310
48999999FFFFFFFFFFFFFFFFFFFFFFFFFFFFFFFFFFFFFFFFFFFFFFFFFFFFFFFF
310
FFFFFFFFFFBCBCBC6666667171716C6C6C9A9A9AFFFFFFFFFFFFFFFFFFE9E9E9
310
9393938181818080808282828484848484848585858888888888888989898B8B
310
8B8C8C8C8D8D8D8F8F8F90909090909092929291919199999900FFFFFFFFFFFF
310
FFFFFFFFFFFFFFFFFFFFFFFFFFFFFFFFFFFF5D5D5D0000000202020000002727
310
27FFFFFFFFFFFFFFFFFFFFFFFFFFFFFFFFFFFFFFFFFFFFFFFFA6A6A600000000
310
0000020202030303020202030303020202020202020202020202020202020202
310
0202020202020101010000000000000000006B6B6BFFFFFFFFFFFFCECECE0000
310
00000000000000080808EDEDEDFFFFFFFFFFFFFFFFFFFFFFFFFFFFFFFFFFFF9B
310
9B9B000000000000000000000000000000000000838383FFFFFFFFFFFFFFFFFF
310
ECECEC060606000000000000050505EEEEEEFFFFFF7B7B7B0000000000000000
310
00656565FFFFFFFFFFFFFFFFFFFFFFFFFFFFFFFFFFFFFFFFFFFFFFFFFFFFFFFF
310
FFFFFFFFFF8888880000000000000000003F3F3FFFFFFFFFFFFFC1C1C1000000
310
0000000000000000000000000000000000000000000000000000000000000000
310
0000000000000000000000000000000000000000000003030300FFFFFFFFFFFF
310
FFFFFFFFFFFFFFFFFFFFFFFFFFFFFFFFFFFF5E5E5E0000000404040000002525
310
25FFFFFFFFFFFFFFFFFFFFFFFFFFFFFFFFFFFFFFFFFFFEFEFE13131300000005
310
0505030303000000000000000000000000000000000000000000000000000000
310
000000000000000000000000050505010101000000CDCDCDFFFFFFCECECE0303
310
030202020101010B0B0BEDEDEDFFFFFFFFFFFFFFFFFFFFFFFFF7F7F759595900
310
0000000000050505000000000000383838D8D8D8FFFFFFFFFFFFFFFFFFFFFFFF
310
EDEDED0B0B0B0101010101010B0B0BEFEFEFFFFFFF7F7F7F0000000505050000
310
00686868FFFFFFFFFFFFFFFFFFFFFFFFFFFFFFFFFFFFFFFFFFFFFFFFFFFFFFFF
310
FFFFFFFFFF8D8D8D000000040404000000464646FFFFFFFFFFFF2E2E2E000000
310
0404040404040000000000000000000000000000000000000000000000000000
310
0000000000000000000000000003030305050503030312121200FFFFFFFFFFFF
310
FFFFFFFFFFFFFFFFFFFFFFFFFFFFFFFFFFFF5F5F5F0000000505050000002424
310
24FFFFFFFFFFFFFFFFFFFFFFFFFFFFFFFFFFFFFFFFFFD9D9D900000003030304
310
04040000007070709D9D9D9797979797979696969393939292928F8F8F8C8C8C
310
8A8A8A8B8B8B7E7E7E131313010101040404000000858585FFFFFFCECECE0404
310
040202020101010C0C0CEDEDEDFFFFFFFFFFFFFFFFFFCBCBCB23232300000003
310
03030404040000000606068D8D8DFFFFFFFFFFFFFFFFFFFFFFFFFFFFFFFFFFFF
310
EDEDED0C0C0C0101010101010B0B0BEFEFEFFFFFFF7F7F7F0000000505050000
310
00686868FFFFFFFFFFFFFFFFFFFFFFFFFFFFFFFFFFFFFFFFFFFFFFFFFFFFFFFF
310
FFFFFFFFFF8D8D8D000000050505000000444444FFFFFFFEFEFE050505010101
310
0404040101015A5A5A6666666464646464646464646464646363636262626262
310
626060606060606060605E5E5E00000004040403030312121200FFFFFFFFFFFF
310
FFFFFFFFFFFFFFFFFFFFFFFFFFFFFFFFFFFF5F5F5F0000000404040000002323
310
23FFFFFFFFFFFFFFFFFFFFFFFFFFFFFFFFFFFFFFFFFFD2D2D200000003030302
310
0202060606FFFFFFFFFFFFFFFFFFFFFFFFFFFFFFFFFFFFFFFFFFFFFFFFFFFFFF
310
FFFFFFFFFFFFFFFFFF666666000000040404000000808080FFFFFFCECECE0404
310
040202020101010B0B0BEDEDEDFFFFFFFFFFFF8C8C8C03030300000003030300
310
00000000003E3E3ED9D9D9FFFFFFFFFFFFFFFFFFFFFFFFFFFFFFFFFFFFFFFFFF
310
EDEDED0C0C0C0101010101010B0B0BEFEFEFFFFFFF7F7F7F0000000505050000
310
00676767FFFFFFFFFFFFFFFFFFFFFFFFFFFFFFFFFFFFFFFFFFFFFFFFFFFFFFFF
310
FFFFFFFFFF8D8D8D000000040404000000444444FFFFFFFFFFFF070707010101
310
030303000000F7F7F7FFFFFFFFFFFFFFFFFFFFFFFFFFFFFFFFFFFFFFFFFFFFFF
310
FFFFFFFFFFFFFFFFFFFFFFFFFF00000003030303030311111100FFFFFFFFFFFF
310
FFFFFFFFFFFFFFFFFFFFFFFFFFFFFFFFFFFF6161610000000404040000002222
310
22FFFFFFFFFFFFFFFFFFFFFFFFFFFFFFFFFFFFFFFFFFD3D3D300000002020202
310
0202070707FCFCFCFFFFFFFFFFFFFFFFFFFFFFFFFFFFFFFFFFFFFFFFFFFFFFFF
310
FFFFFFFFFFFFFFFFFF696969000000040404000000818181FFFFFFCECECE0404
310
040202020101010D0D0DFAFAFAEEEEEE4D4D4D0000000000000303030000000D
310
0D0D949494FFFFFFFFFFFFFFFFFFFFFFFFFFFFFFFFFFFFFFFFFFFFFFFFFFFFFF
310
EDEDED0C0C0C0101010101010B0B0BEFEFEFFFFFFF7F7F7F0000000505050000
310
00676767FFFFFFFFFFFFFFFFFFFFFFFFFFFFFFFFFFFFFFFFFFFFFFFFFFFFFFFF
310
FFFFFFFFFF8D8D8D000000040404000000434343FFFFFFFEFEFE050505010101
310
030303010101A9A9A9C1C1C1BEBEBEC1C1C1C1C1C1C2C2C2C3C3C3C4C4C4C5C5
310
C5C5C5C5C8C8C8CACACACCCCCC00000003030303030311111100FFFFFFFFFFFF
310
FFFFFFFFFFFFFFFFFFFFFFFFFFFFFFFFFFFF6161610000000404040000002121
310
21FFFFFFFFFFFFFFFFFFFFFFFFFFFFFFFFFFFFFFFFFFD5D5D500000002020202
310
0202060606FCFCFCFFFFFFFFFFFFFFFFFFFFFFFFFFFFFFFFFFFFFFFFFFFFFFFF
310
FFFFFFFFFFFFFFFFFF686868000000050505000000818181FFFFFFCCCCCC0303
310
030202020202020D0D0D9898981D1D1D000000030303040404010101545454E1
310
E1E1FFFFFFFFFFFFFFFFFFFFFFFFFFFFFFFFFFFFFFFFFFFFFFFFFFFFFFFFFFFF
310
EDEDED0C0C0C0101010101010B0B0BEFEFEFFFFFFF7F7F7F0000000505050000
310
00666666FFFFFFFFFFFFFFFFFFFFFFFFFFFFFFFFFFFFFFFFFFFFFFFFFFFFFFFF
310
FFFFFFFFFF8D8D8D000000040404000000424242FFFFFFFFFFFF1E1E1E000000
310
0505050303030000000000000000000000000000000101010101010101010202
310
0202020203030304040405050502020204040403030311111100FFFFFFFFFFFF
310
FFFFFFFFFFFFFFFFFFFFFFFFFFFFFFFFFFFF6363630000000505050000001F1F
310
1FFFFFFFFFFFFFFFFFFFFFFFFFFFFFFFFEFEFEFFFFFFD5D5D500000003030302
310
0202050505FCFCFCFFFFFFFFFFFFFFFFFFFFFFFFFFFFFFFFFFFFFFFFFFFFFFFF
310
FFFFFFFFFFFFFFFFFF686868000000040404000000818181FFFFFFCDCDCD0303
310
030202020303030707074545450000000000000404040303030303039E9E9EFF
310
FFFFFFFFFFFFFFFFFFFFFFFFFFFFFFFFFFFFFFFFFFFFFFFFFFFFFFFFFFFFFFFF
310
EDEDED0C0C0C0101010101010B0B0BEEEEEEFFFFFF7F7F7F0000000505050000
310
00666666FFFFFFFFFFFFFFFFFFFFFFFFFFFFFFFFFFFFFFFFFFFFFFFFFFFFFFFF
310
FFFFFFFFFF8D8D8D000000040404000000434343FFFFFFFFFFFF9C9C9C000000
310
0000000000000000000000000000000000000000000000000000000000000000
310
0000000000000000000000000004040405050503030311111100FFFFFFFFFFFF
310
FFFFFFFFFFFFFFFFFFFFFFFFFFFFFFFFFFFF6262620000000505050000002121
310
21FFFFFFFFFFFFFFFFFFFFFFFFFFFFFFFEFEFEFFFFFFD5D5D500000002020201
310
0101070707FDFDFDFFFFFFFFFFFFFFFFFFFFFFFFFFFFFFFFFFFFFFFFFFFFFFFF
310
FFFFFFFFFFFFFFFFFF696969000000050505000000818181FFFFFFCCCCCC0303
310
030202020101010D0D0DF6F6F6B3B3B319191900000003030302020200000057
310
5757E8E8E8FFFFFFFFFFFFFFFFFFFFFFFFFFFFFFFFFFFFFFFFFFFFFFFFFFFFFF
310
EDEDED0C0C0C0101010101010C0C0CEDEDEDFFFFFF7F7F7F0000000505050000
310
00666666FFFFFFFFFFFFFFFFFFFFFFFFFFFFFFFFFFFFFFFFFFFFFFFFFFFFFFFF
310
FFFFFFFFFF8D8D8D000000040404000000434343FFFFFFFFFFFFFFFFFFA8A8A8
310
3C3C3C2E2E2E2C2C2C2B2B2B2A2A2A2A2A2A2929292828282727272727272626
310
2626262625252525252524242400000004040403030311111100FFFFFFFFFFFF
310
FFFFFFFFFFFFFFFFFFFFFFFFFFFFFFFFFFFF6161610000000505050000002121
310
21FFFFFFFFFFFFFFFFFFFFFFFFFFFFFFFFFFFFFFFFFFD2D2D200000003030302
310
0202060606FFFFFFFFFFFFFFFFFFFFFFFFFFFFFFFFFFFFFFFFFFFFFFFFFFFFFF
310
FFFFFFFFFFFFFFFFFF666666000000050505000000808080FFFFFFCCCCCC0202
310
020202020101010B0B0BECECECFFFFFFE5E5E54D4D4D00000000000003030300
310
00001B1B1BABABABFFFFFFFFFFFFFFFFFFFFFFFFFFFFFFFFFFFFFFFFFFFFFFFF
310
EDEDED0C0C0C0101010101010B0B0BEEEEEEFFFFFF7F7F7F0000000505050000
310
00696969FFFFFFFFFFFFFFFFFFFFFFFFFFFFFFFFFFFFFFFFFFFFFFFFFFFFFFFF
310
FFFFFFFFFF909090000000040404000000414141FFFFFFFFFFFFFFFFFFFFFFFF
310
FFFFFFFDFDFDFAFAFAF9F9F9F9F9F9F7F7F7F7F7F7F7F7F7F5F5F5F5F5F5F4F4
310
F4F4F4F4F2F2F2F4F4F4F7F7F700000004040403030311111100FFFFFFFFFFFF
310
FFFFFFFFFFFFFFFFFFFFFFFFFFFFFFFFFFFF5F5F5F0000000505050000002222
310
22FFFFFFFFFFFFFFFFFFFFFFFFFFFFFFFFFFFFFFFFFFDBDBDB00000003030304
310
04040000005858588585858383838585858686868989898989898D8D8D8E8E8E
310
919191949494898989161616010101040404000000828282FFFFFFCCCCCC0303
310
030202020101010B0B0BECECECFFFFFFFFFFFFFFFFFF8F8F8F0A0A0A00000003
310
0303000000000000636363EDEDEDFFFFFFFFFFFFFFFFFFFFFFFFFFFFFFFFFFFF
310
ECECEC0C0C0C0101010101010B0B0BEFEFEFFFFFFF7F7F7F0000000505050000
310
00555555D8D8D8D1D1D1D1D1D1D2D2D2D2D2D2D2D2D2D4D4D4D4D4D4D4D4D4D5
310
D5D5DCDCDC565656000000050505000000424242FFFFFFFFFFFFFFFFFFFFFFFF
310
FFFFFFFFFFFFFFFFFFFFFFFFFFFFFFFFFFFFFFFFFFFFFFFFFFFFFFFFFFFFFFFF
310
FFFFFFFFFFFFFFFFFFFFFDFDFD00000003030303030310101000FFFFFFFFFFFF
310
FFFFFFFFFFFFFFFFFFFFFFFFFFFFFFFFFFFF5F5F5F0000000505050000002121
310
21FFFFFFFFFFFFFFFFFFFFFFFFFFFFFFFFFFFFFFFFFFFFFFFF1D1D1D00000004
310
0404040404000000000000000000000000000000000000000000000000000000
310
000000000000000000000000050505020202000000BFBFBFFFFFFFCBCBCB0202
310
020202020101010C0C0CECECECFFFFFFFFFFFFFFFFFFFFFFFFD2D2D235353500
310
00000101010202020000001F1F1FB5B5B5FFFFFFFFFFFFFFFFFFFFFFFFFFFFFF
310
ECECEC0C0C0C0101010101010B0B0BEFEFEFFFFFFF7F7F7F0000000505050404
310
0400000000000000000000000000000000000000000000000000000000000000
310
00000000000000000404040404040000006E6E6EFFFFFFFFFFFF7C7C7C464646
310
4D4D4D4D4D4D4D4D4D4D4D4D4D4D4D4D4D4D4D4D4D4D4D4D4C4C4C4D4D4D4E4E
310
4E4F4F4F50505055555530303000000004040401010115151500FFFFFFFFFFFF
310
FFFFFFFFFFFFFFFFFFFFFFFFFFFFFFFFFFFF6060600000000505050000001F1F
310
1FFFFFFFFFFFFFFFFFFFFFFFFFFFFFFFFFFFFFFFFFFFFFFFFFB3B3B300000000
310
0000000000000000000000000000000000000000000000000000000000000000
310
000000000000000000000000000000000000585858FFFFFFFFFFFFCCCCCC0303
310
030202020101010B0B0BEAEAEAFFFFFFFFFFFFFFFFFFFFFFFFFFFFFFFEFEFE77
310
7777010101000000010101000000000000656565F0F0F0FFFFFFFFFFFFFFFFFF
310
EDEDED0A0A0A0000000000000A0A0AEDEDEDFFFFFF7E7E7E0000000303030303
310
0303030302020202020202020202020202020202020202020202020202020202
310
0202020202030303020202000000040404DADADAFFFFFFFFFFFF3F3F3F000000
310
0000000000000000000000000000000000000000000000000000000000000000
310
0000000000000000000000000004040402020200000082828200F1F1F1F1F1F1
310
F1F1F1F1F1F1F2F2F2F2F2F2F3F3F3FFFFFF5F5F5F0000000505050000001E1E
310
1EFFFFFFFCFCFCFCFCFCFBFBFBFDFDFDFDFDFDFEFEFEFEFEFEFFFFFFC6C6C646
310
4646131313131313131313131313121212121212121212111111111111111111
310
1010101010101010100F0F0F1C1C1C848484FEFEFEFFFFFFFFFFFFCDCDCD0404
310
040202020101010B0B0BEBEBEBFFFFFFFFFFFFFFFFFFFFFFFFFFFFFFFFFFFFFF
310
FFFFC0C0C0222222030303060606030303000000222222BCBCBCFFFFFFFFFFFF
310
ECECEC0D0D0D0000000000000B0B0BECECECFFFFFF7E7E7E0000000000000000
310
0000000000000000000000000000000000000000000000000000000000000000
310
00000000000000000000001C1C1CBBBBBBFFFFFFFFFFFFFFFFFF3F3F3F000000
310
0000000000000000000000000000000000000000000000000000000000000000
310
000000000000000000000000000000000000004F4F4FFFFFFF00111111101010
310
1010101111111313131313131515151919190909090303030505050404040404
310
043030302E2E2E2F2F2F3131313333333333333636362F2F2F7F7F7FFFFFFFFF
310
FFFFFFFFFFFDFDFDFCFCFCFBFBFBFAFAFAF8F8F8F7F7F7F7F7F7F6F6F6F5F5F5
310
F3F3F3F3F3F3F0F0F0F4F4F4FFFFFFFFFFFFFFFFFFFFFFFFFFFFFFCECECE0404
310
040303030000000B0B0BEBEBEBFFFFFFFFFFFFFFFFFFFFFFFFFFFFFFFFFFFFFF
310
FFFFFFFFFFF5F5F5D3D3D3D5D5D5D3D3D3D1D1D1C6C6C6C9C9C9FCFCFCFFFFFF
310
FFFFFFD5D5D5D4D4D4D4D4D4D1D1D1FDFDFDFFFFFFDFDFDFBBBBBBBDBDBDBDBD
310
BDBBBBBBB9B9B9B8B8B8B5B5B5B4B4B4B3B3B3B1B1B1AFAFAFAEAEAEADADADAB
310
ABABA9A9A9A9A9A9C4C4C4FDFDFDFFFFFFFFFFFFFFFFFFFFFFFFB8B8B89B9B9B
310
9D9D9D9B9B9B9B9B9B9999999999999999999999999999999999999999999999
310
999A9A9A989898979797979797989898CCCCCCFFFFFFFFFFFF00010101000000
310
0000000000000000000000000000000000000303030505050505050404040404
310
04000000000000000000000000000000000000000000000000555555FFFFFFFF
310
FFFFFFFFFFFFFFFFFFFFFFFFFFFFFFFFFFFFFFFFFFFFFFFFFFFFFFFFFFFFFFFF
310
FFFFFFFFFFFFFFFFFFFFFFFFFFFFFFFFFFFFFFFFFFFFFFFFFFFFFFCECECE0404
310
040101010101010B0B0BEBEBEBFFFFFFFFFFFFFFFFFFFFFFFFFFFFFFFFFFFFFF
310
FFFFFFFFFFFFFFFFFFFFFFFFFFFFFFFFFFFFFFFFFFFFFFFFFFFFFFFFFFFFFFFF
310
F5F5F57979797272727373737A7A7AF6F6F6FFFFFFFFFFFFFFFFFFFFFFFFFFFF
310
FFFFFFFFFFFFFFFFFFFFFFFFFFFFFFFFFFFFFFFFFFFFFFFFFFFFFFFFFFFFFFFF
310
FFFFFFFFFFFFFFFFFFFFFFFFFFFFFFFFFFFFFFFFFFFFFFFFFFFFFFFFFFFFFFFF
310
FFFFFFFFFFFFFFFFFFFFFFFFFFFFFFFFFFFFFFFFFFFFFFFFFFFFFFFFFFFFFFFF
310
FFFFFFFFFFFFFFFFFFFFFFFFFFFFFFFFFFFFFFFFFFFFFFFFFF00030303020202
310
0303030202020303030303030303030303030303030303030303030303030303
310
030303030303030303030303030303030303030303030000005A5A5AFFFFFFFF
310
FFFFFFFFFFFFFFFFFFFFFFFFFFFFFFFFFFFFFFFFFFFFFFFFFFFFFFFFFFFFFFFF
310
FFFFFFFFFFFFFFFFFFFFFFFFFFFFFFFFFFFFFFFFFFFFFFFFFFFFFFCECECE0303
310
030202020101010A0A0AEBEBEBFFFFFFFFFFFFFFFFFFFFFFFFFFFFFFFFFFFFFF
310
FFFFFFFFFFFFFFFFFFFFFFFFFFFFFFFFFFFFFFFFFFFFFFFFFFFFFFFFFFFFFFFF
310
EDEDED000000000000000000000000EDEDEDFFFFFFFFFFFFFFFFFFFFFFFFFFFF
310
FFFFFFFFFFFFFFFFFFFFFFFFFFFFFFFFFFFFFFFFFFFFFFFFFFFFFFFFFFFFFFFF
310
FFFFFFFFFFFFFFFFFFFFFFFFFFFFFFFFFFFFFFFFFFFFFFFFFFFFFFFFFFFFFFFF
310
FFFFFFFFFFFFFFFFFFFFFFFFFFFFFFFFFFFFFFFFFFFFFFFFFFFFFFFFFFFFFFFF
310
FFFFFFFFFFFFFFFFFFFFFFFFFFFFFFFFFFFFFFFFFFFFFFFFFF00141414121212
310
1212121212121111111212121111111111111111111111111111111010101010
310
101010100F0F0F1010101010100F0F0F0F0F0F0F0F0F030303646464FFFFFFFF
310
FFFFFFFFFFFFFFFFFFFFFFFFFFFFFFFFFFFFFFFFFFFFFFFFFFFFFFFFFFFFFFFF
310
FFFFFFFFFFFFFFFFFFFFFFFFFFFFFFFFFFFFFFFFFFFFFFFFFFFFFFD0D0D00A0A
310
0A070707060606111111ECECECFFFFFFFFFFFFFFFFFFFFFFFFFFFFFFFFFFFFFF
310
FFFFFFFFFFFFFFFFFFFFFFFFFFFFFFFFFFFFFFFFFFFFFFFFFFFFFFFFFFFFFFFF
310
F0F0F00E0E0E0000000101010C0C0CEFEFEFFFFFFFFFFFFFFFFFFFFFFFFFFFFF
310
FFFFFFFFFFFFFFFFFFFFFFFFFFFFFFFFFFFFFFFFFFFFFFFFFFFFFFFFFFFFFFFF
310
FFFFFFFFFFFFFFFFFFFFFFFFFFFFFFFFFFFFFFFFFFFFFFFFFFFFFFFFFFFFFFFF
310
FFFFFFFFFFFFFFFFFFFFFFFFFFFFFFFFFFFFFFFFFFFFFFFFFFFFFFFFFFFFFFFF
310
FFFFFFFFFFFFFFFFFFFFFFFFFFFFFFFFFFFFFFFFFFFFFFFFFF00000000000000
310
0000000000000000000000000000000000000000000000000000000000000000
310
0000000000000000000000000000000000000000000000000000000000000000
310
0000000000000000000000000000000000000000000000000000000000000000
310
0000000000000000000000000000000000000000000000000000000000000000
310
0000000000000000000000000000000000000000000000000000000000000000
310
0000000000000000000000000000000000000000000000000000000000000000
310
0000000000000000000000000000000000000000000000000000000000000000
310
0000000000000000000000000000000000000000000000000000000000000000
  1
OLE
  0
POINT
  5
D1D
330
1F
100
AcDbEntity
  8
KCAD_DIMS
 62
     7
370
    15
100
AcDbPoint
 10
-164.8872216662
 20
161.06849677035
 30
0.0
  0
POINT
  5
D1E
330
1F
100
AcDbEntity
  8
KCAD_DIMS
 62
     7
370
    15
100
AcDbPoint
 10
-204.1922338283999
 20
145.81849677035
 30
0.0
  0
LINE
  5
D1F
330
1F
100
AcDbEntity
  8
KCAD_DIMS
 62
     7
370
    -2
100
AcDbLine
 10
-164.8872216662
 20
161.06849677035
 30
0.0
 11
-175.2004957666999
 21
161.06849677035
 31
0.0
  0
LINE
  5
D20
330
1F
100
AcDbEntity
  8
KCAD_DIMS
 62
     7
370
    -2
100
AcDbLine
 10
-175.2004957666999
 20
161.06849677035
 30
0.0
 11
-175.2004957666999
 21
135.0
 31
0.0
  0
SOLID
  5
D21
330
1F
100
AcDbEntity
  8
KCAD_DIMS
 62
     7
370
    15
100
AcDbTrace
 10
-175.2004957666999
 20
161.06849677035
 30
0.0
 11
-175.6171624333666
 21
158.56849677035
 31
0.0
 12
-174.7838291000332
 22
158.56849677035
 32
0.0
 13
-174.7838291000332
 23
158.56849677035
 33
0.0
  0
LINE
  5
D23
330
1F
100
AcDbEntity
  8
KCAD_DIMS
 62
     7
370
    -2
100
AcDbLine
 10
-164.8872216662
 20
161.06849677035
 30
0.0
 11
-164.8872216662
 21
161.06849677035
 31
0.0
  0
MTEXT
  5
D24
330
1F
100
AcDbEntity
  8
KCAD_DIMS
 62
     7
100
AcDbMText
 10
-177.3338287666999
 20
145.54451132861
 30
0.0
 40
3.2
 41
0.0
 71
     5
 72
     1
  1
\A1;M30.5 P0.5
  7
KCADDIMSTANDARD
 11
6.123031769111886E-17
 21
1.0
 31
0.0
 73
     1
 44
1.0
  0
TEXT
  5
DAE
330
1F
100
AcDbEntity
  8
99
  6
Continuous
 62
     7
370
    30
100
AcDbText
 10
-118.9327263543026
 20
22.18925269947836
 30
0.0
 40
2.5
  1
図番登録
 41
0.9
  7
KCADTEXTSTANDARD
100
AcDbText
1001
Sigma
1000

  0
TEXT
  5
DAF
330
1F
100
AcDbEntity
  8
99
  6
Continuous
 62
     7
370
    30
100
AcDbText
 10
-118.50206474502
 20
16.94536430914425
 30
0.0
 40
2.0
  1
2008.5.15
 41
0.7000000000000001
  7
KCADTEXTSTANDARD
100
AcDbText
1001
Sigma
1000

  0
ENDSEC
  0
SECTION
  2
OBJECTS
  0
DICTIONARY
  5
C
330
0
100
AcDbDictionary
281
     1
  3
ACAD_COLOR
350
6C
  3
ACAD_GROUP
350
D
  3
ACAD_LAYOUT
350
1A
  3
ACAD_MATERIAL
350
6B
  3
ACAD_MLINESTYLE
350
17
  3
ACAD_PLOTSETTINGS
350
19
  3
ACAD_PLOTSTYLENAME
350
E
  3
ACAD_TABLESTYLE
350
92
  3
ACDBHEADERROUNDTRIPXREC
350
F43
  3
AcDbVariableDictionary
350
59
  3
DWGPROPS
350
F46
  3
KCADFRAMEINFO
350
2A7
  0
DICTIONARY
  5
6C
102
{ACAD_REACTORS
330
C
102
}
330
C
100
AcDbDictionary
281
     1
  0
DICTIONARY
  5
D
102
{ACAD_REACTORS
330
C
102
}
330
C
100
AcDbDictionary
281
     1
  3
*A1
350
8DA
  3
*A2
350
8DF
  3
*A3
350
B60
  3
*A4
350
B67
  0
DICTIONARY
  5
1A
102
{ACAD_REACTORS
330
C
102
}
330
C
100
AcDbDictionary
281
     1
  3
Model
350
22
  3
ﾚｲｱｳﾄ1
350
22F
  0
DICTIONARY
  5
6B
102
{ACAD_REACTORS
330
C
102
}
330
C
100
AcDbDictionary
281
     1
  0
DICTIONARY
  5
17
102
{ACAD_REACTORS
330
C
102
}
330
C
100
AcDbDictionary
281
     1
  3
Standard
350
18
  0
DICTIONARY
  5
19
102
{ACAD_REACTORS
330
C
102
}
330
C
100
AcDbDictionary
281
     1
  0
ACDBDICTIONARYWDFLT
  5
E
102
{ACAD_REACTORS
330
C
102
}
330
C
100
AcDbDictionary
281
     1
  3
Normal
350
F
100
AcDbDictionaryWithDefault
340
F
  0
DICTIONARY
  5
92
102
{ACAD_REACTORS
330
C
102
}
330
C
100
AcDbDictionary
281
     1
  3
Standard
350
93
  0
DICTIONARY
  5
F43
102
{ACAD_REACTORS
330
C
102
}
330
C
100
AcDbDictionary
281
     1
  3
COLORDICT
350
F44
  3
MATERIALDICT
350
F45
  0
DICTIONARY
  5
59
102
{ACAD_REACTORS
330
C
102
}
330
C
100
AcDbDictionary
281
     1
  3
CTABLESTYLE
350
98
  3
DIMASSOC
350
F42
  3
HIDETEXT
350
EBB
  0
XRECORD
  5
F46
102
{ACAD_REACTORS
330
C
102
}
330
C
100
AcDbXrecord
280
     1
  1
DWGPROPS COOKIE
  2

  3

  4

  6

  7

  8
fottrem
  9

300
=
301
=
302
=
303
=
304
=
305
=
306
=
307
=
308
=
309
=
 40
0.0
 41
2453353.717125822
 42
2453294.078907292
  1

 90
        0
  0
XRECORD
  5
2A7
102
{ACAD_REACTORS
330
C
102
}
330
C
100
AcDbXrecord
280
     1
  1
A3
 40
420.0
 40
297.0
 90
        1
 90
        1
  0
GROUP
  5
8DA
102
{ACAD_REACTORS
330
D
102
}
330
D
100
AcDbGroup
300
group from kcad family
 70
     1
 71
     1
340
8DB
340
8DD
340
8E0
340
8E2
  0
GROUP
  5
8DF
102
{ACAD_REACTORS
330
D
102
}
330
D
100
AcDbGroup
300
line with arrowBlockRef from kcad family
 70
     1
 71
     1
340
8E0
340
8E2
  0
GROUP
  5
B60
102
{ACAD_REACTORS
330
D
102
}
330
D
100
AcDbGroup
300
line with arrowBlockRef from kcad family
 70
     1
 71
     1
340
B61
340
B63
340
B65
  0
GROUP
  5
B67
102
{ACAD_REACTORS
330
D
102
}
330
D
100
AcDbGroup
300
group from kcad family
 70
     1
 71
     1
340
B68
340
B6A
340
B6C
340
B6E
340
B70
340
B72
340
B74
  0
LAYOUT
  5
22
102
{ACAD_REACTORS
330
1A
102
}
330
1A
100
AcDbPlotSettings
  1

  2
DWF ePlot.pc3
  4
ISO_A3_(297.00_x_420.00_MM)
  6

 40
5.793749809265136
 41
17.79375076293945
 42
5.79376220703125
 43
17.79376220703125
 44
297.0
 45
420.0
 46
0.0
 47
0.0
 48
-296.792
 49
207.367
140
-0.8107000000000002
141
1.3408
142
0.0
143
0.0
 70
 11952
 72
     1
 73
     0
 74
     4
  7

 75
     0
147
1.0
148
0.0
149
0.0
100
AcDbLayout
  1
Model
 70
     1
 71
     0
 10
-354.629
 20
-43.78333689299999
 11
65.37099999999998
 21
253.2166631069999
 12
0.0
 22
0.0
 32
0.0
 14
-297.0
 24
-0.283333331347
 34
0.0
 15
8.102596369743466
 25
209.7166595458999
 35
0.0
146
0.0
 13
0.0
 23
0.0
 33
0.0
 16
1.0
 26
0.0
 36
0.0
 17
0.0
 27
1.0
 37
0.0
 76
     0
330
1F
  0
LAYOUT
  5
22F
102
{ACAD_REACTORS
330
1A
102
}
330
1A
100
AcDbPlotSettings
  1

  2
D:\ACAD2000\plotters\HP DesignJet 700(System).pc3
  4

  6

 40
0.0
 41
0.0
 42
0.0
 43
0.0
 44
0.0
 45
0.0
 46
0.0
 47
0.0
 48
0.0
 49
0.0
140
0.0
141
0.0
142
1.0
143
1.0
 70
   688
 72
     0
 73
     0
 74
     5
  7
monochrome.ctb
 75
    16
147
1.0
148
0.0
149
0.0
100
AcDbLayout
  1
ﾚｲｱｳﾄ1
 70
     1
 71
     1
 10
0.0
 20
0.0
 11
12.0
 21
9.0
 12
0.0
 22
0.0
 32
0.0
 14
0.0
 24
0.0
 34
0.0
 15
0.0
 25
0.0
 35
0.0
146
0.0
 13
0.0
 23
0.0
 33
0.0
 16
1.0
 26
0.0
 36
0.0
 17
0.0
 27
1.0
 37
0.0
 76
     0
330
73
  0
MLINESTYLE
  5
18
102
{ACAD_REACTORS
330
17
102
}
330
17
100
AcDbMlineStyle
  2
Standard
 70
     0
  3

 62
   256
 51
90.0
 52
90.0
 71
     2
 49
0.5
 62
   256
  6
BYLAYER
 49
-0.5
 62
   256
  6
BYLAYER
  0
ACDBPLACEHOLDER
  5
F
102
{ACAD_REACTORS
330
E
102
}
330
E
  0
TABLESTYLE
  5
93
102
{ACAD_REACTORS
330
92
102
}
330
92
100
AcDbTableStyle
  3
Standard
 70
     0
 71
     0
 40
0.06
 41
0.06
280
     0
281
     0
  7
Standard
140
0.18
170
     2
 62
     0
 63
     7
283
     0
274
    -2
284
     1
 64
     0
275
    -2
285
     1
 65
     0
276
    -2
286
     1
 66
     0
277
    -2
287
     1
 67
     0
278
    -2
288
     1
 68
     0
279
    -2
289
     1
 69
     0
  7
Standard
140
0.25
170
     5
 62
     0
 63
     7
283
     0
274
    -2
284
     1
 64
     0
275
    -2
285
     1
 65
     0
276
    -2
286
     1
 66
     0
277
    -2
287
     1
 67
     0
278
    -2
288
     1
 68
     0
279
    -2
289
     1
 69
     0
  7
Standard
140
0.18
170
     5
 62
     0
 63
     7
283
     0
274
    -2
284
     1
 64
     0
275
    -2
285
     1
 65
     0
276
    -2
286
     1
 66
     0
277
    -2
287
     1
 67
     0
278
    -2
288
     1
 68
     0
279
    -2
289
     1
 69
     0
  0
XRECORD
  5
F44
102
{ACAD_REACTORS
330
F43
102
}
330
F43
100
AcDbXrecord
280
     1
340
6C
  0
XRECORD
  5
F45
102
{ACAD_REACTORS
330
F43
102
}
330
F43
100
AcDbXrecord
280
     1
340
6B
  0
DICTIONARYVAR
  5
98
102
{ACAD_REACTORS
330
59
102
}
330
59
100
DictionaryVariables
280
     0
  1
STANDARD
  0
DICTIONARYVAR
  5
F42
102
{ACAD_REACTORS
330
59
102
}
330
59
100
DictionaryVariables
280
     0
  1
1
  0
DICTIONARYVAR
  5
EBB
102
{ACAD_REACTORS
330
59
102
}
330
59
100
DictionaryVariables
280
     0
  1
1
  0
ENDSEC
  0
EOF
