  0
SECTION
  2
HEADER
  9
$ACADVER
  1
AC1015
  9
$ACADMAINTVER
 70
     6
  9
$DWGCODEPAGE
  3
ANSI_932
  9
$INSBASE
 10
0.0
 20
0.0
 30
0.0
  9
$EXTMIN
 10
-115.191334194
 20
-135.0307504175
 30
0.0
  9
$EXTMAX
 10
166.8086658059699
 20
65.469249582508
 30
0.0
  9
$LIMMIN
 10
-191.6913341899999
 20
-173.2067480499999
  9
$LIMMAX
 10
228.30866581
 20
123.79325195
  9
$ORTHOMODE
 70
     0
  9
$REGENMODE
 70
     1
  9
$FILLMODE
 70
     1
  9
$QTEXTMODE
 70
     0
  9
$MIRRTEXT
 70
     1
  9
$LTSCALE
 40
0.2
  9
$ATTMODE
 70
     1
  9
$TEXTSIZE
 40
3.2
  9
$TRACEWID
 40
1.0
  9
$TEXTSTYLE
  7
KCADTEXTSTANDARD
  9
$CLAYER
  8
0
  9
$CELTYPE
  6
Continuous
  9
$CECOLOR
 62
   134
  9
$CELTSCALE
 40
1.0
  9
$DISPSILH
 70
     0
  9
$DIMSCALE
 40
1.0
  9
$DIMASZ
 40
3.0
  9
$DIMEXO
 40
1.0
  9
$DIMDLI
 40
8.0
  9
$DIMRND
 40
0.0
  9
$DIMDLE
 40
0.0
  9
$DIMEXE
 40
1.0
  9
$DIMTP
 40
0.0
  9
$DIMTM
 40
0.0
  9
$DIMTXT
 40
3.2
  9
$DIMCEN
 40
2.5
  9
$DIMTSZ
 40
0.0
  9
$DIMTOL
 70
     0
  9
$DIMLIM
 70
     0
  9
$DIMTIH
 70
     0
  9
$DIMTOH
 70
     0
  9
$DIMSE1
 70
     0
  9
$DIMSE2
 70
     0
  9
$DIMTAD
 70
     1
  9
$DIMZIN
 70
     8
  9
$DIMBLK
  1

  9
$DIMASO
 70
     1
  9
$DIMSHO
 70
     1
  9
$DIMPOST
  1

  9
$DIMAPOST
  1

  9
$DIMALT
 70
     0
  9
$DIMALTD
 70
     2
  9
$DIMALTF
 40
25.4
  9
$DIMLFAC
 40
1.0
  9
$DIMTOFL
 70
     1
  9
$DIMTVP
 40
0.0
  9
$DIMTIX
 70
     0
  9
$DIMSOXD
 70
     0
  9
$DIMSAH
 70
     1
  9
$DIMBLK1
  1
KCAD_OPEN30
  9
$DIMBLK2
  1
KCAD_OPEN30
  9
$DIMSTYLE
  2
Standard
  9
$DIMCLRD
 70
     0
  9
$DIMCLRE
 70
     0
  9
$DIMCLRT
 70
     0
  9
$DIMTFAC
 40
0.667
  9
$DIMGAP
 40
0.5333000000000001
  9
$DIMJUST
 70
     0
  9
$DIMSD1
 70
     0
  9
$DIMSD2
 70
     0
  9
$DIMTOLJ
 70
     1
  9
$DIMTZIN
 70
     8
  9
$DIMALTZ
 70
     0
  9
$DIMALTTZ
 70
     0
  9
$DIMUPT
 70
     0
  9
$DIMDEC
 70
     3
  9
$DIMTDEC
 70
     3
  9
$DIMALTU
 70
     2
  9
$DIMALTTD
 70
     2
  9
$DIMTXSTY
  7
KCADDIMSTANDARD
  9
$DIMAUNIT
 70
     0
  9
$DIMADEC
 70
     3
  9
$DIMALTRND
 40
0.0
  9
$DIMAZIN
 70
     2
  9
$DIMDSEP
 70
    46
  9
$DIMATFIT
 70
     3
  9
$DIMFRAC
 70
     0
  9
$DIMLDRBLK
  1
KCAD_OPEN
  9
$DIMLUNIT
 70
     2
  9
$DIMLWD
 70
    -2
  9
$DIMLWE
 70
    -2
  9
$DIMTMOVE
 70
     0
  9
$LUNITS
 70
     2
  9
$LUPREC
 70
     4
  9
$SKETCHINC
 40
1.0
  9
$FILLETRAD
 40
5.0
  9
$AUNITS
 70
     0
  9
$AUPREC
 70
     0
  9
$MENU
  1
.
  9
$ELEVATION
 40
0.0
  9
$PELEVATION
 40
0.0
  9
$THICKNESS
 40
0.0
  9
$LIMCHECK
 70
     0
  9
$CHAMFERA
 40
5.0
  9
$CHAMFERB
 40
5.0
  9
$CHAMFERC
 40
5.0
  9
$CHAMFERD
 40
0.7853981633974483
  9
$SKPOLY
 70
     0
  9
$TDCREATE
 40
2453354.092125822
  9
$TDUCREATE
 40
2453353.717125822
  9
$TDUPDATE
 40
2453295.431713495
  9
$TDUUPDATE
 40
2453295.056713495
  9
$TDINDWG
 40
0.0534393634
  9
$TDUSRTIMER
 40
0.0534277894
  9
$USRTIMER
 70
     1
  9
$ANGBASE
 50
0.0
  9
$ANGDIR
 70
     0
  9
$PDMODE
 70
     0
  9
$PDSIZE
 40
0.0
  9
$PLINEWID
 40
0.0
  9
$SPLFRAME
 70
     0
  9
$SPLINETYPE
 70
     6
  9
$SPLINESEGS
 70
     8
  9
$HANDSEED
  5
671
  9
$SURFTAB1
 70
     6
  9
$SURFTAB2
 70
     6
  9
$SURFTYPE
 70
     6
  9
$SURFU
 70
     6
  9
$SURFV
 70
     6
  9
$UCSBASE
  2

  9
$UCSNAME
  2

  9
$UCSORG
 10
0.0
 20
0.0
 30
0.0
  9
$UCSXDIR
 10
1.0
 20
0.0
 30
0.0
  9
$UCSYDIR
 10
0.0
 20
1.0
 30
0.0
  9
$UCSORTHOREF
  2

  9
$UCSORTHOVIEW
 70
     0
  9
$UCSORGTOP
 10
0.0
 20
0.0
 30
0.0
  9
$UCSORGBOTTOM
 10
0.0
 20
0.0
 30
0.0
  9
$UCSORGLEFT
 10
0.0
 20
0.0
 30
0.0
  9
$UCSORGRIGHT
 10
0.0
 20
0.0
 30
0.0
  9
$UCSORGFRONT
 10
0.0
 20
0.0
 30
0.0
  9
$UCSORGBACK
 10
0.0
 20
0.0
 30
0.0
  9
$PUCSBASE
  2

  9
$PUCSNAME
  2

  9
$PUCSORG
 10
0.0
 20
0.0
 30
0.0
  9
$PUCSXDIR
 10
1.0
 20
0.0
 30
0.0
  9
$PUCSYDIR
 10
0.0
 20
1.0
 30
0.0
  9
$PUCSORTHOREF
  2

  9
$PUCSORTHOVIEW
 70
     0
  9
$PUCSORGTOP
 10
0.0
 20
0.0
 30
0.0
  9
$PUCSORGBOTTOM
 10
0.0
 20
0.0
 30
0.0
  9
$PUCSORGLEFT
 10
0.0
 20
0.0
 30
0.0
  9
$PUCSORGRIGHT
 10
0.0
 20
0.0
 30
0.0
  9
$PUCSORGFRONT
 10
0.0
 20
0.0
 30
0.0
  9
$PUCSORGBACK
 10
0.0
 20
0.0
 30
0.0
  9
$USERI1
 70
     0
  9
$USERI2
 70
     0
  9
$USERI3
 70
     0
  9
$USERI4
 70
   257
  9
$USERI5
 70
     0
  9
$USERR1
 40
0.0
  9
$USERR2
 40
0.0
  9
$USERR3
 40
0.0
  9
$USERR4
 40
0.0
  9
$USERR5
 40
0.0
  9
$WORLDVIEW
 70
     1
  9
$SHADEDGE
 70
     3
  9
$SHADEDIF
 70
    70
  9
$TILEMODE
 70
     1
  9
$MAXACTVP
 70
    48
  9
$PINSBASE
 10
0.0
 20
0.0
 30
0.0
  9
$PLIMCHECK
 70
     0
  9
$PEXTMIN
 10
0.0
 20
0.0
 30
0.0
  9
$PEXTMAX
 10
0.0
 20
0.0
 30
0.0
  9
$PLIMMIN
 10
0.0
 20
0.0
  9
$PLIMMAX
 10
12.0
 20
9.0
  9
$UNITMODE
 70
     0
  9
$VISRETAIN
 70
     1
  9
$PLINEGEN
 70
     0
  9
$PSLTSCALE
 70
     1
  9
$TREEDEPTH
 70
  3020
  9
$CMLSTYLE
  2
Standard
  9
$CMLJUST
 70
     0
  9
$CMLSCALE
 40
20.0
  9
$PROXYGRAPHICS
 70
     1
  9
$MEASUREMENT
 70
     1
  9
$CELWEIGHT
370
    15
  9
$ENDCAPS
280
     0
  9
$JOINSTYLE
280
     0
  9
$LWDISPLAY
290
     0
  9
$INSUNITS
 70
     0
  9
$HYPERLINKBASE
  1

  9
$STYLESHEET
  1

  9
$XEDIT
290
     0
  9
$CEPSNTYPE
380
     0
  9
$PSTYLEMODE
290
     1
  9
$FINGERPRINTGUID
  2
{1989D620-E742-11D2-9219-00105A146177}
  9
$VERSIONGUID
  2
{4F874211-F75B-43E7-8879-949615C01AE8}
  9
$EXTNAMES
290
     1
  9
$PSVPSCALE
 40
0.0
  9
$OLESTARTUP
290
     0
  0
ENDSEC
  0
SECTION
  2
CLASSES
  0
CLASS
  1
ACDBDICTIONARYWDFLT
  2
AcDbDictionaryWithDefault
  3
ObjectDBX Classes
 90
        0
280
     0
281
     0
  0
CLASS
  1
ACDBPLACEHOLDER
  2
AcDbPlaceHolder
  3
ObjectDBX Classes
 90
        0
280
     0
281
     0
  0
CLASS
  1
LAYOUT
  2
AcDbLayout
  3
ObjectDBX Classes
 90
        0
280
     0
281
     0
  0
CLASS
  1
DICTIONARYVAR
  2
AcDbDictionaryVar
  3
ObjectDBX Classes
 90
        0
280
     0
281
     0
  0
CLASS
  1
TABLESTYLE
  2
AcDbTableStyle
  3
ObjectDBX Classes
 90
     2047
280
     0
281
     0
  0
ENDSEC
  0
SECTION
  2
TABLES
  0
TABLE
  2
VPORT
  5
8
330
0
100
AcDbSymbolTable
 70
     2
  0
VPORT
  5
97
330
8
100
AcDbSymbolTableRecord
100
AcDbViewportTableRecord
  2
*Active
 70
     0
 10
0.0
 20
0.0
 11
1.0
 21
1.0
 12
18.30866580598476
 22
-30.03075041749607
 13
0.0
 23
0.0
 14
10.0
 24
10.0
 15
10.0
 25
10.0
 16
0.0
 26
0.0
 36
1.0
 17
0.0
 27
0.0
 37
0.0
 40
214.200000000008
 41
2.203935599284436
 42
50.0
 43
0.0
 44
0.0
 50
0.0
 51
0.0
 71
    16
 72
 20000
 73
     1
 74
     1
 75
     0
 76
     0
 77
     0
 78
     0
281
     0
 65
     0
110
0.0
120
0.0
130
0.0
111
1.0
121
0.0
131
0.0
112
0.0
122
1.0
132
0.0
 79
     0
146
0.0
  0
ENDTAB
  0
TABLE
  2
LTYPE
  5
5
330
0
100
AcDbSymbolTable
 70
     6
  0
LTYPE
  5
14
330
5
100
AcDbSymbolTableRecord
100
AcDbLinetypeTableRecord
  2
ByBlock
 70
     0
  3

 72
    65
 73
     0
 40
0.0
  0
LTYPE
  5
15
330
5
100
AcDbSymbolTableRecord
100
AcDbLinetypeTableRecord
  2
ByLayer
 70
     0
  3

 72
    65
 73
     0
 40
0.0
  0
LTYPE
  5
16
330
5
100
AcDbSymbolTableRecord
100
AcDbLinetypeTableRecord
  2
Continuous
 70
     0
  3
Solid line
 72
    65
 73
     0
 40
0.0
  0
LTYPE
  5
62B
330
5
100
AcDbSymbolTableRecord
100
AcDbLinetypeTableRecord
  2
CENTER
 70
     0
  3
Center ____ _ ____ _ ____ _ ____ _ ____ _ ____
 72
    65
 73
     4
 40
50.8
 49
31.75
 74
     4
 75
     0
340
0
 46
1.0
 50
0.0
 44
0.0
 45
0.0
 49
-6.349999999999999
 74
     4
 75
     0
340
0
 46
1.0
 50
0.0
 44
0.0
 45
0.0
 49
6.349999999999999
 74
     4
 75
     0
340
0
 46
1.0
 50
0.0
 44
0.0
 45
0.0
 49
-6.349999999999999
 74
     4
 75
     0
340
0
 46
1.0
 50
0.0
 44
0.0
 45
0.0
  0
LTYPE
  5
62C
330
5
100
AcDbSymbolTableRecord
100
AcDbLinetypeTableRecord
  2
DASHED
 70
     0
  3
Dashed __ __ __ __ __ __ __ __ __ __ __ __ __ _
 72
    65
 73
     2
 40
19.05
 49
12.7
 74
     4
 75
     0
340
0
 46
1.0
 50
0.0
 44
0.0
 45
0.0
 49
-6.349999999999999
 74
     4
 75
     0
340
0
 46
1.0
 50
0.0
 44
0.0
 45
0.0
  0
LTYPE
  5
62D
330
5
100
AcDbSymbolTableRecord
100
AcDbLinetypeTableRecord
  2
HIDDEN
 70
     0
  3
Hidden __ __ __ __ __ __ __ __ __ __ __ __ __ _
 72
    65
 73
     2
 40
9.524999999999999
 49
6.349999999999999
 74
     4
 75
     0
340
0
 46
1.0
 50
0.0
 44
0.0
 45
0.0
 49
-3.174999999999999
 74
     4
 75
     0
340
0
 46
1.0
 50
0.0
 44
0.0
 45
0.0
  0
LTYPE
  5
62E
330
5
100
AcDbSymbolTableRecord
100
AcDbLinetypeTableRecord
  2
PHANTOM
 70
     0
  3
Phantom ______  __  __  ______  __  __  ______
 72
    65
 73
     6
 40
63.50000000000001
 49
31.75
 74
     4
 75
     0
340
0
 46
1.0
 50
0.0
 44
0.0
 45
0.0
 49
-6.349999999999999
 74
     4
 75
     0
340
0
 46
1.0
 50
0.0
 44
0.0
 45
0.0
 49
6.349999999999999
 74
     4
 75
     0
340
0
 46
1.0
 50
0.0
 44
0.0
 45
0.0
 49
-6.349999999999999
 74
     4
 75
     0
340
0
 46
1.0
 50
0.0
 44
0.0
 45
0.0
 49
6.349999999999999
 74
     4
 75
     0
340
0
 46
1.0
 50
0.0
 44
0.0
 45
0.0
 49
-6.349999999999999
 74
     4
 75
     0
340
0
 46
1.0
 50
0.0
 44
0.0
 45
0.0
  0
LTYPE
  5
62F
330
5
100
AcDbSymbolTableRecord
100
AcDbLinetypeTableRecord
  2
RUPTURE
 70
     0
  3
Rupture line
 72
    65
 73
     4
 40
45.72
 49
25.4
 74
     4
 75
     0
340
0
 46
1.0
 50
0.0
 44
0.0
 45
0.0
 49
-5.08
 74
     4
 75
   131
340
11
 46
5.08
 50
0.0
 44
-5.08
 45
0.0
 49
-10.16
 74
     4
 75
   131
340
11
 46
5.08
 50
180.0
 44
5.08
 45
0.0
 49
-5.08
 74
     4
 75
     0
340
0
 46
1.0
 50
0.0
 44
0.0
 45
0.0
  0
ENDTAB
  0
TABLE
  2
LAYER
  5
2
330
0
100
AcDbSymbolTable
 70
    15
  0
LAYER
  5
10
330
2
100
AcDbSymbolTableRecord
100
AcDbLayerTableRecord
  2
0
 70
     0
 62
     7
  6
Continuous
370
    -3
390
F
  0
LAYER
  5
554
330
2
100
AcDbSymbolTableRecord
100
AcDbLayerTableRecord
  2
KCAD_DIMS
 70
     0
 62
   134
  6
Continuous
370
    15
390
F
  0
LAYER
  5
4F
330
2
100
AcDbSymbolTableRecord
100
AcDbLayerTableRecord
  2
DEFPOINTS
 70
     0
 62
     7
  6
Continuous
290
     0
370
    -3
390
F
  0
LAYER
  5
20B
330
2
100
AcDbSymbolTableRecord
100
AcDbLayerTableRecord
  2
KCAD_ASST
 70
     0
 62
   134
  6
Continuous
370
    15
390
F
  0
LAYER
  5
20C
330
2
100
AcDbSymbolTableRecord
100
AcDbLayerTableRecord
  2
KCAD_RASTER
 70
     0
 62
     7
  6
Continuous
370
    30
390
F
  0
LAYER
  5
20D
330
2
100
AcDbSymbolTableRecord
100
AcDbLayerTableRecord
  2
SYBCENTER
 70
     0
 62
   134
  6
CENTER
370
    15
390
F
  0
LAYER
  5
20E
330
2
100
AcDbSymbolTableRecord
100
AcDbLayerTableRecord
  2
SYBHIDE
 70
     0
 62
   134
  6
HIDDEN
370
    15
390
F
  0
LAYER
  5
20F
330
2
100
AcDbSymbolTableRecord
100
AcDbLayerTableRecord
  2
SYBOUTLINE
 70
     0
 62
     7
  6
Continuous
370
    30
390
F
  0
LAYER
  5
210
330
2
100
AcDbSymbolTableRecord
100
AcDbLayerTableRecord
  2
SYBTHREAD
 70
     0
 62
   134
  6
Continuous
370
    15
390
F
  0
LAYER
  5
211
330
2
100
AcDbSymbolTableRecord
100
AcDbLayerTableRecord
  2
SYBTHRHID
 70
     0
 62
   134
  6
HIDDEN
370
    15
390
F
  0
LAYER
  5
282
330
2
100
AcDbSymbolTableRecord
100
AcDbLayerTableRecord
  2
KCAD_UIR_TMP_LAYER_
 70
     0
 62
     7
  6
Continuous
370
    -3
390
F
  0
LAYER
  5
2A8
330
2
100
AcDbSymbolTableRecord
100
AcDbLayerTableRecord
  2
KCAD_CPM_MAX_LAYER
 70
     3
 62
     7
  6
Continuous
370
    -3
390
F
  0
LAYER
  5
409
330
2
100
AcDbSymbolTableRecord
100
AcDbLayerTableRecord
  2
1
 70
     0
 62
     7
  6
Continuous
370
    -3
390
F
  0
LAYER
  5
41C
330
2
100
AcDbSymbolTableRecord
100
AcDbLayerTableRecord
  2
99
 70
     0
 62
     7
  6
Continuous
370
    -3
390
F
  0
LAYER
  5
4A7
330
2
100
AcDbSymbolTableRecord
100
AcDbLayerTableRecord
  2
2
 70
     0
 62
     7
  6
Continuous
370
    -3
390
F
  0
ENDTAB
  0
TABLE
  2
STYLE
  5
3
330
0
100
AcDbSymbolTable
 70
     5
  0
STYLE
  5
11
330
3
100
AcDbSymbolTableRecord
100
AcDbTextStyleTableRecord
  2
Standard
 70
     0
 40
0.0
 41
1.0
 50
0.0
 71
     0
 42
3.2
  3
txt.shx
  4
bigfont.shx
  0
STYLE
  5
17F
330
3
100
AcDbSymbolTableRecord
100
AcDbTextStyleTableRecord
  2

 70
     1
 40
0.0
 41
1.0
 50
0.0
 71
     0
 42
3.2
  3
ltypeshp.shx
  4

  0
STYLE
  5
189
330
3
100
AcDbSymbolTableRecord
100
AcDbTextStyleTableRecord
  2
KCADDIMSTANDARD
 70
     0
 40
0.0
 41
1.0
 50
0.0
 71
     0
 42
3.2
  3
txt.shx
  4
bigfont.shx
  0
STYLE
  5
18A
330
3
100
AcDbSymbolTableRecord
100
AcDbTextStyleTableRecord
  2
KCADTEXTSTANDARD
 70
     0
 40
0.0
 41
1.0
 50
0.0
 71
     0
 42
3.2
  3
txt.shx
  4
bigfont.shx
  0
STYLE
  5
1AD
330
3
100
AcDbSymbolTableRecord
100
AcDbTextStyleTableRecord
  2
KCADTEXT2
 70
     0
 40
0.0
 41
1.0
 50
0.0
 71
     0
 42
3.2
  3
txt.shx
  4
extfont.shx
  0
ENDTAB
  0
TABLE
  2
VIEW
  5
6
330
0
100
AcDbSymbolTable
 70
     0
  0
ENDTAB
  0
TABLE
  2
UCS
  5
7
330
0
100
AcDbSymbolTable
 70
     0
  0
ENDTAB
  0
TABLE
  2
APPID
  5
9
330
0
100
AcDbSymbolTable
 70
     3
  0
APPID
  5
12
330
9
100
AcDbSymbolTableRecord
100
AcDbRegAppTableRecord
  2
ACAD
 70
     0
  0
APPID
  5
629
330
9
100
AcDbSymbolTableRecord
100
AcDbRegAppTableRecord
  2
Sigma
 70
     0
  0
APPID
  5
62A
330
9
100
AcDbSymbolTableRecord
100
AcDbRegAppTableRecord
  2
KCAD_DIM_EXT
 70
     0
  0
ENDTAB
  0
TABLE
  2
DIMSTYLE
  5
A
330
0
100
AcDbSymbolTable
 70
     1
100
AcDbDimStyleTable
  0
DIMSTYLE
105
27
102
{ACAD_REACTORS
330
4F8
102
}
330
A
100
AcDbSymbolTableRecord
100
AcDbDimStyleTableRecord
  2
Standard
 70
     0
340
11
  0
ENDTAB
  0
TABLE
  2
BLOCK_RECORD
  5
1
330
0
100
AcDbSymbolTable
 70
    29
  0
BLOCK_RECORD
  5
1F
330
1
100
AcDbSymbolTableRecord
100
AcDbBlockTableRecord
  2
*Model_Space
340
22
  0
BLOCK_RECORD
  5
73
330
1
100
AcDbSymbolTableRecord
100
AcDbBlockTableRecord
  2
*Paper_Space
340
22F
  0
BLOCK_RECORD
  5
555
330
1
100
AcDbSymbolTableRecord
100
AcDbBlockTableRecord
  2
KCAD_OPEN
340
0
  0
BLOCK_RECORD
  5
3C
330
1
100
AcDbSymbolTableRecord
100
AcDbBlockTableRecord
  2
KCAD_DOTSMALL
340
0
  0
BLOCK_RECORD
  5
44
330
1
100
AcDbSymbolTableRecord
100
AcDbBlockTableRecord
  2
KCAD_NONE
340
0
  0
BLOCK_RECORD
  5
FC
330
1
100
AcDbSymbolTableRecord
100
AcDbBlockTableRecord
  2
_CLOSED
340
0
  0
BLOCK_RECORD
  5
103
330
1
100
AcDbSymbolTableRecord
100
AcDbBlockTableRecord
  2
_DOT
340
0
  0
BLOCK_RECORD
  5
10B
330
1
100
AcDbSymbolTableRecord
100
AcDbBlockTableRecord
  2
_CLOSEDBLANK
340
0
  0
BLOCK_RECORD
  5
111
330
1
100
AcDbSymbolTableRecord
100
AcDbBlockTableRecord
  2
_OBLIQUE
340
0
  0
BLOCK_RECORD
  5
115
330
1
100
AcDbSymbolTableRecord
100
AcDbBlockTableRecord
  2
_ARCHTICK
340
0
  0
BLOCK_RECORD
  5
11C
330
1
100
AcDbSymbolTableRecord
100
AcDbBlockTableRecord
  2
_OPEN
340
0
  0
BLOCK_RECORD
  5
122
330
1
100
AcDbSymbolTableRecord
100
AcDbBlockTableRecord
  2
_ORIGIN
340
0
  0
BLOCK_RECORD
  5
127
330
1
100
AcDbSymbolTableRecord
100
AcDbBlockTableRecord
  2
_OPEN90
340
0
  0
BLOCK_RECORD
  5
12D
330
1
100
AcDbSymbolTableRecord
100
AcDbBlockTableRecord
  2
_OPEN30
340
0
102
{BLKREFS
331
52D
331
52E
102
}
  0
BLOCK_RECORD
  5
133
330
1
100
AcDbSymbolTableRecord
100
AcDbBlockTableRecord
  2
_DOTBLANK
340
0
  0
BLOCK_RECORD
  5
138
330
1
100
AcDbSymbolTableRecord
100
AcDbBlockTableRecord
  2
_DOTSMALL
340
0
  0
BLOCK_RECORD
  5
13F
330
1
100
AcDbSymbolTableRecord
100
AcDbBlockTableRecord
  2
_BOXFILLED
340
0
  0
BLOCK_RECORD
  5
144
330
1
100
AcDbSymbolTableRecord
100
AcDbBlockTableRecord
  2
_BOXBLANK
340
0
  0
BLOCK_RECORD
  5
14C
330
1
100
AcDbSymbolTableRecord
100
AcDbBlockTableRecord
  2
_DATUMFILLED
340
0
  0
BLOCK_RECORD
  5
150
330
1
100
AcDbSymbolTableRecord
100
AcDbBlockTableRecord
  2
_DATUMBLANK
340
0
  0
BLOCK_RECORD
  5
156
330
1
100
AcDbSymbolTableRecord
100
AcDbBlockTableRecord
  2
_INTEGRAL
340
0
  0
BLOCK_RECORD
  5
1F1
330
1
100
AcDbSymbolTableRecord
100
AcDbBlockTableRecord
  2
_Origin2
340
0
  0
BLOCK_RECORD
  5
1F7
330
1
100
AcDbSymbolTableRecord
100
AcDbBlockTableRecord
  2
KCAD_OPEN30
340
0
  0
BLOCK_RECORD
  5
222
330
1
100
AcDbSymbolTableRecord
100
AcDbBlockTableRecord
  2
_None
340
0
  0
BLOCK_RECORD
  5
283
330
1
100
AcDbSymbolTableRecord
100
AcDbBlockTableRecord
  2
_Small
340
0
  0
BLOCK_RECORD
  5
287
330
1
100
AcDbSymbolTableRecord
100
AcDbBlockTableRecord
  2
KCAD_OPEN_2
340
0
  0
BLOCK_RECORD
  5
28E
330
1
100
AcDbSymbolTableRecord
100
AcDbBlockTableRecord
  2
KCAD_OPEN30_2
340
0
  0
BLOCK_RECORD
  5
2AD
330
1
100
AcDbSymbolTableRecord
100
AcDbBlockTableRecord
  2
KCAD_OPEN30ANG
340
0
  0
BLOCK_RECORD
  5
2B6
330
1
100
AcDbSymbolTableRecord
100
AcDbBlockTableRecord
  2
KCAD_DOTANG
340
0
  0
BLOCK_RECORD
  5
4F9
330
1
100
AcDbSymbolTableRecord
100
AcDbBlockTableRecord
  2
*D27
340
0
  0
BLOCK_RECORD
  5
548
330
1
100
AcDbSymbolTableRecord
100
AcDbBlockTableRecord
  2
*D28
340
0
  0
ENDTAB
  0
ENDSEC
  0
SECTION
  2
BLOCKS
  0
BLOCK
  5
20
330
1F
100
AcDbEntity
  8
0
100
AcDbBlockBegin
  2
*Model_Space
 70
     0
 71
     0
 10
0.0
 20
0.0
 30
0.0
  3
*Model_Space
  1

  0
ENDBLK
  5
21
330
1F
100
AcDbEntity
  8
0
100
AcDbBlockEnd
  0
BLOCK
  5
75
330
73
100
AcDbEntity
 67
     1
  8
0
100
AcDbBlockBegin
  2
*Paper_Space
 70
     0
 71
     0
 10
0.0
 20
0.0
 30
0.0
  3
*Paper_Space
  1

  0
ENDBLK
  5
76
330
73
100
AcDbEntity
 67
     1
  8
0
100
AcDbBlockEnd
  0
BLOCK
  5
632
330
555
100
AcDbEntity
  8
KCAD_DIMS
100
AcDbBlockBegin
  2
KCAD_OPEN
 70
     0
 71
     0
 10
0.0
 20
0.0
 30
0.0
  3
KCAD_OPEN
  1

  0
LINE
  5
590
330
555
100
AcDbEntity
  8
0
  6
Continuous
 62
     0
370
    -2
100
AcDbLine
 10
0.0
 20
0.0
 30
0.0
 11
-1.0
 21
0.0
 31
0.0
  0
LINE
  5
23
330
555
100
AcDbEntity
  8
0
  6
Continuous
 62
     0
370
    -2
100
AcDbLine
 10
0.0
 20
0.0
 30
0.0
 11
-1.0
 21
0.158384
 31
0.0
  0
LINE
  5
24
330
555
100
AcDbEntity
  8
0
  6
Continuous
 62
     0
370
    -2
100
AcDbLine
 10
0.0
 20
0.0
 30
0.0
 11
-1.0
 21
-0.158384
 31
0.0
  0
ENDBLK
  5
633
330
555
100
AcDbEntity
  8
KCAD_DIMS
100
AcDbBlockEnd
  0
BLOCK
  5
634
330
3C
100
AcDbEntity
  8
KCAD_DIMS
100
AcDbBlockBegin
  2
KCAD_DOTSMALL
 70
     0
 71
     0
 10
0.0
 20
0.0
 30
0.0
  3
KCAD_DOTSMALL
  1

  0
LWPOLYLINE
  5
3D
330
3C
100
AcDbEntity
  8
KCAD_DIMS
 62
     0
100
AcDbPolyline
 90
        2
 70
     1
 43
0.5
 10
0.06252
 20
0.0
 42
1.0
 10
-0.06262
 20
0.0
 42
1.0
  0
LINE
  5
41
330
3C
100
AcDbEntity
  8
0
  6
Continuous
 62
     0
370
    -2
100
AcDbLine
 10
0.0
 20
0.0
 30
0.0
 11
-1.0
 21
0.0
 31
0.0
  0
ENDBLK
  5
635
330
3C
100
AcDbEntity
  8
0
100
AcDbBlockEnd
  0
BLOCK
  5
636
330
44
100
AcDbEntity
  8
KCAD_DIMS
100
AcDbBlockBegin
  2
KCAD_NONE
 70
     0
 71
     0
 10
0.0
 20
0.0
 30
0.0
  3
KCAD_NONE
  1

  0
LINE
  5
45
330
44
100
AcDbEntity
  8
0
  6
Continuous
 62
     0
370
    -2
100
AcDbLine
 10
0.0
 20
0.0
 30
0.0
 11
-1.0
 21
0.0
 31
0.0
  0
ENDBLK
  5
637
330
44
100
AcDbEntity
  8
0
100
AcDbBlockEnd
  0
BLOCK
  5
638
330
FC
100
AcDbEntity
  8
0
100
AcDbBlockBegin
  2
_CLOSED
 70
     0
 71
     0
 10
0.0
 20
0.0
 30
0.0
  3
_CLOSED
  1

  0
LINE
  5
FE
330
FC
100
AcDbEntity
  8
0
  6
Continuous
 62
     0
370
    -2
100
AcDbLine
 10
-1.0
 20
0.166667
 30
0.0
 11
0.0
 21
0.0
 31
0.0
  0
LINE
  5
FF
330
FC
100
AcDbEntity
  8
0
  6
Continuous
 62
     0
370
    -2
100
AcDbLine
 10
0.0
 20
0.0
 30
0.0
 11
-1.0
 21
-0.166667
 31
0.0
  0
LINE
  5
100
330
FC
100
AcDbEntity
  8
0
  6
Continuous
 62
     0
370
    -2
100
AcDbLine
 10
-1.0
 20
0.166667
 30
0.0
 11
-1.0
 21
-0.166667
 31
0.0
  0
LINE
  5
101
330
FC
100
AcDbEntity
  8
0
  6
Continuous
 62
     0
370
    -2
100
AcDbLine
 10
0.0
 20
0.0
 30
0.0
 11
-1.0
 21
0.0
 31
0.0
  0
ENDBLK
  5
639
330
FC
100
AcDbEntity
  8
0
100
AcDbBlockEnd
  0
BLOCK
  5
63A
330
103
100
AcDbEntity
  8
0
100
AcDbBlockBegin
  2
_DOT
 70
     0
 71
     0
 10
0.0
 20
0.0
 30
0.0
  3
_DOT
  1

  0
LWPOLYLINE
  5
105
330
103
100
AcDbEntity
  8
0
  6
ByBlock
 62
     0
100
AcDbPolyline
 90
        2
 70
     1
 43
0.5
 10
-0.25
 20
0.0
 42
1.0
 10
0.25
 20
0.0
 42
1.0
  0
LINE
  5
109
330
103
100
AcDbEntity
  8
0
  6
Continuous
 62
     0
370
    -2
100
AcDbLine
 10
-0.5
 20
0.0
 30
0.0
 11
-1.0
 21
0.0
 31
0.0
  0
ENDBLK
  5
63B
330
103
100
AcDbEntity
  8
0
100
AcDbBlockEnd
  0
BLOCK
  5
63C
330
10B
100
AcDbEntity
  8
0
100
AcDbBlockBegin
  2
_CLOSEDBLANK
 70
     0
 71
     0
 10
0.0
 20
0.0
 30
0.0
  3
_CLOSEDBLANK
  1

  0
LINE
  5
10D
330
10B
100
AcDbEntity
  8
0
  6
Continuous
 62
     0
370
    -2
100
AcDbLine
 10
-1.0
 20
0.166667
 30
0.0
 11
0.0
 21
0.0
 31
0.0
  0
LINE
  5
10E
330
10B
100
AcDbEntity
  8
0
  6
Continuous
 62
     0
370
    -2
100
AcDbLine
 10
0.0
 20
0.0
 30
0.0
 11
-1.0
 21
-0.166667
 31
0.0
  0
LINE
  5
10F
330
10B
100
AcDbEntity
  8
0
  6
Continuous
 62
     0
370
    -2
100
AcDbLine
 10
-1.0
 20
0.166667
 30
0.0
 11
-1.0
 21
-0.166667
 31
0.0
  0
ENDBLK
  5
63D
330
10B
100
AcDbEntity
  8
0
100
AcDbBlockEnd
  0
BLOCK
  5
63E
330
111
100
AcDbEntity
  8
0
100
AcDbBlockBegin
  2
_OBLIQUE
 70
     0
 71
     0
 10
0.0
 20
0.0
 30
0.0
  3
_OBLIQUE
  1

  0
LINE
  5
113
330
111
100
AcDbEntity
  8
0
  6
Continuous
 62
     0
370
    -2
100
AcDbLine
 10
-0.5
 20
-0.5
 30
0.0
 11
0.5
 21
0.5
 31
0.0
  0
ENDBLK
  5
63F
330
111
100
AcDbEntity
  8
0
100
AcDbBlockEnd
  0
BLOCK
  5
640
330
115
100
AcDbEntity
  8
0
100
AcDbBlockBegin
  2
_ARCHTICK
 70
     0
 71
     0
 10
0.0
 20
0.0
 30
0.0
  3
_ARCHTICK
  1

  0
LWPOLYLINE
  5
117
330
115
100
AcDbEntity
  8
0
  6
ByBlock
 62
     0
100
AcDbPolyline
 90
        2
 70
     0
 43
0.15
 10
-0.5
 20
-0.5
 10
0.5
 20
0.5
  0
ENDBLK
  5
641
330
115
100
AcDbEntity
  8
0
100
AcDbBlockEnd
  0
BLOCK
  5
642
330
11C
100
AcDbEntity
  8
0
100
AcDbBlockBegin
  2
_OPEN
 70
     0
 71
     0
 10
0.0
 20
0.0
 30
0.0
  3
_OPEN
  1

  0
LINE
  5
11E
330
11C
100
AcDbEntity
  8
0
  6
Continuous
 62
     0
370
    -2
100
AcDbLine
 10
-1.0
 20
0.166667
 30
0.0
 11
0.0
 21
0.0
 31
0.0
  0
LINE
  5
11F
330
11C
100
AcDbEntity
  8
0
  6
Continuous
 62
     0
370
    -2
100
AcDbLine
 10
0.0
 20
0.0
 30
0.0
 11
-1.0
 21
-0.166667
 31
0.0
  0
LINE
  5
120
330
11C
100
AcDbEntity
  8
0
  6
Continuous
 62
     0
370
    -2
100
AcDbLine
 10
0.0
 20
0.0
 30
0.0
 11
-1.0
 21
0.0
 31
0.0
  0
ENDBLK
  5
643
330
11C
100
AcDbEntity
  8
0
100
AcDbBlockEnd
  0
BLOCK
  5
644
330
122
100
AcDbEntity
  8
0
100
AcDbBlockBegin
  2
_ORIGIN
 70
     0
 71
     0
 10
0.0
 20
0.0
 30
0.0
  3
_ORIGIN
  1

  0
CIRCLE
  5
124
330
122
100
AcDbEntity
  8
0
  6
ByBlock
 62
     0
100
AcDbCircle
 10
0.0
 20
0.0
 30
0.0
 40
0.5
  0
LINE
  5
125
330
122
100
AcDbEntity
  8
0
  6
Continuous
 62
     0
370
    -2
100
AcDbLine
 10
0.0
 20
0.0
 30
0.0
 11
-1.0
 21
0.0
 31
0.0
  0
ENDBLK
  5
645
330
122
100
AcDbEntity
  8
0
100
AcDbBlockEnd
  0
BLOCK
  5
646
330
127
100
AcDbEntity
  8
0
100
AcDbBlockBegin
  2
_OPEN90
 70
     0
 71
     0
 10
0.0
 20
0.0
 30
0.0
  3
_OPEN90
  1

  0
LINE
  5
129
330
127
100
AcDbEntity
  8
0
  6
Continuous
 62
     0
370
    -2
100
AcDbLine
 10
-0.5
 20
0.5
 30
0.0
 11
0.0
 21
0.0
 31
0.0
  0
LINE
  5
12A
330
127
100
AcDbEntity
  8
0
  6
Continuous
 62
     0
370
    -2
100
AcDbLine
 10
0.0
 20
0.0
 30
0.0
 11
-0.5
 21
-0.5
 31
0.0
  0
LINE
  5
12B
330
127
100
AcDbEntity
  8
0
  6
Continuous
 62
     0
370
    -2
100
AcDbLine
 10
0.0
 20
0.0
 30
0.0
 11
-1.0
 21
0.0
 31
0.0
  0
ENDBLK
  5
647
330
127
100
AcDbEntity
  8
0
100
AcDbBlockEnd
  0
BLOCK
  5
648
330
12D
100
AcDbEntity
  8
0
100
AcDbBlockBegin
  2
_OPEN30
 70
     0
 71
     0
 10
0.0
 20
0.0
 30
0.0
  3
_OPEN30
  1

  0
LINE
  5
12F
330
12D
100
AcDbEntity
  8
0
  6
Continuous
 62
     0
370
    -2
100
AcDbLine
 10
-1.0
 20
0.267949
 30
0.0
 11
0.0
 21
0.0
 31
0.0
  0
LINE
  5
130
330
12D
100
AcDbEntity
  8
0
  6
Continuous
 62
     0
370
    -2
100
AcDbLine
 10
0.0
 20
0.0
 30
0.0
 11
-1.0
 21
-0.267949
 31
0.0
  0
LINE
  5
131
330
12D
100
AcDbEntity
  8
0
  6
Continuous
 62
     0
370
    -2
100
AcDbLine
 10
0.0
 20
0.0
 30
0.0
 11
-1.0
 21
0.0
 31
0.0
  0
ENDBLK
  5
649
330
12D
100
AcDbEntity
  8
0
100
AcDbBlockEnd
  0
BLOCK
  5
64A
330
133
100
AcDbEntity
  8
0
100
AcDbBlockBegin
  2
_DOTBLANK
 70
     0
 71
     0
 10
0.0
 20
0.0
 30
0.0
  3
_DOTBLANK
  1

  0
CIRCLE
  5
135
330
133
100
AcDbEntity
  8
0
  6
ByBlock
 62
     0
100
AcDbCircle
 10
0.0
 20
0.0
 30
0.0
 40
0.5
  0
LINE
  5
136
330
133
100
AcDbEntity
  8
0
  6
Continuous
 62
     0
370
    -2
100
AcDbLine
 10
-0.5
 20
0.0
 30
0.0
 11
-1.0
 21
0.0
 31
0.0
  0
ENDBLK
  5
64B
330
133
100
AcDbEntity
  8
0
100
AcDbBlockEnd
  0
BLOCK
  5
64C
330
138
100
AcDbEntity
  8
0
100
AcDbBlockBegin
  2
_DOTSMALL
 70
     0
 71
     0
 10
0.0
 20
0.0
 30
0.0
  3
_DOTSMALL
  1

  0
LWPOLYLINE
  5
13A
330
138
100
AcDbEntity
  8
0
  6
ByBlock
 62
     0
100
AcDbPolyline
 90
        2
 70
     1
 43
0.5
 10
-0.0625
 20
0.0
 42
1.0
 10
0.0625
 20
0.0
 42
1.0
  0
ENDBLK
  5
64D
330
138
100
AcDbEntity
  8
0
100
AcDbBlockEnd
  0
BLOCK
  5
64E
330
13F
100
AcDbEntity
  8
0
100
AcDbBlockBegin
  2
_BOXFILLED
 70
     0
 71
     0
 10
0.0
 20
0.0
 30
0.0
  3
_BOXFILLED
  1

  0
SOLID
  5
141
330
13F
100
AcDbEntity
  8
0
  6
ByBlock
 62
     0
100
AcDbTrace
 10
-0.5
 20
0.5
 30
0.0
 11
0.5
 21
0.5
 31
0.0
 12
-0.5
 22
-0.5
 32
0.0
 13
0.5
 23
-0.5
 33
0.0
  0
LINE
  5
142
330
13F
100
AcDbEntity
  8
0
  6
Continuous
 62
     0
370
    -2
100
AcDbLine
 10
-0.5
 20
0.0
 30
0.0
 11
-1.0
 21
0.0
 31
0.0
  0
ENDBLK
  5
64F
330
13F
100
AcDbEntity
  8
0
100
AcDbBlockEnd
  0
BLOCK
  5
650
330
144
100
AcDbEntity
  8
0
100
AcDbBlockBegin
  2
_BOXBLANK
 70
     0
 71
     0
 10
0.0
 20
0.0
 30
0.0
  3
_BOXBLANK
  1

  0
LINE
  5
146
330
144
100
AcDbEntity
  8
0
  6
Continuous
 62
     0
370
    -2
100
AcDbLine
 10
-0.5
 20
-0.5
 30
0.0
 11
0.5
 21
-0.5
 31
0.0
  0
LINE
  5
147
330
144
100
AcDbEntity
  8
0
  6
Continuous
 62
     0
370
    -2
100
AcDbLine
 10
0.5
 20
-0.5
 30
0.0
 11
0.5
 21
0.5
 31
0.0
  0
LINE
  5
148
330
144
100
AcDbEntity
  8
0
  6
Continuous
 62
     0
370
    -2
100
AcDbLine
 10
0.5
 20
0.5
 30
0.0
 11
-0.5
 21
0.5
 31
0.0
  0
LINE
  5
149
330
144
100
AcDbEntity
  8
0
  6
Continuous
 62
     0
370
    -2
100
AcDbLine
 10
-0.5
 20
0.5
 30
0.0
 11
-0.5
 21
-0.5
 31
0.0
  0
LINE
  5
14A
330
144
100
AcDbEntity
  8
0
  6
Continuous
 62
     0
370
    -2
100
AcDbLine
 10
-0.5
 20
0.0
 30
0.0
 11
-1.0
 21
0.0
 31
0.0
  0
ENDBLK
  5
651
330
144
100
AcDbEntity
  8
0
100
AcDbBlockEnd
  0
BLOCK
  5
652
330
14C
100
AcDbEntity
  8
0
100
AcDbBlockBegin
  2
_DATUMFILLED
 70
     0
 71
     0
 10
0.0
 20
0.0
 30
0.0
  3
_DATUMFILLED
  1

  0
SOLID
  5
14E
330
14C
100
AcDbEntity
  8
0
  6
ByBlock
 62
     0
100
AcDbTrace
 10
0.0
 20
0.5773500000000001
 30
0.0
 11
-1.0
 21
0.0
 31
0.0
 12
0.0
 22
-0.5773500000000001
 32
0.0
 13
0.0
 23
-0.5773500000000001
 33
0.0
  0
ENDBLK
  5
653
330
14C
100
AcDbEntity
  8
0
100
AcDbBlockEnd
  0
BLOCK
  5
654
330
150
100
AcDbEntity
  8
0
100
AcDbBlockBegin
  2
_DATUMBLANK
 70
     0
 71
     0
 10
0.0
 20
0.0
 30
0.0
  3
_DATUMBLANK
  1

  0
LINE
  5
152
330
150
100
AcDbEntity
  8
0
  6
Continuous
 62
     0
370
    -2
100
AcDbLine
 10
0.0
 20
0.5773500000000001
 30
0.0
 11
-1.0
 21
0.0
 31
0.0
  0
LINE
  5
153
330
150
100
AcDbEntity
  8
0
  6
Continuous
 62
     0
370
    -2
100
AcDbLine
 10
-1.0
 20
0.0
 30
0.0
 11
0.0
 21
-0.5773500000000001
 31
0.0
  0
LINE
  5
154
330
150
100
AcDbEntity
  8
0
  6
Continuous
 62
     0
370
    -2
100
AcDbLine
 10
0.0
 20
-0.5773500000000001
 30
0.0
 11
0.0
 21
0.5773500000000001
 31
0.0
  0
ENDBLK
  5
655
330
150
100
AcDbEntity
  8
0
100
AcDbBlockEnd
  0
BLOCK
  5
656
330
156
100
AcDbEntity
  8
0
100
AcDbBlockBegin
  2
_INTEGRAL
 70
     0
 71
     0
 10
0.0
 20
0.0
 30
0.0
  3
_INTEGRAL
  1

  0
ARC
  5
158
330
156
100
AcDbEntity
  8
0
  6
ByBlock
 62
     0
100
AcDbCircle
 10
0.444888
 20
-0.091335
 30
0.0
 40
0.454167
100
AcDbArc
 50
102.0
 51
168.0
  0
ARC
  5
159
330
156
100
AcDbEntity
  8
0
  6
ByBlock
 62
     0
100
AcDbCircle
 10
-0.444888
 20
0.091335
 30
0.0
 40
0.454167
100
AcDbArc
 50
282.0
 51
348.0
  0
ENDBLK
  5
657
330
156
100
AcDbEntity
  8
0
100
AcDbBlockEnd
  0
BLOCK
  5
658
330
1F1
100
AcDbEntity
  8
0
100
AcDbBlockBegin
  2
_Origin2
 70
     0
 71
     0
 10
0.0
 20
0.0
 30
0.0
  3
_Origin2
  1

  0
CIRCLE
  5
1F2
330
1F1
100
AcDbEntity
  8
0
  6
Continuous
 62
     0
370
    -2
100
AcDbCircle
 10
0.0
 20
0.0
 30
0.0
 40
0.5
  0
CIRCLE
  5
1F3
330
1F1
100
AcDbEntity
  8
0
  6
Continuous
 62
     0
370
    -2
100
AcDbCircle
 10
0.0
 20
0.0
 30
0.0
 40
0.25
  0
LINE
  5
1F4
330
1F1
100
AcDbEntity
  8
0
  6
Continuous
 62
     0
370
    -2
100
AcDbLine
 10
-0.5
 20
0.0
 30
0.0
 11
-1.0
 21
0.0
 31
0.0
  0
ENDBLK
  5
659
330
1F1
100
AcDbEntity
  8
0
100
AcDbBlockEnd
  0
BLOCK
  5
65A
330
1F7
100
AcDbEntity
  8
0
100
AcDbBlockBegin
  2
KCAD_OPEN30
 70
     0
 71
     0
 10
0.0
 20
0.0
 30
0.0
  3
KCAD_OPEN30
  1

  0
LINE
  5
1F8
330
1F7
100
AcDbEntity
  8
0
  6
Continuous
 62
     0
370
    -2
100
AcDbLine
 10
0.0
 20
0.0
 30
0.0
 11
-1.0
 21
0.0
 31
0.0
  0
LINE
  5
1F9
330
1F7
100
AcDbEntity
  8
0
  6
Continuous
 62
     0
370
    -2
100
AcDbLine
 10
0.0
 20
0.0
 30
0.0
 11
-1.0
 21
0.2679491924311227
 31
0.0
  0
LINE
  5
1FA
330
1F7
100
AcDbEntity
  8
0
  6
Continuous
 62
     0
370
    -2
100
AcDbLine
 10
0.0
 20
0.0
 30
0.0
 11
-1.0
 21
-0.2679491924311227
 31
0.0
  0
ENDBLK
  5
65B
330
1F7
100
AcDbEntity
  8
0
100
AcDbBlockEnd
  0
BLOCK
  5
65C
330
222
100
AcDbEntity
  8
0
100
AcDbBlockBegin
  2
_None
 70
     0
 71
     0
 10
0.0
 20
0.0
 30
0.0
  3
_None
  1

  0
ENDBLK
  5
65D
330
222
100
AcDbEntity
  8
0
100
AcDbBlockEnd
  0
BLOCK
  5
65E
330
283
100
AcDbEntity
  8
0
100
AcDbBlockBegin
  2
_Small
 70
     0
 71
     0
 10
0.0
 20
0.0
 30
0.0
  3
_Small
  1

  0
CIRCLE
  5
284
330
283
100
AcDbEntity
  8
0
  6
ByBlock
 62
     0
370
    -2
100
AcDbCircle
 10
0.0
 20
0.0
 30
0.0
 40
0.25
  0
ENDBLK
  5
65F
330
283
100
AcDbEntity
  8
0
100
AcDbBlockEnd
  0
BLOCK
  5
660
330
287
100
AcDbEntity
  8
0
100
AcDbBlockBegin
  2
KCAD_OPEN_2
 70
     0
 71
     0
 10
0.0
 20
0.0
 30
0.0
  3
KCAD_OPEN_2
  1

  0
LINE
  5
288
330
287
100
AcDbEntity
  8
0
  6
Continuous
 62
     0
370
    -2
100
AcDbLine
 10
0.0
 20
0.0
 30
0.0
 11
-2.0
 21
0.0
 31
0.0
  0
LINE
  5
289
330
287
100
AcDbEntity
  8
0
  6
Continuous
 62
     0
370
    -2
100
AcDbLine
 10
0.0
 20
0.0
 30
0.0
 11
-2.0
 21
0.3167688806490725
 31
0.0
  0
LINE
  5
28A
330
287
100
AcDbEntity
  8
0
  6
Continuous
 62
     0
370
    -2
100
AcDbLine
 10
0.0
 20
0.0
 30
0.0
 11
-2.0
 21
-0.3167688806490725
 31
0.0
  0
LINE
  5
28B
330
287
100
AcDbEntity
  8
0
  6
Continuous
 62
     0
370
    -2
100
AcDbLine
 10
-2.0
 20
0.0
 30
0.0
 11
-4.0
 21
0.0
 31
0.0
  0
ENDBLK
  5
661
330
287
100
AcDbEntity
  8
0
100
AcDbBlockEnd
  0
BLOCK
  5
662
330
28E
100
AcDbEntity
  8
0
100
AcDbBlockBegin
  2
KCAD_OPEN30_2
 70
     0
 71
     0
 10
0.0
 20
0.0
 30
0.0
  3
KCAD_OPEN30_2
  1

  0
LINE
  5
28F
330
28E
100
AcDbEntity
  8
0
  6
Continuous
 62
     0
370
    -2
100
AcDbLine
 10
0.0
 20
0.0
 30
0.0
 11
-2.0
 21
0.0
 31
0.0
  0
LINE
  5
290
330
28E
100
AcDbEntity
  8
0
  6
Continuous
 62
     0
370
    -2
100
AcDbLine
 10
0.0
 20
0.0
 30
0.0
 11
-2.0
 21
0.5358983848622455
 31
0.0
  0
LINE
  5
291
330
28E
100
AcDbEntity
  8
0
  6
Continuous
 62
     0
370
    -2
100
AcDbLine
 10
0.0
 20
0.0
 30
0.0
 11
-2.0
 21
-0.5358983848622455
 31
0.0
  0
LINE
  5
292
330
28E
100
AcDbEntity
  8
0
  6
Continuous
 62
     0
370
    -2
100
AcDbLine
 10
-2.0
 20
0.0
 30
0.0
 11
-4.0
 21
0.0
 31
0.0
  0
ENDBLK
  5
663
330
28E
100
AcDbEntity
  8
0
100
AcDbBlockEnd
  0
BLOCK
  5
664
330
2AD
100
AcDbEntity
  8
0
100
AcDbBlockBegin
  2
KCAD_OPEN30ANG
 70
     0
 71
     0
 10
0.0
 20
0.0
 30
0.0
  3
KCAD_OPEN30ANG
  1

  0
LINE
  5
2D7
330
2AD
100
AcDbEntity
  8
0
  6
Continuous
 62
     0
370
    -2
100
AcDbLine
 10
0.0
 20
0.0
 30
0.0
 11
-1.0
 21
-0.267949
 31
0.0
  0
LINE
  5
2D8
330
2AD
100
AcDbEntity
  8
0
  6
Continuous
 62
     0
370
    -2
100
AcDbLine
 10
-1.0
 20
0.267949
 30
0.0
 11
0.0
 21
0.0
 31
0.0
  0
ENDBLK
  5
665
330
2AD
100
AcDbEntity
  8
0
100
AcDbBlockEnd
  0
BLOCK
  5
666
330
2B6
100
AcDbEntity
  8
0
100
AcDbBlockBegin
  2
KCAD_DOTANG
 70
     0
 71
     0
 10
0.0
 20
0.0
 30
0.0
  3
KCAD_DOTANG
  1

  0
LWPOLYLINE
  5
2DD
330
2B6
100
AcDbEntity
  8
0
  6
ByBlock
 62
     0
100
AcDbPolyline
 90
        2
 70
     1
 43
0.5
 10
-0.25
 20
0.0
 42
1.0
 10
0.25
 20
0.0
 42
1.0
  0
ENDBLK
  5
667
330
2B6
100
AcDbEntity
  8
0
100
AcDbBlockEnd
  0
BLOCK
  5
668
330
4F9
100
AcDbEntity
  8
0
100
AcDbBlockBegin
  2
*D27
 70
     1
 71
     0
 10
0.0
 20
0.0
 30
0.0
  3
*D27
  1

  0
LINE
  5
52B
330
4F9
100
AcDbEntity
  8
KCAD_DIMS
 62
     0
370
    -2
100
AcDbLine
 10
142.0299851216599
 20
5.144253576642098
 30
0.0
 11
109.52367004395
 21
5.1442535766421
 31
0.0
  0
LINE
  5
52C
330
4F9
100
AcDbEntity
  8
KCAD_DIMS
 62
     0
370
    -2
100
AcDbLine
 10
142.0299851216599
 20
-22.85575027466
 30
0.0
 11
109.52367004395
 21
-22.85575027466
 31
0.0
  0
INSERT
  5
52D
330
4F9
100
AcDbEntity
  8
KCAD_DIMS
 62
     0
370
    -2
100
AcDbBlockReference
  2
_OPEN30
 10
142.0299851216599
 20
5.144253576642098
 30
0.0
 41
2.5
 42
2.5
 43
2.5
 50
90.0
  0
INSERT
  5
52E
330
4F9
100
AcDbEntity
  8
KCAD_DIMS
 62
     0
370
    -2
100
AcDbBlockReference
  2
_OPEN30
 10
142.0299851216599
 20
-22.85575027466
 30
0.0
 41
2.5
 42
2.5
 43
2.5
 50
270.0
  0
LINE
  5
52F
330
4F9
100
AcDbEntity
  8
KCAD_DIMS
 62
     0
370
    -2
100
AcDbLine
 10
142.0299851216599
 20
2.644253576642098
 30
0.0
 11
142.0299851216599
 21
-20.35575027466
 31
0.0
  0
POINT
  5
530
330
4F9
100
AcDbEntity
  8
DEFPOINTS
 62
     0
370
    15
100
AcDbPoint
 10
109.52367004395
 20
5.1442535766421
 30
0.0
  0
POINT
  5
531
330
4F9
100
AcDbEntity
  8
DEFPOINTS
 62
     0
370
    15
100
AcDbPoint
 10
109.52367004395
 20
-22.85575027466
 30
0.0
  0
POINT
  5
532
330
4F9
100
AcDbEntity
  8
DEFPOINTS
 62
     0
370
    15
100
AcDbPoint
 10
142.0299851216599
 20
-22.85575027466001
 30
0.0
  0
MTEXT
  5
533
330
4F9
100
AcDbEntity
  8
KCAD_DIMS
 62
     0
100
AcDbMText
 10
139.89665212166
 20
-8.855748349009
 30
0.0
 40
3.2
 41
0.0
 71
     5
 72
     1
  1
\A1;φ28
  7
KCADDIMSTANDARD
 11
1.000000000000000E-16
 21
1.0
 31
0.0
 73
     1
 44
1.0
  0
ENDBLK
  5
669
330
4F9
100
AcDbEntity
  8
0
100
AcDbBlockEnd
  0
BLOCK
  5
66A
330
548
100
AcDbEntity
  8
0
100
AcDbBlockBegin
  2
*D28
 70
     1
 71
     0
 10
0.0
 20
0.0
 30
0.0
  3
*D28
  1

  0
POINT
  5
53E
330
548
100
AcDbEntity
  8
DEFPOINTS
  6
ByBlock
 62
     0
370
    15
100
AcDbPoint
 10
109.52367004395
 20
5.1442535766421
 30
0.0
  0
POINT
  5
53F
330
548
100
AcDbEntity
  8
DEFPOINTS
  6
ByBlock
 62
     0
370
    15
100
AcDbPoint
 10
109.52367004395
 20
-22.85575027466
 30
0.0
  0
LINE
  5
540
330
548
100
AcDbEntity
  8
0
  6
ByBlock
 62
     0
370
    -2
100
AcDbLine
 10
109.52367004395
 20
5.1442535766421
 30
0.0
 11
142.0299851216599
 21
5.1442535766421
 31
0.0
  0
LINE
  5
541
330
548
100
AcDbEntity
  8
0
  6
ByBlock
 62
     0
370
    -2
100
AcDbLine
 10
109.52367004395
 20
-22.85575027466
 30
0.0
 11
142.0299851216599
 21
-22.85575027466
 31
0.0
  0
LINE
  5
542
330
548
100
AcDbEntity
  8
0
  6
ByBlock
 62
     0
370
    -2
100
AcDbLine
 10
142.0299851216599
 20
5.1442535766421
 30
0.0
 11
142.0299851216599
 21
-22.85575027466
 31
0.0
  0
SOLID
  5
543
330
548
100
AcDbEntity
  8
0
  6
ByBlock
 62
     0
370
    15
100
AcDbTrace
 10
142.0299851216599
 20
5.1442535766421
 30
0.0
 11
141.6133184549932
 21
2.6442535766421
 31
0.0
 12
142.4466517883266
 22
2.6442535766421
 32
0.0
 13
142.4466517883266
 23
2.6442535766421
 33
0.0
  0
SOLID
  5
544
330
548
100
AcDbEntity
  8
0
  6
ByBlock
 62
     0
370
    15
100
AcDbTrace
 10
142.0299851216599
 20
-22.85575027466
 30
0.0
 11
141.6133184549932
 21
-20.35575027466
 31
0.0
 12
142.4466517883266
 22
-20.35575027466
 32
0.0
 13
142.4466517883266
 23
-20.35575027466
 33
0.0
  0
LINE
  5
545
330
548
100
AcDbEntity
  8
0
  6
ByBlock
 62
     0
370
    -2
100
AcDbLine
 10
109.52367004395
 20
5.1442535766421
 30
0.0
 11
109.52367004395
 21
5.1442535766421
 31
0.0
  0
MTEXT
  5
546
330
548
100
AcDbEntity
  8
0
  6
ByBlock
 62
     0
100
AcDbMText
 10
139.89665212166
 20
-8.855748349009
 30
0.0
 40
3.2
 41
0.0
 71
     5
 72
     1
  1
\A1;φ28
  7
KCADDIMSTANDARD
 11
6.123031769111886E-17
 21
1.0
 31
0.0
 73
     1
 44
1.0
  0
ENDBLK
  5
66B
330
548
100
AcDbEntity
  8
0
100
AcDbBlockEnd
  0
ENDSEC
  0
SECTION
  2
ENTITIES
  0
POINT
  5
2EF
330
1F
100
AcDbEntity
  8
0
  6
Continuous
 62
     7
370
    15
100
AcDbPoint
 10
127.55367004395
 20
-8.855746459961
 30
0.0
1001
Sigma
1000

  0
POINT
  5
2F1
330
1F
100
AcDbEntity
  8
0
  6
Continuous
 62
     7
370
    15
100
AcDbPoint
 10
127.55367004395
 20
26.364038109177
 30
0.0
1001
Sigma
1000

  0
POINT
  5
2F3
330
1F
100
AcDbEntity
  8
0
  6
Continuous
 62
     7
370
    15
100
AcDbPoint
 10
127.55367004395
 20
32.743542117193
 30
0.0
1001
Sigma
1000

  0
POINT
  5
2F5
330
1F
100
AcDbEntity
  8
0
  6
Continuous
 62
     7
370
    15
100
AcDbPoint
 10
110.02367004395
 20
19.707164361682
 30
0.0
1001
Sigma
1000

  0
POINT
  5
2F7
330
1F
100
AcDbEntity
  8
0
  6
Continuous
 62
     7
370
    15
100
AcDbPoint
 10
17.813670043945
 20
0.1442573547363
 30
0.0
1001
Sigma
1000

  0
POINT
  5
2F9
330
1F
100
AcDbEntity
  8
0
  6
Continuous
 62
     7
370
    15
100
AcDbPoint
 10
-92.18632995605
 20
-8.855746459961
 30
0.0
1001
Sigma
1000

  0
POINT
  5
2FB
330
1F
100
AcDbEntity
  8
0
  6
Continuous
 62
     7
370
    15
100
AcDbPoint
 10
78.723670043945
 20
-8.855746459961
 30
0.0
1001
Sigma
1000

  0
POINT
  5
2FD
330
1F
100
AcDbEntity
  8
0
  6
Continuous
 62
     7
370
    15
100
AcDbPoint
 10
17.813670043945
 20
-8.855746459961
 30
0.0
1001
Sigma
1000

  0
LINE
  5
2FF
330
1F
100
AcDbEntity
  8
0
  6
CENTER
 62
     7
370
    15
100
AcDbLine
 10
-94.88132995605
 20
-8.855746459961
 30
0.0
 11
3.549677057973299
 21
-8.855746459961
 31
0.0
1001
Sigma
1000

  0
LINE
  5
301
330
1F
100
AcDbEntity
  8
0
  6
CENTER
 62
     7
370
    15
100
AcDbLine
 10
127.55367004395
 20
-5.533481930903
 30
0.0
 11
127.55367004395
 21
-10.1611348872
 31
0.0
1001
Sigma
1000

  0
LINE
  5
303
330
1F
100
AcDbEntity
  8
0
  6
Continuous
 62
     7
370
    30
100
AcDbLine
 10
98.023670043945
 20
0.1442573547363
 30
0.0
 11
39.813670043945
 21
0.1442573547363
 31
0.0
1001
Sigma
1000

  0
LINE
  5
305
330
1F
100
AcDbEntity
  8
0
  6
CENTER
 62
     7
370
    15
100
AcDbLine
 10
14.799386476811
 20
-8.855746459961
 30
0.0
 11
129.44147004395
 21
-8.855746459961
 31
0.0
1001
Sigma
1000

  0
LINE
  5
307
330
1F
100
AcDbEntity
  8
0
  6
CENTER
 62
     7
370
    15
100
AcDbLine
 10
-92.18632995605
 20
-5.540254793294
 30
0.0
 11
-92.18632995605
 21
-10.1611348872
 31
0.0
1001
Sigma
1000

  0
LINE
  5
309
330
1F
100
AcDbEntity
  8
0
  6
Continuous
 62
     7
370
    30
100
AcDbLine
 10
78.723670043945
 20
0.1442573547363
 30
0.0
 11
78.723670043945
 21
-17.85575027466
 31
0.0
1001
Sigma
1000

  0
LINE
  5
30B
330
1F
100
AcDbEntity
  8
0
  6
Continuous
 62
     7
370
    30
100
AcDbLine
 10
55.113670043945
 20
0.1442573547363
 30
0.0
 11
55.113670043945
 21
-17.85575027466
 31
0.0
1001
Sigma
1000

  0
LINE
  5
30D
330
1F
100
AcDbEntity
  8
0
  6
Continuous
 62
     7
370
    30
100
AcDbLine
 10
98.023670043945
 20
-17.85575027466
 30
0.0
 11
39.813670043945
 21
-17.85575027466
 31
0.0
1001
Sigma
1000

  0
LINE
  5
30F
330
1F
100
AcDbEntity
  8
0
  6
Continuous
 62
     7
370
    30
100
AcDbLine
 10
17.813670043945
 20
-0.355742645264
 30
0.0
 11
17.813670043945
 21
-17.35575027466
 31
0.0
1001
Sigma
1000

  0
LINE
  5
311
330
1F
100
AcDbEntity
  8
0
  6
Continuous
 62
     7
370
    30
100
AcDbLine
 10
33.813670043945
 20
0.1442573547363
 30
0.0
 11
33.813670043945
 21
-17.85575027466
 31
0.0
1001
Sigma
1000

  0
LINE
  5
313
330
1F
100
AcDbEntity
  8
0
  6
Continuous
 62
     7
370
    30
100
AcDbLine
 10
39.813670043945
 20
0.1442573547363
 30
0.0
 11
39.813670043945
 21
-17.85575027466
 31
0.0
1001
Sigma
1000

  0
LINE
  5
315
330
1F
100
AcDbEntity
  8
0
  6
Continuous
 62
     7
370
    30
100
AcDbLine
 10
39.813670043945
 20
-0.105742645264
 30
0.0
 11
33.813670043945
 21
-0.105742645264
 31
0.0
1001
Sigma
1000

  0
LINE
  5
317
330
1F
100
AcDbEntity
  8
0
  6
Continuous
 62
     7
370
    30
100
AcDbLine
 10
33.813670043945
 20
0.1442573547363
 30
0.0
 11
18.313670080548
 21
0.1442573547363
 31
0.0
1001
Sigma
1000

  0
LINE
  5
319
330
1F
100
AcDbEntity
  8
0
  6
Continuous
 62
     7
370
    30
100
AcDbLine
 10
33.813670043945
 20
-17.85575027466
 30
0.0
 11
18.313670080548
 21
-17.85575027466
 31
0.0
1001
Sigma
1000

  0
LINE
  5
31B
330
1F
100
AcDbEntity
  8
0
  6
Continuous
 62
     7
370
    30
100
AcDbLine
 10
39.813670043945
 20
-17.60575027466
 30
0.0
 11
33.813670043945
 21
-17.60575027466
 31
0.0
1001
Sigma
1000

  0
LINE
  5
31D
330
1F
100
AcDbEntity
  8
0
  6
Continuous
 62
     7
370
    30
100
AcDbLine
 10
18.313670043945
 20
0.1442573547363
 30
0.0
 11
18.313670043945
 21
-17.85575027466
 31
0.0
1001
Sigma
1000

  0
LINE
  5
31F
330
1F
100
AcDbEntity
  8
0
  6
Continuous
 62
     7
370
    30
100
AcDbLine
 10
17.813670043945
 20
-0.355742645264
 30
0.0
 11
18.313670080548
 21
0.1442573547363
 31
0.0
1001
Sigma
1000

  0
LINE
  5
321
330
1F
100
AcDbEntity
  8
0
  6
Continuous
 62
     7
370
    30
100
AcDbLine
 10
17.813670043945
 20
-17.35575027466
 30
0.0
 11
18.313670080548
 21
-17.85575027466
 31
0.0
1001
Sigma
1000

  0
CIRCLE
  5
323
330
1F
100
AcDbEntity
  8
0
  6
Continuous
 62
     7
370
    30
100
AcDbCircle
 10
127.55367004395
 20
-8.855746459961
 30
0.0
 40
0.5
1001
Sigma
1000

  0
CIRCLE
  5
325
330
1F
100
AcDbEntity
  8
0
  6
Continuous
 62
     7
370
    30
100
AcDbCircle
 10
-92.18632995605
 20
-8.855746459961
 30
0.0
 40
0.5
1001
Sigma
1000

  0
TEXT
  5
327
330
1F
100
AcDbEntity
  8
0
  6
Continuous
 62
     7
370
    30
100
AcDbText
 10
35.54380447734899
 20
-36.5389568556
 30
0.0
 40
2.440799999999999
  1
%%c17.5
 50
90.0
 41
1.363739127009677
  7
KCADTEXTSTANDARD
100
AcDbText
1001
Sigma
1000

  0
LINE
  5
32A
102
{ACAD_REACTORS
330
329
102
}
330
1F
100
AcDbEntity
  8
0
  6
Continuous
 62
     7
370
    15
100
AcDbLine
 10
36.813670043945
 20
-0.175051879883
 30
0.0
 11
36.813670043945
 21
5.269131469726599
 31
0.0
1001
Sigma
1000

  0
LINE
  5
32C
102
{ACAD_REACTORS
330
329
102
}
330
1F
100
AcDbEntity
  8
0
  6
Continuous
 62
     7
370
    15
100
AcDbLine
 10
36.813670043945
 20
-0.175051879883
 30
0.0
 11
35.813670058964
 21
2.824948075061699
 31
0.0
1001
Sigma
1000

  0
LINE
  5
32E
102
{ACAD_REACTORS
330
329
102
}
330
1F
100
AcDbEntity
  8
0
  6
Continuous
 62
     7
370
    15
100
AcDbLine
 10
36.813670043945
 20
-0.175051879883
 30
0.0
 11
37.813670028927
 21
2.824948075061699
 31
0.0
1001
Sigma
1000

  0
LINE
  5
330
102
{ACAD_REACTORS
330
329
102
}
330
1F
100
AcDbEntity
  8
0
  6
Continuous
 62
     7
370
    15
100
AcDbLine
 10
36.813670043945
 20
-0.175051879883
 30
0.0
 11
36.813670043945
 21
5.269131469726599
 31
0.0
1001
Sigma
1000

  0
LINE
  5
333
102
{ACAD_REACTORS
330
332
102
}
330
1F
100
AcDbEntity
  8
0
  6
Continuous
 62
     7
370
    15
100
AcDbLine
 10
36.813670043945
 20
-17.60575027466
 30
0.0
 11
36.813670043945
 21
-37.26981277465999
 31
0.0
1001
Sigma
1000

  0
LINE
  5
335
102
{ACAD_REACTORS
330
332
102
}
330
1F
100
AcDbEntity
  8
0
  6
Continuous
 62
     7
370
    15
100
AcDbLine
 10
36.813670043945
 20
-17.60575027466
 30
0.0
 11
37.813670028927
 21
-20.6057502296
 31
0.0
1001
Sigma
1000

  0
LINE
  5
337
102
{ACAD_REACTORS
330
332
102
}
330
1F
100
AcDbEntity
  8
0
  6
Continuous
 62
     7
370
    15
100
AcDbLine
 10
36.813670043945
 20
-17.60575027466
 30
0.0
 11
35.813670058964
 21
-20.6057502296
 31
0.0
1001
Sigma
1000

  0
LINE
  5
339
102
{ACAD_REACTORS
330
332
102
}
330
1F
100
AcDbEntity
  8
0
  6
Continuous
 62
     7
370
    15
100
AcDbLine
 10
36.813670043945
 20
-17.60575027466
 30
0.0
 11
36.813670043945
 21
-37.26981277465999
 31
0.0
1001
Sigma
1000

  0
LINE
  5
33C
102
{ACAD_REACTORS
330
33B
102
}
330
1F
100
AcDbEntity
  8
KCAD_DIMS
  6
Continuous
 62
     7
370
    15
100
AcDbLine
 10
134.36658031682
 20
0.6262259964183001
 30
0.0
 11
134.36658031682
 21
-18.77377561957
 31
0.0
1001
Sigma
1000
DIM_NORM1
  0
LINE
  5
33E
102
{ACAD_REACTORS
330
33B
102
}
330
1F
100
AcDbEntity
  8
KCAD_DIMS
  6
Continuous
 62
     7
370
    15
100
AcDbLine
 10
134.36658031682
 20
3.626225951362799
 30
0.0
 11
135.3665803018
 21
0.6262259964183001
 31
0.0
1001
Sigma
1000
DIM_NORM1
  0
LINE
  5
340
102
{ACAD_REACTORS
330
33B
102
}
330
1F
100
AcDbEntity
  8
KCAD_DIMS
  6
Continuous
 62
     7
370
    15
100
AcDbLine
 10
134.36658031682
 20
3.626225951362799
 30
0.0
 11
133.3665803318399
 21
0.6262259964183001
 31
0.0
1001
Sigma
1000
DIM_NORM1
  0
LINE
  5
342
102
{ACAD_REACTORS
330
33B
102
}
330
1F
100
AcDbEntity
  8
KCAD_DIMS
  6
Continuous
 62
     7
370
    15
100
AcDbLine
 10
134.36658031682
 20
3.626225951362799
 30
0.0
 11
134.36658031682
 21
0.6262259964183001
 31
0.0
1001
Sigma
1000
DIM_NORM1
  0
LINE
  5
344
102
{ACAD_REACTORS
330
33B
102
}
330
1F
100
AcDbEntity
  8
KCAD_DIMS
  6
Continuous
 62
     7
370
    15
100
AcDbLine
 10
134.36658031682
 20
-21.77377557452
 30
0.0
 11
133.3665803318399
 21
-18.77377561957
 31
0.0
1001
Sigma
1000
DIM_NORM1
  0
LINE
  5
346
102
{ACAD_REACTORS
330
33B
102
}
330
1F
100
AcDbEntity
  8
KCAD_DIMS
  6
Continuous
 62
     7
370
    15
100
AcDbLine
 10
134.36658031682
 20
-21.77377557452
 30
0.0
 11
135.3665803018
 21
-18.77377561957
 31
0.0
1001
Sigma
1000
DIM_NORM1
  0
LINE
  5
348
102
{ACAD_REACTORS
330
33B
102
}
330
1F
100
AcDbEntity
  8
KCAD_DIMS
  6
Continuous
 62
     7
370
    15
100
AcDbLine
 10
134.36658031682
 20
-21.77377557452
 30
0.0
 11
134.36658031682
 21
-18.77377561957
 31
0.0
1001
Sigma
1000
DIM_NORM1
  0
LINE
  5
34A
102
{ACAD_REACTORS
330
33B
102
}
330
1F
100
AcDbEntity
  8
KCAD_DIMS
  6
Continuous
 62
     7
370
    15
100
AcDbLine
 10
135.36658031682
 20
3.626225951362799
 30
0.0
 11
114.0236700439499
 21
3.626225951362799
 31
0.0
1001
Sigma
1000
DIM_NORM1
  0
LINE
  5
34C
102
{ACAD_REACTORS
330
33B
102
}
330
1F
100
AcDbEntity
  8
KCAD_DIMS
  6
Continuous
 62
     7
370
    15
100
AcDbLine
 10
135.36658031682
 20
-21.77377557452
 30
0.0
 11
114.0236700439499
 21
-21.77377557452
 31
0.0
1001
Sigma
1000
DIM_NORM1
  0
TEXT
  5
34E
102
{ACAD_REACTORS
330
33B
102
}
330
1F
100
AcDbEntity
  8
KCAD_DIMS
  6
Continuous
 62
     7
370
    30
100
AcDbText
 10
133.16658031682
 20
-16.11446655447
 30
0.0
 40
2.440799999999999
  1
Cﾏｳﾝﾄ
 50
90.0
  7
KCADDIMSTANDARD
100
AcDbText
1001
Sigma
1000
DIM_NORM1
  0
POINT
  5
350
102
{ACAD_REACTORS
330
33B
102
}
330
1F
100
AcDbEntity
  8
KCAD_DIMS
  6
Continuous
 62
     7
370
    15
100
AcDbPoint
 10
114.0633996222399
 20
3.626225951362799
 30
0.0
1001
Sigma
1000
DIM_NORM1
  0
POINT
  5
352
102
{ACAD_REACTORS
330
33B
102
}
330
1F
100
AcDbEntity
  8
KCAD_DIMS
  6
Continuous
 62
     7
370
    15
100
AcDbPoint
 10
114.0633996222399
 20
-21.77377557452
 30
0.0
1001
Sigma
1000
DIM_NORM1
  0
POINT
  5
354
102
{ACAD_REACTORS
330
33B
102
}
330
1F
100
AcDbEntity
  8
KCAD_DIMS
  6
Continuous
 62
     7
370
    15
100
AcDbPoint
 10
134.36658031682
 20
-21.77377557452
 30
0.0
1001
Sigma
1000
DIM_NORM1
  0
LINE
  5
357
102
{ACAD_REACTORS
330
356
102
}
330
1F
100
AcDbEntity
  8
KCAD_DIMS
  6
Continuous
 62
     7
370
    15
100
AcDbLine
 10
11.18659088562899
 20
-2.855742600207999
 30
0.0
 11
11.18659088562899
 21
-14.85575031970999
 31
0.0
1001
Sigma
1000
DIM_NORM1
  0
LINE
  5
359
102
{ACAD_REACTORS
330
356
102
}
330
1F
100
AcDbEntity
  8
KCAD_DIMS
  6
Continuous
 62
     7
370
    15
100
AcDbLine
 10
11.18659088562899
 20
0.1442573547363
 30
0.0
 11
12.18659087061
 21
-2.855742600207999
 31
0.0
1001
Sigma
1000
DIM_NORM1
  0
LINE
  5
35B
102
{ACAD_REACTORS
330
356
102
}
330
1F
100
AcDbEntity
  8
KCAD_DIMS
  6
Continuous
 62
     7
370
    15
100
AcDbLine
 10
11.18659088562899
 20
0.1442573547363
 30
0.0
 11
10.18659090064699
 21
-2.855742600207999
 31
0.0
1001
Sigma
1000
DIM_NORM1
  0
LINE
  5
35D
102
{ACAD_REACTORS
330
356
102
}
330
1F
100
AcDbEntity
  8
KCAD_DIMS
  6
Continuous
 62
     7
370
    15
100
AcDbLine
 10
11.18659088562899
 20
0.1442573547363
 30
0.0
 11
11.18659088562899
 21
-2.855742600207999
 31
0.0
1001
Sigma
1000
DIM_NORM1
  0
LINE
  5
35F
102
{ACAD_REACTORS
330
356
102
}
330
1F
100
AcDbEntity
  8
KCAD_DIMS
  6
Continuous
 62
     7
370
    15
100
AcDbLine
 10
11.18659088562899
 20
-17.85575027466
 30
0.0
 11
10.18659090064699
 21
-14.85575031970999
 31
0.0
1001
Sigma
1000
DIM_NORM1
  0
LINE
  5
361
102
{ACAD_REACTORS
330
356
102
}
330
1F
100
AcDbEntity
  8
KCAD_DIMS
  6
Continuous
 62
     7
370
    15
100
AcDbLine
 10
11.18659088562899
 20
-17.85575027466
 30
0.0
 11
12.18659087061
 21
-14.85575031970999
 31
0.0
1001
Sigma
1000
DIM_NORM1
  0
LINE
  5
363
102
{ACAD_REACTORS
330
356
102
}
330
1F
100
AcDbEntity
  8
KCAD_DIMS
  6
Continuous
 62
     7
370
    15
100
AcDbLine
 10
11.18659088562899
 20
-17.85575027466
 30
0.0
 11
11.18659088562899
 21
-14.85575031970999
 31
0.0
1001
Sigma
1000
DIM_NORM1
  0
LINE
  5
365
102
{ACAD_REACTORS
330
356
102
}
330
1F
100
AcDbEntity
  8
KCAD_DIMS
  6
Continuous
 62
     7
370
    15
100
AcDbLine
 10
17.313670095566
 20
0.1442573547363
 30
0.0
 11
10.186590885629
 21
0.1442573547363
 31
0.0
1001
Sigma
1000
DIM_NORM1
  0
LINE
  5
367
102
{ACAD_REACTORS
330
356
102
}
330
1F
100
AcDbEntity
  8
KCAD_DIMS
  6
Continuous
 62
     7
370
    15
100
AcDbLine
 10
17.313670095566
 20
-17.85575027466
 30
0.0
 11
10.186590885629
 21
-17.85575027466
 31
0.0
1001
Sigma
1000
DIM_NORM1
  0
TEXT
  5
369
102
{ACAD_REACTORS
330
356
102
}
330
1F
100
AcDbEntity
  8
KCAD_DIMS
  6
Continuous
 62
     7
370
    30
100
AcDbText
 10
9.906590866555442
 20
-16.1427464389753
 30
0.0
 40
2.603520038795471
  1
%%c18
 50
90.0
  7
KCADDIMSTANDARD
100
AcDbText
1001
Sigma
1000
DIM_NORM1
  0
TEXT
  5
36B
102
{ACAD_REACTORS
330
356
102
}
330
1F
100
AcDbEntity
  8
KCAD_DIMS
  6
Continuous
 62
     7
370
    30
100
AcDbText
 10
7.74659083436862
 20
-6.67074647665065
 30
0.0
 40
1.301760019397735
  1
 0
 50
90.0
  7
KCADDIMSTANDARD
100
AcDbText
1001
Sigma
1000
DIM_NORM1
  0
TEXT
  5
36D
102
{ACAD_REACTORS
330
356
102
}
330
1F
100
AcDbEntity
  8
KCAD_DIMS
  6
Continuous
 62
     7
370
    30
100
AcDbText
 10
10.14659087013172
 20
-6.67074647665065
 30
0.0
 40
1.301760019397735
  1
-0.1
 50
90.0
  7
KCADDIMSTANDARD
100
AcDbText
1001
Sigma
1000
DIM_NORM1
  0
POINT
  5
36F
102
{ACAD_REACTORS
330
356
102
}
330
1F
100
AcDbEntity
  8
KCAD_DIMS
  6
Continuous
 62
     7
370
    15
100
AcDbPoint
 10
18.313670080548
 20
0.1442573547363
 30
0.0
1001
Sigma
1000
DIM_NORM1
  0
POINT
  5
371
102
{ACAD_REACTORS
330
356
102
}
330
1F
100
AcDbEntity
  8
KCAD_DIMS
  6
Continuous
 62
     7
370
    15
100
AcDbPoint
 10
18.313670080548
 20
-17.85575027466
 30
0.0
1001
Sigma
1000
DIM_NORM1
  0
POINT
  5
373
102
{ACAD_REACTORS
330
356
102
}
330
1F
100
AcDbEntity
  8
KCAD_DIMS
  6
Continuous
 62
     7
370
    15
100
AcDbPoint
 10
11.18659088562899
 20
-17.85575027466
 30
0.0
1001
Sigma
1000
DIM_NORM1
  0
LINE
  5
376
102
{ACAD_REACTORS
330
375
102
}
330
1F
100
AcDbEntity
  8
KCAD_DIMS
  6
Continuous
 62
     7
370
    15
100
AcDbLine
 10
107.023670089
 20
19.707164361682
 30
0.0
 11
101.02366999889
 21
19.707164361682
 31
0.0
1001
Sigma
1000
DIM_NORM1
  0
LINE
  5
378
102
{ACAD_REACTORS
330
375
102
}
330
1F
100
AcDbEntity
  8
KCAD_DIMS
  6
Continuous
 62
     7
370
    15
100
AcDbLine
 10
110.02367004395
 20
19.707164361682
 30
0.0
 11
107.023670089
 21
18.707164376701
 31
0.0
1001
Sigma
1000
DIM_NORM1
  0
LINE
  5
37A
102
{ACAD_REACTORS
330
375
102
}
330
1F
100
AcDbEntity
  8
KCAD_DIMS
  6
Continuous
 62
     7
370
    15
100
AcDbLine
 10
110.02367004395
 20
19.707164361682
 30
0.0
 11
107.023670089
 21
20.707164346664
 31
0.0
1001
Sigma
1000
DIM_NORM1
  0
LINE
  5
37C
102
{ACAD_REACTORS
330
375
102
}
330
1F
100
AcDbEntity
  8
KCAD_DIMS
  6
Continuous
 62
     7
370
    15
100
AcDbLine
 10
110.02367004395
 20
19.707164361682
 30
0.0
 11
107.023670089
 21
19.707164361682
 31
0.0
1001
Sigma
1000
DIM_NORM1
  0
LINE
  5
37E
102
{ACAD_REACTORS
330
375
102
}
330
1F
100
AcDbEntity
  8
KCAD_DIMS
  6
Continuous
 62
     7
370
    15
100
AcDbLine
 10
98.023670043945
 20
19.707164361682
 30
0.0
 11
101.02366999889
 21
20.707164346664
 31
0.0
1001
Sigma
1000
DIM_NORM1
  0
LINE
  5
380
102
{ACAD_REACTORS
330
375
102
}
330
1F
100
AcDbEntity
  8
KCAD_DIMS
  6
Continuous
 62
     7
370
    15
100
AcDbLine
 10
98.023670043945
 20
19.707164361682
 30
0.0
 11
101.02366999889
 21
18.707164376701
 31
0.0
1001
Sigma
1000
DIM_NORM1
  0
LINE
  5
382
102
{ACAD_REACTORS
330
375
102
}
330
1F
100
AcDbEntity
  8
KCAD_DIMS
  6
Continuous
 62
     7
370
    15
100
AcDbLine
 10
98.023670043945
 20
19.707164361682
 30
0.0
 11
101.02366999889
 21
19.707164361682
 31
0.0
1001
Sigma
1000
DIM_NORM1
  0
LINE
  5
384
102
{ACAD_REACTORS
330
375
102
}
330
1F
100
AcDbEntity
  8
KCAD_DIMS
  6
Continuous
 62
     7
370
    15
100
AcDbLine
 10
98.023670043945
 20
4.6442573397178
 30
0.0
 11
98.023670043945
 21
20.707164361682
 31
0.0
1001
Sigma
1000
DIM_NORM1
  0
TEXT
  5
386
102
{ACAD_REACTORS
330
375
102
}
330
1F
100
AcDbEntity
  8
KCAD_DIMS
  6
Continuous
 62
     7
370
    30
100
AcDbText
 10
101.5366700470446
 20
20.98716438075555
 30
0.0
 40
2.603520038795471
  1
12
  7
KCADDIMSTANDARD
100
AcDbText
1001
Sigma
1000
DIM_NORM1
  0
POINT
  5
388
102
{ACAD_REACTORS
330
375
102
}
330
1F
100
AcDbEntity
  8
KCAD_DIMS
  6
Continuous
 62
     7
370
    15
100
AcDbPoint
 10
110.02367004395
 20
6.1442573547363
 30
0.0
1001
Sigma
1000
DIM_NORM1
  0
POINT
  5
38A
102
{ACAD_REACTORS
330
375
102
}
330
1F
100
AcDbEntity
  8
KCAD_DIMS
  6
Continuous
 62
     7
370
    15
100
AcDbPoint
 10
98.023670043945
 20
3.644257354736299
 30
0.0
1001
Sigma
1000
DIM_NORM1
  0
POINT
  5
38C
102
{ACAD_REACTORS
330
375
102
}
330
1F
100
AcDbEntity
  8
KCAD_DIMS
  6
Continuous
 62
     7
370
    15
100
AcDbPoint
 10
98.023670043945
 20
19.707164361682
 30
0.0
1001
Sigma
1000
DIM_NORM1
  0
LINE
  5
38F
102
{ACAD_REACTORS
330
38E
102
}
330
1F
100
AcDbEntity
  8
KCAD_DIMS
  6
Continuous
 62
     7
370
    15
100
AcDbLine
 10
95.02367008900099
 20
19.707164361682
 30
0.0
 11
20.81366999889
 21
19.707164361682
 31
0.0
1001
Sigma
1000
DIM_NORM1
  0
LINE
  5
391
102
{ACAD_REACTORS
330
38E
102
}
330
1F
100
AcDbEntity
  8
KCAD_DIMS
  6
Continuous
 62
     7
370
    15
100
AcDbLine
 10
98.023670043945
 20
19.707164361682
 30
0.0
 11
95.02367008900099
 21
18.707164376701
 31
0.0
1001
Sigma
1000
DIM_NORM1
  0
LINE
  5
393
102
{ACAD_REACTORS
330
38E
102
}
330
1F
100
AcDbEntity
  8
KCAD_DIMS
  6
Continuous
 62
     7
370
    15
100
AcDbLine
 10
98.023670043945
 20
19.707164361682
 30
0.0
 11
95.02367008900099
 21
20.707164346664
 31
0.0
1001
Sigma
1000
DIM_NORM1
  0
LINE
  5
395
102
{ACAD_REACTORS
330
38E
102
}
330
1F
100
AcDbEntity
  8
KCAD_DIMS
  6
Continuous
 62
     7
370
    15
100
AcDbLine
 10
98.023670043945
 20
19.707164361682
 30
0.0
 11
95.02367008900099
 21
19.707164361682
 31
0.0
1001
Sigma
1000
DIM_NORM1
  0
LINE
  5
397
102
{ACAD_REACTORS
330
38E
102
}
330
1F
100
AcDbEntity
  8
KCAD_DIMS
  6
Continuous
 62
     7
370
    15
100
AcDbLine
 10
17.813670043945
 20
19.707164361682
 30
0.0
 11
20.81366999889
 21
20.707164346664
 31
0.0
1001
Sigma
1000
DIM_NORM1
  0
LINE
  5
399
102
{ACAD_REACTORS
330
38E
102
}
330
1F
100
AcDbEntity
  8
KCAD_DIMS
  6
Continuous
 62
     7
370
    15
100
AcDbLine
 10
17.813670043945
 20
19.707164361682
 30
0.0
 11
20.81366999889
 21
18.707164376701
 31
0.0
1001
Sigma
1000
DIM_NORM1
  0
LINE
  5
39B
102
{ACAD_REACTORS
330
38E
102
}
330
1F
100
AcDbEntity
  8
KCAD_DIMS
  6
Continuous
 62
     7
370
    15
100
AcDbLine
 10
17.813670043945
 20
19.707164361682
 30
0.0
 11
20.81366999889
 21
19.707164361682
 31
0.0
1001
Sigma
1000
DIM_NORM1
  0
TEXT
  5
39D
102
{ACAD_REACTORS
330
38E
102
}
330
1F
100
AcDbEntity
  8
KCAD_DIMS
  6
Continuous
 62
     7
370
    30
100
AcDbText
 10
50.6316700649257
 20
20.98716438075555
 30
0.0
 40
2.603520038795471
  1
80.21
  7
KCADDIMSTANDARD
100
AcDbText
1001
Sigma
1000
DIM_NORM1
  0
POINT
  5
39F
102
{ACAD_REACTORS
330
38E
102
}
330
1F
100
AcDbEntity
  8
KCAD_DIMS
  6
Continuous
 62
     7
370
    15
100
AcDbPoint
 10
98.023670043945
 20
3.644257354736299
 30
0.0
1001
Sigma
1000
DIM_NORM1
  0
POINT
  5
3A1
102
{ACAD_REACTORS
330
38E
102
}
330
1F
100
AcDbEntity
  8
KCAD_DIMS
  6
Continuous
 62
     7
370
    15
100
AcDbPoint
 10
17.813670043945
 20
0.1442573547363
 30
0.0
1001
Sigma
1000
DIM_NORM1
  0
POINT
  5
3A3
102
{ACAD_REACTORS
330
38E
102
}
330
1F
100
AcDbEntity
  8
KCAD_DIMS
  6
Continuous
 62
     7
370
    15
100
AcDbPoint
 10
17.813670043945
 20
19.707164361682
 30
0.0
1001
Sigma
1000
DIM_NORM1
  0
LINE
  5
3A6
102
{ACAD_REACTORS
330
3A5
102
}
330
1F
100
AcDbEntity
  8
KCAD_DIMS
  6
Continuous
 62
     7
370
    15
100
AcDbLine
 10
124.553670089
 20
26.364038109177
 30
0.0
 11
113.0236699988899
 21
26.364038109177
 31
0.0
1001
Sigma
1000
DIM_NORM1
  0
LINE
  5
3A8
102
{ACAD_REACTORS
330
3A5
102
}
330
1F
100
AcDbEntity
  8
KCAD_DIMS
  6
Continuous
 62
     7
370
    15
100
AcDbLine
 10
127.55367004395
 20
26.364038109177
 30
0.0
 11
124.553670089
 21
25.364038124196
 31
0.0
1001
Sigma
1000
DIM_NORM1
  0
LINE
  5
3AA
102
{ACAD_REACTORS
330
3A5
102
}
330
1F
100
AcDbEntity
  8
KCAD_DIMS
  6
Continuous
 62
     7
370
    15
100
AcDbLine
 10
127.55367004395
 20
26.364038109177
 30
0.0
 11
124.553670089
 21
27.364038094159
 31
0.0
1001
Sigma
1000
DIM_NORM1
  0
LINE
  5
3AC
102
{ACAD_REACTORS
330
3A5
102
}
330
1F
100
AcDbEntity
  8
KCAD_DIMS
  6
Continuous
 62
     7
370
    15
100
AcDbLine
 10
127.55367004395
 20
26.364038109177
 30
0.0
 11
124.553670089
 21
26.364038109177
 31
0.0
1001
Sigma
1000
DIM_NORM1
  0
LINE
  5
3AE
102
{ACAD_REACTORS
330
3A5
102
}
330
1F
100
AcDbEntity
  8
KCAD_DIMS
  6
Continuous
 62
     7
370
    15
100
AcDbLine
 10
110.02367004395
 20
26.364038109177
 30
0.0
 11
113.0236699988899
 21
27.364038094159
 31
0.0
1001
Sigma
1000
DIM_NORM1
  0
LINE
  5
3B0
102
{ACAD_REACTORS
330
3A5
102
}
330
1F
100
AcDbEntity
  8
KCAD_DIMS
  6
Continuous
 62
     7
370
    15
100
AcDbLine
 10
110.02367004395
 20
26.364038109177
 30
0.0
 11
113.0236699988899
 21
25.364038124196
 31
0.0
1001
Sigma
1000
DIM_NORM1
  0
LINE
  5
3B2
102
{ACAD_REACTORS
330
3A5
102
}
330
1F
100
AcDbEntity
  8
KCAD_DIMS
  6
Continuous
 62
     7
370
    15
100
AcDbLine
 10
110.02367004395
 20
26.364038109177
 30
0.0
 11
113.0236699988899
 21
26.364038109177
 31
0.0
1001
Sigma
1000
DIM_NORM1
  0
LINE
  5
3B4
102
{ACAD_REACTORS
330
3A5
102
}
330
1F
100
AcDbEntity
  8
KCAD_DIMS
  6
Continuous
 62
     7
370
    15
100
AcDbLine
 10
110.02367004395
 20
27.364038109177
 30
0.0
 11
110.02367004395
 21
2.040350291170999
 31
0.0
1001
Sigma
1000
DIM_NORM1
  0
TEXT
  5
3B6
102
{ACAD_REACTORS
330
3A5
102
}
330
1F
100
AcDbEntity
  8
KCAD_DIMS
  6
Continuous
 62
     7
370
    30
100
AcDbText
 10
111.5016700649247
 20
27.64403812825055
 30
0.0
 40
2.603520038795471
  1
17.53
  7
KCADDIMSTANDARD
100
AcDbText
1001
Sigma
1000
DIM_NORM1
  0
POINT
  5
3B8
102
{ACAD_REACTORS
330
3A5
102
}
330
1F
100
AcDbEntity
  8
KCAD_DIMS
  6
Continuous
 62
     7
370
    15
100
AcDbPoint
 10
127.55367004395
 20
-5.533481930903
 30
0.0
1001
Sigma
1000
DIM_NORM1
  0
POINT
  5
3BA
102
{ACAD_REACTORS
330
3A5
102
}
330
1F
100
AcDbEntity
  8
KCAD_DIMS
  6
Continuous
 62
     7
370
    15
100
AcDbPoint
 10
110.02367004395
 20
6.1442573547363
 30
0.0
1001
Sigma
1000
DIM_NORM1
  0
POINT
  5
3BC
102
{ACAD_REACTORS
330
3A5
102
}
330
1F
100
AcDbEntity
  8
KCAD_DIMS
  6
Continuous
 62
     7
370
    15
100
AcDbPoint
 10
110.02367004395
 20
26.364038109177
 30
0.0
1001
Sigma
1000
DIM_NORM1
  0
LINE
  5
3BF
102
{ACAD_REACTORS
330
3BE
102
}
330
1F
100
AcDbEntity
  8
KCAD_DIMS
  6
Continuous
 62
     7
370
    15
100
AcDbLine
 10
107.023670089
 20
26.364038109177
 30
0.0
 11
20.81366999889
 21
26.364038109177
 31
0.0
1001
Sigma
1000
DIM_NORM1
  0
LINE
  5
3C1
102
{ACAD_REACTORS
330
3BE
102
}
330
1F
100
AcDbEntity
  8
KCAD_DIMS
  6
Continuous
 62
     7
370
    15
100
AcDbLine
 10
110.02367004395
 20
26.364038109177
 30
0.0
 11
107.023670089
 21
25.364038124196
 31
0.0
1001
Sigma
1000
DIM_NORM1
  0
LINE
  5
3C3
102
{ACAD_REACTORS
330
3BE
102
}
330
1F
100
AcDbEntity
  8
KCAD_DIMS
  6
Continuous
 62
     7
370
    15
100
AcDbLine
 10
110.02367004395
 20
26.364038109177
 30
0.0
 11
107.023670089
 21
27.364038094159
 31
0.0
1001
Sigma
1000
DIM_NORM1
  0
LINE
  5
3C5
102
{ACAD_REACTORS
330
3BE
102
}
330
1F
100
AcDbEntity
  8
KCAD_DIMS
  6
Continuous
 62
     7
370
    15
100
AcDbLine
 10
110.02367004395
 20
26.364038109177
 30
0.0
 11
107.023670089
 21
26.364038109177
 31
0.0
1001
Sigma
1000
DIM_NORM1
  0
LINE
  5
3C7
102
{ACAD_REACTORS
330
3BE
102
}
330
1F
100
AcDbEntity
  8
KCAD_DIMS
  6
Continuous
 62
     7
370
    15
100
AcDbLine
 10
17.813670043945
 20
26.364038109177
 30
0.0
 11
20.81366999889
 21
27.364038094159
 31
0.0
1001
Sigma
1000
DIM_NORM1
  0
LINE
  5
3C9
102
{ACAD_REACTORS
330
3BE
102
}
330
1F
100
AcDbEntity
  8
KCAD_DIMS
  6
Continuous
 62
     7
370
    15
100
AcDbLine
 10
17.813670043945
 20
26.364038109177
 30
0.0
 11
20.81366999889
 21
25.364038124196
 31
0.0
1001
Sigma
1000
DIM_NORM1
  0
LINE
  5
3CB
102
{ACAD_REACTORS
330
3BE
102
}
330
1F
100
AcDbEntity
  8
KCAD_DIMS
  6
Continuous
 62
     7
370
    15
100
AcDbLine
 10
17.813670043945
 20
26.364038109177
 30
0.0
 11
20.81366999889
 21
26.364038109177
 31
0.0
1001
Sigma
1000
DIM_NORM1
  0
LINE
  5
3CD
102
{ACAD_REACTORS
330
3BE
102
}
330
1F
100
AcDbEntity
  8
KCAD_DIMS
  6
Continuous
 62
     7
370
    15
100
AcDbLine
 10
17.813670043945
 20
1.144257339717799
 30
0.0
 11
17.813670043945
 21
27.364038109177
 31
0.0
1001
Sigma
1000
DIM_NORM1
  0
TEXT
  5
3CF
102
{ACAD_REACTORS
330
3BE
102
}
330
1F
100
AcDbEntity
  8
KCAD_DIMS
  6
Continuous
 62
     7
370
    30
100
AcDbText
 10
56.6316700649257
 20
27.64403812825055
 30
0.0
 40
2.603520038795471
  1
92.21
  7
KCADDIMSTANDARD
100
AcDbText
1001
Sigma
1000
DIM_NORM1
  0
POINT
  5
3D1
102
{ACAD_REACTORS
330
3BE
102
}
330
1F
100
AcDbEntity
  8
KCAD_DIMS
  6
Continuous
 62
     7
370
    15
100
AcDbPoint
 10
110.02367004395
 20
6.1442573547363
 30
0.0
1001
Sigma
1000
DIM_NORM1
  0
POINT
  5
3D3
102
{ACAD_REACTORS
330
3BE
102
}
330
1F
100
AcDbEntity
  8
KCAD_DIMS
  6
Continuous
 62
     7
370
    15
100
AcDbPoint
 10
17.813670043945
 20
0.1442573547363
 30
0.0
1001
Sigma
1000
DIM_NORM1
  0
POINT
  5
3D5
102
{ACAD_REACTORS
330
3BE
102
}
330
1F
100
AcDbEntity
  8
KCAD_DIMS
  6
Continuous
 62
     7
370
    15
100
AcDbPoint
 10
17.813670043945
 20
26.364038109177
 30
0.0
1001
Sigma
1000
DIM_NORM1
  0
LINE
  5
3D8
102
{ACAD_REACTORS
330
3D7
102
}
330
1F
100
AcDbEntity
  8
KCAD_DIMS
  6
Continuous
 62
     7
370
    15
100
AcDbLine
 10
14.813670089001
 20
26.364038109177
 30
0.0
 11
-89.18633000111
 21
26.364038109177
 31
0.0
1001
Sigma
1000
DIM_NORM1
  0
LINE
  5
3DA
102
{ACAD_REACTORS
330
3D7
102
}
330
1F
100
AcDbEntity
  8
KCAD_DIMS
  6
Continuous
 62
     7
370
    15
100
AcDbLine
 10
17.813670043945
 20
26.364038109177
 30
0.0
 11
14.813670089001
 21
25.364038124196
 31
0.0
1001
Sigma
1000
DIM_NORM1
  0
LINE
  5
3DC
102
{ACAD_REACTORS
330
3D7
102
}
330
1F
100
AcDbEntity
  8
KCAD_DIMS
  6
Continuous
 62
     7
370
    15
100
AcDbLine
 10
17.813670043945
 20
26.364038109177
 30
0.0
 11
14.813670089001
 21
27.364038094159
 31
0.0
1001
Sigma
1000
DIM_NORM1
  0
LINE
  5
3DE
102
{ACAD_REACTORS
330
3D7
102
}
330
1F
100
AcDbEntity
  8
KCAD_DIMS
  6
Continuous
 62
     7
370
    15
100
AcDbLine
 10
17.813670043945
 20
26.364038109177
 30
0.0
 11
14.813670089001
 21
26.364038109177
 31
0.0
1001
Sigma
1000
DIM_NORM1
  0
LINE
  5
3E0
102
{ACAD_REACTORS
330
3D7
102
}
330
1F
100
AcDbEntity
  8
KCAD_DIMS
  6
Continuous
 62
     7
370
    15
100
AcDbLine
 10
-92.18632995605
 20
26.364038109177
 30
0.0
 11
-89.18633000111
 21
27.364038094159
 31
0.0
1001
Sigma
1000
DIM_NORM1
  0
LINE
  5
3E2
102
{ACAD_REACTORS
330
3D7
102
}
330
1F
100
AcDbEntity
  8
KCAD_DIMS
  6
Continuous
 62
     7
370
    15
100
AcDbLine
 10
-92.18632995605
 20
26.364038109177
 30
0.0
 11
-89.18633000111
 21
25.364038124196
 31
0.0
1001
Sigma
1000
DIM_NORM1
  0
LINE
  5
3E4
102
{ACAD_REACTORS
330
3D7
102
}
330
1F
100
AcDbEntity
  8
KCAD_DIMS
  6
Continuous
 62
     7
370
    15
100
AcDbLine
 10
-92.18632995605
 20
26.364038109177
 30
0.0
 11
-89.18633000111
 21
26.364038109177
 31
0.0
1001
Sigma
1000
DIM_NORM1
  0
TEXT
  5
3E6
102
{ACAD_REACTORS
330
3D7
102
}
330
1F
100
AcDbEntity
  8
KCAD_DIMS
  6
Continuous
 62
     7
370
    30
100
AcDbText
 10
-46.0733299291153
 20
27.64403812825055
 30
0.0
 40
2.603520038795471
  1
WD=110
  7
KCADDIMSTANDARD
100
AcDbText
1001
Sigma
1000
DIM_NORM1
  0
POINT
  5
3E8
102
{ACAD_REACTORS
330
3D7
102
}
330
1F
100
AcDbEntity
  8
KCAD_DIMS
  6
Continuous
 62
     7
370
    15
100
AcDbPoint
 10
17.813670043945
 20
0.1442573547363
 30
0.0
1001
Sigma
1000
DIM_NORM1
  0
POINT
  5
3EA
102
{ACAD_REACTORS
330
3D7
102
}
330
1F
100
AcDbEntity
  8
KCAD_DIMS
  6
Continuous
 62
     7
370
    15
100
AcDbPoint
 10
-92.18632995605
 20
-5.540254793294
 30
0.0
1001
Sigma
1000
DIM_NORM1
  0
POINT
  5
3EC
102
{ACAD_REACTORS
330
3D7
102
}
330
1F
100
AcDbEntity
  8
KCAD_DIMS
  6
Continuous
 62
     7
370
    15
100
AcDbPoint
 10
-92.18632995605
 20
26.364038109177
 30
0.0
1001
Sigma
1000
DIM_NORM1
  0
LINE
  5
3EF
102
{ACAD_REACTORS
330
3EE
102
}
330
1F
100
AcDbEntity
  8
KCAD_DIMS
  6
Continuous
 62
     7
370
    15
100
AcDbLine
 10
-89.18633000111
 20
32.743542117193
 30
0.0
 11
124.553670089
 21
32.743542117193
 31
0.0
1001
Sigma
1000
DIM_NORM1
  0
LINE
  5
3F1
102
{ACAD_REACTORS
330
3EE
102
}
330
1F
100
AcDbEntity
  8
KCAD_DIMS
  6
Continuous
 62
     7
370
    15
100
AcDbLine
 10
-92.18632995605
 20
32.743542117193
 30
0.0
 11
-89.18633000111
 21
33.743542102175
 31
0.0
1001
Sigma
1000
DIM_NORM1
  0
LINE
  5
3F3
102
{ACAD_REACTORS
330
3EE
102
}
330
1F
100
AcDbEntity
  8
KCAD_DIMS
  6
Continuous
 62
     7
370
    15
100
AcDbLine
 10
-92.18632995605
 20
32.743542117193
 30
0.0
 11
-89.18633000111
 21
31.74354213221199
 31
0.0
1001
Sigma
1000
DIM_NORM1
  0
LINE
  5
3F5
102
{ACAD_REACTORS
330
3EE
102
}
330
1F
100
AcDbEntity
  8
KCAD_DIMS
  6
Continuous
 62
     7
370
    15
100
AcDbLine
 10
-92.18632995605
 20
32.743542117193
 30
0.0
 11
-89.18633000111
 21
32.743542117193
 31
0.0
1001
Sigma
1000
DIM_NORM1
  0
LINE
  5
3F7
102
{ACAD_REACTORS
330
3EE
102
}
330
1F
100
AcDbEntity
  8
KCAD_DIMS
  6
Continuous
 62
     7
370
    15
100
AcDbLine
 10
127.55367004395
 20
32.743542117193
 30
0.0
 11
124.553670089
 21
31.74354213221199
 31
0.0
1001
Sigma
1000
DIM_NORM1
  0
LINE
  5
3F9
102
{ACAD_REACTORS
330
3EE
102
}
330
1F
100
AcDbEntity
  8
KCAD_DIMS
  6
Continuous
 62
     7
370
    15
100
AcDbLine
 10
127.55367004395
 20
32.743542117193
 30
0.0
 11
124.553670089
 21
33.743542102175
 31
0.0
1001
Sigma
1000
DIM_NORM1
  0
LINE
  5
3FB
102
{ACAD_REACTORS
330
3EE
102
}
330
1F
100
AcDbEntity
  8
KCAD_DIMS
  6
Continuous
 62
     7
370
    15
100
AcDbLine
 10
127.55367004395
 20
32.743542117193
 30
0.0
 11
124.553670089
 21
32.743542117193
 31
0.0
1001
Sigma
1000
DIM_NORM1
  0
LINE
  5
3FD
102
{ACAD_REACTORS
330
3EE
102
}
330
1F
100
AcDbEntity
  8
KCAD_DIMS
  6
Continuous
 62
     7
370
    15
100
AcDbLine
 10
-92.18632995605
 20
-4.540254808312999
 30
0.0
 11
-92.18632995605
 21
33.743542117193
 31
0.0
1001
Sigma
1000
DIM_NORM1
  0
LINE
  5
3FF
102
{ACAD_REACTORS
330
3EE
102
}
330
1F
100
AcDbEntity
  8
KCAD_DIMS
  6
Continuous
 62
     7
370
    15
100
AcDbLine
 10
127.55367004395
 20
-4.533481945921
 30
0.0
 11
127.55367004395
 21
33.743542117193
 31
0.0
1001
Sigma
1000
DIM_NORM1
  0
TEXT
  5
401
102
{ACAD_REACTORS
330
3EE
102
}
330
1F
100
AcDbEntity
  8
KCAD_DIMS
  6
Continuous
 62
     7
370
    30
100
AcDbText
 10
2.396670094728397
 20
34.02354213626655
 30
0.0
 40
2.603520038795471
  1
O/I 219.74
  7
KCADDIMSTANDARD
100
AcDbText
1001
Sigma
1000
DIM_NORM1
  0
POINT
  5
403
102
{ACAD_REACTORS
330
3EE
102
}
330
1F
100
AcDbEntity
  8
KCAD_DIMS
  6
Continuous
 62
     7
370
    15
100
AcDbPoint
 10
-92.18632995605
 20
-5.540254793294
 30
0.0
1001
Sigma
1000
DIM_NORM1
  0
POINT
  5
405
102
{ACAD_REACTORS
330
3EE
102
}
330
1F
100
AcDbEntity
  8
KCAD_DIMS
  6
Continuous
 62
     7
370
    15
100
AcDbPoint
 10
127.55367004395
 20
-5.533481930903
 30
0.0
1001
Sigma
1000
DIM_NORM1
  0
POINT
  5
407
102
{ACAD_REACTORS
330
3EE
102
}
330
1F
100
AcDbEntity
  8
KCAD_DIMS
  6
Continuous
 62
     7
370
    15
100
AcDbPoint
 10
127.55367004395
 20
32.743542117193
 30
0.0
1001
Sigma
1000
DIM_NORM1
  0
POINT
  5
40A
330
1F
100
AcDbEntity
  8
1
  6
Continuous
 62
     7
370
    15
100
AcDbPoint
 10
166.8086658059699
 20
-135.0307504175
 30
0.0
1001
Sigma
1000

  0
LINE
  5
40C
330
1F
100
AcDbEntity
  8
1
  6
Continuous
 62
     7
370
    30
100
AcDbLine
 10
-115.191334194
 20
-125.5307504175
 30
0.0
 11
159.80865054718
 21
-125.5307504175
 31
0.0
1001
Sigma
1000

  0
LINE
  5
40E
330
1F
100
AcDbEntity
  8
1
  6
Continuous
 62
     7
370
    30
100
AcDbLine
 10
159.80865054718
 20
65.469249582508
 30
0.0
 11
159.80865054718
 21
-125.5307504175
 31
0.0
1001
Sigma
1000

  0
LINE
  5
410
330
1F
100
AcDbEntity
  8
DEFPOINTS
  6
HIDDEN
 62
   253
370
    15
100
AcDbLine
 10
166.8086658059699
 20
-135.0307504175
 30
0.0
 11
-130.1913341939999
 21
-135.0307504175
 31
0.0
1001
Sigma
1000

  0
LINE
  5
412
330
1F
100
AcDbEntity
  8
DEFPOINTS
  6
HIDDEN
 62
   253
370
    15
100
AcDbLine
 10
166.8086658059699
 20
74.96924958250787
 30
0.0
 11
166.8086658059699
 21
-135.0307504175
 31
0.0
1001
Sigma
1000

  0
LINE
  5
414
330
1F
100
AcDbEntity
  8
1
  6
Continuous
 62
     7
370
    30
100
AcDbLine
 10
-115.191334194
 20
65.469249582508
 30
0.0
 11
159.80865054718
 21
65.469249582508
 31
0.0
1001
Sigma
1000

  0
LINE
  5
416
330
1F
100
AcDbEntity
  8
1
  6
Continuous
 62
     7
370
    30
100
AcDbLine
 10
-115.191334194
 20
65.469249582508
 30
0.0
 11
-115.191334194
 21
-125.5307504175
 31
0.0
1001
Sigma
1000

  0
LINE
  5
418
330
1F
100
AcDbEntity
  8
DEFPOINTS
  6
HIDDEN
 62
   253
370
    15
100
AcDbLine
 10
-130.191334194
 20
-135.0307504175
 30
0.0
 11
-130.191334194
 21
74.96924958250787
 31
0.0
1001
Sigma
1000

  0
LINE
  5
41A
330
1F
100
AcDbEntity
  8
DEFPOINTS
  6
HIDDEN
 62
   253
370
    15
100
AcDbLine
 10
166.80866580597
 20
74.96924958250786
 30
0.0
 11
-130.1913341940005
 21
74.96924958250715
 31
0.0
1001
Sigma
1000

  0
LINE
  5
41D
330
1F
100
AcDbEntity
  8
99
  6
Continuous
 62
     7
370
    30
100
AcDbLine
 10
-30.19134945281999
 20
-78.0307504175
 30
0.0
 11
159.80865054718
 21
-78.0307504175
 31
0.0
1001
Sigma
1000

  0
LINE
  5
41F
330
1F
100
AcDbEntity
  8
99
  6
Continuous
 62
     7
370
    30
100
AcDbLine
 10
98.80865054718
 20
-125.5307504175
 30
0.0
 11
98.80865054718
 21
-78.0307504175
 31
0.0
1001
Sigma
1000

  0
TEXT
  5
421
330
1F
100
AcDbEntity
  8
99
  6
Continuous
 62
     7
370
    30
100
AcDbText
 10
44.6991892522
 20
-83.88843804225
 30
0.0
 40
4.067999999999999
  1
1
 41
0.8084070796460174
  7
KCADTEXTSTANDARD
100
AcDbText
1001
Sigma
1000

  0
LINE
  5
423
330
1F
100
AcDbEntity
  8
99
  6
Continuous
 62
     7
370
    30
100
AcDbLine
 10
38.80865054718
 20
-105.5307504174999
 30
0.0
 11
159.80865054718
 21
-105.5307504174999
 31
0.0
1001
Sigma
1000

  0
LINE
  5
425
330
1F
100
AcDbEntity
  8
99
  6
Continuous
 62
     7
370
    30
100
AcDbLine
 10
83.80865054718
 20
-125.5307504175
 30
0.0
 11
83.80865054718
 21
-105.5307504174999
 31
0.0
1001
Sigma
1000

  0
LINE
  5
427
330
1F
100
AcDbEntity
  8
99
  6
Continuous
 62
     7
370
    30
100
AcDbLine
 10
68.80865054718
 20
-125.5307504175
 30
0.0
 11
68.80865054718
 21
-105.5307504174999
 31
0.0
1001
Sigma
1000

  0
LINE
  5
429
330
1F
100
AcDbEntity
  8
99
  6
Continuous
 62
     7
370
    30
100
AcDbLine
 10
53.80865054718
 20
-125.5307504175
 30
0.0
 11
53.80865054718
 21
-78.0307504175
 31
0.0
1001
Sigma
1000

  0
LINE
  5
42B
330
1F
100
AcDbEntity
  8
99
  6
Continuous
 62
     7
370
    30
100
AcDbLine
 10
38.80865054718
 20
-125.5307504175
 30
0.0
 11
38.80865054718
 21
-78.0307504175
 31
0.0
1001
Sigma
1000

  0
LINE
  5
42D
330
1F
100
AcDbEntity
  8
99
  6
Continuous
 62
     7
370
    15
100
AcDbLine
 10
-30.19134945281999
 20
-120.5307504175
 30
0.0
 11
38.80865054718
 21
-120.5307504175
 31
0.0
1001
Sigma
1000

  0
LINE
  5
42F
330
1F
100
AcDbEntity
  8
99
  6
Continuous
 62
     7
370
    15
100
AcDbLine
 10
-30.19134945281999
 20
-115.5307504175
 30
0.0
 11
38.80865054718
 21
-115.5307504175
 31
0.0
1001
Sigma
1000

  0
LINE
  5
431
330
1F
100
AcDbEntity
  8
99
  6
Continuous
 62
     7
370
    15
100
AcDbLine
 10
-30.19134945281999
 20
-110.5307504175
 30
0.0
 11
98.80865054718
 21
-110.5307504175
 31
0.0
1001
Sigma
1000

  0
LINE
  5
433
330
1F
100
AcDbEntity
  8
99
  6
Continuous
 62
     7
370
    15
100
AcDbLine
 10
-30.19134945281999
 20
-105.5307504174999
 30
0.0
 11
38.80865054718
 21
-105.5307504174999
 31
0.0
1001
Sigma
1000

  0
LINE
  5
435
330
1F
100
AcDbEntity
  8
99
  6
Continuous
 62
     7
370
    15
100
AcDbLine
 10
-30.19134945281999
 20
-100.5307504175
 30
0.0
 11
38.80865054718
 21
-100.5307504175
 31
0.0
1001
Sigma
1000

  0
LINE
  5
437
330
1F
100
AcDbEntity
  8
99
  6
Continuous
 62
     7
370
    15
100
AcDbLine
 10
-9.19134945282
 20
-125.5307504175
 30
0.0
 11
-9.19134945282
 21
-90.5307504175
 31
0.0
1001
Sigma
1000

  0
LINE
  5
439
330
1F
100
AcDbEntity
  8
99
  6
Continuous
 62
     7
370
    15
100
AcDbLine
 10
1.80865054718
 20
-125.5307504175
 30
0.0
 11
1.80865054718
 21
-90.5307504175
 31
0.0
1001
Sigma
1000

  0
LINE
  5
43B
330
1F
100
AcDbEntity
  8
99
  6
Continuous
 62
     7
370
    15
100
AcDbLine
 10
103.80865054718
 20
-125.5307504175
 30
0.0
 11
103.80865054718
 21
-90.5307504175
 31
0.0
1001
Sigma
1000

  0
LINE
  5
43D
330
1F
100
AcDbEntity
  8
99
  6
Continuous
 62
     7
370
    30
100
AcDbLine
 10
98.80865054718
 20
-115.5307504175
 30
0.0
 11
159.80865054718
 21
-115.5307504175
 31
0.0
1001
Sigma
1000

  0
TEXT
  5
43F
330
1F
100
AcDbEntity
  8
99
  6
Continuous
 62
     7
370
    30
100
AcDbText
 10
99.53856480869001
 20
-108.6451985799
 30
0.0
 40
2.7
  1
製
 41
1.266666666666666
  7
KCADTEXTSTANDARD
100
AcDbText
1001
Sigma
1000

  0
TEXT
  5
441
330
1F
100
AcDbEntity
  8
99
  6
Continuous
 62
     7
370
    30
100
AcDbText
 10
53.03365054718
 20
-96.30575041750001
 30
0.0
 40
4.049999999999999
  1
 三角法
 41
0.7916666674531168
  7
KCADTEXTSTANDARD
100
AcDbText
1001
Sigma
1000

  0
TEXT
  5
443
330
1F
100
AcDbEntity
  8
99
  6
Continuous
 62
     7
370
    30
100
AcDbText
 10
99.53856480869001
 20
-111.7451985798999
 30
0.0
 40
2.7
  1
品
 41
1.266666666666666
  7
KCADTEXTSTANDARD
100
AcDbText
1001
Sigma
1000

  0
LINE
  5
445
330
1F
100
AcDbEntity
  8
99
  6
Continuous
 62
     7
370
    15
100
AcDbLine
 10
-26.05915530012
 20
-119.8302775629999
 30
0.0
 11
-29.25915530012
 21
-119.8302775629999
 31
0.0
1001
Sigma
1000

  0
TEXT
  5
447
330
1F
100
AcDbEntity
  8
99
  6
Continuous
 62
     7
370
    30
100
AcDbText
 10
99.53856480869001
 20
-114.8451985799
 30
0.0
 40
2.7
  1
名
 41
1.266666666666666
  7
KCADTEXTSTANDARD
100
AcDbText
1001
Sigma
1000

  0
TEXT
  5
449
330
1F
100
AcDbEntity
  8
99
  6
Continuous
 62
     7
370
    30
100
AcDbText
 10
38.65651876428
 20
-109.7296841743
 30
0.0
 40
3.6
  1
 設計  製図  検図  承認
 41
1.147916666666666
  7
KCADTEXTSTANDARD
100
AcDbText
1001
Sigma
1000

  0
TEXT
  5
44B
330
1F
100
AcDbEntity
  8
99
  6
Continuous
 62
     7
370
    30
100
AcDbText
 10
-25.68406053072
 20
-124.7273949772
 30
0.0
 40
3.6
  1
 年月日    担当     訂 正 記 事
 41
0.8102941176470586
  7
KCADTEXTSTANDARD
100
AcDbText
1001
Sigma
1000

  0
TEXT
  5
44D
330
1F
100
AcDbEntity
  8
99
  6
Continuous
 62
     7
370
    30
100
AcDbText
 10
-29.48744320281999
 20
-124.5609949802999
 30
0.0
 40
3.6
  1
符号
 41
0.4987500003539026
  7
KCADTEXTSTANDARD
100
AcDbText
1001
Sigma
1000

  0
LINE
  5
44F
330
1F
100
AcDbEntity
  8
99
  6
Continuous
 62
     7
370
    15
100
AcDbLine
 10
-26.05915530012
 20
-99.830277563
 30
0.0
 11
-29.25915530012
 21
-99.830277563
 31
0.0
1001
Sigma
1000

  0
LINE
  5
451
330
1F
100
AcDbEntity
  8
99
  6
Continuous
 62
     7
370
    15
100
AcDbLine
 10
-27.65915530012
 20
-96.3661759478
 30
0.0
 11
-26.05915530012
 21
-99.830277563
 31
0.0
1001
Sigma
1000

  0
TEXT
  5
453
330
1F
100
AcDbEntity
  8
99
  6
Continuous
 62
     7
370
    15
100
AcDbText
 10
-28.05724591539252
 20
-99.24397264277285
 30
0.0
 40
2.082815953445434
  1
5
 41
0.577433628318584
  7
KCADTEXTSTANDARD
100
AcDbText
1001
Sigma
1000

  0
LINE
  5
455
330
1F
100
AcDbEntity
  8
99
  6
Continuous
 62
     7
370
    15
100
AcDbLine
 10
-29.25915530012
 20
-99.830277563
 30
0.0
 11
-27.65915530012
 21
-96.3661759478
 31
0.0
1001
Sigma
1000

  0
LINE
  5
457
330
1F
100
AcDbEntity
  8
99
  6
Continuous
 62
     7
370
    15
100
AcDbLine
 10
-26.05915530012
 20
-104.830277563
 30
0.0
 11
-29.25915530012
 21
-104.830277563
 31
0.0
1001
Sigma
1000

  0
LINE
  5
459
330
1F
100
AcDbEntity
  8
99
  6
Continuous
 62
     7
370
    15
100
AcDbLine
 10
-27.65915530012
 20
-101.3661759477999
 30
0.0
 11
-26.05915530012
 21
-104.830277563
 31
0.0
1001
Sigma
1000

  0
TEXT
  5
45B
330
1F
100
AcDbEntity
  8
99
  6
Continuous
 62
     7
370
    15
100
AcDbText
 10
-28.05724591539252
 20
-104.2439726427728
 30
0.0
 40
2.082815953445434
  1
4
 41
0.577433628318584
  7
KCADTEXTSTANDARD
100
AcDbText
1001
Sigma
1000

  0
LINE
  5
45D
330
1F
100
AcDbEntity
  8
99
  6
Continuous
 62
     7
370
    15
100
AcDbLine
 10
-29.25915530012
 20
-104.830277563
 30
0.0
 11
-27.65915530012
 21
-101.3661759477999
 31
0.0
1001
Sigma
1000

  0
LINE
  5
45F
330
1F
100
AcDbEntity
  8
99
  6
Continuous
 62
     7
370
    15
100
AcDbLine
 10
-26.05915530012
 20
-109.8302775629999
 30
0.0
 11
-29.25915530012
 21
-109.8302775629999
 31
0.0
1001
Sigma
1000

  0
LINE
  5
461
330
1F
100
AcDbEntity
  8
99
  6
Continuous
 62
     7
370
    15
100
AcDbLine
 10
-27.65915530012
 20
-106.3661759478
 30
0.0
 11
-26.05915530012
 21
-109.8302775629999
 31
0.0
1001
Sigma
1000

  0
TEXT
  5
463
330
1F
100
AcDbEntity
  8
99
  6
Continuous
 62
     7
370
    15
100
AcDbText
 10
-28.05724591539252
 20
-109.2439726427728
 30
0.0
 40
2.082815953445434
  1
3
 41
0.577433628318584
  7
KCADTEXTSTANDARD
100
AcDbText
1001
Sigma
1000

  0
LINE
  5
465
330
1F
100
AcDbEntity
  8
99
  6
Continuous
 62
     7
370
    15
100
AcDbLine
 10
-27.65915530012
 20
-116.3661759478
 30
0.0
 11
-26.05915530012
 21
-119.8302775629999
 31
0.0
1001
Sigma
1000

  0
LINE
  5
467
330
1F
100
AcDbEntity
  8
99
  6
Continuous
 62
     7
370
    15
100
AcDbLine
 10
-29.25915530012
 20
-119.8302775629999
 30
0.0
 11
-27.65915530012
 21
-116.3661759478
 31
0.0
1001
Sigma
1000

  0
LINE
  5
469
330
1F
100
AcDbEntity
  8
99
  6
Continuous
 62
     7
370
    15
100
AcDbLine
 10
-29.25915530012
 20
-109.8302775629999
 30
0.0
 11
-27.65915530012
 21
-106.3661759478
 31
0.0
1001
Sigma
1000

  0
TEXT
  5
46B
330
1F
100
AcDbEntity
  8
99
  6
Continuous
 62
     7
370
    15
100
AcDbText
 10
-28.05724591539252
 20
-114.2439726427728
 30
0.0
 40
2.082815953445434
  1
2
 41
0.577433628318584
  7
KCADTEXTSTANDARD
100
AcDbText
1001
Sigma
1000

  0
LINE
  5
46D
330
1F
100
AcDbEntity
  8
99
  6
Continuous
 62
     7
370
    15
100
AcDbLine
 10
-26.05915530012
 20
-114.8302775629999
 30
0.0
 11
-29.25915530012
 21
-114.8302775629999
 31
0.0
1001
Sigma
1000

  0
LINE
  5
46F
330
1F
100
AcDbEntity
  8
99
  6
Continuous
 62
     7
370
    15
100
AcDbLine
 10
-27.65915530012
 20
-111.3661759478
 30
0.0
 11
-26.05915530012
 21
-114.8302775629999
 31
0.0
1001
Sigma
1000

  0
LINE
  5
471
330
1F
100
AcDbEntity
  8
99
  6
Continuous
 62
     7
370
    15
100
AcDbLine
 10
-29.25915530012
 20
-114.8302775629999
 30
0.0
 11
-27.65915530012
 21
-111.3661759478
 31
0.0
1001
Sigma
1000

  0
TEXT
  5
473
330
1F
100
AcDbEntity
  8
99
  6
Continuous
 62
     7
370
    15
100
AcDbText
 10
-28.05724591539252
 20
-119.2439726427728
 30
0.0
 40
2.082815953445434
  1
1
 41
0.577433628318584
  7
KCADTEXTSTANDARD
100
AcDbText
1001
Sigma
1000

  0
TEXT
  5
475
330
1F
100
AcDbEntity
  8
99
  6
Continuous
 62
     7
370
    30
100
AcDbText
 10
99.52656460681001
 20
-104.7688799546999
 30
0.0
 40
2.7
  1
差
 41
1.266666666666666
  7
KCADTEXTSTANDARD
100
AcDbText
1001
Sigma
1000

  0
TEXT
  5
477
330
1F
100
AcDbEntity
  8
99
  6
Continuous
 62
     7
370
    30
100
AcDbText
 10
99.52656460681001
 20
-101.2688799546999
 30
0.0
 40
2.7
  1
公
 41
1.266666666666666
  7
KCADTEXTSTANDARD
100
AcDbText
1001
Sigma
1000

  0
TEXT
  5
479
330
1F
100
AcDbEntity
  8
99
  6
Continuous
 62
     7
370
    30
100
AcDbText
 10
69.62656463062186
 20
-93.76887995469998
 30
0.0
 40
2.7
  1
面
 41
1.203333318233489
  7
KCADTEXTSTANDARD
100
AcDbText
1001
Sigma
1000

  0
TEXT
  5
47B
330
1F
100
AcDbEntity
  8
99
  6
Continuous
 62
     7
370
    30
100
AcDbText
 10
99.52656460681001
 20
-97.26887995470001
 30
0.0
 40
2.7
  1
上
 41
1.266666666666666
  7
KCADTEXTSTANDARD
100
AcDbText
1001
Sigma
1000

  0
TEXT
  5
47D
330
1F
100
AcDbEntity
  8
99
  6
Continuous
 62
     7
370
    30
100
AcDbText
 10
99.52656460681001
 20
-93.76887995469998
 30
0.0
 40
2.7
  1
仕
 41
1.266666666666666
  7
KCADTEXTSTANDARD
100
AcDbText
1001
Sigma
1000

  0
LINE
  5
47F
330
1F
100
AcDbEntity
  8
99
  6
Continuous
 62
     7
370
    30
100
AcDbLine
 10
-9.19134945282
 20
-90.5307504175
 30
0.0
 11
-9.19134945282
 21
-78.0307504175
 31
0.0
1001
Sigma
1000

  0
TEXT
  5
481
330
1F
100
AcDbEntity
  8
99
  6
Continuous
 62
     7
370
    30
100
AcDbText
 10
99.45865054718
 20
-119.3807504175
 30
0.0
 40
2.7
  1
図
 41
1.266666666666666
  7
KCADTEXTSTANDARD
100
AcDbText
1001
Sigma
1000

  0
TEXT
  5
483
330
1F
100
AcDbEntity
  8
99
  6
Continuous
 62
     7
370
    30
100
AcDbText
 10
99.45865054718
 20
-123.8807504174999
 30
0.0
 40
2.7
  1
番
 41
1.266666666666666
  7
KCADTEXTSTANDARD
100
AcDbText
1001
Sigma
1000

  0
LINE
  5
485
330
1F
100
AcDbEntity
  8
99
  6
Continuous
 62
     7
370
    15
100
AcDbLine
 10
-30.19134945281999
 20
-85.5307504175
 30
0.0
 11
159.80865054718
 21
-85.5307504175
 31
0.0
1001
Sigma
1000

  0
LINE
  5
487
330
1F
100
AcDbEntity
  8
99
  6
Continuous
 62
     7
370
    15
100
AcDbLine
 10
73.80865054718
 20
-90.5307504175
 30
0.0
 11
73.80865054718
 21
-98.0307504175
 31
0.0
1001
Sigma
1000

  0
TEXT
  5
489
330
1F
100
AcDbEntity
  8
99
  6
Continuous
 62
     7
370
    30
100
AcDbText
 10
41.20054243908
 20
-94.6286179311
 30
0.0
 40
3.6
  1
尺度
 41
1.1875
  7
KCADTEXTSTANDARD
100
AcDbText
1001
Sigma
1000

  0
LINE
  5
48B
330
1F
100
AcDbEntity
  8
99
  6
Continuous
 62
     7
370
    15
100
AcDbLine
 10
-29.25915530012
 20
-94.830277563
 30
0.0
 11
-27.65915530012
 21
-91.36617594783
 31
0.0
1001
Sigma
1000

  0
TEXT
  5
48D
330
1F
100
AcDbEntity
  8
99
  6
Continuous
 62
     7
370
    15
100
AcDbText
 10
-28.05724591539252
 20
-94.24397264277285
 30
0.0
 40
2.082815953445434
  1
6
 41
0.577433628318584
  7
KCADTEXTSTANDARD
100
AcDbText
1001
Sigma
1000

  0
LINE
  5
48F
330
1F
100
AcDbEntity
  8
99
  6
Continuous
 62
     7
370
    15
100
AcDbLine
 10
-27.65915530012
 20
-91.36617594783
 30
0.0
 11
-26.05915530012
 21
-94.830277563
 31
0.0
1001
Sigma
1000

  0
LINE
  5
491
330
1F
100
AcDbEntity
  8
99
  6
Continuous
 62
     7
370
    15
100
AcDbLine
 10
-26.05915530012
 20
-94.830277563
 30
0.0
 11
-29.25915530012
 21
-94.830277563
 31
0.0
1001
Sigma
1000

  0
LINE
  5
493
330
1F
100
AcDbEntity
  8
99
  6
Continuous
 62
     7
370
    30
100
AcDbLine
 10
68.80865054718
 20
-98.0307504175
 30
0.0
 11
68.80865054718
 21
-90.5307504175
 31
0.0
1001
Sigma
1000

  0
LINE
  5
495
330
1F
100
AcDbEntity
  8
99
  6
Continuous
 62
     7
370
    30
100
AcDbLine
 10
-30.19134945281999
 20
-90.5307504175
 30
0.0
 11
159.80865054718
 21
-90.5307504175
 31
0.0
1001
Sigma
1000

  0
LINE
  5
497
330
1F
100
AcDbEntity
  8
99
  6
Continuous
 62
     7
370
    15
100
AcDbLine
 10
-30.19134945281999
 20
-95.5307504175
 30
0.0
 11
53.80865054718
 21
-95.5307504175
 31
0.0
1001
Sigma
1000

  0
LINE
  5
499
330
1F
100
AcDbEntity
  8
99
  6
Continuous
 62
     7
370
    15
100
AcDbLine
 10
-25.19134945281999
 20
-125.5307504175
 30
0.0
 11
-25.19134945281999
 21
-90.5307504175
 31
0.0
1001
Sigma
1000

  0
TEXT
  5
49B
330
1F
100
AcDbEntity
  8
99
  6
Continuous
 62
     7
370
    30
100
AcDbText
 10
-28.35665150862
 20
-89.8260153126
 30
0.0
 40
3.6
  1
部品番号     部   品   名
 41
0.7659374981911647
  7
KCADTEXTSTANDARD
100
AcDbText
1001
Sigma
1000

  0
TEXT
  5
49D
330
1F
100
AcDbEntity
  8
99
  6
Continuous
 62
     7
370
    30
100
AcDbText
 10
41.20054243908
 20
-89.52861793110999
 30
0.0
 40
3.6
  1
個数
 41
1.1875
  7
KCADTEXTSTANDARD
100
AcDbText
1001
Sigma
1000

  0
TEXT
  5
49F
330
1F
100
AcDbEntity
  8
99
  6
Continuous
 62
     7
370
    30
100
AcDbText
 10
62.65651876428001
 20
-89.52968417431
 30
0.0
 40
3.6
  1
材       質                 表  面  処  理
 41
0.6678663776994779
  7
KCADTEXTSTANDARD
100
AcDbText
1001
Sigma
1000

  0
LINE
  5
4A1
330
1F
100
AcDbEntity
  8
99
  6
Continuous
 62
     7
370
    30
100
AcDbLine
 10
-30.19134945281999
 20
-78.0307504175
 30
0.0
 11
-30.19134945281999
 21
-125.5307504175
 31
0.0
1001
Sigma
1000

  0
TEXT
  5
4A3
330
1F
100
AcDbEntity
  8
99
  6
Continuous
 62
     7
370
    30
100
AcDbText
 10
41.44307448268
 20
-102.2609686161
 30
0.0
 40
4.067999999999999
  1
1/1
 41
1.222959685349066
  7
KCADTEXTSTANDARD
100
AcDbText
1001
Sigma
1000

  0
TEXT
  5
4A5
330
1F
100
AcDbEntity
  8
99
  6
Continuous
 62
     7
370
    30
100
AcDbText
 10
111.9103815808329
 20
-122.9111490951428
 30
0.0
 40
4.230719844818115
  1
TSTM-087
 41
1.244570322084124
  7
KCADTEXTSTANDARD
100
AcDbText
1001
Sigma
1000

  0
TEXT
  5
4A8
330
1F
100
AcDbEntity
  8
2
  6
Continuous
 62
     7
370
    30
100
AcDbText
 10
8.101894408137673
 20
-83.31877800745232
 30
0.0
 40
3.307499957084655
  1
組立図
 41
0.9771428572895999
  7
KCADTEXTSTANDARD
100
AcDbText
1001
Sigma
1000

  0
TEXT
  5
4AA
330
1F
100
AcDbEntity
  8
2
  6
Continuous
 62
     7
370
    30
100
AcDbText
 10
-24.30446642451999
 20
-82.81185896407
 30
0.0
 40
2.3625
  1
１００
 41
1.007904760610489
  7
KCADTEXTSTANDARD
100
AcDbText
1001
Sigma
1000

  0
TEXT
  5
4AC
330
1F
100
AcDbEntity
  8
99
  6
Continuous
 62
     7
370
    30
100
AcDbText
 10
113.7943808327797
 20
-112.8411491619
 30
0.0
 40
4.067999999999999
  1
KCM-4-110
 41
1.038724659698752
  7
KCADTEXTSTANDARD
100
AcDbText
1001
Sigma
1000

  0
TEXT
  5
4AE
330
1F
100
AcDbEntity
  8
99
  6
Continuous
 62
     7
370
    30
100
AcDbText
 10
115.78405628261
 20
-84.49825170188
 30
0.0
 40
4.5
  1
梨地黒アルマイト
 41
0.653125
  7
KCADTEXTSTANDARD
100
AcDbText
1001
Sigma
1000

  0
LINE
  5
4B0
330
1F
100
AcDbEntity
  8
99
  6
Continuous
 62
     7
370
    30
100
AcDbLine
 10
53.80865054718
 20
-98.0307504175
 30
0.0
 11
159.80865054718
 21
-98.0307504175
 31
0.0
1001
Sigma
1000

  0
TEXT
  5
4B2
330
1F
100
AcDbEntity
  8
1
  6
Continuous
 62
     7
370
    30
100
AcDbText
 10
57.34692694099534
 20
-103.2496384588846
 30
0.0
 40
3.239999914169311
  1
２００１年１０月１７日
 41
0.9559974749957229
  7
KCADTEXTSTANDARD
100
AcDbText
1001
Sigma
1000

  0
TEXT
  5
4B4
330
1F
100
AcDbEntity
  8
1
  6
Continuous
 62
     7
370
    30
100
AcDbText
 10
7.537151955057843
 20
-61.95377505125466
 30
0.0
 40
3.239999914169311
  1
光学倍率　４倍
 41
0.9613095242776486
  7
KCADTEXTSTANDARD
100
AcDbText
1001
Sigma
1000

  0
LINE
  5
4B6
330
1F
100
AcDbEntity
  8
1
  6
Continuous
 62
     7
370
    15
100
AcDbLine
 10
34.771380915162
 20
-62.43377507703
 30
0.0
 11
4.712184837842499
 21
-62.43377507703
 31
0.0
1001
Sigma
1000

  0
LINE
  5
4B8
330
1F
100
AcDbEntity
  8
0
  6
Continuous
 62
     7
370
    30
100
AcDbLine
 10
109.52367004395
 20
-22.85575027466
 30
0.0
 11
109.52367004395
 21
5.1442535766421
 31
0.0
1001
Sigma
1000

  0
LINE
  5
4BA
330
1F
100
AcDbEntity
  8
0
  6
Continuous
 62
     7
370
    30
100
AcDbLine
 10
98.023670043945
 20
-22.35575027466
 30
0.0
 11
98.023670043945
 21
4.644253576641999
 31
0.0
1001
Sigma
1000

  0
LINE
  5
4BC
330
1F
100
AcDbEntity
  8
0
  6
Continuous
 62
     7
370
    30
100
AcDbLine
 10
110.02367004395
 20
-22.35575023806
 30
0.0
 11
110.02367004395
 21
4.644257318138
 31
0.0
1001
Sigma
1000

  0
LINE
  5
4BE
330
1F
100
AcDbEntity
  8
0
  6
Continuous
 62
     7
370
    30
100
AcDbLine
 10
114.0236700439499
 20
3.444257325454299
 30
0.0
 11
114.0236700439499
 21
-21.15575024537999
 31
0.0
1001
Sigma
1000

  0
LINE
  5
4C0
330
1F
100
AcDbEntity
  8
0
  6
Continuous
 62
     7
370
    30
100
AcDbLine
 10
98.523670080548
 20
5.1442535766421
 30
0.0
 11
109.52367004395
 21
5.1442535766421
 31
0.0
1001
Sigma
1000

  0
LINE
  5
4C2
330
1F
100
AcDbEntity
  8
0
  6
Continuous
 62
     7
370
    30
100
AcDbLine
 10
109.52367004395
 20
-22.85575027466
 30
0.0
 11
98.523670043945
 21
-22.85575023805999
 31
0.0
1001
Sigma
1000

  0
LINE
  5
4C4
330
1F
100
AcDbEntity
  8
0
  6
Continuous
 62
     7
370
    30
100
AcDbLine
 10
110.8236700439499
 20
3.8442573547363
 30
0.0
 11
113.6236700439499
 21
3.8442573547363
 31
0.0
1001
Sigma
1000

  0
LINE
  5
4C6
330
1F
100
AcDbEntity
  8
0
  6
Continuous
 62
     7
370
    30
100
AcDbLine
 10
110.8236700439499
 20
-21.55575027465999
 30
0.0
 11
113.6236700439499
 21
-21.55575027465999
 31
0.0
1001
Sigma
1000

  0
LINE
  5
4C8
330
1F
100
AcDbEntity
  8
0
  6
Continuous
 62
     7
370
    30
100
AcDbLine
 10
110.02367004395
 20
3.444257354736299
 30
0.0
 11
110.8236700439499
 21
3.444257354736299
 31
0.0
1001
Sigma
1000

  0
LINE
  5
4CA
330
1F
100
AcDbEntity
  8
0
  6
Continuous
 62
     7
370
    30
100
AcDbLine
 10
110.02367004395
 20
-21.15575027466
 30
0.0
 11
110.8236700439499
 21
-21.15575027466
 31
0.0
1001
Sigma
1000

  0
LINE
  5
4CC
330
1F
100
AcDbEntity
  8
0
  6
Continuous
 62
     7
370
    30
100
AcDbLine
 10
110.8236700439499
 20
3.8442573547363
 30
0.0
 11
110.8236700439499
 21
-21.55575027465999
 31
0.0
1001
Sigma
1000

  0
LINE
  5
4CE
330
1F
100
AcDbEntity
  8
0
  6
Continuous
 62
     7
370
    30
100
AcDbLine
 10
109.52367004395
 20
5.144257354738
 30
0.0
 11
110.02367004395
 21
4.644257318138
 31
0.0
1001
Sigma
1000

  0
LINE
  5
4D0
330
1F
100
AcDbEntity
  8
0
  6
Continuous
 62
     7
370
    30
100
AcDbLine
 10
98.523670043945
 20
-22.85575027466
 30
0.0
 11
98.523670080548
 21
5.144253576641999
 31
0.0
1001
Sigma
1000

  0
LINE
  5
4D2
330
1F
100
AcDbEntity
  8
0
  6
Continuous
 62
     7
370
    30
100
AcDbLine
 10
98.023670043945
 20
4.644253576641999
 30
0.0
 11
98.523670080548
 21
5.144253576641999
 31
0.0
1001
Sigma
1000

  0
LINE
  5
4D4
330
1F
100
AcDbEntity
  8
0
  6
Continuous
 62
     7
370
    30
100
AcDbLine
 10
98.023670043945
 20
-22.35575027466
 30
0.0
 11
98.523670080548
 21
-22.85575027466
 31
0.0
1001
Sigma
1000

  0
LINE
  5
4D6
330
1F
100
AcDbEntity
  8
0
  6
Continuous
 62
     7
370
    30
100
AcDbLine
 10
109.52367004395
 20
-22.85575027466
 30
0.0
 11
110.02367004395
 21
-22.35575023806
 31
0.0
1001
Sigma
1000

  0
LINE
  5
4D8
330
1F
100
AcDbEntity
  8
0
  6
Continuous
 62
     7
370
    30
100
AcDbLine
 10
110.8236700439499
 20
3.444257354736299
 30
0.0
 11
114.0236700439499
 21
3.444257354736299
 31
0.0
1001
Sigma
1000

  0
LINE
  5
4DA
330
1F
100
AcDbEntity
  8
0
  6
Continuous
 62
     7
370
    30
100
AcDbLine
 10
110.8236700439499
 20
-21.15575027466
 30
0.0
 11
114.0236700439499
 21
-21.15575027466
 31
0.0
1001
Sigma
1000

  0
LINE
  5
4DC
330
1F
100
AcDbEntity
  8
0
  6
Continuous
 62
     7
370
    30
100
AcDbLine
 10
113.6236700439499
 20
3.8442573547363
 30
0.0
 11
114.0236700439499
 21
3.444257325454199
 31
0.0
1001
Sigma
1000

  0
LINE
  5
4DE
330
1F
100
AcDbEntity
  8
0
  6
Continuous
 62
     7
370
    30
100
AcDbLine
 10
113.6236700439499
 20
-21.55575027465999
 30
0.0
 11
114.0236700439499
 21
-21.15575024537999
 31
0.0
1001
Sigma
1000

  0
CIRCLE
  5
4E0
330
1F
100
AcDbEntity
  8
0
  6
Continuous
 62
     7
370
    30
100
AcDbCircle
 10
102.02367004395
 20
-8.855746459961
 30
0.0
 40
1.5
1001
Sigma
1000

  0
CIRCLE
  5
4E2
330
1F
100
AcDbEntity
  8
0
  6
Continuous
 62
     7
370
    30
100
AcDbCircle
 10
102.02367004395
 20
-8.855746459961
 30
0.0
 40
1.25
1001
Sigma
1000

  0
TEXT
  5
4E4
330
1F
100
AcDbEntity
  8
0
  6
Continuous
 62
     7
370
    30
100
AcDbText
 10
93.889801661786
 20
3.308048524856599
 30
0.0
 40
2.440799999999999
  1
%%c18
 50
90.0
 41
1.079286290179613
  7
KCADTEXTSTANDARD
100
AcDbText
1001
Sigma
1000

  0
LINE
  5
4E7
102
{ACAD_REACTORS
330
4E6
102
}
330
1F
100
AcDbEntity
  8
0
  6
Continuous
 62
     7
370
    15
100
AcDbLine
 10
95.965167872725
 20
-17.83889312743999
 30
0.0
 11
95.965167872725
 21
-24.08962554931
 31
0.0
1001
Sigma
1000

  0
LINE
  5
4E9
102
{ACAD_REACTORS
330
4E6
102
}
330
1F
100
AcDbEntity
  8
0
  6
Continuous
 62
     7
370
    15
100
AcDbLine
 10
95.965167872725
 20
-17.83889312743999
 30
0.0
 11
94.96516788774298
 21
-20.83889308238
 31
0.0
1001
Sigma
1000

  0
LINE
  5
4EB
102
{ACAD_REACTORS
330
4E6
102
}
330
1F
100
AcDbEntity
  8
0
  6
Continuous
 62
     7
370
    15
100
AcDbLine
 10
95.965167872725
 20
-17.83889312743999
 30
0.0
 11
96.965167857706
 21
-20.83889308238
 31
0.0
1001
Sigma
1000

  0
LINE
  5
4ED
102
{ACAD_REACTORS
330
4E6
102
}
330
1F
100
AcDbEntity
  8
0
  6
Continuous
 62
     7
370
    15
100
AcDbLine
 10
95.965167872725
 20
-17.83889312743999
 30
0.0
 11
95.965167872725
 21
-24.08962554931
 31
0.0
1001
Sigma
1000

  0
LINE
  5
4F0
102
{ACAD_REACTORS
330
4EF
102
}
330
1F
100
AcDbEntity
  8
0
  6
Continuous
 62
     7
370
    15
100
AcDbLine
 10
95.864336710612
 20
0.1442565619646
 30
0.0
 11
95.864336710612
 21
11.84474484390199
 31
0.0
1001
Sigma
1000

  0
LINE
  5
4F2
102
{ACAD_REACTORS
330
4EF
102
}
330
1F
100
AcDbEntity
  8
0
  6
Continuous
 62
     7
370
    15
100
AcDbLine
 10
95.864336710612
 20
0.1442565619646
 30
0.0
 11
96.869859053897
 21
3.142410079846099
 31
0.0
1001
Sigma
1000

  0
LINE
  5
4F4
102
{ACAD_REACTORS
330
4EF
102
}
330
1F
100
AcDbEntity
  8
0
  6
Continuous
 62
     7
370
    15
100
AcDbLine
 10
95.864336710612
 20
0.1442565619646
 30
0.0
 11
94.869862474511
 21
3.1460927822407
 31
0.0
1001
Sigma
1000

  0
LINE
  5
4F6
102
{ACAD_REACTORS
330
4EF
102
}
330
1F
100
AcDbEntity
  8
0
  6
Continuous
 62
     7
370
    15
100
AcDbLine
 10
95.864336710612
 20
0.1442565619646
 30
0.0
 11
95.864336710612
 21
11.84474484390199
 31
0.0
1001
Sigma
1000

  0
DIMENSION
  5
4F8
330
1F
100
AcDbEntity
  8
KCAD_DIMS
 62
     7
100
AcDbDimension
  2
*D28
 10
142.0299851216599
 20
-22.85575027466
 30
0.0
 11
139.89665212166
 21
-8.855748349009
 31
0.0
 70
    32
 71
     5
 42
-1.0
 53
90.0
  3
Standard
100
AcDbAlignedDimension
 13
109.52367004395
 23
5.1442535766421
 33
0.0
 14
109.52367004395
 24
-22.85575027466
 34
0.0
 50
90.0
100
AcDbRotatedDimension
1001
Sigma
1000
DIM_TPVO
1001
KCAD_DIM_EXT
1002
{
1071
 20001212
1070
     0
1070
     2
1070
     2
1040
2.5
1040
0.0
1040
0.0
1040
0.0
1040
0.0
1040
0.0
1040
0.0
1040
0.0
1070
     0
1040
50.0
1040
-1.0
1013
1.0
1023
0.0
1033
0.0
1040
0.0
1013
1.0
1023
0.0
1033
0.0
1000
_None
1040
1.0
1040
28.000003851302
1070
     0
1070
     0
1070
     0
1012
1.0
1022
0.0
1032
0.0
1013
1.0
1023
0.0
1033
0.0
1002
}
1001
ACAD
1000
DSTYLE
1002
{
1070
     3
1000
φ<>
1070
    41
1040
2.5
1070
    42
1040
0.0
1070
    43
1040
8.0
1070
    44
1040
0.0
1070
    45
1040
0.0
1070
    73
1070
     0
1070
    74
1070
     0
1070
    77
1070
     1
1070
    78
1070
     8
1070
    79
1070
     2
1070
   140
1040
3.2
1070
   141
1040
2.5
1070
   145
1040
0.0001
1070
   146
1040
0.667
1070
   147
1040
0.5333000000000001
1070
   172
1070
     1
1070
   173
1070
     1
1070
   179
1070
     3
1070
   271
1070
     3
1070
   272
1070
     3
1070
   279
1070
     2
1070
   284
1070
     8
1070
   289
1070
     2
1070
   340
1005
189
1070
   341
1005
21
1070
   343
1005
12D
1070
   344
1005
12D
1002
}
  0
TEXT
  5
534
330
1F
100
AcDbEntity
  8
99
  6
Continuous
 62
     7
370
    30
100
AcDbText
 10
69.49367358861073
 20
-97.35346583047252
 30
0.0
 40
2.7
  1
取
 41
1.203333318233489
  7
KCADTEXTSTANDARD
100
AcDbText
1001
Sigma
1000

  0
TEXT
  5
549
330
1F
100
AcDbEntity
  8
99
  6
Continuous
 62
     7
370
    30
100
AcDbText
 10
124.7133934802694
 20
-130.9069857166802
 30
0.0
 40
4.0
  1
Tokina Co.,Ltd.
 41
0.7000000000000001
  7
KCADTEXTSTANDARD
100
AcDbText
1001
Sigma
1000

  0
TEXT
  5
54A
330
1F
100
AcDbEntity
  8
99
  6
Continuous
 62
     7
370
    30
100
AcDbText
 10
65.19548755947136
 20
-131.5869857166802
 30
0.0
 40
4.0
  1
株式会社トキナー
  7
KCADTEXTSTANDARD
100
AcDbText
1001
Sigma
1000

  0
OLE2FRAME
  5
54B
330
1F
100
AcDbEntity
  8
0
  6
Continuous
 62
   134
370
    15
100
AcDbOle2Frame
 70
     2
 10
3.017563496961722
 20
-126.9319539686848
 30
0.0
 11
41.92032881949451
 21
-132.916994787536
 31
0.0
 72
     0
 73
   205
 90
     9344
310
0055926EA854F82308403E384222A5BB5FC00000000000000000C9A5B255CDF5
310
44403E384222A5BB5FC00000000000000000C9A5B255CDF544403BE27305589D
310
60C00000000000000000926EA854F82308403BE27305589D60C0000000000000
310
0000000000000100000000010000010000000100000000000100000000240000
310
D0CF11E0A1B11AE1000000000000000000000000000000003E000300FEFF0900
310
0600000000000000000000000100000001000000000000000010000002000000
310
01000000FEFFFFFF0000000000000000FFFFFFFFFFFFFFFFFFFFFFFFFFFFFFFF
310
FFFFFFFFFFFFFFFFFFFFFFFFFFFFFFFFFFFFFFFFFFFFFFFFFFFFFFFFFFFFFFFF
310
FFFFFFFFFFFFFFFFFFFFFFFFFFFFFFFFFFFFFFFFFFFFFFFFFFFFFFFFFFFFFFFF
310
FFFFFFFFFFFFFFFFFFFFFFFFFFFFFFFFFFFFFFFFFFFFFFFFFFFFFFFFFFFFFFFF
310
FFFFFFFFFFFFFFFFFFFFFFFFFFFFFFFFFFFFFFFFFFFFFFFFFFFFFFFFFFFFFFFF
310
FFFFFFFFFFFFFFFFFFFFFFFFFFFFFFFFFFFFFFFFFFFFFFFFFFFFFFFFFFFFFFFF
310
FFFFFFFFFFFFFFFFFFFFFFFFFFFFFFFFFFFFFFFFFFFFFFFFFFFFFFFFFFFFFFFF
310
FFFFFFFFFFFFFFFFFFFFFFFFFFFFFFFFFFFFFFFFFFFFFFFFFFFFFFFFFFFFFFFF
310
FFFFFFFFFFFFFFFFFFFFFFFFFFFFFFFFFFFFFFFFFFFFFFFFFFFFFFFFFFFFFFFF
310
FFFFFFFFFFFFFFFFFFFFFFFFFFFFFFFFFFFFFFFFFFFFFFFFFFFFFFFFFFFFFFFF
310
FFFFFFFFFFFFFFFFFFFFFFFFFFFFFFFFFFFFFFFFFFFFFFFFFFFFFFFFFFFFFFFF
310
FFFFFFFFFFFFFFFFFFFFFFFFFFFFFFFFFFFFFFFFFFFFFFFFFFFFFFFFFFFFFFFF
310
FFFFFFFFFFFFFFFFFFFFFFFFFFFFFFFFFFFFFFFFFFFFFFFFFFFFFFFFFFFFFFFF
310
FFFFFFFFFFFFFFFFFFFFFFFFFFFFFFFFFFFFFFFFFFFFFFFFFFFFFFFFFFFFFFFF
310
FDFFFFFFFEFFFFFFFEFFFFFFFEFFFFFF05000000060000000700000008000000
310
090000000A0000000B0000000C0000000D0000000E0000000F00000010000000
310
FEFFFFFFFFFFFFFFFFFFFFFFFFFFFFFFFFFFFFFFFFFFFFFFFFFFFFFFFFFFFFFF
310
FFFFFFFFFFFFFFFFFFFFFFFFFFFFFFFFFFFFFFFFFFFFFFFFFFFFFFFFFFFFFFFF
310
FFFFFFFFFFFFFFFFFFFFFFFFFFFFFFFFFFFFFFFFFFFFFFFFFFFFFFFFFFFFFFFF
310
FFFFFFFFFFFFFFFFFFFFFFFFFFFFFFFFFFFFFFFFFFFFFFFFFFFFFFFFFFFFFFFF
310
FFFFFFFFFFFFFFFFFFFFFFFFFFFFFFFFFFFFFFFFFFFFFFFFFFFFFFFFFFFFFFFF
310
FFFFFFFFFFFFFFFFFFFFFFFFFFFFFFFFFFFFFFFFFFFFFFFFFFFFFFFFFFFFFFFF
310
FFFFFFFFFFFFFFFFFFFFFFFFFFFFFFFFFFFFFFFFFFFFFFFFFFFFFFFFFFFFFFFF
310
FFFFFFFFFFFFFFFFFFFFFFFFFFFFFFFFFFFFFFFFFFFFFFFFFFFFFFFFFFFFFFFF
310
FFFFFFFFFFFFFFFFFFFFFFFFFFFFFFFFFFFFFFFFFFFFFFFFFFFFFFFFFFFFFFFF
310
FFFFFFFFFFFFFFFFFFFFFFFFFFFFFFFFFFFFFFFFFFFFFFFFFFFFFFFFFFFFFFFF
310
FFFFFFFFFFFFFFFFFFFFFFFFFFFFFFFFFFFFFFFFFFFFFFFFFFFFFFFFFFFFFFFF
310
FFFFFFFFFFFFFFFFFFFFFFFFFFFFFFFFFFFFFFFFFFFFFFFFFFFFFFFFFFFFFFFF
310
FFFFFFFFFFFFFFFFFFFFFFFFFFFFFFFFFFFFFFFFFFFFFFFFFFFFFFFFFFFFFFFF
310
FFFFFFFFFFFFFFFFFFFFFFFFFFFFFFFFFFFFFFFFFFFFFFFFFFFFFFFFFFFFFFFF
310
52006F006F007400200045006E00740072007900000000000000000000000000
310
0000000000000000000000000000000000000000000000000000000000000000
310
16000500FFFFFFFFFFFFFFFF020000000A00030000000000C000000000000046
310
00000000000000000000000060A87F7C199AC80103000000C000000000000000
310
01004F006C006500000000000000000000000000000000000000000000000000
310
0000000000000000000000000000000000000000000000000000000000000000
310
0A000200FFFFFFFFFFFFFFFFFFFFFFFF00000000000000000000000000000000
310
0000000000000000000000000000000000000000000000001400000000000000
310
010043006F006D0070004F0062006A0000000000000000000000000000000000
310
0000000000000000000000000000000000000000000000000000000000000000
310
120002010100000003000000FFFFFFFF00000000000000000000000000000000
310
0000000000000000000000000000000000000000010000004D00000000000000
310
01004F006C006500310030004E00610074006900760065000000000000000000
310
0000000000000000000000000000000000000000000000000000000000000000
310
1A000200FFFFFFFFFFFFFFFFFFFFFFFF00000000000000000000000000000000
310
0000000000000000000000000000000000000000040000000419000000000000
310
FEFFFFFF02000000FEFFFFFFFFFFFFFFFFFFFFFFFFFFFFFFFFFFFFFFFFFFFFFF
310
FFFFFFFFFFFFFFFFFFFFFFFFFFFFFFFFFFFFFFFFFFFFFFFFFFFFFFFFFFFFFFFF
310
FFFFFFFFFFFFFFFFFFFFFFFFFFFFFFFFFFFFFFFFFFFFFFFFFFFFFFFFFFFFFFFF
310
FFFFFFFFFFFFFFFFFFFFFFFFFFFFFFFFFFFFFFFFFFFFFFFFFFFFFFFFFFFFFFFF
310
FFFFFFFFFFFFFFFFFFFFFFFFFFFFFFFFFFFFFFFFFFFFFFFFFFFFFFFFFFFFFFFF
310
FFFFFFFFFFFFFFFFFFFFFFFFFFFFFFFFFFFFFFFFFFFFFFFFFFFFFFFFFFFFFFFF
310
FFFFFFFFFFFFFFFFFFFFFFFFFFFFFFFFFFFFFFFFFFFFFFFFFFFFFFFFFFFFFFFF
310
FFFFFFFFFFFFFFFFFFFFFFFFFFFFFFFFFFFFFFFFFFFFFFFFFFFFFFFFFFFFFFFF
310
FFFFFFFFFFFFFFFFFFFFFFFFFFFFFFFFFFFFFFFFFFFFFFFFFFFFFFFFFFFFFFFF
310
FFFFFFFFFFFFFFFFFFFFFFFFFFFFFFFFFFFFFFFFFFFFFFFFFFFFFFFFFFFFFFFF
310
FFFFFFFFFFFFFFFFFFFFFFFFFFFFFFFFFFFFFFFFFFFFFFFFFFFFFFFFFFFFFFFF
310
FFFFFFFFFFFFFFFFFFFFFFFFFFFFFFFFFFFFFFFFFFFFFFFFFFFFFFFFFFFFFFFF
310
FFFFFFFFFFFFFFFFFFFFFFFFFFFFFFFFFFFFFFFFFFFFFFFFFFFFFFFFFFFFFFFF
310
FFFFFFFFFFFFFFFFFFFFFFFFFFFFFFFFFFFFFFFFFFFFFFFFFFFFFFFFFFFFFFFF
310
FFFFFFFFFFFFFFFFFFFFFFFFFFFFFFFFFFFFFFFFFFFFFFFFFFFFFFFFFFFFFFFF
310
FFFFFFFFFFFFFFFFFFFFFFFFFFFFFFFFFFFFFFFFFFFFFFFFFFFFFFFFFFFFFFFF
310
0100000200000000000000000000000000000000000000000000000000000000
310
0000000000000000000000000000000000000000000000000000000000000000
310
0100FEFF030A0000FFFFFFFF0A00030000000000C00000000000004607000000
310
5042727573680007000000504272757368000700000050427275736800F439B2
310
7100000000000000000000000000000000000000000000000000000000000000
310
0000000000000000000000000000000000000000000000000000000000000000
310
0000000000000000000000000000000000000000000000000000000000000000
310
0000000000000000000000000000000000000000000000000000000000000000
310
0000000000000000000000000000000000000000000000000000000000000000
310
0000000000000000000000000000000000000000000000000000000000000000
310
0000000000000000000000000000000000000000000000000000000000000000
310
0000000000000000000000000000000000000000000000000000000000000000
310
0000000000000000000000000000000000000000000000000000000000000000
310
0000000000000000000000000000000000000000000000000000000000000000
310
10003901C1010C01E83E180594CCBABED35C6246A1E0F33199493669635C7434
310
F0B284478B675E12C8701A310300020000000000AD30FC30DC30FC30C9300000
310
00190000424DF618000000000000360000002800000075000000120000000100
310
180000000000C018000000000000000000000000000000000000FFFFFFFFFFFF
310
FFFFFFFFFFFFFFFFFFFFFFFFFFFFFFFFFFFF6666660808081212120C0C0C3535
310
35FFFFFFFFFFFFFFFFFFFFFFFFFFFFFFFFFFFFFFFFFFFFFFFFFFFFFFC0C0C045
310
4545151515121212121212121212131313141414151515151515161616181818
310
1818181919191919191E1E1E484848B0B0B0FFFFFFFFFFFFFFFFFFD4D4D42424
310
242424242424242E2E2EF1F1F1FFFFFFFFFFFFFFFFFFFFFFFFFFFFFFFFFFFFFF
310
FFFFDEDEDE4B4B4B3333333838383A3A3A3838382C2C2C5E5E5EEBEBEBFFFFFF
310
F1F1F14949494242424444444D4D4DF5F5F5FFFFFFA5A5A54343435050504848
310
48999999FFFFFFFFFFFFFFFFFFFFFFFFFFFFFFFFFFFFFFFFFFFFFFFFFFFFFFFF
310
FFFFFFFFFFBCBCBC6666667171716C6C6C9A9A9AFFFFFFFFFFFFFFFFFFE9E9E9
310
9393938181818080808282828484848484848585858888888888888989898B8B
310
8B8C8C8C8D8D8D8F8F8F90909090909092929291919199999900FFFFFFFFFFFF
310
FFFFFFFFFFFFFFFFFFFFFFFFFFFFFFFFFFFF5D5D5D0000000202020000002727
310
27FFFFFFFFFFFFFFFFFFFFFFFFFFFFFFFFFFFFFFFFFFFFFFFFA6A6A600000000
310
0000020202030303020202030303020202020202020202020202020202020202
310
0202020202020101010000000000000000006B6B6BFFFFFFFFFFFFCECECE0000
310
00000000000000080808EDEDEDFFFFFFFFFFFFFFFFFFFFFFFFFFFFFFFFFFFF9B
310
9B9B000000000000000000000000000000000000838383FFFFFFFFFFFFFFFFFF
310
ECECEC060606000000000000050505EEEEEEFFFFFF7B7B7B0000000000000000
310
00656565FFFFFFFFFFFFFFFFFFFFFFFFFFFFFFFFFFFFFFFFFFFFFFFFFFFFFFFF
310
FFFFFFFFFF8888880000000000000000003F3F3FFFFFFFFFFFFFC1C1C1000000
310
0000000000000000000000000000000000000000000000000000000000000000
310
0000000000000000000000000000000000000000000003030300FFFFFFFFFFFF
310
FFFFFFFFFFFFFFFFFFFFFFFFFFFFFFFFFFFF5E5E5E0000000404040000002525
310
25FFFFFFFFFFFFFFFFFFFFFFFFFFFFFFFFFFFFFFFFFFFEFEFE13131300000005
310
0505030303000000000000000000000000000000000000000000000000000000
310
000000000000000000000000050505010101000000CDCDCDFFFFFFCECECE0303
310
030202020101010B0B0BEDEDEDFFFFFFFFFFFFFFFFFFFFFFFFF7F7F759595900
310
0000000000050505000000000000383838D8D8D8FFFFFFFFFFFFFFFFFFFFFFFF
310
EDEDED0B0B0B0101010101010B0B0BEFEFEFFFFFFF7F7F7F0000000505050000
310
00686868FFFFFFFFFFFFFFFFFFFFFFFFFFFFFFFFFFFFFFFFFFFFFFFFFFFFFFFF
310
FFFFFFFFFF8D8D8D000000040404000000464646FFFFFFFFFFFF2E2E2E000000
310
0404040404040000000000000000000000000000000000000000000000000000
310
0000000000000000000000000003030305050503030312121200FFFFFFFFFFFF
310
FFFFFFFFFFFFFFFFFFFFFFFFFFFFFFFFFFFF5F5F5F0000000505050000002424
310
24FFFFFFFFFFFFFFFFFFFFFFFFFFFFFFFFFFFFFFFFFFD9D9D900000003030304
310
04040000007070709D9D9D9797979797979696969393939292928F8F8F8C8C8C
310
8A8A8A8B8B8B7E7E7E131313010101040404000000858585FFFFFFCECECE0404
310
040202020101010C0C0CEDEDEDFFFFFFFFFFFFFFFFFFCBCBCB23232300000003
310
03030404040000000606068D8D8DFFFFFFFFFFFFFFFFFFFFFFFFFFFFFFFFFFFF
310
EDEDED0C0C0C0101010101010B0B0BEFEFEFFFFFFF7F7F7F0000000505050000
310
00686868FFFFFFFFFFFFFFFFFFFFFFFFFFFFFFFFFFFFFFFFFFFFFFFFFFFFFFFF
310
FFFFFFFFFF8D8D8D000000050505000000444444FFFFFFFEFEFE050505010101
310
0404040101015A5A5A6666666464646464646464646464646363636262626262
310
626060606060606060605E5E5E00000004040403030312121200FFFFFFFFFFFF
310
FFFFFFFFFFFFFFFFFFFFFFFFFFFFFFFFFFFF5F5F5F0000000404040000002323
310
23FFFFFFFFFFFFFFFFFFFFFFFFFFFFFFFFFFFFFFFFFFD2D2D200000003030302
310
0202060606FFFFFFFFFFFFFFFFFFFFFFFFFFFFFFFFFFFFFFFFFFFFFFFFFFFFFF
310
FFFFFFFFFFFFFFFFFF666666000000040404000000808080FFFFFFCECECE0404
310
040202020101010B0B0BEDEDEDFFFFFFFFFFFF8C8C8C03030300000003030300
310
00000000003E3E3ED9D9D9FFFFFFFFFFFFFFFFFFFFFFFFFFFFFFFFFFFFFFFFFF
310
EDEDED0C0C0C0101010101010B0B0BEFEFEFFFFFFF7F7F7F0000000505050000
310
00676767FFFFFFFFFFFFFFFFFFFFFFFFFFFFFFFFFFFFFFFFFFFFFFFFFFFFFFFF
310
FFFFFFFFFF8D8D8D000000040404000000444444FFFFFFFFFFFF070707010101
310
030303000000F7F7F7FFFFFFFFFFFFFFFFFFFFFFFFFFFFFFFFFFFFFFFFFFFFFF
310
FFFFFFFFFFFFFFFFFFFFFFFFFF00000003030303030311111100FFFFFFFFFFFF
310
FFFFFFFFFFFFFFFFFFFFFFFFFFFFFFFFFFFF6161610000000404040000002222
310
22FFFFFFFFFFFFFFFFFFFFFFFFFFFFFFFFFFFFFFFFFFD3D3D300000002020202
310
0202070707FCFCFCFFFFFFFFFFFFFFFFFFFFFFFFFFFFFFFFFFFFFFFFFFFFFFFF
310
FFFFFFFFFFFFFFFFFF696969000000040404000000818181FFFFFFCECECE0404
310
040202020101010D0D0DFAFAFAEEEEEE4D4D4D0000000000000303030000000D
310
0D0D949494FFFFFFFFFFFFFFFFFFFFFFFFFFFFFFFFFFFFFFFFFFFFFFFFFFFFFF
310
EDEDED0C0C0C0101010101010B0B0BEFEFEFFFFFFF7F7F7F0000000505050000
310
00676767FFFFFFFFFFFFFFFFFFFFFFFFFFFFFFFFFFFFFFFFFFFFFFFFFFFFFFFF
310
FFFFFFFFFF8D8D8D000000040404000000434343FFFFFFFEFEFE050505010101
310
030303010101A9A9A9C1C1C1BEBEBEC1C1C1C1C1C1C2C2C2C3C3C3C4C4C4C5C5
310
C5C5C5C5C8C8C8CACACACCCCCC00000003030303030311111100FFFFFFFFFFFF
310
FFFFFFFFFFFFFFFFFFFFFFFFFFFFFFFFFFFF6161610000000404040000002121
310
21FFFFFFFFFFFFFFFFFFFFFFFFFFFFFFFFFFFFFFFFFFD5D5D500000002020202
310
0202060606FCFCFCFFFFFFFFFFFFFFFFFFFFFFFFFFFFFFFFFFFFFFFFFFFFFFFF
310
FFFFFFFFFFFFFFFFFF686868000000050505000000818181FFFFFFCCCCCC0303
310
030202020202020D0D0D9898981D1D1D000000030303040404010101545454E1
310
E1E1FFFFFFFFFFFFFFFFFFFFFFFFFFFFFFFFFFFFFFFFFFFFFFFFFFFFFFFFFFFF
310
EDEDED0C0C0C0101010101010B0B0BEFEFEFFFFFFF7F7F7F0000000505050000
310
00666666FFFFFFFFFFFFFFFFFFFFFFFFFFFFFFFFFFFFFFFFFFFFFFFFFFFFFFFF
310
FFFFFFFFFF8D8D8D000000040404000000424242FFFFFFFFFFFF1E1E1E000000
310
0505050303030000000000000000000000000000000101010101010101010202
310
0202020203030304040405050502020204040403030311111100FFFFFFFFFFFF
310
FFFFFFFFFFFFFFFFFFFFFFFFFFFFFFFFFFFF6363630000000505050000001F1F
310
1FFFFFFFFFFFFFFFFFFFFFFFFFFFFFFFFEFEFEFFFFFFD5D5D500000003030302
310
0202050505FCFCFCFFFFFFFFFFFFFFFFFFFFFFFFFFFFFFFFFFFFFFFFFFFFFFFF
310
FFFFFFFFFFFFFFFFFF686868000000040404000000818181FFFFFFCDCDCD0303
310
030202020303030707074545450000000000000404040303030303039E9E9EFF
310
FFFFFFFFFFFFFFFFFFFFFFFFFFFFFFFFFFFFFFFFFFFFFFFFFFFFFFFFFFFFFFFF
310
EDEDED0C0C0C0101010101010B0B0BEEEEEEFFFFFF7F7F7F0000000505050000
310
00666666FFFFFFFFFFFFFFFFFFFFFFFFFFFFFFFFFFFFFFFFFFFFFFFFFFFFFFFF
310
FFFFFFFFFF8D8D8D000000040404000000434343FFFFFFFFFFFF9C9C9C000000
310
0000000000000000000000000000000000000000000000000000000000000000
310
0000000000000000000000000004040405050503030311111100FFFFFFFFFFFF
310
FFFFFFFFFFFFFFFFFFFFFFFFFFFFFFFFFFFF6262620000000505050000002121
310
21FFFFFFFFFFFFFFFFFFFFFFFFFFFFFFFEFEFEFFFFFFD5D5D500000002020201
310
0101070707FDFDFDFFFFFFFFFFFFFFFFFFFFFFFFFFFFFFFFFFFFFFFFFFFFFFFF
310
FFFFFFFFFFFFFFFFFF696969000000050505000000818181FFFFFFCCCCCC0303
310
030202020101010D0D0DF6F6F6B3B3B319191900000003030302020200000057
310
5757E8E8E8FFFFFFFFFFFFFFFFFFFFFFFFFFFFFFFFFFFFFFFFFFFFFFFFFFFFFF
310
EDEDED0C0C0C0101010101010C0C0CEDEDEDFFFFFF7F7F7F0000000505050000
310
00666666FFFFFFFFFFFFFFFFFFFFFFFFFFFFFFFFFFFFFFFFFFFFFFFFFFFFFFFF
310
FFFFFFFFFF8D8D8D000000040404000000434343FFFFFFFFFFFFFFFFFFA8A8A8
310
3C3C3C2E2E2E2C2C2C2B2B2B2A2A2A2A2A2A2929292828282727272727272626
310
2626262625252525252524242400000004040403030311111100FFFFFFFFFFFF
310
FFFFFFFFFFFFFFFFFFFFFFFFFFFFFFFFFFFF6161610000000505050000002121
310
21FFFFFFFFFFFFFFFFFFFFFFFFFFFFFFFFFFFFFFFFFFD2D2D200000003030302
310
0202060606FFFFFFFFFFFFFFFFFFFFFFFFFFFFFFFFFFFFFFFFFFFFFFFFFFFFFF
310
FFFFFFFFFFFFFFFFFF666666000000050505000000808080FFFFFFCCCCCC0202
310
020202020101010B0B0BECECECFFFFFFE5E5E54D4D4D00000000000003030300
310
00001B1B1BABABABFFFFFFFFFFFFFFFFFFFFFFFFFFFFFFFFFFFFFFFFFFFFFFFF
310
EDEDED0C0C0C0101010101010B0B0BEEEEEEFFFFFF7F7F7F0000000505050000
310
00696969FFFFFFFFFFFFFFFFFFFFFFFFFFFFFFFFFFFFFFFFFFFFFFFFFFFFFFFF
310
FFFFFFFFFF909090000000040404000000414141FFFFFFFFFFFFFFFFFFFFFFFF
310
FFFFFFFDFDFDFAFAFAF9F9F9F9F9F9F7F7F7F7F7F7F7F7F7F5F5F5F5F5F5F4F4
310
F4F4F4F4F2F2F2F4F4F4F7F7F700000004040403030311111100FFFFFFFFFFFF
310
FFFFFFFFFFFFFFFFFFFFFFFFFFFFFFFFFFFF5F5F5F0000000505050000002222
310
22FFFFFFFFFFFFFFFFFFFFFFFFFFFFFFFFFFFFFFFFFFDBDBDB00000003030304
310
04040000005858588585858383838585858686868989898989898D8D8D8E8E8E
310
919191949494898989161616010101040404000000828282FFFFFFCCCCCC0303
310
030202020101010B0B0BECECECFFFFFFFFFFFFFFFFFF8F8F8F0A0A0A00000003
310
0303000000000000636363EDEDEDFFFFFFFFFFFFFFFFFFFFFFFFFFFFFFFFFFFF
310
ECECEC0C0C0C0101010101010B0B0BEFEFEFFFFFFF7F7F7F0000000505050000
310
00555555D8D8D8D1D1D1D1D1D1D2D2D2D2D2D2D2D2D2D4D4D4D4D4D4D4D4D4D5
310
D5D5DCDCDC565656000000050505000000424242FFFFFFFFFFFFFFFFFFFFFFFF
310
FFFFFFFFFFFFFFFFFFFFFFFFFFFFFFFFFFFFFFFFFFFFFFFFFFFFFFFFFFFFFFFF
310
FFFFFFFFFFFFFFFFFFFFFDFDFD00000003030303030310101000FFFFFFFFFFFF
310
FFFFFFFFFFFFFFFFFFFFFFFFFFFFFFFFFFFF5F5F5F0000000505050000002121
310
21FFFFFFFFFFFFFFFFFFFFFFFFFFFFFFFFFFFFFFFFFFFFFFFF1D1D1D00000004
310
0404040404000000000000000000000000000000000000000000000000000000
310
000000000000000000000000050505020202000000BFBFBFFFFFFFCBCBCB0202
310
020202020101010C0C0CECECECFFFFFFFFFFFFFFFFFFFFFFFFD2D2D235353500
310
00000101010202020000001F1F1FB5B5B5FFFFFFFFFFFFFFFFFFFFFFFFFFFFFF
310
ECECEC0C0C0C0101010101010B0B0BEFEFEFFFFFFF7F7F7F0000000505050404
310
0400000000000000000000000000000000000000000000000000000000000000
310
00000000000000000404040404040000006E6E6EFFFFFFFFFFFF7C7C7C464646
310
4D4D4D4D4D4D4D4D4D4D4D4D4D4D4D4D4D4D4D4D4D4D4D4D4C4C4C4D4D4D4E4E
310
4E4F4F4F50505055555530303000000004040401010115151500FFFFFFFFFFFF
310
FFFFFFFFFFFFFFFFFFFFFFFFFFFFFFFFFFFF6060600000000505050000001F1F
310
1FFFFFFFFFFFFFFFFFFFFFFFFFFFFFFFFFFFFFFFFFFFFFFFFFB3B3B300000000
310
0000000000000000000000000000000000000000000000000000000000000000
310
000000000000000000000000000000000000585858FFFFFFFFFFFFCCCCCC0303
310
030202020101010B0B0BEAEAEAFFFFFFFFFFFFFFFFFFFFFFFFFFFFFFFEFEFE77
310
7777010101000000010101000000000000656565F0F0F0FFFFFFFFFFFFFFFFFF
310
EDEDED0A0A0A0000000000000A0A0AEDEDEDFFFFFF7E7E7E0000000303030303
310
0303030302020202020202020202020202020202020202020202020202020202
310
0202020202030303020202000000040404DADADAFFFFFFFFFFFF3F3F3F000000
310
0000000000000000000000000000000000000000000000000000000000000000
310
0000000000000000000000000004040402020200000082828200F1F1F1F1F1F1
310
F1F1F1F1F1F1F2F2F2F2F2F2F3F3F3FFFFFF5F5F5F0000000505050000001E1E
310
1EFFFFFFFCFCFCFCFCFCFBFBFBFDFDFDFDFDFDFEFEFEFEFEFEFFFFFFC6C6C646
310
4646131313131313131313131313121212121212121212111111111111111111
310
1010101010101010100F0F0F1C1C1C848484FEFEFEFFFFFFFFFFFFCDCDCD0404
310
040202020101010B0B0BEBEBEBFFFFFFFFFFFFFFFFFFFFFFFFFFFFFFFFFFFFFF
310
FFFFC0C0C0222222030303060606030303000000222222BCBCBCFFFFFFFFFFFF
310
ECECEC0D0D0D0000000000000B0B0BECECECFFFFFF7E7E7E0000000000000000
310
0000000000000000000000000000000000000000000000000000000000000000
310
00000000000000000000001C1C1CBBBBBBFFFFFFFFFFFFFFFFFF3F3F3F000000
310
0000000000000000000000000000000000000000000000000000000000000000
310
000000000000000000000000000000000000004F4F4FFFFFFF00111111101010
310
1010101111111313131313131515151919190909090303030505050404040404
310
043030302E2E2E2F2F2F3131313333333333333636362F2F2F7F7F7FFFFFFFFF
310
FFFFFFFFFFFDFDFDFCFCFCFBFBFBFAFAFAF8F8F8F7F7F7F7F7F7F6F6F6F5F5F5
310
F3F3F3F3F3F3F0F0F0F4F4F4FFFFFFFFFFFFFFFFFFFFFFFFFFFFFFCECECE0404
310
040303030000000B0B0BEBEBEBFFFFFFFFFFFFFFFFFFFFFFFFFFFFFFFFFFFFFF
310
FFFFFFFFFFF5F5F5D3D3D3D5D5D5D3D3D3D1D1D1C6C6C6C9C9C9FCFCFCFFFFFF
310
FFFFFFD5D5D5D4D4D4D4D4D4D1D1D1FDFDFDFFFFFFDFDFDFBBBBBBBDBDBDBDBD
310
BDBBBBBBB9B9B9B8B8B8B5B5B5B4B4B4B3B3B3B1B1B1AFAFAFAEAEAEADADADAB
310
ABABA9A9A9A9A9A9C4C4C4FDFDFDFFFFFFFFFFFFFFFFFFFFFFFFB8B8B89B9B9B
310
9D9D9D9B9B9B9B9B9B9999999999999999999999999999999999999999999999
310
999A9A9A989898979797979797989898CCCCCCFFFFFFFFFFFF00010101000000
310
0000000000000000000000000000000000000303030505050505050404040404
310
04000000000000000000000000000000000000000000000000555555FFFFFFFF
310
FFFFFFFFFFFFFFFFFFFFFFFFFFFFFFFFFFFFFFFFFFFFFFFFFFFFFFFFFFFFFFFF
310
FFFFFFFFFFFFFFFFFFFFFFFFFFFFFFFFFFFFFFFFFFFFFFFFFFFFFFCECECE0404
310
040101010101010B0B0BEBEBEBFFFFFFFFFFFFFFFFFFFFFFFFFFFFFFFFFFFFFF
310
FFFFFFFFFFFFFFFFFFFFFFFFFFFFFFFFFFFFFFFFFFFFFFFFFFFFFFFFFFFFFFFF
310
F5F5F57979797272727373737A7A7AF6F6F6FFFFFFFFFFFFFFFFFFFFFFFFFFFF
310
FFFFFFFFFFFFFFFFFFFFFFFFFFFFFFFFFFFFFFFFFFFFFFFFFFFFFFFFFFFFFFFF
310
FFFFFFFFFFFFFFFFFFFFFFFFFFFFFFFFFFFFFFFFFFFFFFFFFFFFFFFFFFFFFFFF
310
FFFFFFFFFFFFFFFFFFFFFFFFFFFFFFFFFFFFFFFFFFFFFFFFFFFFFFFFFFFFFFFF
310
FFFFFFFFFFFFFFFFFFFFFFFFFFFFFFFFFFFFFFFFFFFFFFFFFF00030303020202
310
0303030202020303030303030303030303030303030303030303030303030303
310
030303030303030303030303030303030303030303030000005A5A5AFFFFFFFF
310
FFFFFFFFFFFFFFFFFFFFFFFFFFFFFFFFFFFFFFFFFFFFFFFFFFFFFFFFFFFFFFFF
310
FFFFFFFFFFFFFFFFFFFFFFFFFFFFFFFFFFFFFFFFFFFFFFFFFFFFFFCECECE0303
310
030202020101010A0A0AEBEBEBFFFFFFFFFFFFFFFFFFFFFFFFFFFFFFFFFFFFFF
310
FFFFFFFFFFFFFFFFFFFFFFFFFFFFFFFFFFFFFFFFFFFFFFFFFFFFFFFFFFFFFFFF
310
EDEDED000000000000000000000000EDEDEDFFFFFFFFFFFFFFFFFFFFFFFFFFFF
310
FFFFFFFFFFFFFFFFFFFFFFFFFFFFFFFFFFFFFFFFFFFFFFFFFFFFFFFFFFFFFFFF
310
FFFFFFFFFFFFFFFFFFFFFFFFFFFFFFFFFFFFFFFFFFFFFFFFFFFFFFFFFFFFFFFF
310
FFFFFFFFFFFFFFFFFFFFFFFFFFFFFFFFFFFFFFFFFFFFFFFFFFFFFFFFFFFFFFFF
310
FFFFFFFFFFFFFFFFFFFFFFFFFFFFFFFFFFFFFFFFFFFFFFFFFF00141414121212
310
1212121212121111111212121111111111111111111111111111111010101010
310
101010100F0F0F1010101010100F0F0F0F0F0F0F0F0F030303646464FFFFFFFF
310
FFFFFFFFFFFFFFFFFFFFFFFFFFFFFFFFFFFFFFFFFFFFFFFFFFFFFFFFFFFFFFFF
310
FFFFFFFFFFFFFFFFFFFFFFFFFFFFFFFFFFFFFFFFFFFFFFFFFFFFFFD0D0D00A0A
310
0A070707060606111111ECECECFFFFFFFFFFFFFFFFFFFFFFFFFFFFFFFFFFFFFF
310
FFFFFFFFFFFFFFFFFFFFFFFFFFFFFFFFFFFFFFFFFFFFFFFFFFFFFFFFFFFFFFFF
310
F0F0F00E0E0E0000000101010C0C0CEFEFEFFFFFFFFFFFFFFFFFFFFFFFFFFFFF
310
FFFFFFFFFFFFFFFFFFFFFFFFFFFFFFFFFFFFFFFFFFFFFFFFFFFFFFFFFFFFFFFF
310
FFFFFFFFFFFFFFFFFFFFFFFFFFFFFFFFFFFFFFFFFFFFFFFFFFFFFFFFFFFFFFFF
310
FFFFFFFFFFFFFFFFFFFFFFFFFFFFFFFFFFFFFFFFFFFFFFFFFFFFFFFFFFFFFFFF
310
FFFFFFFFFFFFFFFFFFFFFFFFFFFFFFFFFFFFFFFFFFFFFFFFFF00000000000000
310
0000000000110000F0420700CA466441F1446441AB446441CB466441CB466441
310
EDDB274AE5DF9DF7002FCF7B1F23FDDE38A95F7C68B84E6D335FCF0100000000
310
07001FBF55D095405B6AACD23A2026605A04825203555002032108320C8320C8
310
320C81A8D2808249913533500008927E4D4CCCCCCCCC84A028540F0300002881
310
5555760202887E0100A28C010828800C16A22A7D90F49F8067041C07E06C0100
310
2201A20280970D2DE4A007BB6D88182AB44A0064EE1B805515FC06E010458B0E
310
0510C000186000338A220A278A22CA24EA23155554600E2F1100507016070044
310
8154D4CA0A12855550000008180883D4743642D811F2D5AB4C358AF28014A377
  1
OLE
  0
TEXT
  5
596
330
1F
100
AcDbEntity
  8
99
  6
Continuous
 62
     7
370
    30
100
AcDbText
 10
55.86547053971397
 20
-117.6279862875205
 30
0.0
 40
2.5
  1
図番登録
 41
0.9
  7
KCADTEXTSTANDARD
100
AcDbText
1001
Sigma
1000

  0
TEXT
  5
597
330
1F
100
AcDbEntity
  8
99
  6
Continuous
 62
     7
370
    30
100
AcDbText
 10
56.29613214899658
 20
-122.8718746778546
 30
0.0
 40
2.0
  1
2008.5.15
 41
0.7000000000000001
  7
KCADTEXTSTANDARD
100
AcDbText
1001
Sigma
1000

  0
ENDSEC
  0
SECTION
  2
OBJECTS
  0
DICTIONARY
  5
C
330
0
100
AcDbDictionary
281
     1
  3
ACAD_COLOR
350
6C
  3
ACAD_GROUP
350
D
  3
ACAD_LAYOUT
350
1A
  3
ACAD_MATERIAL
350
6B
  3
ACAD_MLINESTYLE
350
17
  3
ACAD_PLOTSETTINGS
350
19
  3
ACAD_PLOTSTYLENAME
350
E
  3
ACAD_TABLESTYLE
350
92
  3
ACDBHEADERROUNDTRIPXREC
350
66D
  3
AcDbVariableDictionary
350
59
  3
DWGPROPS
350
670
  3
KCADFRAMEINFO
350
2A7
  0
DICTIONARY
  5
6C
102
{ACAD_REACTORS
330
C
102
}
330
C
100
AcDbDictionary
281
     1
  0
DICTIONARY
  5
D
102
{ACAD_REACTORS
330
C
102
}
330
C
100
AcDbDictionary
281
     1
  3
*A1
350
329
  3
*A10
350
3D7
  3
*A11
350
3EE
  3
*A12
350
4E6
  3
*A2
350
4EF
  3
*A3
350
332
  3
*A4
350
33B
  3
*A5
350
356
  3
*A6
350
375
  3
*A7
350
38E
  3
*A8
350
3A5
  3
*A9
350
3BE
  0
DICTIONARY
  5
1A
102
{ACAD_REACTORS
330
C
102
}
330
C
100
AcDbDictionary
281
     1
  3
Model
350
22
  3
ﾚｲｱｳﾄ1
350
22F
  0
DICTIONARY
  5
6B
102
{ACAD_REACTORS
330
C
102
}
330
C
100
AcDbDictionary
281
     1
  0
DICTIONARY
  5
17
102
{ACAD_REACTORS
330
C
102
}
330
C
100
AcDbDictionary
281
     1
  3
Standard
350
18
  0
DICTIONARY
  5
19
102
{ACAD_REACTORS
330
C
102
}
330
C
100
AcDbDictionary
281
     1
  0
ACDBDICTIONARYWDFLT
  5
E
102
{ACAD_REACTORS
330
C
102
}
330
C
100
AcDbDictionary
281
     1
  3
Normal
350
F
100
AcDbDictionaryWithDefault
340
F
  0
DICTIONARY
  5
92
102
{ACAD_REACTORS
330
C
102
}
330
C
100
AcDbDictionary
281
     1
  0
DICTIONARY
  5
66D
102
{ACAD_REACTORS
330
C
102
}
330
C
100
AcDbDictionary
281
     1
  3
COLORDICT
350
66E
  3
MATERIALDICT
350
66F
  0
DICTIONARY
  5
59
102
{ACAD_REACTORS
330
C
102
}
330
C
100
AcDbDictionary
281
     1
  3
DIMASSOC
350
66C
  0
XRECORD
  5
670
102
{ACAD_REACTORS
330
C
102
}
330
C
100
AcDbXrecord
280
     1
  1
DWGPROPS COOKIE
  2

  3

  4

  6

  7

  8
fottrem
  9

300
=
301
=
302
=
303
=
304
=
305
=
306
=
307
=
308
=
309
=
 40
0.0
 41
2453353.717125822
 42
2453295.056713495
  1

 90
        0
  0
XRECORD
  5
2A7
102
{ACAD_REACTORS
330
C
102
}
330
C
100
AcDbXrecord
280
     1
  1
A3
 40
420.0
 40
297.0
 90
        1
 90
        1
  0
GROUP
  5
329
102
{ACAD_REACTORS
330
D
102
}
330
D
100
AcDbGroup
300
group from kcad family
 70
     1
 71
     1
340
32A
340
32C
340
32E
340
330
  0
GROUP
  5
3D7
102
{ACAD_REACTORS
330
D
102
}
330
D
100
AcDbGroup
300
group from kcad family
 70
     1
 71
     1
340
3D8
340
3DA
340
3DC
340
3DE
340
3E0
340
3E2
340
3E4
340
3E6
340
3E8
340
3EA
340
3EC
  0
GROUP
  5
3EE
102
{ACAD_REACTORS
330
D
102
}
330
D
100
AcDbGroup
300
group from kcad family
 70
     1
 71
     1
340
3EF
340
3F1
340
3F3
340
3F5
340
3F7
340
3F9
340
3FB
340
3FD
340
3FF
340
401
340
403
340
405
340
407
  0
GROUP
  5
4E6
102
{ACAD_REACTORS
330
D
102
}
330
D
100
AcDbGroup
300
group from kcad family
 70
     1
 71
     1
340
4E7
340
4E9
340
4EB
340
4ED
  0
GROUP
  5
4EF
102
{ACAD_REACTORS
330
D
102
}
330
D
100
AcDbGroup
300
group from kcad family
 70
     1
 71
     1
340
4F0
340
4F2
340
4F4
340
4F6
  0
GROUP
  5
332
102
{ACAD_REACTORS
330
D
102
}
330
D
100
AcDbGroup
300
group from kcad family
 70
     1
 71
     1
340
333
340
335
340
337
340
339
  0
GROUP
  5
33B
102
{ACAD_REACTORS
330
D
102
}
330
D
100
AcDbGroup
300
group from kcad family
 70
     1
 71
     1
340
33C
340
33E
340
340
340
342
340
344
340
346
340
348
340
34A
340
34C
340
34E
340
350
340
352
340
354
  0
GROUP
  5
356
102
{ACAD_REACTORS
330
D
102
}
330
D
100
AcDbGroup
300
group from kcad family
 70
     1
 71
     1
340
357
340
359
340
35B
340
35D
340
35F
340
361
340
363
340
365
340
367
340
369
340
36B
340
36D
340
36F
340
371
340
373
  0
GROUP
  5
375
102
{ACAD_REACTORS
330
D
102
}
330
D
100
AcDbGroup
300
group from kcad family
 70
     1
 71
     1
340
376
340
378
340
37A
340
37C
340
37E
340
380
340
382
340
384
340
386
340
388
340
38A
340
38C
  0
GROUP
  5
38E
102
{ACAD_REACTORS
330
D
102
}
330
D
100
AcDbGroup
300
group from kcad family
 70
     1
 71
     1
340
38F
340
391
340
393
340
395
340
397
340
399
340
39B
340
39D
340
39F
340
3A1
340
3A3
  0
GROUP
  5
3A5
102
{ACAD_REACTORS
330
D
102
}
330
D
100
AcDbGroup
300
group from kcad family
 70
     1
 71
     1
340
3A6
340
3A8
340
3AA
340
3AC
340
3AE
340
3B0
340
3B2
340
3B4
340
3B6
340
3B8
340
3BA
340
3BC
  0
GROUP
  5
3BE
102
{ACAD_REACTORS
330
D
102
}
330
D
100
AcDbGroup
300
group from kcad family
 70
     1
 71
     1
340
3BF
340
3C1
340
3C3
340
3C5
340
3C7
340
3C9
340
3CB
340
3CD
340
3CF
340
3D1
340
3D3
340
3D5
  0
LAYOUT
  5
22
102
{ACAD_REACTORS
330
1A
102
}
330
1A
100
AcDbPlotSettings
  1

  2
DWF ePlot.pc3
  4
ISO_A3_(297.00_x_420.00_MM)
  6

 40
5.793749809265136
 41
17.79375076293945
 42
5.79376220703125
 43
17.79376220703125
 44
297.0
 45
420.0
 46
0.0
 47
0.0
 48
-130.1255
 49
75.379
140
167.0501
141
-135.4405
142
0.0
143
0.0
 70
 11952
 72
     1
 73
     0
 74
     4
  7

 75
     0
147
1.0
148
0.0
149
0.0
100
AcDbLayout
  1
Model
 70
     1
 71
     0
 10
-191.6913341899999
 20
-173.2067480499999
 11
228.30866581
 21
123.79325195
 12
0.0
 22
0.0
 32
0.0
 14
-115.191334194
 24
-135.0307504175
 34
0.0
 15
166.8086658059699
 25
65.469249582508
 35
0.0
146
0.0
 13
0.0
 23
0.0
 33
0.0
 16
1.0
 26
0.0
 36
0.0
 17
0.0
 27
1.0
 37
0.0
 76
     0
330
1F
  0
LAYOUT
  5
22F
102
{ACAD_REACTORS
330
1A
102
}
330
1A
100
AcDbPlotSettings
  1

  2
D:\ACAD2000\plotters\HP DesignJet 700(System).pc3
  4

  6

 40
0.0
 41
0.0
 42
0.0
 43
0.0
 44
0.0
 45
0.0
 46
0.0
 47
0.0
 48
0.0
 49
0.0
140
0.0
141
0.0
142
1.0
143
1.0
 70
   688
 72
     0
 73
     0
 74
     5
  7
monochrome.ctb
 75
    16
147
1.0
148
0.0
149
0.0
100
AcDbLayout
  1
ﾚｲｱｳﾄ1
 70
     1
 71
     1
 10
0.0
 20
0.0
 11
12.0
 21
9.0
 12
0.0
 22
0.0
 32
0.0
 14
0.0
 24
0.0
 34
0.0
 15
0.0
 25
0.0
 35
0.0
146
0.0
 13
0.0
 23
0.0
 33
0.0
 16
1.0
 26
0.0
 36
0.0
 17
0.0
 27
1.0
 37
0.0
 76
     0
330
73
  0
MLINESTYLE
  5
18
102
{ACAD_REACTORS
330
17
102
}
330
17
100
AcDbMlineStyle
  2
Standard
 70
     0
  3

 62
   256
 51
90.0
 52
90.0
 71
     2
 49
0.5
 62
   256
  6
BYLAYER
 49
-0.5
 62
   256
  6
BYLAYER
  0
ACDBPLACEHOLDER
  5
F
102
{ACAD_REACTORS
330
E
102
}
330
E
  0
XRECORD
  5
66E
102
{ACAD_REACTORS
330
66D
102
}
330
66D
100
AcDbXrecord
280
     1
340
6C
  0
XRECORD
  5
66F
102
{ACAD_REACTORS
330
66D
102
}
330
66D
100
AcDbXrecord
280
     1
340
6B
  0
DICTIONARYVAR
  5
66C
102
{ACAD_REACTORS
330
59
102
}
330
59
100
DictionaryVariables
280
     0
  1
1
  0
ENDSEC
  0
EOF
