  0
SECTION
  2
HEADER
  9
$ACADVER
  1
AC1015
  9
$ACADMAINTVER
 70
     6
  9
$DWGCODEPAGE
  3
ANSI_932
  9
$INSBASE
 10
0.0
 20
0.0
 30
0.0
  9
$EXTMIN
 10
26.8189987163
 20
8.999872683928006
 30
0.0
  9
$EXTMAX
 10
413.31900676123
 20
288.431941923775
 30
0.0
  9
$LIMMIN
 10
0.0
 20
0.0
  9
$LIMMAX
 10
420.0
 20
297.0
  9
$ORTHOMODE
 70
     0
  9
$REGENMODE
 70
     1
  9
$FILLMODE
 70
     1
  9
$QTEXTMODE
 70
     0
  9
$MIRRTEXT
 70
     1
  9
$LTSCALE
 40
0.2
  9
$ATTMODE
 70
     1
  9
$TEXTSIZE
 40
3.2
  9
$TRACEWID
 40
1.0
  9
$TEXTSTYLE
  7
KCADTEXTSTANDARD
  9
$CLAYER
  8
0
  9
$CELTYPE
  6
Continuous
  9
$CECOLOR
 62
   134
  9
$CELTSCALE
 40
1.0
  9
$DISPSILH
 70
     0
  9
$DIMSCALE
 40
1.0
  9
$DIMASZ
 40
3.0
  9
$DIMEXO
 40
1.0
  9
$DIMDLI
 40
8.0
  9
$DIMRND
 40
0.0
  9
$DIMDLE
 40
0.0
  9
$DIMEXE
 40
1.0
  9
$DIMTP
 40
0.0
  9
$DIMTM
 40
0.0
  9
$DIMTXT
 40
3.2
  9
$DIMCEN
 40
2.5
  9
$DIMTSZ
 40
0.0
  9
$DIMTOL
 70
     0
  9
$DIMLIM
 70
     0
  9
$DIMTIH
 70
     0
  9
$DIMTOH
 70
     0
  9
$DIMSE1
 70
     0
  9
$DIMSE2
 70
     0
  9
$DIMTAD
 70
     1
  9
$DIMZIN
 70
     8
  9
$DIMBLK
  1

  9
$DIMASO
 70
     1
  9
$DIMSHO
 70
     1
  9
$DIMPOST
  1

  9
$DIMAPOST
  1

  9
$DIMALT
 70
     0
  9
$DIMALTD
 70
     2
  9
$DIMALTF
 40
25.4
  9
$DIMLFAC
 40
1.0
  9
$DIMTOFL
 70
     1
  9
$DIMTVP
 40
0.0
  9
$DIMTIX
 70
     0
  9
$DIMSOXD
 70
     0
  9
$DIMSAH
 70
     1
  9
$DIMBLK1
  1
KCAD_OPEN30
  9
$DIMBLK2
  1
KCAD_OPEN30
  9
$DIMSTYLE
  2
Standard
  9
$DIMCLRD
 70
     0
  9
$DIMCLRE
 70
     0
  9
$DIMCLRT
 70
     0
  9
$DIMTFAC
 40
0.667
  9
$DIMGAP
 40
0.5333000000000001
  9
$DIMJUST
 70
     0
  9
$DIMSD1
 70
     0
  9
$DIMSD2
 70
     0
  9
$DIMTOLJ
 70
     1
  9
$DIMTZIN
 70
     8
  9
$DIMALTZ
 70
     0
  9
$DIMALTTZ
 70
     0
  9
$DIMUPT
 70
     0
  9
$DIMDEC
 70
     3
  9
$DIMTDEC
 70
     3
  9
$DIMALTU
 70
     2
  9
$DIMALTTD
 70
     2
  9
$DIMTXSTY
  7
KCADDIMSTANDARD
  9
$DIMAUNIT
 70
     0
  9
$DIMADEC
 70
     3
  9
$DIMALTRND
 40
0.0
  9
$DIMAZIN
 70
     2
  9
$DIMDSEP
 70
    46
  9
$DIMATFIT
 70
     3
  9
$DIMFRAC
 70
     0
  9
$DIMLDRBLK
  1
KCAD_OPEN
  9
$DIMLUNIT
 70
     2
  9
$DIMLWD
 70
    -2
  9
$DIMLWE
 70
    -2
  9
$DIMTMOVE
 70
     0
  9
$LUNITS
 70
     2
  9
$LUPREC
 70
     4
  9
$SKETCHINC
 40
1.0
  9
$FILLETRAD
 40
5.0
  9
$AUNITS
 70
     0
  9
$AUPREC
 70
     0
  9
$MENU
  1
.
  9
$ELEVATION
 40
0.0
  9
$PELEVATION
 40
0.0
  9
$THICKNESS
 40
0.0
  9
$LIMCHECK
 70
     0
  9
$CHAMFERA
 40
5.0
  9
$CHAMFERB
 40
5.0
  9
$CHAMFERC
 40
5.0
  9
$CHAMFERD
 40
0.7853981633974483
  9
$SKPOLY
 70
     0
  9
$TDCREATE
 40
2453354.092125822
  9
$TDUCREATE
 40
2453353.717125822
  9
$TDUPDATE
 40
2453294.527265625
  9
$TDUUPDATE
 40
2453294.152265625
  9
$TDINDWG
 40
0.0530207755
  9
$TDUSRTIMER
 40
0.0530207755
  9
$USRTIMER
 70
     1
  9
$ANGBASE
 50
0.0
  9
$ANGDIR
 70
     0
  9
$PDMODE
 70
     0
  9
$PDSIZE
 40
0.0
  9
$PLINEWID
 40
0.0
  9
$SPLFRAME
 70
     0
  9
$SPLINETYPE
 70
     6
  9
$SPLINESEGS
 70
     8
  9
$HANDSEED
  5
983
  9
$SURFTAB1
 70
     6
  9
$SURFTAB2
 70
     6
  9
$SURFTYPE
 70
     6
  9
$SURFU
 70
     6
  9
$SURFV
 70
     6
  9
$UCSBASE
  2

  9
$UCSNAME
  2

  9
$UCSORG
 10
0.0
 20
0.0
 30
0.0
  9
$UCSXDIR
 10
1.0
 20
0.0
 30
0.0
  9
$UCSYDIR
 10
0.0
 20
1.0
 30
0.0
  9
$UCSORTHOREF
  2

  9
$UCSORTHOVIEW
 70
     0
  9
$UCSORGTOP
 10
0.0
 20
0.0
 30
0.0
  9
$UCSORGBOTTOM
 10
0.0
 20
0.0
 30
0.0
  9
$UCSORGLEFT
 10
0.0
 20
0.0
 30
0.0
  9
$UCSORGRIGHT
 10
0.0
 20
0.0
 30
0.0
  9
$UCSORGFRONT
 10
0.0
 20
0.0
 30
0.0
  9
$UCSORGBACK
 10
0.0
 20
0.0
 30
0.0
  9
$PUCSBASE
  2

  9
$PUCSNAME
  2

  9
$PUCSORG
 10
0.0
 20
0.0
 30
0.0
  9
$PUCSXDIR
 10
1.0
 20
0.0
 30
0.0
  9
$PUCSYDIR
 10
0.0
 20
1.0
 30
0.0
  9
$PUCSORTHOREF
  2

  9
$PUCSORTHOVIEW
 70
     0
  9
$PUCSORGTOP
 10
0.0
 20
0.0
 30
0.0
  9
$PUCSORGBOTTOM
 10
0.0
 20
0.0
 30
0.0
  9
$PUCSORGLEFT
 10
0.0
 20
0.0
 30
0.0
  9
$PUCSORGRIGHT
 10
0.0
 20
0.0
 30
0.0
  9
$PUCSORGFRONT
 10
0.0
 20
0.0
 30
0.0
  9
$PUCSORGBACK
 10
0.0
 20
0.0
 30
0.0
  9
$USERI1
 70
     0
  9
$USERI2
 70
     0
  9
$USERI3
 70
     0
  9
$USERI4
 70
   257
  9
$USERI5
 70
     0
  9
$USERR1
 40
0.0
  9
$USERR2
 40
0.0
  9
$USERR3
 40
0.0
  9
$USERR4
 40
0.0
  9
$USERR5
 40
0.0
  9
$WORLDVIEW
 70
     1
  9
$SHADEDGE
 70
     3
  9
$SHADEDIF
 70
    70
  9
$TILEMODE
 70
     1
  9
$MAXACTVP
 70
    48
  9
$PINSBASE
 10
0.0
 20
0.0
 30
0.0
  9
$PLIMCHECK
 70
     0
  9
$PEXTMIN
 10
0.0
 20
0.0
 30
0.0
  9
$PEXTMAX
 10
0.0
 20
0.0
 30
0.0
  9
$PLIMMIN
 10
0.0
 20
0.0
  9
$PLIMMAX
 10
12.0
 20
9.0
  9
$UNITMODE
 70
     0
  9
$VISRETAIN
 70
     1
  9
$PLINEGEN
 70
     0
  9
$PSLTSCALE
 70
     1
  9
$TREEDEPTH
 70
  3020
  9
$CMLSTYLE
  2
Standard
  9
$CMLJUST
 70
     0
  9
$CMLSCALE
 40
20.0
  9
$PROXYGRAPHICS
 70
     1
  9
$MEASUREMENT
 70
     1
  9
$CELWEIGHT
370
    15
  9
$ENDCAPS
280
     0
  9
$JOINSTYLE
280
     0
  9
$LWDISPLAY
290
     0
  9
$INSUNITS
 70
     0
  9
$HYPERLINKBASE
  1

  9
$STYLESHEET
  1

  9
$XEDIT
290
     0
  9
$CEPSNTYPE
380
     0
  9
$PSTYLEMODE
290
     1
  9
$FINGERPRINTGUID
  2
{1989D620-E742-11D2-9219-00105A146177}
  9
$VERSIONGUID
  2
{8A273E62-4065-4CEF-A449-0406EA7011BB}
  9
$EXTNAMES
290
     1
  9
$PSVPSCALE
 40
0.0
  9
$OLESTARTUP
290
     0
  0
ENDSEC
  0
SECTION
  2
CLASSES
  0
CLASS
  1
ACDBDICTIONARYWDFLT
  2
AcDbDictionaryWithDefault
  3
ObjectDBX Classes
 90
        0
280
     0
281
     0
  0
CLASS
  1
ACDBPLACEHOLDER
  2
AcDbPlaceHolder
  3
ObjectDBX Classes
 90
        0
280
     0
281
     0
  0
CLASS
  1
LAYOUT
  2
AcDbLayout
  3
ObjectDBX Classes
 90
        0
280
     0
281
     0
  0
CLASS
  1
DICTIONARYVAR
  2
AcDbDictionaryVar
  3
ObjectDBX Classes
 90
        0
280
     0
281
     0
  0
CLASS
  1
TABLESTYLE
  2
AcDbTableStyle
  3
ObjectDBX Classes
 90
     2047
280
     0
281
     0
  0
ENDSEC
  0
SECTION
  2
TABLES
  0
TABLE
  2
VPORT
  5
8
330
0
100
AcDbSymbolTable
 70
     2
  0
VPORT
  5
97
330
8
100
AcDbSymbolTableRecord
100
AcDbViewportTableRecord
  2
*Active
 70
     0
 10
0.0
 20
0.0
 11
1.0
 21
1.0
 12
220.069002738765
 22
148.7159073038515
 13
0.0
 23
0.0
 14
10.0
 24
10.0
 15
10.0
 25
10.0
 16
0.0
 26
0.0
 36
1.0
 17
0.0
 27
0.0
 37
0.0
 40
308.2888657325681
 41
2.20035778175313
 42
50.0
 43
0.0
 44
0.0
 50
0.0
 51
0.0
 71
    16
 72
 20000
 73
     1
 74
     1
 75
     0
 76
     0
 77
     0
 78
     0
281
     0
 65
     0
110
0.0
120
0.0
130
0.0
111
1.0
121
0.0
131
0.0
112
0.0
122
1.0
132
0.0
 79
     0
146
0.0
  0
ENDTAB
  0
TABLE
  2
LTYPE
  5
5
330
0
100
AcDbSymbolTable
 70
     6
  0
LTYPE
  5
14
330
5
100
AcDbSymbolTableRecord
100
AcDbLinetypeTableRecord
  2
ByBlock
 70
     0
  3

 72
    65
 73
     0
 40
0.0
  0
LTYPE
  5
15
330
5
100
AcDbSymbolTableRecord
100
AcDbLinetypeTableRecord
  2
ByLayer
 70
     0
  3

 72
    65
 73
     0
 40
0.0
  0
LTYPE
  5
16
330
5
100
AcDbSymbolTableRecord
100
AcDbLinetypeTableRecord
  2
Continuous
 70
     0
  3
Solid line
 72
    65
 73
     0
 40
0.0
  0
LTYPE
  5
90F
330
5
100
AcDbSymbolTableRecord
100
AcDbLinetypeTableRecord
  2
CENTER
 70
     0
  3
Center ____ _ ____ _ ____ _ ____ _ ____ _ ____
 72
    65
 73
     4
 40
50.8
 49
31.75
 74
     4
 75
     0
340
0
 46
1.0
 50
0.0
 44
0.0
 45
0.0
 49
-6.349999999999999
 74
     4
 75
     0
340
0
 46
1.0
 50
0.0
 44
0.0
 45
0.0
 49
6.349999999999999
 74
     4
 75
     0
340
0
 46
1.0
 50
0.0
 44
0.0
 45
0.0
 49
-6.349999999999999
 74
     4
 75
     0
340
0
 46
1.0
 50
0.0
 44
0.0
 45
0.0
  0
LTYPE
  5
910
330
5
100
AcDbSymbolTableRecord
100
AcDbLinetypeTableRecord
  2
DASHED
 70
     0
  3
Dashed __ __ __ __ __ __ __ __ __ __ __ __ __ _
 72
    65
 73
     2
 40
19.05
 49
12.7
 74
     4
 75
     0
340
0
 46
1.0
 50
0.0
 44
0.0
 45
0.0
 49
-6.349999999999999
 74
     4
 75
     0
340
0
 46
1.0
 50
0.0
 44
0.0
 45
0.0
  0
LTYPE
  5
911
330
5
100
AcDbSymbolTableRecord
100
AcDbLinetypeTableRecord
  2
HIDDEN
 70
     0
  3
Hidden __ __ __ __ __ __ __ __ __ __ __ __ __ _
 72
    65
 73
     2
 40
9.524999999999999
 49
6.349999999999999
 74
     4
 75
     0
340
0
 46
1.0
 50
0.0
 44
0.0
 45
0.0
 49
-3.174999999999999
 74
     4
 75
     0
340
0
 46
1.0
 50
0.0
 44
0.0
 45
0.0
  0
LTYPE
  5
912
330
5
100
AcDbSymbolTableRecord
100
AcDbLinetypeTableRecord
  2
PHANTOM
 70
     0
  3
Phantom ______  __  __  ______  __  __  ______
 72
    65
 73
     6
 40
63.50000000000001
 49
31.75
 74
     4
 75
     0
340
0
 46
1.0
 50
0.0
 44
0.0
 45
0.0
 49
-6.349999999999999
 74
     4
 75
     0
340
0
 46
1.0
 50
0.0
 44
0.0
 45
0.0
 49
6.349999999999999
 74
     4
 75
     0
340
0
 46
1.0
 50
0.0
 44
0.0
 45
0.0
 49
-6.349999999999999
 74
     4
 75
     0
340
0
 46
1.0
 50
0.0
 44
0.0
 45
0.0
 49
6.349999999999999
 74
     4
 75
     0
340
0
 46
1.0
 50
0.0
 44
0.0
 45
0.0
 49
-6.349999999999999
 74
     4
 75
     0
340
0
 46
1.0
 50
0.0
 44
0.0
 45
0.0
  0
LTYPE
  5
913
330
5
100
AcDbSymbolTableRecord
100
AcDbLinetypeTableRecord
  2
RUPTURE
 70
     0
  3
Rupture line
 72
    65
 73
     4
 40
45.72
 49
25.4
 74
     4
 75
     0
340
0
 46
1.0
 50
0.0
 44
0.0
 45
0.0
 49
-5.08
 74
     4
 75
   131
340
11
 46
5.08
 50
0.0
 44
-5.08
 45
0.0
 49
-10.16
 74
     4
 75
   131
340
11
 46
5.08
 50
180.0
 44
5.08
 45
0.0
 49
-5.08
 74
     4
 75
     0
340
0
 46
1.0
 50
0.0
 44
0.0
 45
0.0
  0
ENDTAB
  0
TABLE
  2
LAYER
  5
2
330
0
100
AcDbSymbolTable
 70
    17
  0
LAYER
  5
10
330
2
100
AcDbSymbolTableRecord
100
AcDbLayerTableRecord
  2
0
 70
     0
 62
     7
  6
Continuous
370
    -3
390
F
  0
LAYER
  5
7A1
330
2
100
AcDbSymbolTableRecord
100
AcDbLayerTableRecord
  2
KCAD_DIMS
 70
     0
 62
   134
  6
Continuous
370
    15
390
F
  0
LAYER
  5
4F
330
2
100
AcDbSymbolTableRecord
100
AcDbLayerTableRecord
  2
DEFPOINTS
 70
     0
 62
     7
  6
Continuous
290
     0
370
    -3
390
F
  0
LAYER
  5
20B
330
2
100
AcDbSymbolTableRecord
100
AcDbLayerTableRecord
  2
KCAD_ASST
 70
     0
 62
   134
  6
Continuous
370
    15
390
F
  0
LAYER
  5
20C
330
2
100
AcDbSymbolTableRecord
100
AcDbLayerTableRecord
  2
KCAD_RASTER
 70
     0
 62
     7
  6
Continuous
370
    30
390
F
  0
LAYER
  5
20D
330
2
100
AcDbSymbolTableRecord
100
AcDbLayerTableRecord
  2
SYBCENTER
 70
     0
 62
   134
  6
CENTER
370
    15
390
F
  0
LAYER
  5
20E
330
2
100
AcDbSymbolTableRecord
100
AcDbLayerTableRecord
  2
SYBHIDE
 70
     0
 62
   134
  6
HIDDEN
370
    15
390
F
  0
LAYER
  5
20F
330
2
100
AcDbSymbolTableRecord
100
AcDbLayerTableRecord
  2
SYBOUTLINE
 70
     0
 62
     7
  6
Continuous
370
    30
390
F
  0
LAYER
  5
210
330
2
100
AcDbSymbolTableRecord
100
AcDbLayerTableRecord
  2
SYBTHREAD
 70
     0
 62
   134
  6
Continuous
370
    15
390
F
  0
LAYER
  5
211
330
2
100
AcDbSymbolTableRecord
100
AcDbLayerTableRecord
  2
SYBTHRHID
 70
     0
 62
   134
  6
HIDDEN
370
    15
390
F
  0
LAYER
  5
282
330
2
100
AcDbSymbolTableRecord
100
AcDbLayerTableRecord
  2
KCAD_UIR_TMP_LAYER_
 70
     0
 62
     7
  6
Continuous
370
    -3
390
F
  0
LAYER
  5
2A8
330
2
100
AcDbSymbolTableRecord
100
AcDbLayerTableRecord
  2
KCAD_CPM_MAX_LAYER
 70
     3
 62
     7
  6
Continuous
370
    -3
390
F
  0
LAYER
  5
2F3
330
2
100
AcDbSymbolTableRecord
100
AcDbLayerTableRecord
  2
90-ScaleR0.4
 70
     0
 62
     7
  6
Continuous
370
    -3
390
F
1001
Layer_Scale
1002
{
1071
   200007
1070
     0
1040
0.4
1040
1.0
1002
}
  0
LAYER
  5
395
330
2
100
AcDbSymbolTableRecord
100
AcDbLayerTableRecord
  2
2
 70
     0
 62
     7
  6
Continuous
370
    -3
390
F
  0
LAYER
  5
3A2
330
2
100
AcDbSymbolTableRecord
100
AcDbLayerTableRecord
  2
3
 70
     0
 62
     7
  6
Continuous
370
    -3
390
F
  0
LAYER
  5
3E6
330
2
100
AcDbSymbolTableRecord
100
AcDbLayerTableRecord
  2
4
 70
     0
 62
     7
  6
Continuous
370
    -3
390
F
  0
LAYER
  5
706
330
2
100
AcDbSymbolTableRecord
100
AcDbLayerTableRecord
  2
99
 70
     0
 62
     7
  6
Continuous
370
    -3
390
F
  0
ENDTAB
  0
TABLE
  2
STYLE
  5
3
330
0
100
AcDbSymbolTable
 70
     5
  0
STYLE
  5
11
330
3
100
AcDbSymbolTableRecord
100
AcDbTextStyleTableRecord
  2
Standard
 70
     0
 40
0.0
 41
1.0
 50
0.0
 71
     0
 42
3.2
  3
txt.shx
  4
bigfont.shx
  0
STYLE
  5
17F
330
3
100
AcDbSymbolTableRecord
100
AcDbTextStyleTableRecord
  2

 70
     1
 40
0.0
 41
1.0
 50
0.0
 71
     0
 42
3.2
  3
ltypeshp.shx
  4

  0
STYLE
  5
189
330
3
100
AcDbSymbolTableRecord
100
AcDbTextStyleTableRecord
  2
KCADDIMSTANDARD
 70
     0
 40
0.0
 41
1.0
 50
0.0
 71
     0
 42
3.2
  3
txt.shx
  4
bigfont.shx
  0
STYLE
  5
18A
330
3
100
AcDbSymbolTableRecord
100
AcDbTextStyleTableRecord
  2
KCADTEXTSTANDARD
 70
     0
 40
0.0
 41
1.0
 50
0.0
 71
     0
 42
3.2
  3
txt.shx
  4
bigfont.shx
  0
STYLE
  5
1AD
330
3
100
AcDbSymbolTableRecord
100
AcDbTextStyleTableRecord
  2
KCADTEXT2
 70
     0
 40
0.0
 41
1.0
 50
0.0
 71
     0
 42
3.2
  3
txt.shx
  4
extfont.shx
  0
ENDTAB
  0
TABLE
  2
VIEW
  5
6
330
0
100
AcDbSymbolTable
 70
     0
  0
ENDTAB
  0
TABLE
  2
UCS
  5
7
330
0
100
AcDbSymbolTable
 70
     0
  0
ENDTAB
  0
TABLE
  2
APPID
  5
9
330
0
100
AcDbSymbolTable
 70
     4
  0
APPID
  5
12
330
9
100
AcDbSymbolTableRecord
100
AcDbRegAppTableRecord
  2
ACAD
 70
     0
  0
APPID
  5
90C
330
9
100
AcDbSymbolTableRecord
100
AcDbRegAppTableRecord
  2
Sigma
 70
     0
  0
APPID
  5
90D
330
9
100
AcDbSymbolTableRecord
100
AcDbRegAppTableRecord
  2
Layer_Scale
 70
     0
  0
APPID
  5
90E
330
9
100
AcDbSymbolTableRecord
100
AcDbRegAppTableRecord
  2
KCAD_DIM_EXT
 70
     0
  0
ENDTAB
  0
TABLE
  2
DIMSTYLE
  5
A
330
0
100
AcDbSymbolTable
 70
     1
100
AcDbDimStyleTable
  0
DIMSTYLE
105
27
102
{ACAD_REACTORS
330
41C
330
466
330
4A2
330
4DE
330
51A
330
556
330
592
330
5CE
330
60C
330
647
330
682
330
6BE
102
}
330
A
100
AcDbSymbolTableRecord
100
AcDbDimStyleTableRecord
  2
Standard
 70
     0
340
11
  0
ENDTAB
  0
TABLE
  2
BLOCK_RECORD
  5
1
330
0
100
AcDbSymbolTable
 70
    52
  0
BLOCK_RECORD
  5
1F
330
1
100
AcDbSymbolTableRecord
100
AcDbBlockTableRecord
  2
*Model_Space
340
22
  0
BLOCK_RECORD
  5
73
330
1
100
AcDbSymbolTableRecord
100
AcDbBlockTableRecord
  2
*Paper_Space
340
22F
  0
BLOCK_RECORD
  5
7A2
330
1
100
AcDbSymbolTableRecord
100
AcDbBlockTableRecord
  2
KCAD_OPEN
340
0
  0
BLOCK_RECORD
  5
3C
330
1
100
AcDbSymbolTableRecord
100
AcDbBlockTableRecord
  2
KCAD_DOTSMALL
340
0
  0
BLOCK_RECORD
  5
44
330
1
100
AcDbSymbolTableRecord
100
AcDbBlockTableRecord
  2
KCAD_NONE
340
0
  0
BLOCK_RECORD
  5
FC
330
1
100
AcDbSymbolTableRecord
100
AcDbBlockTableRecord
  2
_CLOSED
340
0
  0
BLOCK_RECORD
  5
103
330
1
100
AcDbSymbolTableRecord
100
AcDbBlockTableRecord
  2
_DOT
340
0
  0
BLOCK_RECORD
  5
10B
330
1
100
AcDbSymbolTableRecord
100
AcDbBlockTableRecord
  2
_CLOSEDBLANK
340
0
  0
BLOCK_RECORD
  5
111
330
1
100
AcDbSymbolTableRecord
100
AcDbBlockTableRecord
  2
_OBLIQUE
340
0
  0
BLOCK_RECORD
  5
115
330
1
100
AcDbSymbolTableRecord
100
AcDbBlockTableRecord
  2
_ARCHTICK
340
0
  0
BLOCK_RECORD
  5
11C
330
1
100
AcDbSymbolTableRecord
100
AcDbBlockTableRecord
  2
_OPEN
340
0
  0
BLOCK_RECORD
  5
122
330
1
100
AcDbSymbolTableRecord
100
AcDbBlockTableRecord
  2
_ORIGIN
340
0
  0
BLOCK_RECORD
  5
127
330
1
100
AcDbSymbolTableRecord
100
AcDbBlockTableRecord
  2
_OPEN90
340
0
  0
BLOCK_RECORD
  5
12D
330
1
100
AcDbSymbolTableRecord
100
AcDbBlockTableRecord
  2
_OPEN30
340
0
102
{BLKREFS
331
45D
331
45E
331
49B
331
49C
331
4D7
331
4D8
331
513
331
514
331
54F
331
550
331
58B
331
58C
331
5C7
331
5C8
331
605
331
606
331
644
331
67F
331
6B7
331
6B8
331
6F3
331
6F4
331
3E9
102
}
  0
BLOCK_RECORD
  5
133
330
1
100
AcDbSymbolTableRecord
100
AcDbBlockTableRecord
  2
_DOTBLANK
340
0
  0
BLOCK_RECORD
  5
138
330
1
100
AcDbSymbolTableRecord
100
AcDbBlockTableRecord
  2
_DOTSMALL
340
0
  0
BLOCK_RECORD
  5
13F
330
1
100
AcDbSymbolTableRecord
100
AcDbBlockTableRecord
  2
_BOXFILLED
340
0
  0
BLOCK_RECORD
  5
144
330
1
100
AcDbSymbolTableRecord
100
AcDbBlockTableRecord
  2
_BOXBLANK
340
0
  0
BLOCK_RECORD
  5
14C
330
1
100
AcDbSymbolTableRecord
100
AcDbBlockTableRecord
  2
_DATUMFILLED
340
0
  0
BLOCK_RECORD
  5
150
330
1
100
AcDbSymbolTableRecord
100
AcDbBlockTableRecord
  2
_DATUMBLANK
340
0
  0
BLOCK_RECORD
  5
156
330
1
100
AcDbSymbolTableRecord
100
AcDbBlockTableRecord
  2
_INTEGRAL
340
0
  0
BLOCK_RECORD
  5
1F1
330
1
100
AcDbSymbolTableRecord
100
AcDbBlockTableRecord
  2
_Origin2
340
0
  0
BLOCK_RECORD
  5
1F7
330
1
100
AcDbSymbolTableRecord
100
AcDbBlockTableRecord
  2
KCAD_OPEN30
340
0
  0
BLOCK_RECORD
  5
222
330
1
100
AcDbSymbolTableRecord
100
AcDbBlockTableRecord
  2
_None
340
0
  0
BLOCK_RECORD
  5
283
330
1
100
AcDbSymbolTableRecord
100
AcDbBlockTableRecord
  2
_Small
340
0
  0
BLOCK_RECORD
  5
287
330
1
100
AcDbSymbolTableRecord
100
AcDbBlockTableRecord
  2
KCAD_OPEN_2
340
0
  0
BLOCK_RECORD
  5
28E
330
1
100
AcDbSymbolTableRecord
100
AcDbBlockTableRecord
  2
KCAD_OPEN30_2
340
0
  0
BLOCK_RECORD
  5
2AD
330
1
100
AcDbSymbolTableRecord
100
AcDbBlockTableRecord
  2
KCAD_OPEN30ANG
340
0
  0
BLOCK_RECORD
  5
2B6
330
1
100
AcDbSymbolTableRecord
100
AcDbBlockTableRecord
  2
KCAD_DOTANG
340
0
  0
BLOCK_RECORD
  5
41D
330
1
100
AcDbSymbolTableRecord
100
AcDbBlockTableRecord
  2
*D27
340
0
  0
BLOCK_RECORD
  5
467
330
1
100
AcDbSymbolTableRecord
100
AcDbBlockTableRecord
  2
*D28
340
0
  0
BLOCK_RECORD
  5
4A3
330
1
100
AcDbSymbolTableRecord
100
AcDbBlockTableRecord
  2
*D29
340
0
  0
BLOCK_RECORD
  5
4DF
330
1
100
AcDbSymbolTableRecord
100
AcDbBlockTableRecord
  2
*D30
340
0
  0
BLOCK_RECORD
  5
51B
330
1
100
AcDbSymbolTableRecord
100
AcDbBlockTableRecord
  2
*D31
340
0
  0
BLOCK_RECORD
  5
557
330
1
100
AcDbSymbolTableRecord
100
AcDbBlockTableRecord
  2
*D32
340
0
  0
BLOCK_RECORD
  5
593
330
1
100
AcDbSymbolTableRecord
100
AcDbBlockTableRecord
  2
*D33
340
0
  0
BLOCK_RECORD
  5
5CF
330
1
100
AcDbSymbolTableRecord
100
AcDbBlockTableRecord
  2
*D34
340
0
  0
BLOCK_RECORD
  5
60D
330
1
100
AcDbSymbolTableRecord
100
AcDbBlockTableRecord
  2
*D35
340
0
  0
BLOCK_RECORD
  5
648
330
1
100
AcDbSymbolTableRecord
100
AcDbBlockTableRecord
  2
*D36
340
0
  0
BLOCK_RECORD
  5
683
330
1
100
AcDbSymbolTableRecord
100
AcDbBlockTableRecord
  2
*D37
340
0
  0
BLOCK_RECORD
  5
6BF
330
1
100
AcDbSymbolTableRecord
100
AcDbBlockTableRecord
  2
*D38
340
0
  0
BLOCK_RECORD
  5
715
330
1
100
AcDbSymbolTableRecord
100
AcDbBlockTableRecord
  2
*D39
340
0
  0
BLOCK_RECORD
  5
721
330
1
100
AcDbSymbolTableRecord
100
AcDbBlockTableRecord
  2
*D40
340
0
  0
BLOCK_RECORD
  5
72D
330
1
100
AcDbSymbolTableRecord
100
AcDbBlockTableRecord
  2
*D41
340
0
  0
BLOCK_RECORD
  5
739
330
1
100
AcDbSymbolTableRecord
100
AcDbBlockTableRecord
  2
*D42
340
0
  0
BLOCK_RECORD
  5
745
330
1
100
AcDbSymbolTableRecord
100
AcDbBlockTableRecord
  2
*D43
340
0
  0
BLOCK_RECORD
  5
751
330
1
100
AcDbSymbolTableRecord
100
AcDbBlockTableRecord
  2
*D44
340
0
  0
BLOCK_RECORD
  5
75D
330
1
100
AcDbSymbolTableRecord
100
AcDbBlockTableRecord
  2
*D45
340
0
  0
BLOCK_RECORD
  5
769
330
1
100
AcDbSymbolTableRecord
100
AcDbBlockTableRecord
  2
*D46
340
0
  0
BLOCK_RECORD
  5
774
330
1
100
AcDbSymbolTableRecord
100
AcDbBlockTableRecord
  2
*D47
340
0
  0
BLOCK_RECORD
  5
77F
330
1
100
AcDbSymbolTableRecord
100
AcDbBlockTableRecord
  2
*D48
340
0
  0
BLOCK_RECORD
  5
78B
330
1
100
AcDbSymbolTableRecord
100
AcDbBlockTableRecord
  2
*D49
340
0
  0
BLOCK_RECORD
  5
797
330
1
100
AcDbSymbolTableRecord
100
AcDbBlockTableRecord
  2
*D50
340
0
  0
BLOCK_RECORD
  5
81A
330
1
100
AcDbSymbolTableRecord
100
AcDbBlockTableRecord
  2
*D51
340
0
  0
ENDTAB
  0
ENDSEC
  0
SECTION
  2
BLOCKS
  0
BLOCK
  5
20
330
1F
100
AcDbEntity
  8
0
100
AcDbBlockBegin
  2
*Model_Space
 70
     0
 71
     0
 10
0.0
 20
0.0
 30
0.0
  3
*Model_Space
  1

  0
ENDBLK
  5
21
330
1F
100
AcDbEntity
  8
0
100
AcDbBlockEnd
  0
BLOCK
  5
75
330
73
100
AcDbEntity
 67
     1
  8
0
100
AcDbBlockBegin
  2
*Paper_Space
 70
     0
 71
     0
 10
0.0
 20
0.0
 30
0.0
  3
*Paper_Space
  1

  0
ENDBLK
  5
76
330
73
100
AcDbEntity
 67
     1
  8
0
100
AcDbBlockEnd
  0
BLOCK
  5
916
330
7A2
100
AcDbEntity
  8
KCAD_DIMS
100
AcDbBlockBegin
  2
KCAD_OPEN
 70
     0
 71
     0
 10
0.0
 20
0.0
 30
0.0
  3
KCAD_OPEN
  1

  0
LINE
  5
809
330
7A2
100
AcDbEntity
  8
0
  6
Continuous
 62
     0
370
    -2
100
AcDbLine
 10
0.0
 20
0.0
 30
0.0
 11
-1.0
 21
0.0
 31
0.0
  0
LINE
  5
23
330
7A2
100
AcDbEntity
  8
0
  6
Continuous
 62
     0
370
    -2
100
AcDbLine
 10
0.0
 20
0.0
 30
0.0
 11
-1.0
 21
0.158384
 31
0.0
  0
LINE
  5
24
330
7A2
100
AcDbEntity
  8
0
  6
Continuous
 62
     0
370
    -2
100
AcDbLine
 10
0.0
 20
0.0
 30
0.0
 11
-1.0
 21
-0.158384
 31
0.0
  0
ENDBLK
  5
917
330
7A2
100
AcDbEntity
  8
KCAD_DIMS
100
AcDbBlockEnd
  0
BLOCK
  5
918
330
3C
100
AcDbEntity
  8
KCAD_DIMS
100
AcDbBlockBegin
  2
KCAD_DOTSMALL
 70
     0
 71
     0
 10
0.0
 20
0.0
 30
0.0
  3
KCAD_DOTSMALL
  1

  0
LWPOLYLINE
  5
3D
330
3C
100
AcDbEntity
  8
KCAD_DIMS
 62
     0
100
AcDbPolyline
 90
        2
 70
     1
 43
0.5
 10
0.06252
 20
0.0
 42
1.0
 10
-0.06262
 20
0.0
 42
1.0
  0
LINE
  5
41
330
3C
100
AcDbEntity
  8
0
  6
Continuous
 62
     0
370
    -2
100
AcDbLine
 10
0.0
 20
0.0
 30
0.0
 11
-1.0
 21
0.0
 31
0.0
  0
ENDBLK
  5
919
330
3C
100
AcDbEntity
  8
0
100
AcDbBlockEnd
  0
BLOCK
  5
91A
330
44
100
AcDbEntity
  8
KCAD_DIMS
100
AcDbBlockBegin
  2
KCAD_NONE
 70
     0
 71
     0
 10
0.0
 20
0.0
 30
0.0
  3
KCAD_NONE
  1

  0
LINE
  5
45
330
44
100
AcDbEntity
  8
0
  6
Continuous
 62
     0
370
    -2
100
AcDbLine
 10
0.0
 20
0.0
 30
0.0
 11
-1.0
 21
0.0
 31
0.0
  0
ENDBLK
  5
91B
330
44
100
AcDbEntity
  8
0
100
AcDbBlockEnd
  0
BLOCK
  5
91C
330
FC
100
AcDbEntity
  8
0
100
AcDbBlockBegin
  2
_CLOSED
 70
     0
 71
     0
 10
0.0
 20
0.0
 30
0.0
  3
_CLOSED
  1

  0
LINE
  5
FE
330
FC
100
AcDbEntity
  8
0
  6
Continuous
 62
     0
370
    -2
100
AcDbLine
 10
-1.0
 20
0.166667
 30
0.0
 11
0.0
 21
0.0
 31
0.0
  0
LINE
  5
FF
330
FC
100
AcDbEntity
  8
0
  6
Continuous
 62
     0
370
    -2
100
AcDbLine
 10
0.0
 20
0.0
 30
0.0
 11
-1.0
 21
-0.166667
 31
0.0
  0
LINE
  5
100
330
FC
100
AcDbEntity
  8
0
  6
Continuous
 62
     0
370
    -2
100
AcDbLine
 10
-1.0
 20
0.166667
 30
0.0
 11
-1.0
 21
-0.166667
 31
0.0
  0
LINE
  5
101
330
FC
100
AcDbEntity
  8
0
  6
Continuous
 62
     0
370
    -2
100
AcDbLine
 10
0.0
 20
0.0
 30
0.0
 11
-1.0
 21
0.0
 31
0.0
  0
ENDBLK
  5
91D
330
FC
100
AcDbEntity
  8
0
100
AcDbBlockEnd
  0
BLOCK
  5
91E
330
103
100
AcDbEntity
  8
0
100
AcDbBlockBegin
  2
_DOT
 70
     0
 71
     0
 10
0.0
 20
0.0
 30
0.0
  3
_DOT
  1

  0
LWPOLYLINE
  5
105
330
103
100
AcDbEntity
  8
0
  6
ByBlock
 62
     0
100
AcDbPolyline
 90
        2
 70
     1
 43
0.5
 10
-0.25
 20
0.0
 42
1.0
 10
0.25
 20
0.0
 42
1.0
  0
LINE
  5
109
330
103
100
AcDbEntity
  8
0
  6
Continuous
 62
     0
370
    -2
100
AcDbLine
 10
-0.5
 20
0.0
 30
0.0
 11
-1.0
 21
0.0
 31
0.0
  0
ENDBLK
  5
91F
330
103
100
AcDbEntity
  8
0
100
AcDbBlockEnd
  0
BLOCK
  5
920
330
10B
100
AcDbEntity
  8
0
100
AcDbBlockBegin
  2
_CLOSEDBLANK
 70
     0
 71
     0
 10
0.0
 20
0.0
 30
0.0
  3
_CLOSEDBLANK
  1

  0
LINE
  5
10D
330
10B
100
AcDbEntity
  8
0
  6
Continuous
 62
     0
370
    -2
100
AcDbLine
 10
-1.0
 20
0.166667
 30
0.0
 11
0.0
 21
0.0
 31
0.0
  0
LINE
  5
10E
330
10B
100
AcDbEntity
  8
0
  6
Continuous
 62
     0
370
    -2
100
AcDbLine
 10
0.0
 20
0.0
 30
0.0
 11
-1.0
 21
-0.166667
 31
0.0
  0
LINE
  5
10F
330
10B
100
AcDbEntity
  8
0
  6
Continuous
 62
     0
370
    -2
100
AcDbLine
 10
-1.0
 20
0.166667
 30
0.0
 11
-1.0
 21
-0.166667
 31
0.0
  0
ENDBLK
  5
921
330
10B
100
AcDbEntity
  8
0
100
AcDbBlockEnd
  0
BLOCK
  5
922
330
111
100
AcDbEntity
  8
0
100
AcDbBlockBegin
  2
_OBLIQUE
 70
     0
 71
     0
 10
0.0
 20
0.0
 30
0.0
  3
_OBLIQUE
  1

  0
LINE
  5
113
330
111
100
AcDbEntity
  8
0
  6
Continuous
 62
     0
370
    -2
100
AcDbLine
 10
-0.5
 20
-0.5
 30
0.0
 11
0.5
 21
0.5
 31
0.0
  0
ENDBLK
  5
923
330
111
100
AcDbEntity
  8
0
100
AcDbBlockEnd
  0
BLOCK
  5
924
330
115
100
AcDbEntity
  8
0
100
AcDbBlockBegin
  2
_ARCHTICK
 70
     0
 71
     0
 10
0.0
 20
0.0
 30
0.0
  3
_ARCHTICK
  1

  0
LWPOLYLINE
  5
117
330
115
100
AcDbEntity
  8
0
  6
ByBlock
 62
     0
100
AcDbPolyline
 90
        2
 70
     0
 43
0.15
 10
-0.5
 20
-0.5
 10
0.5
 20
0.5
  0
ENDBLK
  5
925
330
115
100
AcDbEntity
  8
0
100
AcDbBlockEnd
  0
BLOCK
  5
926
330
11C
100
AcDbEntity
  8
0
100
AcDbBlockBegin
  2
_OPEN
 70
     0
 71
     0
 10
0.0
 20
0.0
 30
0.0
  3
_OPEN
  1

  0
LINE
  5
11E
330
11C
100
AcDbEntity
  8
0
  6
Continuous
 62
     0
370
    -2
100
AcDbLine
 10
-1.0
 20
0.166667
 30
0.0
 11
0.0
 21
0.0
 31
0.0
  0
LINE
  5
11F
330
11C
100
AcDbEntity
  8
0
  6
Continuous
 62
     0
370
    -2
100
AcDbLine
 10
0.0
 20
0.0
 30
0.0
 11
-1.0
 21
-0.166667
 31
0.0
  0
LINE
  5
120
330
11C
100
AcDbEntity
  8
0
  6
Continuous
 62
     0
370
    -2
100
AcDbLine
 10
0.0
 20
0.0
 30
0.0
 11
-1.0
 21
0.0
 31
0.0
  0
ENDBLK
  5
927
330
11C
100
AcDbEntity
  8
0
100
AcDbBlockEnd
  0
BLOCK
  5
928
330
122
100
AcDbEntity
  8
0
100
AcDbBlockBegin
  2
_ORIGIN
 70
     0
 71
     0
 10
0.0
 20
0.0
 30
0.0
  3
_ORIGIN
  1

  0
CIRCLE
  5
124
330
122
100
AcDbEntity
  8
0
  6
ByBlock
 62
     0
100
AcDbCircle
 10
0.0
 20
0.0
 30
0.0
 40
0.5
  0
LINE
  5
125
330
122
100
AcDbEntity
  8
0
  6
Continuous
 62
     0
370
    -2
100
AcDbLine
 10
0.0
 20
0.0
 30
0.0
 11
-1.0
 21
0.0
 31
0.0
  0
ENDBLK
  5
929
330
122
100
AcDbEntity
  8
0
100
AcDbBlockEnd
  0
BLOCK
  5
92A
330
127
100
AcDbEntity
  8
0
100
AcDbBlockBegin
  2
_OPEN90
 70
     0
 71
     0
 10
0.0
 20
0.0
 30
0.0
  3
_OPEN90
  1

  0
LINE
  5
129
330
127
100
AcDbEntity
  8
0
  6
Continuous
 62
     0
370
    -2
100
AcDbLine
 10
-0.5
 20
0.5
 30
0.0
 11
0.0
 21
0.0
 31
0.0
  0
LINE
  5
12A
330
127
100
AcDbEntity
  8
0
  6
Continuous
 62
     0
370
    -2
100
AcDbLine
 10
0.0
 20
0.0
 30
0.0
 11
-0.5
 21
-0.5
 31
0.0
  0
LINE
  5
12B
330
127
100
AcDbEntity
  8
0
  6
Continuous
 62
     0
370
    -2
100
AcDbLine
 10
0.0
 20
0.0
 30
0.0
 11
-1.0
 21
0.0
 31
0.0
  0
ENDBLK
  5
92B
330
127
100
AcDbEntity
  8
0
100
AcDbBlockEnd
  0
BLOCK
  5
92C
330
12D
100
AcDbEntity
  8
0
100
AcDbBlockBegin
  2
_OPEN30
 70
     0
 71
     0
 10
0.0
 20
0.0
 30
0.0
  3
_OPEN30
  1

  0
LINE
  5
12F
330
12D
100
AcDbEntity
  8
0
  6
Continuous
 62
     0
370
    -2
100
AcDbLine
 10
-1.0
 20
0.267949
 30
0.0
 11
0.0
 21
0.0
 31
0.0
  0
LINE
  5
130
330
12D
100
AcDbEntity
  8
0
  6
Continuous
 62
     0
370
    -2
100
AcDbLine
 10
0.0
 20
0.0
 30
0.0
 11
-1.0
 21
-0.267949
 31
0.0
  0
LINE
  5
131
330
12D
100
AcDbEntity
  8
0
  6
Continuous
 62
     0
370
    -2
100
AcDbLine
 10
0.0
 20
0.0
 30
0.0
 11
-1.0
 21
0.0
 31
0.0
  0
ENDBLK
  5
92D
330
12D
100
AcDbEntity
  8
0
100
AcDbBlockEnd
  0
BLOCK
  5
92E
330
133
100
AcDbEntity
  8
0
100
AcDbBlockBegin
  2
_DOTBLANK
 70
     0
 71
     0
 10
0.0
 20
0.0
 30
0.0
  3
_DOTBLANK
  1

  0
CIRCLE
  5
135
330
133
100
AcDbEntity
  8
0
  6
ByBlock
 62
     0
100
AcDbCircle
 10
0.0
 20
0.0
 30
0.0
 40
0.5
  0
LINE
  5
136
330
133
100
AcDbEntity
  8
0
  6
Continuous
 62
     0
370
    -2
100
AcDbLine
 10
-0.5
 20
0.0
 30
0.0
 11
-1.0
 21
0.0
 31
0.0
  0
ENDBLK
  5
92F
330
133
100
AcDbEntity
  8
0
100
AcDbBlockEnd
  0
BLOCK
  5
930
330
138
100
AcDbEntity
  8
0
100
AcDbBlockBegin
  2
_DOTSMALL
 70
     0
 71
     0
 10
0.0
 20
0.0
 30
0.0
  3
_DOTSMALL
  1

  0
LWPOLYLINE
  5
13A
330
138
100
AcDbEntity
  8
0
  6
ByBlock
 62
     0
100
AcDbPolyline
 90
        2
 70
     1
 43
0.5
 10
-0.0625
 20
0.0
 42
1.0
 10
0.0625
 20
0.0
 42
1.0
  0
ENDBLK
  5
931
330
138
100
AcDbEntity
  8
0
100
AcDbBlockEnd
  0
BLOCK
  5
932
330
13F
100
AcDbEntity
  8
0
100
AcDbBlockBegin
  2
_BOXFILLED
 70
     0
 71
     0
 10
0.0
 20
0.0
 30
0.0
  3
_BOXFILLED
  1

  0
SOLID
  5
141
330
13F
100
AcDbEntity
  8
0
  6
ByBlock
 62
     0
100
AcDbTrace
 10
-0.5
 20
0.5
 30
0.0
 11
0.5
 21
0.5
 31
0.0
 12
-0.5
 22
-0.5
 32
0.0
 13
0.5
 23
-0.5
 33
0.0
  0
LINE
  5
142
330
13F
100
AcDbEntity
  8
0
  6
Continuous
 62
     0
370
    -2
100
AcDbLine
 10
-0.5
 20
0.0
 30
0.0
 11
-1.0
 21
0.0
 31
0.0
  0
ENDBLK
  5
933
330
13F
100
AcDbEntity
  8
0
100
AcDbBlockEnd
  0
BLOCK
  5
934
330
144
100
AcDbEntity
  8
0
100
AcDbBlockBegin
  2
_BOXBLANK
 70
     0
 71
     0
 10
0.0
 20
0.0
 30
0.0
  3
_BOXBLANK
  1

  0
LINE
  5
146
330
144
100
AcDbEntity
  8
0
  6
Continuous
 62
     0
370
    -2
100
AcDbLine
 10
-0.5
 20
-0.5
 30
0.0
 11
0.5
 21
-0.5
 31
0.0
  0
LINE
  5
147
330
144
100
AcDbEntity
  8
0
  6
Continuous
 62
     0
370
    -2
100
AcDbLine
 10
0.5
 20
-0.5
 30
0.0
 11
0.5
 21
0.5
 31
0.0
  0
LINE
  5
148
330
144
100
AcDbEntity
  8
0
  6
Continuous
 62
     0
370
    -2
100
AcDbLine
 10
0.5
 20
0.5
 30
0.0
 11
-0.5
 21
0.5
 31
0.0
  0
LINE
  5
149
330
144
100
AcDbEntity
  8
0
  6
Continuous
 62
     0
370
    -2
100
AcDbLine
 10
-0.5
 20
0.5
 30
0.0
 11
-0.5
 21
-0.5
 31
0.0
  0
LINE
  5
14A
330
144
100
AcDbEntity
  8
0
  6
Continuous
 62
     0
370
    -2
100
AcDbLine
 10
-0.5
 20
0.0
 30
0.0
 11
-1.0
 21
0.0
 31
0.0
  0
ENDBLK
  5
935
330
144
100
AcDbEntity
  8
0
100
AcDbBlockEnd
  0
BLOCK
  5
936
330
14C
100
AcDbEntity
  8
0
100
AcDbBlockBegin
  2
_DATUMFILLED
 70
     0
 71
     0
 10
0.0
 20
0.0
 30
0.0
  3
_DATUMFILLED
  1

  0
SOLID
  5
14E
330
14C
100
AcDbEntity
  8
0
  6
ByBlock
 62
     0
100
AcDbTrace
 10
0.0
 20
0.5773500000000001
 30
0.0
 11
-1.0
 21
0.0
 31
0.0
 12
0.0
 22
-0.5773500000000001
 32
0.0
 13
0.0
 23
-0.5773500000000001
 33
0.0
  0
ENDBLK
  5
937
330
14C
100
AcDbEntity
  8
0
100
AcDbBlockEnd
  0
BLOCK
  5
938
330
150
100
AcDbEntity
  8
0
100
AcDbBlockBegin
  2
_DATUMBLANK
 70
     0
 71
     0
 10
0.0
 20
0.0
 30
0.0
  3
_DATUMBLANK
  1

  0
LINE
  5
152
330
150
100
AcDbEntity
  8
0
  6
Continuous
 62
     0
370
    -2
100
AcDbLine
 10
0.0
 20
0.5773500000000001
 30
0.0
 11
-1.0
 21
0.0
 31
0.0
  0
LINE
  5
153
330
150
100
AcDbEntity
  8
0
  6
Continuous
 62
     0
370
    -2
100
AcDbLine
 10
-1.0
 20
0.0
 30
0.0
 11
0.0
 21
-0.5773500000000001
 31
0.0
  0
LINE
  5
154
330
150
100
AcDbEntity
  8
0
  6
Continuous
 62
     0
370
    -2
100
AcDbLine
 10
0.0
 20
-0.5773500000000001
 30
0.0
 11
0.0
 21
0.5773500000000001
 31
0.0
  0
ENDBLK
  5
939
330
150
100
AcDbEntity
  8
0
100
AcDbBlockEnd
  0
BLOCK
  5
93A
330
156
100
AcDbEntity
  8
0
100
AcDbBlockBegin
  2
_INTEGRAL
 70
     0
 71
     0
 10
0.0
 20
0.0
 30
0.0
  3
_INTEGRAL
  1

  0
ARC
  5
158
330
156
100
AcDbEntity
  8
0
  6
ByBlock
 62
     0
100
AcDbCircle
 10
0.444888
 20
-0.091335
 30
0.0
 40
0.454167
100
AcDbArc
 50
102.0
 51
168.0
  0
ARC
  5
159
330
156
100
AcDbEntity
  8
0
  6
ByBlock
 62
     0
100
AcDbCircle
 10
-0.444888
 20
0.091335
 30
0.0
 40
0.454167
100
AcDbArc
 50
282.0
 51
348.0
  0
ENDBLK
  5
93B
330
156
100
AcDbEntity
  8
0
100
AcDbBlockEnd
  0
BLOCK
  5
93C
330
1F1
100
AcDbEntity
  8
0
100
AcDbBlockBegin
  2
_Origin2
 70
     0
 71
     0
 10
0.0
 20
0.0
 30
0.0
  3
_Origin2
  1

  0
CIRCLE
  5
1F2
330
1F1
100
AcDbEntity
  8
0
  6
Continuous
 62
     0
370
    -2
100
AcDbCircle
 10
0.0
 20
0.0
 30
0.0
 40
0.5
  0
CIRCLE
  5
1F3
330
1F1
100
AcDbEntity
  8
0
  6
Continuous
 62
     0
370
    -2
100
AcDbCircle
 10
0.0
 20
0.0
 30
0.0
 40
0.25
  0
LINE
  5
1F4
330
1F1
100
AcDbEntity
  8
0
  6
Continuous
 62
     0
370
    -2
100
AcDbLine
 10
-0.5
 20
0.0
 30
0.0
 11
-1.0
 21
0.0
 31
0.0
  0
ENDBLK
  5
93D
330
1F1
100
AcDbEntity
  8
0
100
AcDbBlockEnd
  0
BLOCK
  5
93E
330
1F7
100
AcDbEntity
  8
0
100
AcDbBlockBegin
  2
KCAD_OPEN30
 70
     0
 71
     0
 10
0.0
 20
0.0
 30
0.0
  3
KCAD_OPEN30
  1

  0
LINE
  5
1F8
330
1F7
100
AcDbEntity
  8
0
  6
Continuous
 62
     0
370
    -2
100
AcDbLine
 10
0.0
 20
0.0
 30
0.0
 11
-1.0
 21
0.0
 31
0.0
  0
LINE
  5
1F9
330
1F7
100
AcDbEntity
  8
0
  6
Continuous
 62
     0
370
    -2
100
AcDbLine
 10
0.0
 20
0.0
 30
0.0
 11
-1.0
 21
0.2679491924311227
 31
0.0
  0
LINE
  5
1FA
330
1F7
100
AcDbEntity
  8
0
  6
Continuous
 62
     0
370
    -2
100
AcDbLine
 10
0.0
 20
0.0
 30
0.0
 11
-1.0
 21
-0.2679491924311227
 31
0.0
  0
ENDBLK
  5
93F
330
1F7
100
AcDbEntity
  8
0
100
AcDbBlockEnd
  0
BLOCK
  5
940
330
222
100
AcDbEntity
  8
0
100
AcDbBlockBegin
  2
_None
 70
     0
 71
     0
 10
0.0
 20
0.0
 30
0.0
  3
_None
  1

  0
ENDBLK
  5
941
330
222
100
AcDbEntity
  8
0
100
AcDbBlockEnd
  0
BLOCK
  5
942
330
283
100
AcDbEntity
  8
0
100
AcDbBlockBegin
  2
_Small
 70
     0
 71
     0
 10
0.0
 20
0.0
 30
0.0
  3
_Small
  1

  0
CIRCLE
  5
284
330
283
100
AcDbEntity
  8
0
  6
ByBlock
 62
     0
370
    -2
100
AcDbCircle
 10
0.0
 20
0.0
 30
0.0
 40
0.25
  0
ENDBLK
  5
943
330
283
100
AcDbEntity
  8
0
100
AcDbBlockEnd
  0
BLOCK
  5
944
330
287
100
AcDbEntity
  8
0
100
AcDbBlockBegin
  2
KCAD_OPEN_2
 70
     0
 71
     0
 10
0.0
 20
0.0
 30
0.0
  3
KCAD_OPEN_2
  1

  0
LINE
  5
288
330
287
100
AcDbEntity
  8
0
  6
Continuous
 62
     0
370
    -2
100
AcDbLine
 10
0.0
 20
0.0
 30
0.0
 11
-2.0
 21
0.0
 31
0.0
  0
LINE
  5
289
330
287
100
AcDbEntity
  8
0
  6
Continuous
 62
     0
370
    -2
100
AcDbLine
 10
0.0
 20
0.0
 30
0.0
 11
-2.0
 21
0.3167688806490725
 31
0.0
  0
LINE
  5
28A
330
287
100
AcDbEntity
  8
0
  6
Continuous
 62
     0
370
    -2
100
AcDbLine
 10
0.0
 20
0.0
 30
0.0
 11
-2.0
 21
-0.3167688806490725
 31
0.0
  0
LINE
  5
28B
330
287
100
AcDbEntity
  8
0
  6
Continuous
 62
     0
370
    -2
100
AcDbLine
 10
-2.0
 20
0.0
 30
0.0
 11
-4.0
 21
0.0
 31
0.0
  0
ENDBLK
  5
945
330
287
100
AcDbEntity
  8
0
100
AcDbBlockEnd
  0
BLOCK
  5
946
330
28E
100
AcDbEntity
  8
0
100
AcDbBlockBegin
  2
KCAD_OPEN30_2
 70
     0
 71
     0
 10
0.0
 20
0.0
 30
0.0
  3
KCAD_OPEN30_2
  1

  0
LINE
  5
28F
330
28E
100
AcDbEntity
  8
0
  6
Continuous
 62
     0
370
    -2
100
AcDbLine
 10
0.0
 20
0.0
 30
0.0
 11
-2.0
 21
0.0
 31
0.0
  0
LINE
  5
290
330
28E
100
AcDbEntity
  8
0
  6
Continuous
 62
     0
370
    -2
100
AcDbLine
 10
0.0
 20
0.0
 30
0.0
 11
-2.0
 21
0.5358983848622455
 31
0.0
  0
LINE
  5
291
330
28E
100
AcDbEntity
  8
0
  6
Continuous
 62
     0
370
    -2
100
AcDbLine
 10
0.0
 20
0.0
 30
0.0
 11
-2.0
 21
-0.5358983848622455
 31
0.0
  0
LINE
  5
292
330
28E
100
AcDbEntity
  8
0
  6
Continuous
 62
     0
370
    -2
100
AcDbLine
 10
-2.0
 20
0.0
 30
0.0
 11
-4.0
 21
0.0
 31
0.0
  0
ENDBLK
  5
947
330
28E
100
AcDbEntity
  8
0
100
AcDbBlockEnd
  0
BLOCK
  5
948
330
2AD
100
AcDbEntity
  8
0
100
AcDbBlockBegin
  2
KCAD_OPEN30ANG
 70
     0
 71
     0
 10
0.0
 20
0.0
 30
0.0
  3
KCAD_OPEN30ANG
  1

  0
LINE
  5
2D7
330
2AD
100
AcDbEntity
  8
0
  6
Continuous
 62
     0
370
    -2
100
AcDbLine
 10
0.0
 20
0.0
 30
0.0
 11
-1.0
 21
-0.267949
 31
0.0
  0
LINE
  5
2D8
330
2AD
100
AcDbEntity
  8
0
  6
Continuous
 62
     0
370
    -2
100
AcDbLine
 10
-1.0
 20
0.267949
 30
0.0
 11
0.0
 21
0.0
 31
0.0
  0
ENDBLK
  5
949
330
2AD
100
AcDbEntity
  8
0
100
AcDbBlockEnd
  0
BLOCK
  5
94A
330
2B6
100
AcDbEntity
  8
0
100
AcDbBlockBegin
  2
KCAD_DOTANG
 70
     0
 71
     0
 10
0.0
 20
0.0
 30
0.0
  3
KCAD_DOTANG
  1

  0
LWPOLYLINE
  5
2DD
330
2B6
100
AcDbEntity
  8
0
  6
ByBlock
 62
     0
100
AcDbPolyline
 90
        2
 70
     1
 43
0.5
 10
-0.25
 20
0.0
 42
1.0
 10
0.25
 20
0.0
 42
1.0
  0
ENDBLK
  5
94B
330
2B6
100
AcDbEntity
  8
0
100
AcDbBlockEnd
  0
BLOCK
  5
94C
330
41D
100
AcDbEntity
  8
0
100
AcDbBlockBegin
  2
*D27
 70
     1
 71
     0
 10
0.0
 20
0.0
 30
0.0
  3
*D27
  1

  0
LINE
  5
459
330
41D
100
AcDbEntity
  8
KCAD_DIMS
 62
     0
370
    -2
100
AcDbLine
 10
287.4999999999999
 20
181.1565908908948
 30
0.0
 11
287.4999999999999
 21
136.4999999999999
 31
0.0
  0
LINE
  5
45A
330
41D
100
AcDbEntity
  8
KCAD_DIMS
 62
     0
370
    -2
100
AcDbLine
 10
291.4999999999998
 20
181.1565908908948
 30
0.0
 11
291.4999999999998
 21
149.4999999999999
 31
0.0
  0
LINE
  5
45B
330
41D
100
AcDbEntity
  8
KCAD_DIMS
 62
     0
370
    -2
100
AcDbLine
 10
289.4999999999998
 20
180.1565908908948
 30
0.0
 11
294.8629115710255
 21
180.1689380216568
 31
0.0
  0
LINE
  5
45C
330
41D
100
AcDbEntity
  8
KCAD_DIMS
 62
     0
370
    -2
100
AcDbLine
 10
294.8629115710255
 20
180.1689380216568
 30
0.0
 11
297.2128663046281
 21
180.1689380216568
 31
0.0
  0
INSERT
  5
45D
330
41D
100
AcDbEntity
  8
KCAD_DIMS
 62
     0
370
    -2
100
AcDbBlockReference
  2
_OPEN30
 10
287.4999999999999
 20
180.1565908908948
 30
0.0
 41
3.0
 42
3.0
 43
3.0
  0
INSERT
  5
45E
330
41D
100
AcDbEntity
  8
KCAD_DIMS
 62
     0
370
    -2
100
AcDbBlockReference
  2
_OPEN30
 10
291.4999999999998
 20
180.1565908908948
 30
0.0
 41
3.0
 42
3.0
 43
3.0
 50
180.0
  0
LINE
  5
45F
330
41D
100
AcDbEntity
  8
KCAD_DIMS
 62
     0
370
    -2
100
AcDbLine
 10
287.4999999999999
 20
180.1565908908948
 30
0.0
 11
291.4999999999998
 21
180.1565908908948
 31
0.0
  0
LINE
  5
460
330
41D
100
AcDbEntity
  8
KCAD_DIMS
 62
     0
370
    -2
100
AcDbLine
 10
284.4999999999998
 20
180.1565908908948
 30
0.0
 11
282.4999999999998
 21
180.1565908908948
 31
0.0
  0
LINE
  5
461
330
41D
100
AcDbEntity
  8
KCAD_DIMS
 62
     0
370
    -2
100
AcDbLine
 10
294.4999999999998
 20
180.1565908908948
 30
0.0
 11
296.4999999999998
 21
180.1565908908948
 31
0.0
  0
POINT
  5
462
330
41D
100
AcDbEntity
  8
DEFPOINTS
 62
     0
370
    15
100
AcDbPoint
 10
287.4999999999999
 20
135.4999999999999
 30
0.0
  0
POINT
  5
463
330
41D
100
AcDbEntity
  8
DEFPOINTS
 62
     0
370
    15
100
AcDbPoint
 10
291.4999999999998
 20
148.4999999999999
 30
0.0
  0
POINT
  5
464
330
41D
100
AcDbEntity
  8
DEFPOINTS
 62
     0
370
    15
100
AcDbPoint
 10
291.4999999999998
 20
180.1565908908948
 30
0.0
  0
MTEXT
  5
465
330
41D
100
AcDbEntity
  8
KCAD_DIMS
 62
     0
100
AcDbMText
 10
296.0378889378268
 20
182.3022710216568
 30
0.0
 40
3.2
 41
0.0
 71
     5
 72
     1
  1
\A1;4
  7
KCADDIMSTANDARD
 73
     1
 44
1.0
  0
ENDBLK
  5
94D
330
41D
100
AcDbEntity
  8
0
100
AcDbBlockEnd
  0
BLOCK
  5
94E
330
467
100
AcDbEntity
  8
0
100
AcDbBlockBegin
  2
*D28
 70
     1
 71
     0
 10
0.0
 20
0.0
 30
0.0
  3
*D28
  1

  0
LINE
  5
499
330
467
100
AcDbEntity
  8
KCAD_DIMS
 62
     0
370
    -2
100
AcDbLine
 10
287.4999999999998
 20
195.2208622725724
 30
0.0
 11
287.4999999999998
 21
149.4999999999999
 31
0.0
  0
LINE
  5
49A
330
467
100
AcDbEntity
  8
KCAD_DIMS
 62
     0
370
    -2
100
AcDbLine
 10
140.9999999999999
 20
195.2208622725724
 30
0.0
 11
140.9999999999999
 21
149.4999999999994
 31
0.0
  0
INSERT
  5
49B
330
467
100
AcDbEntity
  8
KCAD_DIMS
 62
     0
370
    -2
100
AcDbBlockReference
  2
_OPEN30
 10
287.4999999999998
 20
194.2208622725724
 30
0.0
 41
3.0
 42
3.0
 43
3.0
  0
INSERT
  5
49C
330
467
100
AcDbEntity
  8
KCAD_DIMS
 62
     0
370
    -2
100
AcDbBlockReference
  2
_OPEN30
 10
140.9999999999999
 20
194.2208622725724
 30
0.0
 41
3.0
 42
3.0
 43
3.0
 50
180.0
  0
LINE
  5
49D
330
467
100
AcDbEntity
  8
KCAD_DIMS
 62
     0
370
    -2
100
AcDbLine
 10
284.4999999999998
 20
194.2208622725724
 30
0.0
 11
143.9999999999999
 21
194.2208622725724
 31
0.0
  0
POINT
  5
49E
330
467
100
AcDbEntity
  8
DEFPOINTS
 62
     0
370
    15
100
AcDbPoint
 10
287.4999999999998
 20
148.4999999999999
 30
0.0
  0
POINT
  5
49F
330
467
100
AcDbEntity
  8
DEFPOINTS
 62
     0
370
    15
100
AcDbPoint
 10
140.9999999999999
 20
148.4999999999994
 30
0.0
  0
POINT
  5
4A0
330
467
100
AcDbEntity
  8
DEFPOINTS
 62
     0
370
    15
100
AcDbPoint
 10
140.9999999999999
 20
194.2208622725724
 30
0.0
  0
MTEXT
  5
4A1
330
467
100
AcDbEntity
  8
KCAD_DIMS
 62
     0
100
AcDbMText
 10
214.2499999999998
 20
196.3541952725724
 30
0.0
 40
3.2
 41
0.0
 71
     5
 72
     1
  1
\A1;146.5
  7
KCADDIMSTANDARD
 73
     1
 44
1.0
  0
ENDBLK
  5
94F
330
467
100
AcDbEntity
  8
0
100
AcDbBlockEnd
  0
BLOCK
  5
950
330
4A3
100
AcDbEntity
  8
0
100
AcDbBlockBegin
  2
*D29
 70
     1
 71
     0
 10
0.0
 20
0.0
 30
0.0
  3
*D29
  1

  0
LINE
  5
4D5
330
4A3
100
AcDbEntity
  8
KCAD_DIMS
 62
     0
370
    -2
100
AcDbLine
 10
305.0259999999998
 20
214.6662234042551
 30
0.0
 11
305.0259999999998
 21
149.4999999999999
 31
0.0
  0
LINE
  5
4D6
330
4A3
100
AcDbEntity
  8
KCAD_DIMS
 62
     0
370
    -2
100
AcDbLine
 10
70.79999999999927
 20
214.6662234042551
 30
0.0
 11
70.79999999999927
 21
149.4999999999994
 31
0.0
  0
INSERT
  5
4D7
330
4A3
100
AcDbEntity
  8
KCAD_DIMS
 62
     0
370
    -2
100
AcDbBlockReference
  2
_OPEN30
 10
305.0259999999998
 20
213.6662234042551
 30
0.0
 41
3.0
 42
3.0
 43
3.0
  0
INSERT
  5
4D8
330
4A3
100
AcDbEntity
  8
KCAD_DIMS
 62
     0
370
    -2
100
AcDbBlockReference
  2
_OPEN30
 10
70.79999999999927
 20
213.6662234042551
 30
0.0
 41
3.0
 42
3.0
 43
3.0
 50
180.0
  0
LINE
  5
4D9
330
4A3
100
AcDbEntity
  8
KCAD_DIMS
 62
     0
370
    -2
100
AcDbLine
 10
302.0259999999998
 20
213.6662234042551
 30
0.0
 11
73.79999999999927
 21
213.6662234042551
 31
0.0
  0
POINT
  5
4DA
330
4A3
100
AcDbEntity
  8
DEFPOINTS
 62
     0
370
    15
100
AcDbPoint
 10
305.0259999999998
 20
148.4999999999999
 30
0.0
  0
POINT
  5
4DB
330
4A3
100
AcDbEntity
  8
DEFPOINTS
 62
     0
370
    15
100
AcDbPoint
 10
70.79999999999927
 20
148.4999999999994
 30
0.0
  0
POINT
  5
4DC
330
4A3
100
AcDbEntity
  8
DEFPOINTS
 62
     0
370
    15
100
AcDbPoint
 10
70.79999999999927
 20
213.6662234042551
 30
0.0
  0
MTEXT
  5
4DD
330
4A3
100
AcDbEntity
  8
KCAD_DIMS
 62
     0
100
AcDbMText
 10
187.9129999999995
 20
215.7995564042551
 30
0.0
 40
3.2
 41
0.0
 71
     5
 72
     1
  1
\A1;234.23
  7
KCADDIMSTANDARD
 73
     1
 44
1.0
  0
ENDBLK
  5
951
330
4A3
100
AcDbEntity
  8
0
100
AcDbBlockEnd
  0
BLOCK
  5
952
330
4DF
100
AcDbEntity
  8
0
100
AcDbBlockBegin
  2
*D30
 70
     1
 71
     0
 10
0.0
 20
0.0
 30
0.0
  3
*D30
  1

  0
LINE
  5
511
330
4DF
100
AcDbEntity
  8
KCAD_DIMS
 62
     0
370
    -2
100
AcDbLine
 10
70.80000000000061
 20
181.1565908908948
 30
0.0
 11
70.80000000000061
 21
149.4999999999994
 31
0.0
  0
LINE
  5
512
330
4DF
100
AcDbEntity
  8
KCAD_DIMS
 62
     0
370
    -2
100
AcDbLine
 10
140.9999999999999
 20
181.1565908908948
 30
0.0
 11
140.9999999999999
 21
149.4999999999996
 31
0.0
  0
INSERT
  5
513
330
4DF
100
AcDbEntity
  8
KCAD_DIMS
 62
     0
370
    -2
100
AcDbBlockReference
  2
_OPEN30
 10
70.80000000000061
 20
180.1565908908948
 30
0.0
 41
3.0
 42
3.0
 43
3.0
 50
180.0
  0
INSERT
  5
514
330
4DF
100
AcDbEntity
  8
KCAD_DIMS
 62
     0
370
    -2
100
AcDbBlockReference
  2
_OPEN30
 10
140.9999999999999
 20
180.1565908908948
 30
0.0
 41
3.0
 42
3.0
 43
3.0
  0
LINE
  5
515
330
4DF
100
AcDbEntity
  8
KCAD_DIMS
 62
     0
370
    -2
100
AcDbLine
 10
73.80000000000061
 20
180.1565908908948
 30
0.0
 11
137.9999999999999
 21
180.1565908908948
 31
0.0
  0
POINT
  5
516
330
4DF
100
AcDbEntity
  8
DEFPOINTS
 62
     0
370
    15
100
AcDbPoint
 10
70.80000000000061
 20
148.4999999999994
 30
0.0
  0
POINT
  5
517
330
4DF
100
AcDbEntity
  8
DEFPOINTS
 62
     0
370
    15
100
AcDbPoint
 10
140.9999999999999
 20
148.4999999999996
 30
0.0
  0
POINT
  5
518
330
4DF
100
AcDbEntity
  8
DEFPOINTS
 62
     0
370
    15
100
AcDbPoint
 10
140.9999999999999
 20
180.1565908908948
 30
0.0
  0
MTEXT
  5
519
330
4DF
100
AcDbEntity
  8
KCAD_DIMS
 62
     0
100
AcDbMText
 10
105.9000000000002
 20
182.2899238908948
 30
0.0
 40
3.2
 41
0.0
 71
     5
 72
     1
  1
\A1;WD=70.2
  7
KCADDIMSTANDARD
 73
     1
 44
1.0
  0
ENDBLK
  5
953
330
4DF
100
AcDbEntity
  8
0
100
AcDbBlockEnd
  0
BLOCK
  5
954
330
51B
100
AcDbEntity
  8
0
100
AcDbBlockBegin
  2
*D31
 70
     1
 71
     0
 10
0.0
 20
0.0
 30
0.0
  3
*D31
  1

  0
LINE
  5
54D
330
51B
100
AcDbEntity
  8
KCAD_DIMS
 62
     0
370
    -2
100
AcDbLine
 10
120.195202257761
 20
158.5
 30
0.0
 11
155.9999999999999
 21
158.5000000000001
 31
0.0
  0
LINE
  5
54E
330
51B
100
AcDbEntity
  8
KCAD_DIMS
 62
     0
370
    -2
100
AcDbLine
 10
120.195202257761
 20
138.4999999999995
 30
0.0
 11
140.2999999999999
 21
138.4999999999996
 31
0.0
  0
INSERT
  5
54F
330
51B
100
AcDbEntity
  8
KCAD_DIMS
 62
     0
370
    -2
100
AcDbBlockReference
  2
_OPEN30
 10
121.195202257761
 20
158.5
 30
0.0
 41
3.0
 42
3.0
 43
3.0
 50
90.00000000000007
  0
INSERT
  5
550
330
51B
100
AcDbEntity
  8
KCAD_DIMS
 62
     0
370
    -2
100
AcDbBlockReference
  2
_OPEN30
 10
121.195202257761
 20
138.4999999999995
 30
0.0
 41
3.0
 42
3.0
 43
3.0
 50
270.0000000000001
  0
LINE
  5
551
330
51B
100
AcDbEntity
  8
KCAD_DIMS
 62
     0
370
    -2
100
AcDbLine
 10
121.195202257761
 20
155.5
 30
0.0
 11
121.195202257761
 21
141.4999999999995
 31
0.0
  0
POINT
  5
552
330
51B
100
AcDbEntity
  8
DEFPOINTS
 62
     0
370
    15
100
AcDbPoint
 10
156.9999999999999
 20
158.5000000000001
 30
0.0
  0
POINT
  5
553
330
51B
100
AcDbEntity
  8
DEFPOINTS
 62
     0
370
    15
100
AcDbPoint
 10
141.2999999999999
 20
138.4999999999996
 30
0.0
  0
POINT
  5
554
330
51B
100
AcDbEntity
  8
DEFPOINTS
 62
     0
370
    15
100
AcDbPoint
 10
121.195202257761
 20
138.4999999999996
 30
0.0
  0
MTEXT
  5
555
330
51B
100
AcDbEntity
  8
KCAD_DIMS
 62
     0
100
AcDbMText
 10
119.061869257761
 20
148.4999999999997
 30
0.0
 40
3.2
 41
0.0
 71
     5
 72
     1
  1
\A1;%%c20
  7
KCADDIMSTANDARD
 11
1.000000000000000E-16
 21
1.0
 31
0.0
 73
     1
 44
1.0
  0
ENDBLK
  5
955
330
51B
100
AcDbEntity
  8
0
100
AcDbBlockEnd
  0
BLOCK
  5
956
330
557
100
AcDbEntity
  8
0
100
AcDbBlockBegin
  2
*D32
 70
     1
 71
     0
 10
0.0
 20
0.0
 30
0.0
  3
*D32
  1

  0
LINE
  5
589
330
557
100
AcDbEntity
  8
KCAD_DIMS
 62
     0
370
    -2
100
AcDbLine
 10
140.9999999999999
 20
181.1565908908948
 30
0.0
 11
140.9999999999999
 21
149.5000000000001
 31
0.0
  0
LINE
  5
58A
330
557
100
AcDbEntity
  8
KCAD_DIMS
 62
     0
370
    -2
100
AcDbLine
 10
275.4999999999998
 20
181.1565908908948
 30
0.0
 11
275.4999999999998
 21
149.4999999999999
 31
0.0
  0
INSERT
  5
58B
330
557
100
AcDbEntity
  8
KCAD_DIMS
 62
     0
370
    -2
100
AcDbBlockReference
  2
_OPEN30
 10
140.9999999999999
 20
180.1565908908948
 30
0.0
 41
3.0
 42
3.0
 43
3.0
 50
180.0
  0
INSERT
  5
58C
330
557
100
AcDbEntity
  8
KCAD_DIMS
 62
     0
370
    -2
100
AcDbBlockReference
  2
_OPEN30
 10
275.4999999999998
 20
180.1565908908948
 30
0.0
 41
3.0
 42
3.0
 43
3.0
  0
LINE
  5
58D
330
557
100
AcDbEntity
  8
KCAD_DIMS
 62
     0
370
    -2
100
AcDbLine
 10
143.9999999999999
 20
180.1565908908948
 30
0.0
 11
272.4999999999998
 21
180.1565908908948
 31
0.0
  0
POINT
  5
58E
330
557
100
AcDbEntity
  8
DEFPOINTS
 62
     0
370
    15
100
AcDbPoint
 10
140.9999999999999
 20
148.5000000000001
 30
0.0
  0
POINT
  5
58F
330
557
100
AcDbEntity
  8
DEFPOINTS
 62
     0
370
    15
100
AcDbPoint
 10
275.4999999999998
 20
148.4999999999999
 30
0.0
  0
POINT
  5
590
330
557
100
AcDbEntity
  8
DEFPOINTS
 62
     0
370
    15
100
AcDbPoint
 10
275.4999999999998
 20
180.1565908908948
 30
0.0
  0
MTEXT
  5
591
330
557
100
AcDbEntity
  8
KCAD_DIMS
 62
     0
100
AcDbMText
 10
208.2499999999998
 20
182.2899238908948
 30
0.0
 40
3.2
 41
0.0
 71
     5
 72
     1
  1
\A1;134.5
  7
KCADDIMSTANDARD
 73
     1
 44
1.0
  0
ENDBLK
  5
957
330
557
100
AcDbEntity
  8
0
100
AcDbBlockEnd
  0
BLOCK
  5
958
330
593
100
AcDbEntity
  8
0
100
AcDbBlockBegin
  2
*D33
 70
     1
 71
     0
 10
0.0
 20
0.0
 30
0.0
  3
*D33
  1

  0
LINE
  5
5C5
330
593
100
AcDbEntity
  8
KCAD_DIMS
 62
     0
370
    -2
100
AcDbLine
 10
275.4999999999998
 20
181.1565908908948
 30
0.0
 11
275.4999999999998
 21
149.4999999999999
 31
0.0
  0
LINE
  5
5C6
330
593
100
AcDbEntity
  8
KCAD_DIMS
 62
     0
370
    -2
100
AcDbLine
 10
287.4999999999998
 20
181.1565908908948
 30
0.0
 11
287.4999999999998
 21
149.4999999999999
 31
0.0
  0
INSERT
  5
5C7
330
593
100
AcDbEntity
  8
KCAD_DIMS
 62
     0
370
    -2
100
AcDbBlockReference
  2
_OPEN30
 10
275.4999999999998
 20
180.1565908908948
 30
0.0
 41
3.0
 42
3.0
 43
3.0
 50
180.0
  0
INSERT
  5
5C8
330
593
100
AcDbEntity
  8
KCAD_DIMS
 62
     0
370
    -2
100
AcDbBlockReference
  2
_OPEN30
 10
287.4999999999998
 20
180.1565908908948
 30
0.0
 41
3.0
 42
3.0
 43
3.0
  0
LINE
  5
5C9
330
593
100
AcDbEntity
  8
KCAD_DIMS
 62
     0
370
    -2
100
AcDbLine
 10
278.4999999999998
 20
180.1565908908948
 30
0.0
 11
284.4999999999998
 21
180.1565908908948
 31
0.0
  0
POINT
  5
5CA
330
593
100
AcDbEntity
  8
DEFPOINTS
 62
     0
370
    15
100
AcDbPoint
 10
275.4999999999998
 20
148.4999999999999
 30
0.0
  0
POINT
  5
5CB
330
593
100
AcDbEntity
  8
DEFPOINTS
 62
     0
370
    15
100
AcDbPoint
 10
287.4999999999998
 20
148.4999999999999
 30
0.0
  0
POINT
  5
5CC
330
593
100
AcDbEntity
  8
DEFPOINTS
 62
     0
370
    15
100
AcDbPoint
 10
287.4999999999998
 20
180.1565908908948
 30
0.0
  0
MTEXT
  5
5CD
330
593
100
AcDbEntity
  8
KCAD_DIMS
 62
     0
100
AcDbMText
 10
281.4999999999997
 20
182.2899238908948
 30
0.0
 40
3.2
 41
0.0
 71
     5
 72
     1
  1
\A1;12
  7
KCADDIMSTANDARD
 73
     1
 44
1.0
  0
ENDBLK
  5
959
330
593
100
AcDbEntity
  8
0
100
AcDbBlockEnd
  0
BLOCK
  5
95A
330
5CF
100
AcDbEntity
  8
0
100
AcDbBlockBegin
  2
*D34
 70
     1
 71
     0
 10
0.0
 20
0.0
 30
0.0
  3
*D34
  1

  0
LINE
  5
601
330
5CF
100
AcDbEntity
  8
KCAD_DIMS
 62
     0
370
    -2
100
AcDbLine
 10
287.4999999999998
 20
195.2208622725724
 30
0.0
 11
287.4999999999998
 21
149.4999999999999
 31
0.0
  0
LINE
  5
602
330
5CF
100
AcDbEntity
  8
KCAD_DIMS
 62
     0
370
    -2
100
AcDbLine
 10
305.0259999999998
 20
195.2208622725724
 30
0.0
 11
305.0259999999998
 21
149.4999999999999
 31
0.0
  0
LINE
  5
603
330
5CF
100
AcDbEntity
  8
KCAD_DIMS
 62
     0
370
    -2
100
AcDbLine
 10
296.2629999999998
 20
194.2208622725724
 30
0.0
 11
309.6878645343367
 21
214.3508849402532
 31
0.0
  0
LINE
  5
604
330
5CF
100
AcDbEntity
  8
KCAD_DIMS
 62
     0
370
    -2
100
AcDbLine
 10
309.6878645343367
 20
214.3508849402532
 30
0.0
 11
349.2127980093727
 21
214.3508849402532
 31
0.0
  0
INSERT
  5
605
330
5CF
100
AcDbEntity
  8
KCAD_DIMS
 62
     0
370
    -2
100
AcDbBlockReference
  2
_OPEN30
 10
287.4999999999998
 20
194.2208622725724
 30
0.0
 41
3.0
 42
3.0
 43
3.0
 50
180.0
  0
INSERT
  5
606
330
5CF
100
AcDbEntity
  8
KCAD_DIMS
 62
     0
370
    -2
100
AcDbBlockReference
  2
_OPEN30
 10
305.0259999999998
 20
194.2208622725724
 30
0.0
 41
3.0
 42
3.0
 43
3.0
  0
LINE
  5
607
330
5CF
100
AcDbEntity
  8
KCAD_DIMS
 62
     0
370
    -2
100
AcDbLine
 10
290.4999999999998
 20
194.2208622725724
 30
0.0
 11
302.0259999999998
 21
194.2208622725724
 31
0.0
  0
POINT
  5
608
330
5CF
100
AcDbEntity
  8
DEFPOINTS
 62
     0
370
    15
100
AcDbPoint
 10
287.4999999999998
 20
148.4999999999999
 30
0.0
  0
POINT
  5
609
330
5CF
100
AcDbEntity
  8
DEFPOINTS
 62
     0
370
    15
100
AcDbPoint
 10
305.0259999999998
 20
148.4999999999999
 30
0.0
  0
POINT
  5
60A
330
5CF
100
AcDbEntity
  8
DEFPOINTS
 62
     0
370
    15
100
AcDbPoint
 10
305.0259999999998
 20
194.2208622725724
 30
0.0
  0
MTEXT
  5
60B
330
5CF
100
AcDbEntity
  8
KCAD_DIMS
 62
     0
100
AcDbMText
 10
336.0378201843607
 20
216.4842179402532
 30
0.0
 40
3.2
 41
0.0
 71
     5
 72
     1
  1
\A1;FB=17.526
  7
KCADDIMSTANDARD
 73
     1
 44
1.0
  0
ENDBLK
  5
95B
330
5CF
100
AcDbEntity
  8
0
100
AcDbBlockEnd
  0
BLOCK
  5
95C
330
60D
100
AcDbEntity
  8
0
100
AcDbBlockBegin
  2
*D35
 70
     1
 71
     0
 10
0.0
 20
0.0
 30
0.0
  3
*D35
  1

  0
MTEXT
  5
642
330
60D
100
AcDbEntity
  8
KCAD_DIMS
 62
     0
100
AcDbMText
 10
296.060583254939
 20
168.4863158266046
 30
0.0
 40
3.2
 41
0.0
 71
     5
 72
     1
  1
\A1;C1{\H0.667000x;}
  7
KCADDIMSTANDARD
 73
     1
 44
1.0
  0
LINE
  5
643
330
60D
100
AcDbEntity
  8
KCAD_DIMS
 62
     0
370
    -2
100
AcDbLine
 10
289.1968985445564
 20
164.0457421425626
 30
0.0
 11
291.5065228980995
 21
166.3553664961057
 31
0.0
  0
INSERT
  5
644
330
60D
100
AcDbEntity
  8
KCAD_DIMS
 62
     0
370
    -2
100
AcDbBlockReference
  2
_OPEN30
 10
287.0755782009968
 20
161.9244217990029
 30
0.0
 41
3.0
 42
3.0
 43
3.0
 50
225.0000000000005
  0
LINE
  5
645
330
60D
100
AcDbEntity
  8
KCAD_DIMS
 62
     0
370
    -2
100
AcDbLine
 10
289.6150282220133
 20
164.4638718200195
 30
0.0
 11
291.5288334901224
 21
166.3529828266046
 31
0.0
  0
LINE
  5
646
330
60D
100
AcDbEntity
  8
KCAD_DIMS
 62
     0
370
    -2
100
AcDbLine
 10
291.5288334901224
 20
166.3529828266046
 30
0.0
 11
298.7355606790166
 21
166.3529828266046
 31
0.0
  0
ENDBLK
  5
95D
330
60D
100
AcDbEntity
  8
0
100
AcDbBlockEnd
  0
BLOCK
  5
95E
330
648
100
AcDbEntity
  8
0
100
AcDbBlockBegin
  2
*D36
 70
     1
 71
     0
 10
0.0
 20
0.0
 30
0.0
  3
*D36
  1

  0
MTEXT
  5
67D
330
648
100
AcDbEntity
  8
KCAD_DIMS
 62
     0
100
AcDbMText
 10
265.1477176636276
 20
169.4370448952782
 30
0.0
 40
3.2
 41
0.0
 71
     5
 72
     1
  1
\A1;C0.5{\H0.667000x;}
  7
KCADDIMSTANDARD
 73
     1
 44
1.0
  0
LINE
  5
67E
330
648
100
AcDbEntity
  8
KCAD_DIMS
 62
     0
370
    -2
100
AcDbLine
 10
273.6918832052082
 20
164.4345238923277
 30
0.0
 11
270.8597389915451
 21
167.2666681059908
 31
0.0
  0
INSERT
  5
67F
330
648
100
AcDbEntity
  8
KCAD_DIMS
 62
     0
370
    -2
100
AcDbBlockReference
  2
_OPEN30
 10
275.8132035487679
 20
162.313203548768
 30
0.0
 41
3.0
 42
3.0
 43
3.0
 50
315.0000000000003
  0
LINE
  5
680
330
648
100
AcDbEntity
  8
KCAD_DIMS
 62
     0
370
    -2
100
AcDbLine
 10
274.872554092192
 20
163.253853005344
 30
0.0
 11
270.8226952022578
 21
167.3037118952781
 31
0.0
  0
LINE
  5
681
330
648
100
AcDbEntity
  8
KCAD_DIMS
 62
     0
370
    -2
100
AcDbLine
 10
270.8226952022578
 20
167.3037118952781
 30
0.0
 11
259.4727401249972
 21
167.3037118952781
 31
0.0
  0
ENDBLK
  5
95F
330
648
100
AcDbEntity
  8
0
100
AcDbBlockEnd
  0
BLOCK
  5
960
330
683
100
AcDbEntity
  8
0
100
AcDbBlockBegin
  2
*D37
 70
     1
 71
     0
 10
0.0
 20
0.0
 30
0.0
  3
*D37
  1

  0
LINE
  5
6B5
330
683
100
AcDbEntity
  8
KCAD_DIMS
 62
     0
370
    -2
100
AcDbLine
 10
330.2990592662278
 20
162.5
 30
0.0
 11
287.4999999999998
 21
162.4999999999999
 31
0.0
  0
LINE
  5
6B6
330
683
100
AcDbEntity
  8
KCAD_DIMS
 62
     0
370
    -2
100
AcDbLine
 10
330.2990592662278
 20
134.4999999999999
 30
0.0
 11
287.4999999999999
 21
134.4999999999999
 31
0.0
  0
INSERT
  5
6B7
330
683
100
AcDbEntity
  8
KCAD_DIMS
 62
     0
370
    -2
100
AcDbBlockReference
  2
_OPEN30
 10
329.2990592662278
 20
162.5
 30
0.0
 41
3.0
 42
3.0
 43
3.0
 50
90.0
  0
INSERT
  5
6B8
330
683
100
AcDbEntity
  8
KCAD_DIMS
 62
     0
370
    -2
100
AcDbBlockReference
  2
_OPEN30
 10
329.2990592662278
 20
134.4999999999999
 30
0.0
 41
3.0
 42
3.0
 43
3.0
 50
270.0
  0
LINE
  5
6B9
330
683
100
AcDbEntity
  8
KCAD_DIMS
 62
     0
370
    -2
100
AcDbLine
 10
329.2990592662278
 20
159.4999999999999
 30
0.0
 11
329.2990592662278
 21
137.5
 31
0.0
  0
POINT
  5
6BA
330
683
100
AcDbEntity
  8
DEFPOINTS
 62
     0
370
    15
100
AcDbPoint
 10
286.4999999999998
 20
162.4999999999999
 30
0.0
  0
POINT
  5
6BB
330
683
100
AcDbEntity
  8
DEFPOINTS
 62
     0
370
    15
100
AcDbPoint
 10
286.4999999999998
 20
134.4999999999999
 30
0.0
  0
POINT
  5
6BC
330
683
100
AcDbEntity
  8
DEFPOINTS
 62
     0
370
    15
100
AcDbPoint
 10
329.2990592662278
 20
134.4999999999999
 30
0.0
  0
MTEXT
  5
6BD
330
683
100
AcDbEntity
  8
KCAD_DIMS
 62
     0
100
AcDbMText
 10
327.1657262662277
 20
148.5
 30
0.0
 40
3.2
 41
0.0
 71
     5
 72
     1
  1
\A1;%%c28
  7
KCADDIMSTANDARD
 11
1.000000000000000E-16
 21
1.0
 31
0.0
 73
     1
 44
1.0
  0
ENDBLK
  5
961
330
683
100
AcDbEntity
  8
0
100
AcDbBlockEnd
  0
BLOCK
  5
962
330
6BF
100
AcDbEntity
  8
0
100
AcDbBlockBegin
  2
*D38
 70
     1
 71
     0
 10
0.0
 20
0.0
 30
0.0
  3
*D38
  1

  0
LINE
  5
6F1
330
6BF
100
AcDbEntity
  8
KCAD_DIMS
 62
     0
370
    -2
100
AcDbLine
 10
233.489290744295
 20
158.5000000000001
 30
0.0
 11
274.4999999999998
 21
158.5000000000001
 31
0.0
  0
LINE
  5
6F2
330
6BF
100
AcDbEntity
  8
KCAD_DIMS
 62
     0
370
    -2
100
AcDbLine
 10
233.489290744295
 20
138.4999999999996
 30
0.0
 11
274.4999999999997
 21
138.4999999999997
 31
0.0
  0
INSERT
  5
6F3
330
6BF
100
AcDbEntity
  8
KCAD_DIMS
 62
     0
370
    -2
100
AcDbBlockReference
  2
_OPEN30
 10
234.489290744295
 20
158.5000000000001
 30
0.0
 41
3.0
 42
3.0
 43
3.0
 50
270.0000000000001
  0
INSERT
  5
6F4
330
6BF
100
AcDbEntity
  8
KCAD_DIMS
 62
     0
370
    -2
100
AcDbBlockReference
  2
_OPEN30
 10
234.489290744295
 20
138.4999999999996
 30
0.0
 41
3.0
 42
3.0
 43
3.0
 50
90.0000000000001
  0
LINE
  5
6F5
330
6BF
100
AcDbEntity
  8
KCAD_DIMS
 62
     0
370
    -2
100
AcDbLine
 10
234.489290744295
 20
158.5000000000001
 30
0.0
 11
234.489290744295
 21
138.4999999999996
 31
0.0
  0
LINE
  5
6F6
330
6BF
100
AcDbEntity
  8
KCAD_DIMS
 62
     0
370
    -2
100
AcDbLine
 10
234.489290744295
 20
161.5000000000001
 30
0.0
 11
234.489290744295
 21
169.8365453589829
 31
0.0
  0
LINE
  5
6F7
330
6BF
100
AcDbEntity
  8
KCAD_DIMS
 62
     0
370
    -2
100
AcDbLine
 10
234.489290744295
 20
135.4999999999996
 30
0.0
 11
234.489290744295
 21
133.4999999999996
 31
0.0
  0
POINT
  5
6F8
330
6BF
100
AcDbEntity
  8
DEFPOINTS
 62
     0
370
    15
100
AcDbPoint
 10
275.4999999999999
 20
158.5000000000001
 30
0.0
  0
POINT
  5
6F9
330
6BF
100
AcDbEntity
  8
DEFPOINTS
 62
     0
370
    15
100
AcDbPoint
 10
275.4999999999997
 20
138.4999999999997
 30
0.0
  0
POINT
  5
6FA
330
6BF
100
AcDbEntity
  8
DEFPOINTS
 62
     0
370
    15
100
AcDbPoint
 10
234.489290744295
 20
138.4999999999997
 30
0.0
  0
MTEXT
  5
6FB
330
6BF
100
AcDbEntity
  8
KCAD_DIMS
 62
     0
100
AcDbMText
 10
232.355957744295
 20
165.6615678776289
 30
0.0
 40
3.2
 41
0.0
 71
     5
 72
     1
  1
\A1;%%c20
  7
KCADDIMSTANDARD
 11
1.000000000000000E-16
 21
1.0
 31
0.0
 73
     1
 44
1.0
  0
ENDBLK
  5
963
330
6BF
100
AcDbEntity
  8
0
100
AcDbBlockEnd
  0
BLOCK
  5
964
330
715
100
AcDbEntity
  8
0
100
AcDbBlockBegin
  2
*D39
 70
     1
 71
     0
 10
0.0
 20
0.0
 30
0.0
  3
*D39
  1

  0
POINT
  5
70A
330
715
100
AcDbEntity
  8
DEFPOINTS
  6
ByBlock
 62
     0
370
    15
100
AcDbPoint
 10
287.4999999999999
 20
135.4999999999999
 30
0.0
  0
POINT
  5
70B
330
715
100
AcDbEntity
  8
DEFPOINTS
  6
ByBlock
 62
     0
370
    15
100
AcDbPoint
 10
291.4999999999998
 20
148.4999999999999
 30
0.0
  0
LINE
  5
70C
330
715
100
AcDbEntity
  8
0
  6
ByBlock
 62
     0
370
    -2
100
AcDbLine
 10
287.4999999999999
 20
136.4999999999999
 30
0.0
 11
287.4999999999999
 21
181.1565908908948
 31
0.0
  0
LINE
  5
70D
330
715
100
AcDbEntity
  8
0
  6
ByBlock
 62
     0
370
    -2
100
AcDbLine
 10
291.4999999999998
 20
149.4999999999999
 30
0.0
 11
291.4999999999998
 21
181.1565908908948
 31
0.0
  0
LINE
  5
70E
330
715
100
AcDbEntity
  8
0
  6
ByBlock
 62
     0
370
    -2
100
AcDbLine
 10
284.4999999999999
 20
180.1565908908948
 30
0.0
 11
281.4999999999999
 21
180.1565908908948
 31
0.0
  0
SOLID
  5
70F
330
715
100
AcDbEntity
  8
0
  6
ByBlock
 62
     0
370
    15
100
AcDbTrace
 10
287.4999999999999
 20
180.1565908908948
 30
0.0
 11
284.4999999999999
 21
179.6565908908947
 31
0.0
 12
284.4999999999999
 22
180.6565908908949
 32
0.0
 13
284.4999999999999
 23
180.6565908908949
 33
0.0
  0
LINE
  5
710
330
715
100
AcDbEntity
  8
0
  6
ByBlock
 62
     0
370
    -2
100
AcDbLine
 10
294.4999999999998
 20
180.1565908908948
 30
0.0
 11
297.4999999999998
 21
180.1565908908948
 31
0.0
  0
SOLID
  5
711
330
715
100
AcDbEntity
  8
0
  6
ByBlock
 62
     0
370
    15
100
AcDbTrace
 10
291.4999999999998
 20
180.1565908908948
 30
0.0
 11
294.4999999999998
 21
179.6565908908947
 31
0.0
 12
294.4999999999998
 22
180.6565908908949
 32
0.0
 13
294.4999999999998
 23
180.6565908908949
 33
0.0
  0
LINE
  5
712
330
715
100
AcDbEntity
  8
0
  6
ByBlock
 62
     0
370
    -2
100
AcDbLine
 10
287.4999999999999
 20
180.1565908908948
 30
0.0
 11
291.4999999999998
 21
180.1565908908948
 31
0.0
  0
MTEXT
  5
713
330
715
100
AcDbEntity
  8
0
  6
ByBlock
 62
     0
100
AcDbMText
 10
296.0378889378268
 20
182.3022710216568
 30
0.0
 40
3.2
 41
0.0
 71
     5
 72
     1
  1
4
  7
KCADDIMSTANDARD
 73
     1
 44
1.0
  0
ENDBLK
  5
965
330
715
100
AcDbEntity
  8
0
100
AcDbBlockEnd
  0
BLOCK
  5
966
330
721
100
AcDbEntity
  8
0
100
AcDbBlockBegin
  2
*D40
 70
     1
 71
     0
 10
0.0
 20
0.0
 30
0.0
  3
*D40
  1

  0
POINT
  5
717
330
721
100
AcDbEntity
  8
DEFPOINTS
  6
ByBlock
 62
     0
370
    15
100
AcDbPoint
 10
287.4999999999998
 20
148.4999999999999
 30
0.0
  0
POINT
  5
718
330
721
100
AcDbEntity
  8
DEFPOINTS
  6
ByBlock
 62
     0
370
    15
100
AcDbPoint
 10
140.9999999999999
 20
148.4999999999994
 30
0.0
  0
LINE
  5
719
330
721
100
AcDbEntity
  8
0
  6
ByBlock
 62
     0
370
    -2
100
AcDbLine
 10
287.4999999999998
 20
149.4999999999999
 30
0.0
 11
287.4999999999998
 21
195.2208622725724
 31
0.0
  0
LINE
  5
71A
330
721
100
AcDbEntity
  8
0
  6
ByBlock
 62
     0
370
    -2
100
AcDbLine
 10
140.9999999999999
 20
149.4999999999994
 30
0.0
 11
140.9999999999999
 21
195.2208622725724
 31
0.0
  0
LINE
  5
71B
330
721
100
AcDbEntity
  8
0
  6
ByBlock
 62
     0
370
    -2
100
AcDbLine
 10
287.4999999999998
 20
194.2208622725724
 30
0.0
 11
140.9999999999999
 21
194.2208622725724
 31
0.0
  0
SOLID
  5
71C
330
721
100
AcDbEntity
  8
0
  6
ByBlock
 62
     0
370
    15
100
AcDbTrace
 10
287.4999999999998
 20
194.2208622725724
 30
0.0
 11
284.4999999999998
 21
194.7208622725725
 31
0.0
 12
284.4999999999998
 22
193.7208622725723
 32
0.0
 13
284.4999999999998
 23
193.7208622725723
 33
0.0
  0
SOLID
  5
71D
330
721
100
AcDbEntity
  8
0
  6
ByBlock
 62
     0
370
    15
100
AcDbTrace
 10
140.9999999999999
 20
194.2208622725724
 30
0.0
 11
143.9999999999999
 21
194.7208622725725
 31
0.0
 12
143.9999999999999
 22
193.7208622725723
 32
0.0
 13
143.9999999999999
 23
193.7208622725723
 33
0.0
  0
LINE
  5
71E
330
721
100
AcDbEntity
  8
0
  6
ByBlock
 62
     0
370
    -2
100
AcDbLine
 10
287.4999999999998
 20
148.4999999999999
 30
0.0
 11
287.4999999999998
 21
148.4999999999999
 31
0.0
  0
MTEXT
  5
71F
330
721
100
AcDbEntity
  8
0
  6
ByBlock
 62
     0
100
AcDbMText
 10
214.2499999999998
 20
196.3541952725724
 30
0.0
 40
3.2
 41
0.0
 71
     5
 72
     1
  1
146.5
  7
KCADDIMSTANDARD
 73
     1
 44
1.0
  0
ENDBLK
  5
967
330
721
100
AcDbEntity
  8
0
100
AcDbBlockEnd
  0
BLOCK
  5
968
330
72D
100
AcDbEntity
  8
0
100
AcDbBlockBegin
  2
*D41
 70
     1
 71
     0
 10
0.0
 20
0.0
 30
0.0
  3
*D41
  1

  0
POINT
  5
723
330
72D
100
AcDbEntity
  8
DEFPOINTS
  6
ByBlock
 62
     0
370
    15
100
AcDbPoint
 10
305.0259999999998
 20
148.4999999999999
 30
0.0
  0
POINT
  5
724
330
72D
100
AcDbEntity
  8
DEFPOINTS
  6
ByBlock
 62
     0
370
    15
100
AcDbPoint
 10
70.79999999999927
 20
148.4999999999994
 30
0.0
  0
LINE
  5
725
330
72D
100
AcDbEntity
  8
0
  6
ByBlock
 62
     0
370
    -2
100
AcDbLine
 10
305.0259999999998
 20
149.4999999999999
 30
0.0
 11
305.0259999999998
 21
214.6662234042551
 31
0.0
  0
LINE
  5
726
330
72D
100
AcDbEntity
  8
0
  6
ByBlock
 62
     0
370
    -2
100
AcDbLine
 10
70.79999999999927
 20
149.4999999999994
 30
0.0
 11
70.79999999999927
 21
214.6662234042551
 31
0.0
  0
LINE
  5
727
330
72D
100
AcDbEntity
  8
0
  6
ByBlock
 62
     0
370
    -2
100
AcDbLine
 10
305.0259999999998
 20
213.6662234042551
 30
0.0
 11
70.79999999999927
 21
213.6662234042551
 31
0.0
  0
SOLID
  5
728
330
72D
100
AcDbEntity
  8
0
  6
ByBlock
 62
     0
370
    15
100
AcDbTrace
 10
305.0259999999998
 20
213.6662234042551
 30
0.0
 11
302.0259999999998
 21
214.1662234042552
 31
0.0
 12
302.0259999999998
 22
213.166223404255
 32
0.0
 13
302.0259999999998
 23
213.166223404255
 33
0.0
  0
SOLID
  5
729
330
72D
100
AcDbEntity
  8
0
  6
ByBlock
 62
     0
370
    15
100
AcDbTrace
 10
70.79999999999927
 20
213.6662234042551
 30
0.0
 11
73.79999999999927
 21
214.1662234042552
 31
0.0
 12
73.79999999999927
 22
213.166223404255
 32
0.0
 13
73.79999999999927
 23
213.166223404255
 33
0.0
  0
LINE
  5
72A
330
72D
100
AcDbEntity
  8
0
  6
ByBlock
 62
     0
370
    -2
100
AcDbLine
 10
305.0259999999998
 20
148.4999999999999
 30
0.0
 11
305.0259999999998
 21
148.4999999999999
 31
0.0
  0
MTEXT
  5
72B
330
72D
100
AcDbEntity
  8
0
  6
ByBlock
 62
     0
100
AcDbMText
 10
187.9129999999995
 20
215.7995564042551
 30
0.0
 40
3.2
 41
0.0
 71
     5
 72
     1
  1
234.23
  7
KCADDIMSTANDARD
 73
     1
 44
1.0
  0
ENDBLK
  5
969
330
72D
100
AcDbEntity
  8
0
100
AcDbBlockEnd
  0
BLOCK
  5
96A
330
739
100
AcDbEntity
  8
0
100
AcDbBlockBegin
  2
*D42
 70
     1
 71
     0
 10
0.0
 20
0.0
 30
0.0
  3
*D42
  1

  0
POINT
  5
72F
330
739
100
AcDbEntity
  8
DEFPOINTS
  6
ByBlock
 62
     0
370
    15
100
AcDbPoint
 10
70.80000000000061
 20
148.4999999999994
 30
0.0
  0
POINT
  5
730
330
739
100
AcDbEntity
  8
DEFPOINTS
  6
ByBlock
 62
     0
370
    15
100
AcDbPoint
 10
140.9999999999999
 20
148.4999999999996
 30
0.0
  0
LINE
  5
731
330
739
100
AcDbEntity
  8
0
  6
ByBlock
 62
     0
370
    -2
100
AcDbLine
 10
70.80000000000061
 20
149.4999999999994
 30
0.0
 11
70.80000000000061
 21
181.1565908908948
 31
0.0
  0
LINE
  5
732
330
739
100
AcDbEntity
  8
0
  6
ByBlock
 62
     0
370
    -2
100
AcDbLine
 10
140.9999999999999
 20
149.4999999999996
 30
0.0
 11
140.9999999999999
 21
181.1565908908948
 31
0.0
  0
LINE
  5
733
330
739
100
AcDbEntity
  8
0
  6
ByBlock
 62
     0
370
    -2
100
AcDbLine
 10
70.80000000000061
 20
180.1565908908948
 30
0.0
 11
140.9999999999999
 21
180.1565908908948
 31
0.0
  0
SOLID
  5
734
330
739
100
AcDbEntity
  8
0
  6
ByBlock
 62
     0
370
    15
100
AcDbTrace
 10
70.80000000000061
 20
180.1565908908948
 30
0.0
 11
73.80000000000061
 21
179.6565908908947
 31
0.0
 12
73.80000000000061
 22
180.6565908908949
 32
0.0
 13
73.80000000000061
 23
180.6565908908949
 33
0.0
  0
SOLID
  5
735
330
739
100
AcDbEntity
  8
0
  6
ByBlock
 62
     0
370
    15
100
AcDbTrace
 10
140.9999999999999
 20
180.1565908908948
 30
0.0
 11
137.9999999999999
 21
179.6565908908947
 31
0.0
 12
137.9999999999999
 22
180.6565908908949
 32
0.0
 13
137.9999999999999
 23
180.6565908908949
 33
0.0
  0
LINE
  5
736
330
739
100
AcDbEntity
  8
0
  6
ByBlock
 62
     0
370
    -2
100
AcDbLine
 10
70.80000000000061
 20
148.4999999999994
 30
0.0
 11
70.80000000000061
 21
148.4999999999994
 31
0.0
  0
MTEXT
  5
737
330
739
100
AcDbEntity
  8
0
  6
ByBlock
 62
     0
100
AcDbMText
 10
105.9000000000002
 20
182.2899238908948
 30
0.0
 40
3.2
 41
0.0
 71
     5
 72
     1
  1
\A1;WD=70.2
  7
KCADDIMSTANDARD
 73
     1
 44
1.0
  0
ENDBLK
  5
96B
330
739
100
AcDbEntity
  8
0
100
AcDbBlockEnd
  0
BLOCK
  5
96C
330
745
100
AcDbEntity
  8
0
100
AcDbBlockBegin
  2
*D43
 70
     1
 71
     0
 10
0.0
 20
0.0
 30
0.0
  3
*D43
  1

  0
POINT
  5
73B
330
745
100
AcDbEntity
  8
DEFPOINTS
  6
ByBlock
 62
     0
370
    15
100
AcDbPoint
 10
156.9999999999999
 20
158.5000000000001
 30
0.0
  0
POINT
  5
73C
330
745
100
AcDbEntity
  8
DEFPOINTS
  6
ByBlock
 62
     0
370
    15
100
AcDbPoint
 10
141.2999999999999
 20
138.4999999999996
 30
0.0
  0
LINE
  5
73D
330
745
100
AcDbEntity
  8
0
  6
ByBlock
 62
     0
370
    -2
100
AcDbLine
 10
155.9999999999999
 20
158.5000000000001
 30
0.0
 11
120.195202257761
 21
158.5000000000001
 31
0.0
  0
LINE
  5
73E
330
745
100
AcDbEntity
  8
0
  6
ByBlock
 62
     0
370
    -2
100
AcDbLine
 10
140.2999999999999
 20
138.4999999999996
 30
0.0
 11
120.195202257761
 21
138.4999999999996
 31
0.0
  0
LINE
  5
73F
330
745
100
AcDbEntity
  8
0
  6
ByBlock
 62
     0
370
    -2
100
AcDbLine
 10
121.195202257761
 20
158.5000000000001
 30
0.0
 11
121.195202257761
 21
138.4999999999996
 31
0.0
  0
SOLID
  5
740
330
745
100
AcDbEntity
  8
0
  6
ByBlock
 62
     0
370
    15
100
AcDbTrace
 10
121.195202257761
 20
158.5000000000001
 30
0.0
 11
120.6952022577609
 21
155.5000000000001
 31
0.0
 12
121.6952022577611
 22
155.5000000000001
 32
0.0
 13
121.6952022577611
 23
155.5000000000001
 33
0.0
  0
SOLID
  5
741
330
745
100
AcDbEntity
  8
0
  6
ByBlock
 62
     0
370
    15
100
AcDbTrace
 10
121.195202257761
 20
138.4999999999996
 30
0.0
 11
120.6952022577609
 21
141.4999999999996
 31
0.0
 12
121.6952022577611
 22
141.4999999999996
 32
0.0
 13
121.6952022577611
 23
141.4999999999996
 33
0.0
  0
LINE
  5
742
330
745
100
AcDbEntity
  8
0
  6
ByBlock
 62
     0
370
    -2
100
AcDbLine
 10
156.9999999999999
 20
158.5000000000001
 30
0.0
 11
156.9999999999999
 21
158.5000000000001
 31
0.0
  0
MTEXT
  5
743
330
745
100
AcDbEntity
  8
0
  6
ByBlock
 62
     0
100
AcDbMText
 10
119.061869257761
 20
148.4999999999997
 30
0.0
 40
3.2
 41
0.0
 71
     5
 72
     1
  1
\A1;%%c20
  7
KCADDIMSTANDARD
 11
-1.271037311859069E-15
 21
1.0
 31
0.0
 73
     1
 44
1.0
  0
ENDBLK
  5
96D
330
745
100
AcDbEntity
  8
0
100
AcDbBlockEnd
  0
BLOCK
  5
96E
330
751
100
AcDbEntity
  8
0
100
AcDbBlockBegin
  2
*D44
 70
     1
 71
     0
 10
0.0
 20
0.0
 30
0.0
  3
*D44
  1

  0
POINT
  5
747
330
751
100
AcDbEntity
  8
DEFPOINTS
  6
ByBlock
 62
     0
370
    15
100
AcDbPoint
 10
140.9999999999999
 20
148.5000000000001
 30
0.0
  0
POINT
  5
748
330
751
100
AcDbEntity
  8
DEFPOINTS
  6
ByBlock
 62
     0
370
    15
100
AcDbPoint
 10
275.4999999999998
 20
148.4999999999999
 30
0.0
  0
LINE
  5
749
330
751
100
AcDbEntity
  8
0
  6
ByBlock
 62
     0
370
    -2
100
AcDbLine
 10
140.9999999999999
 20
149.5000000000001
 30
0.0
 11
140.9999999999999
 21
181.1565908908948
 31
0.0
  0
LINE
  5
74A
330
751
100
AcDbEntity
  8
0
  6
ByBlock
 62
     0
370
    -2
100
AcDbLine
 10
275.4999999999998
 20
149.4999999999999
 30
0.0
 11
275.4999999999998
 21
181.1565908908948
 31
0.0
  0
LINE
  5
74B
330
751
100
AcDbEntity
  8
0
  6
ByBlock
 62
     0
370
    -2
100
AcDbLine
 10
140.9999999999999
 20
180.1565908908948
 30
0.0
 11
275.4999999999998
 21
180.1565908908948
 31
0.0
  0
SOLID
  5
74C
330
751
100
AcDbEntity
  8
0
  6
ByBlock
 62
     0
370
    15
100
AcDbTrace
 10
140.9999999999999
 20
180.1565908908948
 30
0.0
 11
143.9999999999999
 21
179.6565908908947
 31
0.0
 12
143.9999999999999
 22
180.6565908908949
 32
0.0
 13
143.9999999999999
 23
180.6565908908949
 33
0.0
  0
SOLID
  5
74D
330
751
100
AcDbEntity
  8
0
  6
ByBlock
 62
     0
370
    15
100
AcDbTrace
 10
275.4999999999998
 20
180.1565908908948
 30
0.0
 11
272.4999999999998
 21
179.6565908908947
 31
0.0
 12
272.4999999999998
 22
180.6565908908949
 32
0.0
 13
272.4999999999998
 23
180.6565908908949
 33
0.0
  0
LINE
  5
74E
330
751
100
AcDbEntity
  8
0
  6
ByBlock
 62
     0
370
    -2
100
AcDbLine
 10
140.9999999999999
 20
148.5000000000001
 30
0.0
 11
140.9999999999999
 21
148.5000000000001
 31
0.0
  0
MTEXT
  5
74F
330
751
100
AcDbEntity
  8
0
  6
ByBlock
 62
     0
100
AcDbMText
 10
208.2499999999998
 20
182.2899238908948
 30
0.0
 40
3.2
 41
0.0
 71
     5
 72
     1
  1
134.5
  7
KCADDIMSTANDARD
 73
     1
 44
1.0
  0
ENDBLK
  5
96F
330
751
100
AcDbEntity
  8
0
100
AcDbBlockEnd
  0
BLOCK
  5
970
330
75D
100
AcDbEntity
  8
0
100
AcDbBlockBegin
  2
*D45
 70
     1
 71
     0
 10
0.0
 20
0.0
 30
0.0
  3
*D45
  1

  0
POINT
  5
753
330
75D
100
AcDbEntity
  8
DEFPOINTS
  6
ByBlock
 62
     0
370
    15
100
AcDbPoint
 10
275.4999999999998
 20
148.4999999999999
 30
0.0
  0
POINT
  5
754
330
75D
100
AcDbEntity
  8
DEFPOINTS
  6
ByBlock
 62
     0
370
    15
100
AcDbPoint
 10
287.4999999999998
 20
148.4999999999999
 30
0.0
  0
LINE
  5
755
330
75D
100
AcDbEntity
  8
0
  6
ByBlock
 62
     0
370
    -2
100
AcDbLine
 10
275.4999999999998
 20
149.4999999999999
 30
0.0
 11
275.4999999999998
 21
181.1565908908948
 31
0.0
  0
LINE
  5
756
330
75D
100
AcDbEntity
  8
0
  6
ByBlock
 62
     0
370
    -2
100
AcDbLine
 10
287.4999999999998
 20
149.4999999999999
 30
0.0
 11
287.4999999999998
 21
181.1565908908948
 31
0.0
  0
LINE
  5
757
330
75D
100
AcDbEntity
  8
0
  6
ByBlock
 62
     0
370
    -2
100
AcDbLine
 10
275.4999999999998
 20
180.1565908908948
 30
0.0
 11
287.4999999999998
 21
180.1565908908948
 31
0.0
  0
SOLID
  5
758
330
75D
100
AcDbEntity
  8
0
  6
ByBlock
 62
     0
370
    15
100
AcDbTrace
 10
275.4999999999998
 20
180.1565908908948
 30
0.0
 11
278.4999999999998
 21
179.6565908908947
 31
0.0
 12
278.4999999999998
 22
180.6565908908949
 32
0.0
 13
278.4999999999998
 23
180.6565908908949
 33
0.0
  0
SOLID
  5
759
330
75D
100
AcDbEntity
  8
0
  6
ByBlock
 62
     0
370
    15
100
AcDbTrace
 10
287.4999999999998
 20
180.1565908908948
 30
0.0
 11
284.4999999999998
 21
179.6565908908947
 31
0.0
 12
284.4999999999998
 22
180.6565908908949
 32
0.0
 13
284.4999999999998
 23
180.6565908908949
 33
0.0
  0
LINE
  5
75A
330
75D
100
AcDbEntity
  8
0
  6
ByBlock
 62
     0
370
    -2
100
AcDbLine
 10
275.4999999999998
 20
148.4999999999999
 30
0.0
 11
275.4999999999998
 21
148.4999999999999
 31
0.0
  0
MTEXT
  5
75B
330
75D
100
AcDbEntity
  8
0
  6
ByBlock
 62
     0
100
AcDbMText
 10
281.4999999999997
 20
182.2899238908948
 30
0.0
 40
3.2
 41
0.0
 71
     5
 72
     1
  1
12
  7
KCADDIMSTANDARD
 73
     1
 44
1.0
  0
ENDBLK
  5
971
330
75D
100
AcDbEntity
  8
0
100
AcDbBlockEnd
  0
BLOCK
  5
972
330
769
100
AcDbEntity
  8
0
100
AcDbBlockBegin
  2
*D46
 70
     1
 71
     0
 10
0.0
 20
0.0
 30
0.0
  3
*D46
  1

  0
POINT
  5
75F
330
769
100
AcDbEntity
  8
DEFPOINTS
  6
ByBlock
 62
     0
370
    15
100
AcDbPoint
 10
287.4999999999998
 20
148.4999999999999
 30
0.0
  0
POINT
  5
760
330
769
100
AcDbEntity
  8
DEFPOINTS
  6
ByBlock
 62
     0
370
    15
100
AcDbPoint
 10
305.0259999999998
 20
148.4999999999999
 30
0.0
  0
LINE
  5
761
330
769
100
AcDbEntity
  8
0
  6
ByBlock
 62
     0
370
    -2
100
AcDbLine
 10
287.4999999999998
 20
149.4999999999999
 30
0.0
 11
287.4999999999998
 21
195.2208622725724
 31
0.0
  0
LINE
  5
762
330
769
100
AcDbEntity
  8
0
  6
ByBlock
 62
     0
370
    -2
100
AcDbLine
 10
305.0259999999998
 20
149.4999999999999
 30
0.0
 11
305.0259999999998
 21
195.2208622725724
 31
0.0
  0
LINE
  5
763
330
769
100
AcDbEntity
  8
0
  6
ByBlock
 62
     0
370
    -2
100
AcDbLine
 10
287.4999999999998
 20
194.2208622725724
 30
0.0
 11
305.0259999999998
 21
194.2208622725724
 31
0.0
  0
SOLID
  5
764
330
769
100
AcDbEntity
  8
0
  6
ByBlock
 62
     0
370
    15
100
AcDbTrace
 10
287.4999999999998
 20
194.2208622725724
 30
0.0
 11
290.4999999999998
 21
193.7208622725723
 31
0.0
 12
290.4999999999998
 22
194.7208622725725
 32
0.0
 13
290.4999999999998
 23
194.7208622725725
 33
0.0
  0
SOLID
  5
765
330
769
100
AcDbEntity
  8
0
  6
ByBlock
 62
     0
370
    15
100
AcDbTrace
 10
305.0259999999998
 20
194.2208622725724
 30
0.0
 11
302.0259999999998
 21
193.7208622725723
 31
0.0
 12
302.0259999999998
 22
194.7208622725725
 32
0.0
 13
302.0259999999998
 23
194.7208622725725
 33
0.0
  0
LINE
  5
766
330
769
100
AcDbEntity
  8
0
  6
ByBlock
 62
     0
370
    -2
100
AcDbLine
 10
287.4999999999998
 20
148.4999999999999
 30
0.0
 11
287.4999999999998
 21
148.4999999999999
 31
0.0
  0
MTEXT
  5
767
330
769
100
AcDbEntity
  8
0
  6
ByBlock
 62
     0
100
AcDbMText
 10
336.0378201843607
 20
216.4842179402532
 30
0.0
 40
3.2
 41
0.0
 71
     5
 72
     1
  1
\A1;FB=17.526
  7
KCADDIMSTANDARD
 73
     1
 44
1.0
  0
ENDBLK
  5
973
330
769
100
AcDbEntity
  8
0
100
AcDbBlockEnd
  0
BLOCK
  5
974
330
774
100
AcDbEntity
  8
0
100
AcDbBlockBegin
  2
*D47
 70
     1
 71
     0
 10
0.0
 20
0.0
 30
0.0
  3
*D47
  1

  0
POINT
  5
76B
330
774
100
AcDbEntity
  8
DEFPOINTS
  6
ByBlock
 62
     0
370
    15
100
AcDbPoint
 10
287.0755782009968
 20
161.9244217990029
 30
0.0
  0
POINT
  5
76C
330
774
100
AcDbEntity
  8
DEFPOINTS
  6
ByBlock
 62
     0
370
    15
100
AcDbPoint
 10
291.5065228980995
 20
166.3553664961057
 30
0.0
  0
LINE
  5
76D
330
774
100
AcDbEntity
  8
0
  6
ByBlock
 62
     0
370
    -2
100
AcDbLine
 10
284.9542578574371
 20
159.8031014554433
 30
0.0
 11
282.8329375138775
 21
157.6817811118836
 31
0.0
  0
SOLID
  5
76E
330
774
100
AcDbEntity
  8
0
  6
ByBlock
 62
     0
370
    15
100
AcDbTrace
 10
287.0755782009968
 20
161.9244217990029
 30
0.0
 11
285.3078112480305
 21
159.4495480648499
 31
0.0
 12
284.6007044668438
 22
160.1566548460366
 32
0.0
 13
284.6007044668438
 23
160.1566548460366
 33
0.0
  0
LINE
  5
76F
330
774
100
AcDbEntity
  8
0
  6
ByBlock
 62
     0
370
    -2
100
AcDbLine
 10
293.6278432416591
 20
168.4766868396653
 30
0.0
 11
295.7491635852188
 21
170.598007183225
 31
0.0
  0
SOLID
  5
770
330
774
100
AcDbEntity
  8
0
  6
ByBlock
 62
     0
370
    15
100
AcDbTrace
 10
291.5065228980995
 20
166.3553664961057
 30
0.0
 11
293.9813966322525
 21
168.123133449072
 31
0.0
 12
293.2742898510658
 22
168.8302402302587
 32
0.0
 13
293.2742898510658
 23
168.8302402302587
 33
0.0
  0
LINE
  5
771
330
774
100
AcDbEntity
  8
0
  6
ByBlock
 62
     0
370
    -2
100
AcDbLine
 10
287.0755782009968
 20
161.9244217990029
 30
0.0
 11
291.5065228980995
 21
166.3553664961057
 31
0.0
  0
MTEXT
  5
772
330
774
100
AcDbEntity
  8
0
  6
ByBlock
 62
     0
100
AcDbMText
 10
296.060583254939
 20
168.4863158266046
 30
0.0
 40
3.2
 41
0.0
 71
     5
 72
     1
  1
\A1;C1{\H0.667000x;}
  7
KCADDIMSTANDARD
 73
     1
 44
1.0
  0
ENDBLK
  5
975
330
774
100
AcDbEntity
  8
0
100
AcDbBlockEnd
  0
BLOCK
  5
976
330
77F
100
AcDbEntity
  8
0
100
AcDbBlockBegin
  2
*D48
 70
     1
 71
     0
 10
0.0
 20
0.0
 30
0.0
  3
*D48
  1

  0
POINT
  5
776
330
77F
100
AcDbEntity
  8
DEFPOINTS
  6
ByBlock
 62
     0
370
    15
100
AcDbPoint
 10
275.813203548768
 20
162.3132035487681
 30
0.0
  0
POINT
  5
777
330
77F
100
AcDbEntity
  8
DEFPOINTS
  6
ByBlock
 62
     0
370
    15
100
AcDbPoint
 10
270.8597389915452
 20
167.2666681059908
 30
0.0
  0
LINE
  5
778
330
77F
100
AcDbEntity
  8
0
  6
ByBlock
 62
     0
370
    -2
100
AcDbLine
 10
277.9345238923275
 20
160.1918832052083
 30
0.0
 11
280.0558442358872
 21
158.0705628616487
 31
0.0
  0
SOLID
  5
779
330
77F
100
AcDbEntity
  8
0
  6
ByBlock
 62
     0
370
    15
100
AcDbTrace
 10
275.8132035487679
 20
162.313203548768
 30
0.0
 11
278.2880772829209
 21
160.5454365958017
 31
0.0
 12
277.5809705017342
 22
159.838329814615
 32
0.0
 13
277.5809705017342
 23
159.838329814615
 33
0.0
  0
LINE
  5
77A
330
77F
100
AcDbEntity
  8
0
  6
ByBlock
 62
     0
370
    -2
100
AcDbLine
 10
268.7384186479854
 20
169.3879884495503
 30
0.0
 11
266.6170983044258
 21
171.5093087931099
 31
0.0
  0
SOLID
  5
77B
330
77F
100
AcDbEntity
  8
0
  6
ByBlock
 62
     0
370
    15
100
AcDbTrace
 10
270.8597389915451
 20
167.2666681059907
 30
0.0
 11
269.0919720385788
 21
169.7415418401437
 31
0.0
 12
268.3848652573921
 22
169.034435058957
 32
0.0
 13
268.3848652573921
 23
169.034435058957
 33
0.0
  0
LINE
  5
77C
330
77F
100
AcDbEntity
  8
0
  6
ByBlock
 62
     0
370
    -2
100
AcDbLine
 10
275.8132035487679
 20
162.313203548768
 30
0.0
 11
270.8597389915451
 21
167.2666681059907
 31
0.0
  0
MTEXT
  5
77D
330
77F
100
AcDbEntity
  8
0
  6
ByBlock
 62
     0
100
AcDbMText
 10
265.1477176636276
 20
169.4370448952782
 30
0.0
 40
3.2
 41
0.0
 71
     5
 72
     1
  1
\A1;C0.5{\H0.667000x;}
  7
KCADDIMSTANDARD
 73
     1
 44
1.0
  0
ENDBLK
  5
977
330
77F
100
AcDbEntity
  8
0
100
AcDbBlockEnd
  0
BLOCK
  5
978
330
78B
100
AcDbEntity
  8
0
100
AcDbBlockBegin
  2
*D49
 70
     1
 71
     0
 10
0.0
 20
0.0
 30
0.0
  3
*D49
  1

  0
POINT
  5
781
330
78B
100
AcDbEntity
  8
DEFPOINTS
  6
ByBlock
 62
     0
370
    15
100
AcDbPoint
 10
286.4999999999998
 20
162.4999999999999
 30
0.0
  0
POINT
  5
782
330
78B
100
AcDbEntity
  8
DEFPOINTS
  6
ByBlock
 62
     0
370
    15
100
AcDbPoint
 10
286.4999999999998
 20
134.4999999999999
 30
0.0
  0
LINE
  5
783
330
78B
100
AcDbEntity
  8
0
  6
ByBlock
 62
     0
370
    -2
100
AcDbLine
 10
287.4999999999998
 20
162.4999999999999
 30
0.0
 11
330.2990592662278
 21
162.4999999999999
 31
0.0
  0
LINE
  5
784
330
78B
100
AcDbEntity
  8
0
  6
ByBlock
 62
     0
370
    -2
100
AcDbLine
 10
287.4999999999998
 20
134.4999999999999
 30
0.0
 11
330.2990592662278
 21
134.4999999999999
 31
0.0
  0
LINE
  5
785
330
78B
100
AcDbEntity
  8
0
  6
ByBlock
 62
     0
370
    -2
100
AcDbLine
 10
329.2990592662278
 20
162.4999999999999
 30
0.0
 11
329.2990592662278
 21
134.4999999999999
 31
0.0
  0
SOLID
  5
786
330
78B
100
AcDbEntity
  8
0
  6
ByBlock
 62
     0
370
    15
100
AcDbTrace
 10
329.2990592662278
 20
162.4999999999999
 30
0.0
 11
328.7990592662277
 21
159.4999999999999
 31
0.0
 12
329.7990592662279
 22
159.4999999999999
 32
0.0
 13
329.7990592662279
 23
159.4999999999999
 33
0.0
  0
SOLID
  5
787
330
78B
100
AcDbEntity
  8
0
  6
ByBlock
 62
     0
370
    15
100
AcDbTrace
 10
329.2990592662278
 20
134.4999999999999
 30
0.0
 11
328.7990592662277
 21
137.4999999999999
 31
0.0
 12
329.7990592662279
 22
137.4999999999999
 32
0.0
 13
329.7990592662279
 23
137.4999999999999
 33
0.0
  0
LINE
  5
788
330
78B
100
AcDbEntity
  8
0
  6
ByBlock
 62
     0
370
    -2
100
AcDbLine
 10
286.4999999999998
 20
162.4999999999999
 30
0.0
 11
286.4999999999998
 21
162.4999999999999
 31
0.0
  0
MTEXT
  5
789
330
78B
100
AcDbEntity
  8
0
  6
ByBlock
 62
     0
100
AcDbMText
 10
327.1657262662277
 20
148.5
 30
0.0
 40
3.2
 41
0.0
 71
     5
 72
     1
  1
\A1;%%c28
  7
KCADDIMSTANDARD
 11
-1.271037311859069E-15
 21
1.0
 31
0.0
 73
     1
 44
1.0
  0
ENDBLK
  5
979
330
78B
100
AcDbEntity
  8
0
100
AcDbBlockEnd
  0
BLOCK
  5
97A
330
797
100
AcDbEntity
  8
0
100
AcDbBlockBegin
  2
*D50
 70
     1
 71
     0
 10
0.0
 20
0.0
 30
0.0
  3
*D50
  1

  0
POINT
  5
78D
330
797
100
AcDbEntity
  8
DEFPOINTS
  6
ByBlock
 62
     0
370
    15
100
AcDbPoint
 10
275.4999999999999
 20
158.5000000000001
 30
0.0
  0
POINT
  5
78E
330
797
100
AcDbEntity
  8
DEFPOINTS
  6
ByBlock
 62
     0
370
    15
100
AcDbPoint
 10
275.4999999999997
 20
138.4999999999997
 30
0.0
  0
LINE
  5
78F
330
797
100
AcDbEntity
  8
0
  6
ByBlock
 62
     0
370
    -2
100
AcDbLine
 10
274.4999999999999
 20
158.5000000000001
 30
0.0
 11
233.489290744295
 21
158.5000000000001
 31
0.0
  0
LINE
  5
790
330
797
100
AcDbEntity
  8
0
  6
ByBlock
 62
     0
370
    -2
100
AcDbLine
 10
274.4999999999997
 20
138.4999999999997
 30
0.0
 11
233.489290744295
 21
138.4999999999997
 31
0.0
  0
LINE
  5
791
330
797
100
AcDbEntity
  8
0
  6
ByBlock
 62
     0
370
    -2
100
AcDbLine
 10
234.489290744295
 20
158.5000000000001
 30
0.0
 11
234.489290744295
 21
138.4999999999997
 31
0.0
  0
SOLID
  5
792
330
797
100
AcDbEntity
  8
0
  6
ByBlock
 62
     0
370
    15
100
AcDbTrace
 10
234.489290744295
 20
158.5000000000001
 30
0.0
 11
233.9892907442949
 21
155.5000000000001
 31
0.0
 12
234.9892907442951
 22
155.5000000000001
 32
0.0
 13
234.9892907442951
 23
155.5000000000001
 33
0.0
  0
SOLID
  5
793
330
797
100
AcDbEntity
  8
0
  6
ByBlock
 62
     0
370
    15
100
AcDbTrace
 10
234.489290744295
 20
138.4999999999997
 30
0.0
 11
233.9892907442949
 21
141.4999999999997
 31
0.0
 12
234.9892907442951
 22
141.4999999999997
 32
0.0
 13
234.9892907442951
 23
141.4999999999997
 33
0.0
  0
LINE
  5
794
330
797
100
AcDbEntity
  8
0
  6
ByBlock
 62
     0
370
    -2
100
AcDbLine
 10
275.4999999999999
 20
158.5000000000001
 30
0.0
 11
275.4999999999999
 21
158.5000000000001
 31
0.0
  0
MTEXT
  5
795
330
797
100
AcDbEntity
  8
0
  6
ByBlock
 62
     0
100
AcDbMText
 10
232.355957744295
 20
165.6615678776289
 30
0.0
 40
3.2
 41
0.0
 71
     5
 72
     1
  1
\A1;%%c20
  7
KCADDIMSTANDARD
 11
-1.271037311859069E-15
 21
1.0
 31
0.0
 73
     1
 44
1.0
  0
ENDBLK
  5
97B
330
797
100
AcDbEntity
  8
0
100
AcDbBlockEnd
  0
BLOCK
  5
97C
330
81A
100
AcDbEntity
  8
0
100
AcDbBlockBegin
  2
*D51
 70
     1
 71
     0
 10
0.0
 20
0.0
 30
0.0
  3
*D51
  1

  0
POINT
  5
810
330
81A
100
AcDbEntity
  8
DEFPOINTS
  6
ByBlock
 62
     0
370
    15
100
AcDbPoint
 10
287.4999999999998
 20
148.4999999999999
 30
0.0
  0
POINT
  5
811
330
81A
100
AcDbEntity
  8
DEFPOINTS
  6
ByBlock
 62
     0
370
    15
100
AcDbPoint
 10
305.0259999999998
 20
148.4999999999999
 30
0.0
  0
LINE
  5
812
330
81A
100
AcDbEntity
  8
0
  6
ByBlock
 62
     0
370
    -2
100
AcDbLine
 10
287.4999999999998
 20
149.4999999999999
 30
0.0
 11
287.4999999999998
 21
195.2208622725724
 31
0.0
  0
LINE
  5
813
330
81A
100
AcDbEntity
  8
0
  6
ByBlock
 62
     0
370
    -2
100
AcDbLine
 10
305.0259999999998
 20
149.4999999999999
 30
0.0
 11
305.0259999999998
 21
195.2208622725724
 31
0.0
  0
LINE
  5
814
330
81A
100
AcDbEntity
  8
0
  6
ByBlock
 62
     0
370
    -2
100
AcDbLine
 10
287.4999999999998
 20
194.2208622725724
 30
0.0
 11
305.0259999999998
 21
194.2208622725724
 31
0.0
  0
SOLID
  5
815
330
81A
100
AcDbEntity
  8
0
  6
ByBlock
 62
     0
370
    15
100
AcDbTrace
 10
287.4999999999998
 20
194.2208622725724
 30
0.0
 11
290.4999999999998
 21
193.7208622725723
 31
0.0
 12
290.4999999999998
 22
194.7208622725725
 32
0.0
 13
290.4999999999998
 23
194.7208622725725
 33
0.0
  0
SOLID
  5
816
330
81A
100
AcDbEntity
  8
0
  6
ByBlock
 62
     0
370
    15
100
AcDbTrace
 10
305.0259999999998
 20
194.2208622725724
 30
0.0
 11
302.0259999999998
 21
193.7208622725723
 31
0.0
 12
302.0259999999998
 22
194.7208622725725
 32
0.0
 13
302.0259999999998
 23
194.7208622725725
 33
0.0
  0
LINE
  5
817
330
81A
100
AcDbEntity
  8
0
  6
ByBlock
 62
     0
370
    -2
100
AcDbLine
 10
287.4999999999998
 20
148.4999999999999
 30
0.0
 11
287.4999999999998
 21
148.4999999999999
 31
0.0
  0
MTEXT
  5
818
330
81A
100
AcDbEntity
  8
0
  6
ByBlock
 62
     0
100
AcDbMText
 10
321.6327207500818
 20
194.4797960520338
 30
0.0
 40
3.2
 41
0.0
 71
     5
 72
     1
  1
\A1;FB=17.526
  7
KCADDIMSTANDARD
 73
     1
 44
1.0
  0
ENDBLK
  5
97D
330
81A
100
AcDbEntity
  8
0
100
AcDbBlockEnd
  0
ENDSEC
  0
SECTION
  2
ENTITIES
  0
TEXT
  5
2EF
330
1F
100
AcDbEntity
  8
0
  6
Continuous
 62
     7
370
    30
100
AcDbText
 10
196.54356005135
 20
38.16647005444999
 30
0.0
 40
4.049999999999999
  1
質
 41
0.95
  7
KCADTEXTSTANDARD
100
AcDbText
1001
Sigma
1000

  0
TEXT
  5
2F1
330
1F
100
AcDbEntity
  8
0
  6
Continuous
 62
     7
370
    30
100
AcDbText
 10
196.54356005135
 20
43.16647005444999
 30
0.0
 40
4.049999999999999
  1
材
 41
0.95
  7
KCADTEXTSTANDARD
100
AcDbText
1001
Sigma
1000

  0
LINE
  5
2F4
330
1F
100
AcDbEntity
  8
90-ScaleR0.4
  6
Continuous
 62
     7
370
    30
100
AcDbLine
 10
411.81900676123
 20
286.431941923775
 30
0.0
 11
28.8189987163
 21
286.431941923775
 31
0.0
1001
Sigma
1000

  0
LINE
  5
2F7
330
1F
100
AcDbEntity
  8
90-ScaleR0.4
  6
Continuous
 62
     7
370
    30
100
AcDbLine
 10
28.8189987163
 20
286.431941923775
 30
0.0
 11
28.8189987163
 21
17.43194192379999
 31
0.0
1001
Sigma
1000

  0
LINE
  5
2F9
330
1F
100
AcDbEntity
  8
90-ScaleR0.4
  6
Continuous
 62
     7
370
    30
100
AcDbLine
 10
28.8189987163
 20
17.43194192379999
 30
0.0
 11
411.81900676123
 21
17.43194192379999
 31
0.0
1001
Sigma
1000

  0
LINE
  5
2FB
330
1F
100
AcDbEntity
  8
90-ScaleR0.4
  6
Continuous
 62
     7
370
    30
100
AcDbLine
 10
411.81900676123
 20
286.431941923775
 30
0.0
 11
411.81900676123
 21
17.43194192379999
 31
0.0
1001
Sigma
1000

  0
TEXT
  5
303
330
1F
100
AcDbEntity
  8
90-ScaleR0.4
  6
Continuous
 62
     7
370
    30
100
AcDbText
 10
294.5746040060276
 20
25.97863582839438
 30
0.0
 40
4.049999999999999
  1
型
 41
0.95
  7
KCADTEXTSTANDARD
100
AcDbText
1001
Sigma
1000

  0
TEXT
  5
309
330
1F
100
AcDbEntity
  8
90-ScaleR0.4
  6
Continuous
 62
     7
370
    30
100
AcDbText
 10
354.7146364241251
 20
26.47821849391074
 30
0.0
 40
4.049999999999999
  1
図
 41
0.95
  7
KCADTEXTSTANDARD
100
AcDbText
1001
Sigma
1000

  0
TEXT
  5
30B
330
1F
100
AcDbEntity
  8
90-ScaleR0.4
  6
Continuous
 62
     7
370
    30
100
AcDbText
 10
354.7146364241251
 20
19.32213863911073
 30
0.0
 40
4.049999999999999
  1
番
 41
0.95
  7
KCADTEXTSTANDARD
100
AcDbText
1001
Sigma
1000

  0
TEXT
  5
30F
330
1F
100
AcDbEntity
  8
90-ScaleR0.4
  6
Continuous
 62
     7
370
    30
100
AcDbText
 10
294.5222148522236
 20
19.37599300287735
 30
0.0
 40
4.049999999999999
  1
番
 41
0.95
  7
KCADTEXTSTANDARD
100
AcDbText
1001
Sigma
1000

  0
LINE
  5
311
330
1F
100
AcDbEntity
  8
90-ScaleR0.4
  6
Continuous
 62
     7
370
    15
100
AcDbLine
 10
361.8190067612349
 20
47.43194192379998
 30
0.0
 11
361.8190067612349
 21
17.43194192379999
 31
0.0
1001
Sigma
1000

  0
LINE
  5
313
330
1F
100
AcDbEntity
  8
90-ScaleR0.4
  6
Continuous
 62
     7
370
    30
100
AcDbLine
 10
195.819006375325
 20
17.43194192379999
 30
0.0
 11
195.819006375325
 21
47.43194192379998
 31
0.0
1001
Sigma
1000

  0
LINE
  5
315
330
1F
100
AcDbEntity
  8
90-ScaleR0.4
  6
Continuous
 62
     7
370
    30
100
AcDbLine
 10
351.8190067612349
 20
17.43194192379999
 30
0.0
 11
351.8190067612349
 21
47.43194192379998
 31
0.0
1001
Sigma
1000

  0
LINE
  5
317
330
1F
100
AcDbEntity
  8
90-ScaleR0.4
  6
Continuous
 62
     7
370
    30
100
AcDbLine
 10
411.81900676123
 20
32.43194192379999
 30
0.0
 11
291.819006761235
 21
32.43194192379999
 31
0.0
1001
Sigma
1000

  0
LINE
  5
319
330
1F
100
AcDbEntity
  8
90-ScaleR0.4
  6
Continuous
 62
     7
370
    30
100
AcDbLine
 10
195.819006375325
 20
27.43194192375
 30
0.0
 11
261.819006761233
 21
27.43194192375
 31
0.0
1001
Sigma
1000

  0
TEXT
  5
31B
330
1F
100
AcDbEntity
  8
90-ScaleR0.4
  6
Continuous
 62
     7
370
    30
100
AcDbText
 10
237.6691982128943
 20
19.17763136437326
 30
0.0
 40
6.750000429153442
  1
三角法
 41
0.9795555531731359
  7
KCADTEXTSTANDARD
100
AcDbText
1001
Sigma
1000

  0
TEXT
  5
31D
330
1F
100
AcDbEntity
  8
90-ScaleR0.4
  6
Continuous
 62
     7
370
    30
100
AcDbText
 10
285.101783110845
 20
19.67921960074998
 30
0.0
 40
4.5
  1
１
 41
0.855
  7
KCADTEXTSTANDARD
100
AcDbText
1001
Sigma
1000

  0
TEXT
  5
31F
330
1F
100
AcDbEntity
  8
0
  6
Continuous
 62
     7
370
    30
100
AcDbText
 10
279.18425066367
 20
26.72636116154999
 30
0.0
 40
4.049999999999999
  1
１
 41
0.95
  7
KCADTEXTSTANDARD
100
AcDbText
1001
Sigma
1000

  0
TEXT
  5
321
330
1F
100
AcDbEntity
  8
90-ScaleR0.4
  6
Continuous
 62
     7
370
    30
100
AcDbText
 10
267.55679596432
 20
22.91333938295
 30
0.0
 40
4.5
  1
１
 41
0.855
  7
KCADTEXTSTANDARD
100
AcDbText
1001
Sigma
1000

  0
TEXT
  5
323
330
1F
100
AcDbEntity
  8
90-ScaleR0.4
  6
Continuous
 62
     7
370
    30
100
AcDbText
 10
243.0270582668935
 20
30.19010889289998
 30
0.0
 40
4.5
  1
Ｃ０.１
 41
0.8023937520384787
  7
KCADTEXTSTANDARD
100
AcDbText
1001
Sigma
1000

  0
LINE
  5
325
330
1F
100
AcDbEntity
  8
90-ScaleR0.4
  6
Continuous
 62
     7
370
    30
100
AcDbLine
 10
135.8190063753
 20
17.43194192379999
 30
0.0
 11
135.8190063753
 21
47.43194192379998
 31
0.0
1001
Sigma
1000

  0
TEXT
  5
327
330
1F
100
AcDbEntity
  8
90-ScaleR0.4
  6
Continuous
 62
     7
370
    30
100
AcDbText
 10
236.6668214301804
 20
38.47586206894999
 30
0.0
 40
3.6
  1
処理
 41
1.02125000283122
  7
KCADTEXTSTANDARD
100
AcDbText
1001
Sigma
1000

  0
TEXT
  5
329
330
1F
100
AcDbEntity
  8
90-ScaleR0.4
  6
Continuous
 62
     7
370
    30
100
AcDbText
 10
32.71276480665001
 20
43.8507259528
 30
0.0
 40
2.033999999999999
  1
5
 41
0.577433628318584
  7
KCADTEXTSTANDARD
100
AcDbText
1001
Sigma
1000

  0
TEXT
  5
32B
330
1F
100
AcDbEntity
  8
90-ScaleR0.4
  6
Continuous
 62
     7
370
    30
100
AcDbText
 10
32.57780336705001
 20
39.26905626134999
 30
0.0
 40
2.033999999999999
  1
4
 41
0.577433628318584
  7
KCADTEXTSTANDARD
100
AcDbText
1001
Sigma
1000

  0
TEXT
  5
32D
330
1F
100
AcDbEntity
  8
90-ScaleR0.4
  6
Continuous
 62
     7
370
    30
100
AcDbText
 10
32.84772624624999
 20
33.60934664244999
 30
0.0
 40
2.033999999999999
  1
3
 41
0.577433628318584
  7
KCADTEXTSTANDARD
100
AcDbText
1001
Sigma
1000

  0
TEXT
  5
32F
330
1F
100
AcDbEntity
  8
90-ScaleR0.4
  6
Continuous
 62
     7
370
    30
100
AcDbText
 10
32.84772624624999
 20
28.75816696914998
 30
0.0
 40
2.033999999999999
  1
2
 41
0.577433628318584
  7
KCADTEXTSTANDARD
100
AcDbText
1001
Sigma
1000

  0
TEXT
  5
331
330
1F
100
AcDbEntity
  8
90-ScaleR0.4
  6
Continuous
 62
     7
370
    30
100
AcDbText
 10
32.57780336705001
 20
24.04174228674998
 30
0.0
 40
2.033999999999999
  1
1
 41
0.577433628318584
  7
KCADTEXTSTANDARD
100
AcDbText
1001
Sigma
1000

  0
LINE
  5
333
330
1F
100
AcDbEntity
  8
90-ScaleR0.4
  6
Continuous
 62
     7
370
    30
100
AcDbLine
 10
261.819006761233
 20
37.43194192379999
 30
0.0
 11
261.819006761233
 21
17.48820326680001
 31
0.0
1001
Sigma
1000

  0
LINE
  5
335
330
1F
100
AcDbEntity
  8
90-ScaleR0.4
  6
Continuous
 62
     7
370
    15
100
AcDbLine
 10
261.819006761233
 20
32.43194192379999
 30
0.0
 11
291.819006761235
 21
32.43194192379999
 31
0.0
1001
Sigma
1000

  0
TEXT
  5
337
330
1F
100
AcDbEntity
  8
90-ScaleR0.4
  6
Continuous
 62
     7
370
    30
100
AcDbText
 10
280.370224528175
 20
33.2063520871
 30
0.0
 40
3.6
  1
尺度
 41
1.02125000283122
  7
KCADTEXTSTANDARD
100
AcDbText
1001
Sigma
1000

  0
TEXT
  5
339
330
1F
100
AcDbEntity
  8
90-ScaleR0.4
  6
Continuous
 62
     7
370
    30
100
AcDbText
 10
265.2545432942399
 20
33.2063520871
 30
0.0
 40
3.6
  1
個数
 41
1.02125000283122
  7
KCADTEXTSTANDARD
100
AcDbText
1001
Sigma
1000

  0
TEXT
  5
33B
330
1F
100
AcDbEntity
  8
90-ScaleR0.4
  6
Continuous
 62
     7
370
    30
100
AcDbText
 10
39.4396252236
 20
18.19818511794998
 30
0.0
 40
3.6
  1
年月日
 41
1.04500000377496
  7
KCADTEXTSTANDARD
100
AcDbText
1001
Sigma
1000

  0
TEXT
  5
33D
330
1F
100
AcDbEntity
  8
90-ScaleR0.4
  6
Continuous
 62
     7
370
    30
100
AcDbText
 10
56.75421837015001
 20
18.46769509979999
 30
0.0
 40
3.6
  1
担当
 41
1.02125000283122
  7
KCADTEXTSTANDARD
100
AcDbText
1001
Sigma
1000

  0
TEXT
  5
33F
330
1F
100
AcDbEntity
  8
90-ScaleR0.4
  6
Continuous
 62
     7
370
    30
100
AcDbText
 10
30.16822753154999
 20
18.91769509979999
 30
0.0
 40
2.7
  1
符号
 41
1.013333334277073
  7
KCADTEXTSTANDARD
100
AcDbText
1001
Sigma
1000

  0
TEXT
  5
341
330
1F
100
AcDbEntity
  8
90-ScaleR0.4
  6
Continuous
 62
     7
370
    30
100
AcDbText
 10
85.75645015410001
 20
18.19818511794998
 30
0.0
 40
3.6
  1
訂  正  記  事
 41
0.7505000033974647
  7
KCADTEXTSTANDARD
100
AcDbText
1001
Sigma
1000

  0
LINE
  5
343
330
1F
100
AcDbEntity
  8
90-ScaleR0.4
  6
Continuous
 62
     7
370
    15
100
AcDbLine
 10
201.36302619882
 20
17.43194192379999
 30
0.0
 11
201.36302619882
 21
47.43194192379998
 31
0.0
1001
Sigma
1000

  0
TEXT
  5
345
330
1F
100
AcDbEntity
  8
90-ScaleR0.4
  6
Continuous
 62
     7
370
    30
100
AcDbText
 10
236.6372452482055
 20
33.2063520871
 30
0.0
 40
3.6
  1
面
 41
0.95
  7
KCADTEXTSTANDARD
100
AcDbText
1001
Sigma
1000

  0
LINE
  5
347
330
1F
100
AcDbEntity
  8
90-ScaleR0.4
  6
Continuous
 62
     7
370
    30
100
AcDbLine
 10
235.8190065201555
 20
17.43194192379999
 30
0.0
 11
235.8190065201555
 21
47.43194192379998
 31
0.0
1001
Sigma
1000

  0
LINE
  5
349
330
1F
100
AcDbEntity
  8
90-ScaleR0.4
  6
Continuous
 62
     7
370
    30
100
AcDbLine
 10
276.819006761235
 20
17.48820326680001
 30
0.0
 11
276.819006761235
 21
37.43194192379999
 31
0.0
1001
Sigma
1000

  0
LINE
  5
34B
330
1F
100
AcDbEntity
  8
90-ScaleR0.4
  6
Continuous
 62
     7
370
    30
100
AcDbLine
 10
280.41882254347
 20
21.12369774049999
 30
0.0
 11
287.970676149205
 21
28.67555134625
 31
0.0
1001
Sigma
1000

  0
LINE
  5
34D
330
1F
100
AcDbEntity
  8
90-ScaleR0.4
  6
Continuous
 62
     7
370
    15
100
AcDbLine
 10
241.044198427471
 20
27.43194192379998
 30
0.0
 11
241.044198427471
 21
37.43194192379999
 31
0.0
1001
Sigma
1000

  0
TEXT
  5
34F
330
1F
100
AcDbEntity
  8
90-ScaleR0.4
  6
Continuous
 62
     7
370
    30
100
AcDbText
 10
236.6372452482055
 20
28.20635208709998
 30
0.0
 40
3.6
  1
取
 41
0.95
  7
KCADTEXTSTANDARD
100
AcDbText
1001
Sigma
1000

  0
TEXT
  5
351
330
1F
100
AcDbEntity
  8
90-ScaleR0.4
  6
Continuous
 62
     7
370
    30
100
AcDbText
 10
142.80210074895
 20
40.29800362975
 30
0.0
 40
3.6
  1
１９９６年４月２６日
 41
1.078250005096197
  7
KCADTEXTSTANDARD
100
AcDbText
1001
Sigma
1000

  0
LINE
  5
353
330
1F
100
AcDbEntity
  8
90-ScaleR0.4
  6
Continuous
 62
     7
370
    30
100
AcDbLine
 10
411.81900676123
 20
47.43194192379998
 30
0.0
 11
28.8189987163
 21
47.43194192379998
 31
0.0
1001
Sigma
1000

  0
TEXT
  5
355
330
1F
100
AcDbEntity
  8
90-ScaleR0.4
  6
Continuous
 62
     7
370
    30
100
AcDbText
 10
196.857370671825
 20
23.2344827586
 30
0.0
 40
3.6
  1
公
 41
0.95
  7
KCADTEXTSTANDARD
100
AcDbText
1001
Sigma
1000

  0
TEXT
  5
357
330
1F
100
AcDbEntity
  8
90-ScaleR0.4
  6
Continuous
 62
     7
370
    30
100
AcDbText
 10
196.857370671825
 20
18.2344827586
 30
0.0
 40
3.6
  1
差
 41
0.95
  7
KCADTEXTSTANDARD
100
AcDbText
1001
Sigma
1000

  0
LINE
  5
359
330
1F
100
AcDbEntity
  8
90-ScaleR0.4
  6
Continuous
 62
     7
370
    15
100
AcDbLine
 10
212.0000000000001
 20
15.43194192379999
 30
0.0
 11
212.0000000000001
 21
17.51814882035
 31
0.0
1001
Sigma
1000

  0
LINE
  5
35B
330
1F
100
AcDbEntity
  8
90-ScaleR0.4
  6
Continuous
 62
     7
370
    30
100
AcDbLine
 10
135.8190063753
 20
37.43194192379999
 30
0.0
 11
291.819006761235
 21
37.43194192379999
 31
0.0
1001
Sigma
1000

  0
TEXT
  5
35D
330
1F
100
AcDbEntity
  8
90-ScaleR0.4
  6
Continuous
 62
     7
370
    30
100
AcDbText
 10
139.09066116025
 20
33.35812159709999
 30
0.0
 40
3.6
  1
設計
 41
1.02125000283122
  7
KCADTEXTSTANDARD
100
AcDbText
1001
Sigma
1000

  0
TEXT
  5
35F
330
1F
100
AcDbEntity
  8
90-ScaleR0.4
  6
Continuous
 62
     7
370
    30
100
AcDbText
 10
154.47626527335
 20
33.35812159709999
 30
0.0
 40
3.6
  1
製図
 41
1.02125000283122
  7
KCADTEXTSTANDARD
100
AcDbText
1001
Sigma
1000

  0
TEXT
  5
361
330
1F
100
AcDbEntity
  8
90-ScaleR0.4
  6
Continuous
 62
     7
370
    30
100
AcDbText
 10
168.9171393093599
 20
33.35812159709999
 30
0.0
 40
3.6
  1
検図
 41
1.02125000283122
  7
KCADTEXTSTANDARD
100
AcDbText
1001
Sigma
1000

  0
TEXT
  5
363
330
1F
100
AcDbEntity
  8
90-ScaleR0.4
  6
Continuous
 62
     7
370
    30
100
AcDbText
 10
183.7628976641149
 20
33.35812159709999
 30
0.0
 40
3.6
  1
承認
 41
1.02125000283122
  7
KCADTEXTSTANDARD
100
AcDbText
1001
Sigma
1000

  0
LINE
  5
365
330
1F
100
AcDbEntity
  8
90-ScaleR0.4
  6
Continuous
 62
     7
370
    30
100
AcDbLine
 10
291.819006761235
 20
17.43194192379999
 30
0.0
 11
291.819006761235
 21
47.43194192379998
 31
0.0
1001
Sigma
1000

  0
LINE
  5
367
330
1F
100
AcDbEntity
  8
90-ScaleR0.4
  6
Continuous
 62
     7
370
    15
100
AcDbLine
 10
301.819006761235
 20
47.43194192379998
 30
0.0
 11
301.819006761235
 21
17.43194192379999
 31
0.0
1001
Sigma
1000

  0
LINE
  5
369
330
1F
100
AcDbEntity
  8
90-ScaleR0.4
  6
Continuous
 62
     7
370
    15
100
AcDbLine
 10
36.8189987398
 20
17.43194192379999
 30
0.0
 11
36.8189987398
 21
47.43194192379998
 31
0.0
1001
Sigma
1000

  0
LINE
  5
36B
330
1F
100
AcDbEntity
  8
90-ScaleR0.4
  6
Continuous
 62
     7
370
    15
100
AcDbLine
 10
135.8190063753
 20
32.43194192379999
 30
0.0
 11
195.819006375325
 21
32.43194192379999
 31
0.0
1001
Sigma
1000

  0
LINE
  5
36D
330
1F
100
AcDbEntity
  8
90-ScaleR0.4
  6
Continuous
 62
     7
370
    30
100
AcDbLine
 10
150.8190063753
 20
17.43194192379999
 30
0.0
 11
150.8190063753
 21
37.43194192379999
 31
0.0
1001
Sigma
1000

  0
LINE
  5
36F
330
1F
100
AcDbEntity
  8
90-ScaleR0.4
  6
Continuous
 62
     7
370
    30
100
AcDbLine
 10
165.8190063753249
 20
17.43194192379999
 30
0.0
 11
165.8190063753249
 21
37.43194192379999
 31
0.0
1001
Sigma
1000

  0
LINE
  5
371
330
1F
100
AcDbEntity
  8
90-ScaleR0.4
  6
Continuous
 62
     7
370
    30
100
AcDbLine
 10
180.819006375325
 20
37.43194192379999
 30
0.0
 11
180.819006375325
 21
17.43194192379999
 31
0.0
1001
Sigma
1000

  0
LINE
  5
373
330
1F
100
AcDbEntity
  8
90-ScaleR0.4
  6
Continuous
 62
     7
370
    15
100
AcDbLine
 10
54.81899953979999
 20
17.43194192379999
 30
0.0
 11
54.81899953979999
 21
47.43194192379998
 31
0.0
1001
Sigma
1000

  0
LINE
  5
375
330
1F
100
AcDbEntity
  8
90-ScaleR0.4
  6
Continuous
 62
     7
370
    15
100
AcDbLine
 10
28.8189987163
 20
22.43194192379998
 30
0.0
 11
135.8190063753
 21
22.43194192379998
 31
0.0
1001
Sigma
1000

  0
TEXT
  5
377
330
1F
100
AcDbEntity
  8
90-ScaleR0.4
  6
Continuous
 62
     7
370
    30
100
AcDbText
 10
196.84238913154
 20
33.36923774954999
 30
0.0
 40
3.6
  1
仕
 41
0.95
  7
KCADTEXTSTANDARD
100
AcDbText
1001
Sigma
1000

  0
LINE
  5
379
330
1F
100
AcDbEntity
  8
90-ScaleR0.4
  6
Continuous
 62
     7
370
    15
100
AcDbLine
 10
28.8189987163
 20
27.43194192379998
 30
0.0
 11
135.8190063753
 21
27.43194192379998
 31
0.0
1001
Sigma
1000

  0
TEXT
  5
37B
330
1F
100
AcDbEntity
  8
90-ScaleR0.4
  6
Continuous
 62
     7
370
    30
100
AcDbText
 10
196.84238913154
 20
28.36923774954999
 30
0.0
 40
3.6
  1
上
 41
0.95
  7
KCADTEXTSTANDARD
100
AcDbText
1001
Sigma
1000

  0
LINE
  5
37D
330
1F
100
AcDbEntity
  8
90-ScaleR0.4
  6
Continuous
 62
     7
370
    15
100
AcDbLine
 10
245.8190065201555
 20
37.43194192379999
 30
0.0
 11
245.8190065201555
 21
47.43194192379998
 31
0.0
1001
Sigma
1000

  0
TEXT
  5
37F
330
1F
100
AcDbEntity
  8
90-ScaleR0.4
  6
Continuous
 62
     7
370
    30
100
AcDbText
 10
236.9367443093575
 20
42.93684210524999
 30
0.0
 40
3.6
  1
表面
 41
1.02125000283122
  7
KCADTEXTSTANDARD
100
AcDbText
1001
Sigma
1000

  0
LINE
  5
381
330
1F
100
AcDbEntity
  8
90-ScaleR0.4
  6
Continuous
 62
     7
370
    15
100
AcDbLine
 10
28.8189987163
 20
32.43194192379999
 30
0.0
 11
135.8190063753
 21
32.43194192379999
 31
0.0
1001
Sigma
1000

  0
LINE
  5
383
330
1F
100
AcDbEntity
  8
90-ScaleR0.4
  6
Continuous
 62
     7
370
    15
100
AcDbLine
 10
28.8189987163
 20
37.43194192379999
 30
0.0
 11
135.8190063753
 21
37.43194192379999
 31
0.0
1001
Sigma
1000

  0
LINE
  5
385
330
1F
100
AcDbEntity
  8
90-ScaleR0.4
  6
Continuous
 62
     7
370
    15
100
AcDbLine
 10
66.81899986114999
 20
17.43194192379999
 30
0.0
 11
66.81899986114999
 21
47.43194192379998
 31
0.0
1001
Sigma
1000

  0
LINE
  5
387
330
1F
100
AcDbEntity
  8
90-ScaleR0.4
  6
Continuous
 62
     7
370
    15
100
AcDbLine
 10
28.8189987163
 20
42.43194192379998
 30
0.0
 11
135.8190063753
 21
42.43194192379998
 31
0.0
1001
Sigma
1000

  0
LINE
  5
38B
330
1F
100
AcDbEntity
  8
90-ScaleR0.4
  6
Continuous
 62
     7
370
    15
100
AcDbLine
 10
212.0
 20
285.931941923775
 30
0.0
 11
212.0
 21
288.431941923775
 31
0.0
1001
Sigma
1000

  0
LINE
  5
38D
330
1F
100
AcDbEntity
  8
90-ScaleR0.4
  6
Continuous
 62
     7
370
    15
100
AcDbLine
 10
29.3189987163
 20
148.5
 30
0.0
 11
26.8189987163
 21
148.5
 31
0.0
1001
Sigma
1000

  0
LINE
  5
38F
330
1F
100
AcDbEntity
  8
90-ScaleR0.4
  6
Continuous
 62
     7
370
    15
100
AcDbLine
 10
410.8190067612301
 20
148.5
 30
0.0
 11
413.31900676123
 21
148.5
 31
0.0
1001
Sigma
1000

  0
LINE
  5
391
330
1F
100
AcDbEntity
  8
0
  6
CENTER
 62
     7
370
    15
100
AcDbLine
 10
60.2302085263218
 20
148.4999999999994
 30
0.0
 11
273.5888052681092
 21
148.4999999999994
 31
0.0
1001
Sigma
1000

  0
LINE
  5
393
330
1F
100
AcDbEntity
  8
0
  6
CENTER
 62
     7
370
    15
100
AcDbLine
 10
271.1648165569144
 20
148.4999999999999
 30
0.0
 11
312.4536218250235
 21
148.4999999999999
 31
0.0
1001
Sigma
1000

  0
LINE
  5
396
330
1F
100
AcDbEntity
  8
2
  6
Continuous
 62
     7
370
    30
100
AcDbLine
 10
140.9999999999999
 20
158.2
 30
0.0
 11
140.9999999999999
 21
148.5000000000001
 31
0.0
1001
Sigma
1000

  0
LINE
  5
398
330
1F
100
AcDbEntity
  8
2
  6
Continuous
 62
     7
370
    30
100
AcDbLine
 10
145.9999999999999
 20
148.5000000000001
 30
0.0
 11
145.9999999999999
 21
158.5000000000001
 31
0.0
1001
Sigma
1000

  0
LINE
  5
39A
330
1F
100
AcDbEntity
  8
2
  6
Continuous
 62
     7
370
    30
100
AcDbLine
 10
140.9999999999999
 20
138.7999999999996
 30
0.0
 11
140.9999999999999
 21
148.4999999999996
 31
0.0
1001
Sigma
1000

  0
LINE
  5
39C
330
1F
100
AcDbEntity
  8
2
  6
Continuous
 62
     7
370
    30
100
AcDbLine
 10
145.9999999999999
 20
148.4999999999996
 30
0.0
 11
145.9999999999999
 21
138.4999999999996
 31
0.0
1001
Sigma
1000

  0
LINE
  5
39E
330
1F
100
AcDbEntity
  8
2
  6
Continuous
 62
     7
370
    30
100
AcDbLine
 10
178.0
 20
148.5
 30
0.0
 11
177.9999999999999
 21
158.5000000000001
 31
0.0
1001
Sigma
1000

  0
LINE
  5
3A0
330
1F
100
AcDbEntity
  8
2
  6
Continuous
 62
     7
370
    30
100
AcDbLine
 10
178.0
 20
148.4999999999996
 30
0.0
 11
178.0
 21
138.4999999999996
 31
0.0
1001
Sigma
1000

  0
LINE
  5
3A3
330
1F
100
AcDbEntity
  8
3
  6
Continuous
 62
     7
370
    30
100
AcDbLine
 10
71.73352790176327
 20
149.4335279017634
 30
0.0
 11
69.75798697984419
 21
147.4579869798443
 31
0.0
1001
Sigma
1000

  0
LINE
  5
3A5
330
1F
100
AcDbEntity
  8
3
  6
Continuous
 62
     7
370
    30
100
AcDbLine
 10
69.86647209823664
 20
149.4335279017634
 30
0.0
 11
71.84201302015575
 21
147.4579869798443
 31
0.0
1001
Sigma
1000

  0
LINE
  5
3A7
330
1F
100
AcDbEntity
  8
2
  6
Continuous
 62
     7
370
    30
100
AcDbLine
 10
275.4999999999999
 20
158.5000000000001
 30
0.0
 11
141.2999999999999
 21
158.5000000000001
 31
0.0
1001
Sigma
1000

  0
LINE
  5
3A9
330
1F
100
AcDbEntity
  8
2
  6
Continuous
 62
     7
370
    30
100
AcDbLine
 10
275.4999999999997
 20
138.4999999999997
 30
0.0
 11
141.2999999999999
 21
138.4999999999996
 31
0.0
1001
Sigma
1000

  0
LINE
  5
3AB
330
1F
100
AcDbEntity
  8
2
  6
Continuous
 62
     7
370
    30
100
AcDbLine
 10
275.4999999999998
 20
161.9999999999999
 30
0.0
 11
275.4999999999998
 21
148.4999999999999
 31
0.0
1001
Sigma
1000

  0
LINE
  5
3AD
330
1F
100
AcDbEntity
  8
2
  6
Continuous
 62
     7
370
    30
100
AcDbLine
 10
275.4999999999998
 20
134.9999999999999
 30
0.0
 11
275.4999999999998
 21
148.4999999999999
 31
0.0
1001
Sigma
1000

  0
LINE
  5
3AF
330
1F
100
AcDbEntity
  8
2
  6
Continuous
 62
     7
370
    30
100
AcDbLine
 10
275.9999999999998
 20
162.4999999999999
 30
0.0
 11
286.4999999999998
 21
162.4999999999999
 31
0.0
1001
Sigma
1000

  0
LINE
  5
3B1
330
1F
100
AcDbEntity
  8
2
  6
Continuous
 62
     7
370
    30
100
AcDbLine
 10
275.9999999999998
 20
134.4999999999999
 30
0.0
 11
286.4999999999998
 21
134.4999999999999
 31
0.0
1001
Sigma
1000

  0
LINE
  5
3B3
330
1F
100
AcDbEntity
  8
2
  6
Continuous
 62
     7
370
    30
100
AcDbLine
 10
287.4999999999999
 20
135.4999999999999
 30
0.0
 11
287.4999999999998
 21
161.4999999999999
 31
0.0
1001
Sigma
1000

  0
LINE
  5
3B5
330
1F
100
AcDbEntity
  8
3
  6
Continuous
 62
     7
370
    30
100
AcDbLine
 10
305.9595279017631
 20
149.4335279017632
 30
0.0
 11
303.9839869798441
 21
147.4579869798441
 31
0.0
1001
Sigma
1000

  0
LINE
  5
3B7
330
1F
100
AcDbEntity
  8
3
  6
Continuous
 62
     7
370
    30
100
AcDbLine
 10
304.0924720982364
 20
149.4335279017632
 30
0.0
 11
306.0680130201556
 21
147.4579869798441
 31
0.0
1001
Sigma
1000

  0
LINE
  5
3B9
330
1F
100
AcDbEntity
  8
2
  6
Continuous
 62
     7
370
    30
100
AcDbLine
 10
216.9999999999999
 20
158.5000000000007
 30
0.0
 11
217.0
 21
138.5000000000002
 31
0.0
1001
Sigma
1000

  0
LINE
  5
3BB
330
1F
100
AcDbEntity
  8
2
  6
Continuous
 62
     7
370
    30
100
AcDbLine
 10
288.2999999999998
 20
161.1499999999999
 30
0.0
 11
290.9812586317325
 21
161.1499999999999
 31
0.0
1001
Sigma
1000

  0
LINE
  5
3BD
330
1F
100
AcDbEntity
  8
2
  6
Continuous
 62
     7
370
    30
100
AcDbLine
 10
291.4999999999998
 20
148.4999999999999
 30
0.0
 11
291.4999999999998
 21
160.6312586317327
 31
0.0
1001
Sigma
1000

  0
LINE
  5
3BF
330
1F
100
AcDbEntity
  8
2
  6
Continuous
 62
     7
370
    30
100
AcDbLine
 10
290.2166745061147
 20
160.6312586317327
 30
0.0
 11
291.4999999999998
 21
160.6312586317327
 31
0.0
1001
Sigma
1000

  0
LINE
  5
3C1
330
1F
100
AcDbEntity
  8
2
  6
Continuous
 62
     7
370
    30
100
AcDbLine
 10
288.2999999999999
 20
148.4999999999999
 30
0.0
 11
288.2999999999998
 21
161.1499999999999
 31
0.0
1001
Sigma
1000

  0
LINE
  5
3C3
330
1F
100
AcDbEntity
  8
2
  6
Continuous
 62
     7
370
    30
100
AcDbLine
 10
290.2166745061147
 20
160.6312586317327
 30
0.0
 11
287.4999999999998
 21
160.6312586317327
 31
0.0
1001
Sigma
1000

  0
LINE
  5
3C5
330
1F
100
AcDbEntity
  8
2
  6
Continuous
 62
     7
370
    30
100
AcDbLine
 10
286.4999999999998
 20
162.4999999999999
 30
0.0
 11
287.4999999999998
 21
161.4999999999999
 31
0.0
1001
Sigma
1000

  0
LINE
  5
3C7
330
1F
100
AcDbEntity
  8
2
  6
Continuous
 62
     7
370
    30
100
AcDbLine
 10
286.4999999999998
 20
162.4999999999999
 30
0.0
 11
286.4999999999998
 21
134.4999999999999
 31
0.0
1001
Sigma
1000

  0
LINE
  5
3C9
330
1F
100
AcDbEntity
  8
2
  6
Continuous
 62
     7
370
    30
100
AcDbLine
 10
287.4999999999999
 20
135.4999999999999
 30
0.0
 11
286.4999999999998
 21
134.4999999999999
 31
0.0
1001
Sigma
1000

  0
LINE
  5
3CB
330
1F
100
AcDbEntity
  8
2
  6
Continuous
 62
     7
370
    30
100
AcDbLine
 10
275.4999999999998
 20
161.9999999999999
 30
0.0
 11
275.9999999999998
 21
162.4999999999999
 31
0.0
1001
Sigma
1000

  0
LINE
  5
3CD
330
1F
100
AcDbEntity
  8
2
  6
Continuous
 62
     7
370
    30
100
AcDbLine
 10
275.9999999999998
 20
162.4999999999999
 30
0.0
 11
275.9999999999998
 21
134.4999999999999
 31
0.0
1001
Sigma
1000

  0
LINE
  5
3CF
330
1F
100
AcDbEntity
  8
2
  6
Continuous
 62
     7
370
    30
100
AcDbLine
 10
275.4999999999998
 20
134.9999999999999
 30
0.0
 11
275.9999999999998
 21
134.4999999999999
 31
0.0
1001
Sigma
1000

  0
LINE
  5
3D1
330
1F
100
AcDbEntity
  8
2
  6
Continuous
 62
     7
370
    30
100
AcDbLine
 10
291.4999999999998
 20
160.6312586317327
 30
0.0
 11
290.9812586317325
 21
161.1499999999999
 31
0.0
1001
Sigma
1000

  0
LINE
  5
3D3
330
1F
100
AcDbEntity
  8
2
  6
Continuous
 62
     7
370
    30
100
AcDbLine
 10
290.9812586317325
 20
161.1499999999999
 30
0.0
 11
290.9812586317325
 21
148.4999999999999
 31
0.0
1001
Sigma
1000

  0
LINE
  5
3D5
330
1F
100
AcDbEntity
  8
2
  6
Continuous
 62
     7
370
    30
100
AcDbLine
 10
288.2999999999998
 20
135.8499999999999
 30
0.0
 11
290.9812586317325
 21
135.8499999999999
 31
0.0
1001
Sigma
1000

  0
LINE
  5
3D7
330
1F
100
AcDbEntity
  8
2
  6
Continuous
 62
     7
370
    30
100
AcDbLine
 10
291.4999999999998
 20
148.4999999999999
 30
0.0
 11
291.4999999999998
 21
136.3687413682671
 31
0.0
1001
Sigma
1000

  0
LINE
  5
3D9
330
1F
100
AcDbEntity
  8
2
  6
Continuous
 62
     7
370
    30
100
AcDbLine
 10
291.4999999999998
 20
136.3687413682671
 30
0.0
 11
287.4999999999999
 21
136.3687413682671
 31
0.0
1001
Sigma
1000

  0
LINE
  5
3DB
330
1F
100
AcDbEntity
  8
2
  6
Continuous
 62
     7
370
    30
100
AcDbLine
 10
288.2999999999999
 20
148.4999999999999
 30
0.0
 11
288.2999999999998
 21
135.8499999999999
 31
0.0
1001
Sigma
1000

  0
LINE
  5
3DD
330
1F
100
AcDbEntity
  8
2
  6
Continuous
 62
     7
370
    30
100
AcDbLine
 10
291.4999999999998
 20
136.3687413682671
 30
0.0
 11
290.9812586317325
 21
135.8499999999999
 31
0.0
1001
Sigma
1000

  0
LINE
  5
3DF
330
1F
100
AcDbEntity
  8
2
  6
Continuous
 62
     7
370
    30
100
AcDbLine
 10
290.9812586317325
 20
135.8499999999999
 30
0.0
 11
290.9812586317325
 21
148.4999999999999
 31
0.0
1001
Sigma
1000

  0
LINE
  5
3E1
330
1F
100
AcDbEntity
  8
2
  6
Continuous
 62
     7
370
    30
100
AcDbLine
 10
140.9999999999999
 20
158.2
 30
0.0
 11
141.2999999999999
 21
158.5000000000001
 31
0.0
1001
Sigma
1000

  0
LINE
  5
3E3
330
1F
100
AcDbEntity
  8
2
  6
Continuous
 62
     7
370
    30
100
AcDbLine
 10
140.9999999999999
 20
138.7999999999996
 30
0.0
 11
141.2999999999999
 21
138.4999999999996
 31
0.0
1001
Sigma
1000

  0
LINE
  5
3E7
102
{ACAD_REACTORS
330
3E5
102
}
330
1F
100
AcDbEntity
  8
4
  6
Continuous
 62
     7
370
    15
100
AcDbLine
 10
289.5867356538099
 20
135.4138165268909
 30
0.0
 11
279.2246214273012
 21
115.6106648940073
 31
0.0
1001
Sigma
1000

  0
INSERT
  5
3E9
102
{ACAD_REACTORS
330
3E5
102
}
330
1F
100
AcDbEntity
  8
4
  6
Continuous
 62
     7
370
    15
100
AcDbBlockReference
  2
_OPEN30
 10
289.5867356538099
 20
135.4138165268909
 30
0.0
 41
3.0
 42
3.0
 43
3.0
 50
62.37892501692486
1001
Sigma
1000
_BRRS
  0
LINE
  5
3EB
330
1F
100
AcDbEntity
  8
4
  6
Continuous
 62
     7
370
    15
100
AcDbLine
 10
279.2246214273011
 20
115.6106648940073
 30
0.0
 11
334.3574317968015
 21
115.6106648940073
 31
0.0
1001
Sigma
1000

  0
TEXT
  5
3ED
330
1F
100
AcDbEntity
  8
4
  6
Continuous
 62
     7
370
    30
100
AcDbText
 10
285.4599717779868
 20
116.6680498288664
 30
0.0
 40
4.5
  1
Ｍ２５．４　３２山
 41
1.027206374804178
  7
KCADTEXTSTANDARD
100
AcDbText
1001
Sigma
1000

  0
TEXT
  5
3EF
330
1F
100
AcDbEntity
  8
0
  6
Continuous
 62
     7
370
    30
100
AcDbText
 10
311.3497386058361
 20
21.89887311635912
 30
0.0
 40
4.5
  1
ＫＣＭ－５
 41
1.01948573732376
  7
KCADTEXTSTANDARD
100
AcDbText
1001
Sigma
1000

  0
TEXT
  5
3F1
330
1F
100
AcDbEntity
  8
0
  6
Continuous
 62
     7
370
    30
100
AcDbText
 10
366.0722221429952
 20
21.89265011608903
 30
0.0
 40
4.5
  1
TSTM-065
 41
1.026000025197863
  7
KCADTEXTSTANDARD
100
AcDbText
1001
Sigma
1000

  0
TEXT
  5
3F3
330
1F
100
AcDbEntity
  8
0
  6
Continuous
 62
     7
370
    30
100
AcDbText
 10
316.4345045671373
 20
35.6551497458776
 30
0.0
 40
4.5
  1
外 観 図
 41
0.8121143029928207
  7
KCADTEXTSTANDARD
100
AcDbText
1001
Sigma
1000

  0
CIRCLE
  5
3F5
330
1F
100
AcDbEntity
  8
2
  6
Continuous
 62
     7
370
    15
100
AcDbCircle
 10
279.4999999999998
 20
148.4999999999999
 30
0.0
 40
1.5
1001
Sigma
1000

  0
CIRCLE
  5
3F7
330
1F
100
AcDbEntity
  8
2
  6
Continuous
 62
     7
370
    15
100
AcDbCircle
 10
279.4999999999998
 20
148.4999999999999
 30
0.0
 40
1.0
1001
Sigma
1000

  0
LINE
  5
3FA
102
{ACAD_REACTORS
330
3F9
102
}
330
1F
100
AcDbEntity
  8
90-ScaleR0.4
  6
Continuous
 62
     7
370
    15
100
AcDbLine
 10
33.1352874227
 20
46.8197959774
 30
0.0
 11
35.1352874227
 21
43.35569436225
 31
0.0
1001
Sigma
1000

  0
LINE
  5
3FC
102
{ACAD_REACTORS
330
3F9
102
}
330
1F
100
AcDbEntity
  8
90-ScaleR0.4
  6
Continuous
 62
     7
370
    15
100
AcDbLine
 10
35.1352874227
 20
43.35569436225
 30
0.0
 11
31.1352874227
 21
43.35569436225
 31
0.0
1001
Sigma
1000

  0
LINE
  5
3FE
102
{ACAD_REACTORS
330
3F9
102
}
330
1F
100
AcDbEntity
  8
90-ScaleR0.4
  6
Continuous
 62
     7
370
    15
100
AcDbLine
 10
31.1352874227
 20
43.35569436225
 30
0.0
 11
33.1352874227
 21
46.8197959774
 31
0.0
1001
Sigma
1000

  0
LINE
  5
401
102
{ACAD_REACTORS
330
400
102
}
330
1F
100
AcDbEntity
  8
90-ScaleR0.4
  6
Continuous
 62
     7
370
    15
100
AcDbLine
 10
33.1352874227
 20
41.96861630409998
 30
0.0
 11
35.1352874227
 21
38.50451468894999
 31
0.0
1001
Sigma
1000

  0
LINE
  5
403
102
{ACAD_REACTORS
330
400
102
}
330
1F
100
AcDbEntity
  8
90-ScaleR0.4
  6
Continuous
 62
     7
370
    15
100
AcDbLine
 10
35.1352874227
 20
38.50451468894999
 30
0.0
 11
31.1352874227
 21
38.50451468894999
 31
0.0
1001
Sigma
1000

  0
LINE
  5
405
102
{ACAD_REACTORS
330
400
102
}
330
1F
100
AcDbEntity
  8
90-ScaleR0.4
  6
Continuous
 62
     7
370
    15
100
AcDbLine
 10
31.1352874227
 20
38.50451468894999
 30
0.0
 11
33.1352874227
 21
41.96861630409998
 31
0.0
1001
Sigma
1000

  0
LINE
  5
408
102
{ACAD_REACTORS
330
407
102
}
330
1F
100
AcDbEntity
  8
90-ScaleR0.4
  6
Continuous
 62
     7
370
    15
100
AcDbLine
 10
30.86536454349999
 20
23.41195570529998
 30
0.0
 11
32.86536454349996
 21
26.87605732039997
 31
0.0
1001
Sigma
1000

  0
LINE
  5
40A
102
{ACAD_REACTORS
330
407
102
}
330
1F
100
AcDbEntity
  8
90-ScaleR0.4
  6
Continuous
 62
     7
370
    15
100
AcDbLine
 10
34.86536454349999
 20
23.41195570529998
 30
0.0
 11
30.86536454349999
 21
23.41195570529998
 31
0.0
1001
Sigma
1000

  0
LINE
  5
40C
102
{ACAD_REACTORS
330
407
102
}
330
1F
100
AcDbEntity
  8
90-ScaleR0.4
  6
Continuous
 62
     7
370
    15
100
AcDbLine
 10
32.86536454349996
 20
26.87605732039997
 30
0.0
 11
34.86536454349999
 21
23.41195570529998
 31
0.0
1001
Sigma
1000

  0
LINE
  5
40F
102
{ACAD_REACTORS
330
40E
102
}
330
1F
100
AcDbEntity
  8
90-ScaleR0.4
  6
Continuous
 62
     7
370
    15
100
AcDbLine
 10
33.1352874227
 20
31.72723699375
 30
0.0
 11
35.1352874227
 21
28.26313537859998
 31
0.0
1001
Sigma
1000

  0
LINE
  5
411
102
{ACAD_REACTORS
330
40E
102
}
330
1F
100
AcDbEntity
  8
90-ScaleR0.4
  6
Continuous
 62
     7
370
    15
100
AcDbLine
 10
35.1352874227
 20
28.26313537859998
 30
0.0
 11
31.1352874227
 21
28.26313537859998
 31
0.0
1001
Sigma
1000

  0
LINE
  5
413
102
{ACAD_REACTORS
330
40E
102
}
330
1F
100
AcDbEntity
  8
90-ScaleR0.4
  6
Continuous
 62
     7
370
    15
100
AcDbLine
 10
31.1352874227
 20
28.26313537859998
 30
0.0
 11
33.1352874227
 21
31.72723699375
 31
0.0
1001
Sigma
1000

  0
LINE
  5
416
102
{ACAD_REACTORS
330
415
102
}
330
1F
100
AcDbEntity
  8
90-ScaleR0.4
  6
Continuous
 62
     7
370
    15
100
AcDbLine
 10
33.1352874227
 20
36.57841666704999
 30
0.0
 11
35.1352874227
 21
33.11431505189999
 31
0.0
1001
Sigma
1000

  0
LINE
  5
418
102
{ACAD_REACTORS
330
415
102
}
330
1F
100
AcDbEntity
  8
90-ScaleR0.4
  6
Continuous
 62
     7
370
    15
100
AcDbLine
 10
35.1352874227
 20
33.11431505189999
 30
0.0
 11
31.1352874227
 21
33.11431505189999
 31
0.0
1001
Sigma
1000

  0
LINE
  5
41A
102
{ACAD_REACTORS
330
415
102
}
330
1F
100
AcDbEntity
  8
90-ScaleR0.4
  6
Continuous
 62
     7
370
    15
100
AcDbLine
 10
31.1352874227
 20
33.11431505189999
 30
0.0
 11
33.1352874227
 21
36.57841666704999
 31
0.0
1001
Sigma
1000

  0
DIMENSION
  5
41C
330
1F
100
AcDbEntity
  8
KCAD_DIMS
 62
     7
100
AcDbDimension
  2
*D39
 10
291.4999999999998
 20
180.1565908908948
 30
0.0
 11
296.0378889378268
 21
182.3022710216568
 31
0.0
 70
    32
 71
     5
 42
-1.0
  3
Standard
100
AcDbAlignedDimension
 13
287.4999999999999
 23
135.4999999999999
 33
0.0
 14
291.4999999999998
 24
148.4999999999999
 34
0.0
100
AcDbRotatedDimension
1001
Sigma
1000
DIM_TPHO
1001
KCAD_DIM_EXT
1002
{
1071
 20001212
1070
     0
1070
     1
1070
     1
1040
3.0
1040
5.0
1040
5.0
1040
0.0
1040
0.0
1040
0.0
1040
0.0
1040
0.0
1070
     1
1040
49.99999999999928
1040
5.362925784520929
1013
0.9999973496751962
1023
0.0023023124425195
1033
0.0
1040
2.3499547336026
1013
1.0
1023
0.0
1033
0.0
1000
_NONE
1040
0.0
1040
3.999999999999985
1070
     0
1070
     0
1070
     0
1012
1.0
1022
0.0
1032
0.0
1013
1.0
1023
0.0
1033
0.0
1002
}
1001
ACAD
1000
DSTYLE
1002
{
1070
    41
1040
3.0
1070
    42
1040
1.0
1070
    43
1040
8.0
1070
    44
1040
1.0
1070
    45
1040
0.0
1070
    73
1070
     0
1070
    74
1070
     0
1070
    77
1070
     1
1070
    78
1070
     8
1070
    79
1070
     2
1070
   140
1040
3.2
1070
   141
1040
2.5
1070
   145
1040
0.0001
1070
   146
1040
0.667
1070
   147
1040
0.5333000000000001
1070
   172
1070
     1
1070
   173
1070
     1
1070
   179
1070
     3
1070
   271
1070
     3
1070
   272
1070
     3
1070
   279
1070
     2
1070
   284
1070
     8
1070
   289
1070
     2
1070
   340
1005
189
1070
   341
1005
21
1070
   343
1005
12D
1070
   344
1005
12D
1002
}
  0
DIMENSION
  5
466
330
1F
100
AcDbEntity
  8
KCAD_DIMS
 62
     7
100
AcDbDimension
  2
*D40
 10
140.9999999999999
 20
194.2208622725724
 30
0.0
 11
214.2499999999998
 21
196.3541952725724
 31
0.0
 70
    32
 71
     5
 42
-1.0
  3
Standard
100
AcDbAlignedDimension
 13
287.4999999999998
 23
148.4999999999999
 33
0.0
 14
140.9999999999999
 24
148.4999999999994
 34
0.0
100
AcDbRotatedDimension
1001
Sigma
1000
DIM_TPHO
1001
KCAD_DIM_EXT
1002
{
1071
 20001212
1070
     0
1070
     2
1070
     2
1040
3.0
1040
0.0
1040
0.0
1040
0.0
1040
0.0
1040
0.0
1040
0.0
1040
0.0
1070
     0
1040
50.0
1040
-1.0
1013
1.0
1023
0.0
1033
0.0
1040
0.0
1013
1.0
1023
0.0
1033
0.0
1000
_None
1040
1.0
1040
146.4999999999998
1070
     0
1070
     0
1070
     0
1012
1.0
1022
0.0
1032
0.0
1013
1.0
1023
0.0
1033
0.0
1002
}
1001
ACAD
1000
DSTYLE
1002
{
1070
    41
1040
3.0
1070
    42
1040
1.0
1070
    43
1040
8.0
1070
    44
1040
1.0
1070
    45
1040
0.0
1070
    73
1070
     0
1070
    74
1070
     0
1070
    77
1070
     1
1070
    78
1070
     8
1070
    79
1070
     2
1070
   140
1040
3.2
1070
   141
1040
2.5
1070
   145
1040
0.0001
1070
   146
1040
0.667
1070
   147
1040
0.5333000000000001
1070
   172
1070
     1
1070
   173
1070
     1
1070
   179
1070
     3
1070
   271
1070
     3
1070
   272
1070
     3
1070
   279
1070
     2
1070
   284
1070
     8
1070
   289
1070
     2
1070
   340
1005
189
1070
   341
1005
21
1070
   343
1005
12D
1070
   344
1005
12D
1002
}
  0
DIMENSION
  5
4A2
330
1F
100
AcDbEntity
  8
KCAD_DIMS
 62
     7
100
AcDbDimension
  2
*D41
 10
70.79999999999927
 20
213.6662234042551
 30
0.0
 11
187.9129999999995
 21
215.7995564042551
 31
0.0
 70
    32
 71
     5
 42
-1.0
  3
Standard
100
AcDbAlignedDimension
 13
305.0259999999998
 23
148.4999999999999
 33
0.0
 14
70.79999999999927
 24
148.4999999999994
 34
0.0
100
AcDbRotatedDimension
1001
Sigma
1000
DIM_TPHO
1001
KCAD_DIM_EXT
1002
{
1071
 20001212
1070
     0
1070
     2
1070
     2
1040
3.0
1040
0.0
1040
0.0
1040
0.0
1040
0.0
1040
0.0
1040
0.0
1040
0.0
1070
     0
1040
50.0
1040
-1.0
1013
1.0
1023
0.0
1033
0.0
1040
0.0
1013
1.0
1023
0.0
1033
0.0
1000
_None
1040
1.0
1040
234.2260000000005
1070
     0
1070
     0
1070
     0
1012
1.0
1022
0.0
1032
0.0
1013
1.0
1023
0.0
1033
0.0
1002
}
1001
ACAD
1000
DSTYLE
1002
{
1070
    41
1040
3.0
1070
    42
1040
1.0
1070
    43
1040
8.0
1070
    44
1040
1.0
1070
    45
1040
0.0
1070
    73
1070
     0
1070
    74
1070
     0
1070
    77
1070
     1
1070
    78
1070
     8
1070
    79
1070
     2
1070
   140
1040
3.2
1070
   141
1040
2.5
1070
   145
1040
0.0001
1070
   146
1040
0.667
1070
   147
1040
0.5333000000000001
1070
   172
1070
     1
1070
   173
1070
     1
1070
   179
1070
     3
1070
   271
1070
     2
1070
   272
1070
     3
1070
   279
1070
     2
1070
   284
1070
     8
1070
   289
1070
     2
1070
   340
1005
189
1070
   341
1005
21
1070
   343
1005
12D
1070
   344
1005
12D
1002
}
  0
DIMENSION
  5
4DE
330
1F
100
AcDbEntity
  8
KCAD_DIMS
 62
     7
100
AcDbDimension
  2
*D42
 10
140.9999999999999
 20
180.1565908908948
 30
0.0
 11
105.9000000000002
 21
182.2899238908948
 31
0.0
 70
    32
 71
     5
 42
-1.0
  3
Standard
100
AcDbAlignedDimension
 13
70.80000000000061
 23
148.4999999999994
 33
0.0
 14
140.9999999999999
 24
148.4999999999996
 34
0.0
100
AcDbRotatedDimension
1001
Sigma
1000
DIM_TPHO
1001
KCAD_DIM_EXT
1002
{
1071
 20001212
1070
     0
1070
     2
1070
     2
1040
3.0
1040
0.0
1040
0.0
1040
0.0
1040
0.0
1040
0.0
1040
0.0
1040
0.0
1070
     0
1040
50.0
1040
-1.0
1013
1.0
1023
0.0
1033
0.0
1040
0.0
1013
1.0
1023
0.0
1033
0.0
1000
_None
1040
1.0
1040
70.1999999999993
1070
     0
1070
     0
1070
     0
1012
1.0
1022
0.0
1032
0.0
1013
1.0
1023
0.0
1033
0.0
1002
}
1001
ACAD
1000
DSTYLE
1002
{
1070
     3
1000
WD=<>
1070
    41
1040
3.0
1070
    42
1040
1.0
1070
    43
1040
8.0
1070
    44
1040
1.0
1070
    45
1040
0.0
1070
    73
1070
     0
1070
    74
1070
     0
1070
    77
1070
     1
1070
    78
1070
     8
1070
    79
1070
     2
1070
   140
1040
3.2
1070
   141
1040
2.5
1070
   145
1040
0.0001
1070
   146
1040
0.667
1070
   147
1040
0.5333000000000001
1070
   172
1070
     1
1070
   173
1070
     1
1070
   179
1070
     3
1070
   271
1070
     3
1070
   272
1070
     3
1070
   279
1070
     2
1070
   284
1070
     8
1070
   289
1070
     2
1070
   340
1005
189
1070
   341
1005
21
1070
   343
1005
12D
1070
   344
1005
12D
1002
}
  0
DIMENSION
  5
51A
330
1F
100
AcDbEntity
  8
KCAD_DIMS
 62
     7
100
AcDbDimension
  2
*D43
 10
121.195202257761
 20
138.4999999999996
 30
0.0
 11
119.061869257761
 21
148.4999999999997
 31
0.0
 70
    32
 71
     5
 42
-1.0
 53
90.00000000000007
  3
Standard
100
AcDbAlignedDimension
 13
156.9999999999999
 23
158.5000000000001
 33
0.0
 14
141.2999999999999
 24
138.4999999999996
 34
0.0
 50
90.00000000000007
100
AcDbRotatedDimension
1001
Sigma
1000
DIM_TPVO
1001
KCAD_DIM_EXT
1002
{
1071
 20001212
1070
     0
1070
     2
1070
     2
1040
3.0
1040
0.0
1040
0.0
1040
0.0
1040
0.0
1040
0.0
1040
0.0
1040
0.0
1070
     0
1040
50.0
1040
-1.0
1013
1.0
1023
0.0
1033
0.0
1040
0.0
1013
1.0
1023
0.0
1033
0.0
1000
_None
1040
1.0
1040
20.00000000000045
1070
     0
1070
     0
1070
     0
1012
1.0
1022
0.0
1032
0.0
1013
1.0
1023
0.0
1033
0.0
1002
}
1001
ACAD
1000
DSTYLE
1002
{
1070
     3
1000
%%c<>
1070
    41
1040
3.0
1070
    42
1040
1.0
1070
    43
1040
8.0
1070
    44
1040
1.0
1070
    45
1040
0.0
1070
    73
1070
     0
1070
    74
1070
     0
1070
    77
1070
     1
1070
    78
1070
     8
1070
    79
1070
     2
1070
   140
1040
3.2
1070
   141
1040
2.5
1070
   145
1040
0.0001
1070
   146
1040
0.667
1070
   147
1040
0.5333000000000001
1070
   172
1070
     1
1070
   173
1070
     1
1070
   179
1070
     3
1070
   271
1070
     1
1070
   272
1070
     3
1070
   279
1070
     2
1070
   284
1070
     8
1070
   289
1070
     2
1070
   340
1005
189
1070
   341
1005
21
1070
   343
1005
12D
1070
   344
1005
12D
1002
}
  0
DIMENSION
  5
556
330
1F
100
AcDbEntity
  8
KCAD_DIMS
 62
     7
100
AcDbDimension
  2
*D44
 10
275.4999999999998
 20
180.1565908908948
 30
0.0
 11
208.2499999999998
 21
182.2899238908948
 31
0.0
 70
    32
 71
     5
 42
-1.0
  3
Standard
100
AcDbAlignedDimension
 13
140.9999999999999
 23
148.5000000000001
 33
0.0
 14
275.4999999999998
 24
148.4999999999999
 34
0.0
100
AcDbRotatedDimension
1001
Sigma
1000
DIM_TPHO
1001
KCAD_DIM_EXT
1002
{
1071
 20001212
1070
     0
1070
     2
1070
     2
1040
3.0
1040
0.0
1040
0.0
1040
0.0
1040
0.0
1040
0.0
1040
0.0
1040
0.0
1070
     0
1040
50.0
1040
-1.0
1013
1.0
1023
0.0
1033
0.0
1040
0.0
1013
1.0
1023
0.0
1033
0.0
1000
_None
1040
1.0
1040
134.4999999999998
1070
     0
1070
     0
1070
     0
1012
1.0
1022
0.0
1032
0.0
1013
1.0
1023
0.0
1033
0.0
1002
}
1001
ACAD
1000
DSTYLE
1002
{
1070
    41
1040
3.0
1070
    42
1040
1.0
1070
    43
1040
8.0
1070
    44
1040
1.0
1070
    45
1040
0.0
1070
    73
1070
     0
1070
    74
1070
     0
1070
    77
1070
     1
1070
    78
1070
     8
1070
    79
1070
     2
1070
   140
1040
3.2
1070
   141
1040
2.5
1070
   145
1040
0.0001
1070
   146
1040
0.667
1070
   147
1040
0.5333000000000001
1070
   172
1070
     1
1070
   173
1070
     1
1070
   179
1070
     3
1070
   271
1070
     3
1070
   272
1070
     3
1070
   279
1070
     2
1070
   284
1070
     8
1070
   289
1070
     2
1070
   340
1005
189
1070
   341
1005
21
1070
   343
1005
12D
1070
   344
1005
12D
1002
}
  0
DIMENSION
  5
592
330
1F
100
AcDbEntity
  8
KCAD_DIMS
 62
     7
100
AcDbDimension
  2
*D45
 10
287.4999999999998
 20
180.1565908908948
 30
0.0
 11
281.4999999999997
 21
182.2899238908948
 31
0.0
 70
    32
 71
     5
 42
-1.0
  3
Standard
100
AcDbAlignedDimension
 13
275.4999999999998
 23
148.4999999999999
 33
0.0
 14
287.4999999999998
 24
148.4999999999999
 34
0.0
100
AcDbRotatedDimension
1001
Sigma
1000
DIM_TPHO
1001
KCAD_DIM_EXT
1002
{
1071
 20001212
1070
     0
1070
     2
1070
     2
1040
3.0
1040
0.0
1040
0.0
1040
0.0
1040
0.0
1040
0.0
1040
0.0
1040
0.0
1070
     0
1040
50.0
1040
-1.0
1013
1.0
1023
0.0
1033
0.0
1040
0.0
1013
1.0
1023
0.0
1033
0.0
1000
_None
1040
1.0
1040
12.0
1070
     0
1070
     0
1070
     0
1012
1.0
1022
0.0
1032
0.0
1013
1.0
1023
0.0
1033
0.0
1002
}
1001
ACAD
1000
DSTYLE
1002
{
1070
    41
1040
3.0
1070
    42
1040
1.0
1070
    43
1040
8.0
1070
    44
1040
1.0
1070
    45
1040
0.0
1070
    73
1070
     0
1070
    74
1070
     0
1070
    77
1070
     1
1070
    78
1070
     8
1070
    79
1070
     2
1070
   140
1040
3.2
1070
   141
1040
2.5
1070
   145
1040
0.0001
1070
   146
1040
0.667
1070
   147
1040
0.5333000000000001
1070
   172
1070
     1
1070
   173
1070
     1
1070
   179
1070
     3
1070
   271
1070
     1
1070
   272
1070
     3
1070
   279
1070
     2
1070
   284
1070
     8
1070
   289
1070
     2
1070
   340
1005
189
1070
   341
1005
21
1070
   343
1005
12D
1070
   344
1005
12D
1002
}
  0
DIMENSION
  5
5CE
330
1F
100
AcDbEntity
  8
KCAD_DIMS
 62
     7
100
AcDbDimension
  2
*D51
 10
305.0259999999998
 20
194.2208622725724
 30
0.0
 11
321.6327207500818
 21
194.4797960520338
 31
0.0
 70
    32
 71
     5
 42
-1.0
  3
Standard
100
AcDbAlignedDimension
 13
287.4999999999998
 23
148.4999999999999
 33
0.0
 14
305.0259999999998
 24
148.4999999999999
 34
0.0
100
AcDbRotatedDimension
1001
Sigma
1000
DIM_TPHO
1001
KCAD_DIM_EXT
1002
{
1071
 20001212
1070
     0
1070
     2
1070
     2
1040
3.0
1040
0.0
1040
0.0
1040
0.0
1040
0.0
1040
0.0
1040
0.0
1040
0.0
1070
     1
1040
49.99999999999984
1040
24.19596661360399
1013
0.5548389427347326
1023
0.8319577799534085
1033
0.0
1040
39.52493347503597
1013
1.0
1023
0.0
1033
0.0
1000
_NONE
1040
0.0
1040
17.52599999999999
1070
     0
1070
     0
1070
     0
1012
1.0
1022
0.0
1032
0.0
1013
1.0
1023
0.0
1033
0.0
1002
}
1001
ACAD
1000
DSTYLE
1002
{
1070
     3
1000
FB=<>
1070
    41
1040
3.0
1070
    42
1040
1.0
1070
    43
1040
8.0
1070
    44
1040
1.0
1070
    45
1040
0.0
1070
    73
1070
     0
1070
    74
1070
     0
1070
    77
1070
     1
1070
    78
1070
     8
1070
    79
1070
     2
1070
   140
1040
3.2
1070
   141
1040
2.5
1070
   145
1040
0.0001
1070
   146
1040
0.667
1070
   147
1040
0.5333000000000001
1070
   172
1070
     1
1070
   173
1070
     1
1070
   179
1070
     3
1070
   271
1070
     3
1070
   272
1070
     3
1070
   279
1070
     2
1070
   284
1070
     8
1070
   289
1070
     2
1070
   340
1005
189
1070
   341
1005
21
1070
   343
1005
12D
1070
   344
1005
12D
1002
}
  0
DIMENSION
  5
60C
330
1F
100
AcDbEntity
  8
KCAD_DIMS
 62
     7
100
AcDbDimension
  2
*D47
 10
291.5065228980995
 20
166.3553664961057
 30
0.0
 11
296.060583254939
 21
168.4863158266046
 31
0.0
 70
    32
  1
\A1;C1{\H0.667000x;}
 71
     5
 42
-1.0
  3
Standard
100
AcDbAlignedDimension
 13
287.0755782009968
 23
161.9244217990029
 33
0.0
 14
291.5065228980995
 24
166.3553664961057
 34
0.0
 50
45.00000000000045
100
AcDbRotatedDimension
1001
Sigma
1000
DIM_TPCHO
1001
KCAD_DIM_EXT
1002
{
1071
 20001212
1070
     7
1070
     2
1070
     2
1040
3.0
1040
0.0
1040
0.0
1040
0.0
1040
0.0
1040
0.0
1040
0.0
1040
0.0
1070
     1
1040
57.31170652337391
1040
2.689124578639562
1013
0.7116833795321345
1023
0.7025003681833342
1033
0.0
1040
7.206727188894159
1013
1.0
1023
0.0
1033
0.0
1000
_NONE
1040
0.0
1040
1.000000000000001
1070
     0
1070
     0
1070
     0
1012
1.0
1022
0.0
1032
0.0
1013
1.0
1023
0.0
1033
0.0
1002
}
1001
ACAD
1000
DSTYLE
1002
{
1070
     3
1000
C<>
1070
    41
1040
3.0
1070
    42
1040
1.0
1070
    43
1040
8.0
1070
    44
1040
1.0
1070
    45
1040
0.0
1070
    75
1070
     1
1070
    76
1070
     1
1070
    77
1070
     1
1070
    78
1070
     8
1070
    79
1070
     2
1070
   140
1040
3.2
1070
   141
1040
2.5
1070
   145
1040
0.0001
1070
   146
1040
0.667
1070
   147
1040
0.5333000000000001
1070
   172
1070
     1
1070
   173
1070
     1
1070
   179
1070
     3
1070
   271
1070
     3
1070
   272
1070
     3
1070
   279
1070
     2
1070
   284
1070
     8
1070
   289
1070
     2
1070
   340
1005
189
1070
   341
1005
21
1070
   343
1005
12D
1070
   344
1005
12D
1002
}
  0
DIMENSION
  5
647
330
1F
100
AcDbEntity
  8
KCAD_DIMS
 62
     7
100
AcDbDimension
  2
*D48
 10
270.8597389915451
 20
167.2666681059907
 30
0.0
 11
265.1477176636276
 21
169.4370448952782
 31
0.0
 70
    32
  1
\A1;C0.5{\H0.667000x;}
 71
     5
 42
-1.0
  3
Standard
100
AcDbAlignedDimension
 13
275.813203548768
 23
162.3132035487681
 33
0.0
 14
270.8597389915452
 24
167.2666681059908
 34
0.0
 50
315.0000000000004
100
AcDbRotatedDimension
1001
Sigma
1000
DIM_TPCHO
1001
KCAD_DIM_EXT
1002
{
1071
 20001212
1070
     7
1070
     2
1070
     2
1040
3.0
1040
0.0
1040
0.0
1040
0.0
1040
0.0
1040
0.0
1040
0.0
1040
0.0
1070
     1
1040
18.98972821364711
1040
5.727365367842112
1013
-0.7071067811865464
1023
0.7071067811865488
1033
0.0
1040
11.34995507726064
1013
-1.0
1023
0.0
1033
0.0
1000
_NONE
1040
0.0
1040
0.4999999999999993
1070
     0
1070
     0
1070
     0
1012
1.0
1022
0.0
1032
0.0
1013
1.0
1023
0.0
1033
0.0
1002
}
1001
ACAD
1000
DSTYLE
1002
{
1070
     3
1000
C<>
1070
    41
1040
3.0
1070
    42
1040
1.0
1070
    43
1040
8.0
1070
    44
1040
1.0
1070
    45
1040
0.0
1070
    75
1070
     1
1070
    76
1070
     1
1070
    77
1070
     1
1070
    78
1070
     8
1070
    79
1070
     2
1070
   140
1040
3.2
1070
   141
1040
2.5
1070
   145
1040
0.0001
1070
   146
1040
0.667
1070
   147
1040
0.5333000000000001
1070
   172
1070
     1
1070
   173
1070
     1
1070
   179
1070
     3
1070
   271
1070
     3
1070
   272
1070
     3
1070
   279
1070
     2
1070
   284
1070
     8
1070
   289
1070
     2
1070
   340
1005
189
1070
   341
1005
21
1070
   343
1005
12D
1070
   344
1005
12D
1002
}
  0
DIMENSION
  5
682
330
1F
100
AcDbEntity
  8
KCAD_DIMS
 62
     7
100
AcDbDimension
  2
*D49
 10
329.2990592662278
 20
134.4999999999999
 30
0.0
 11
327.1657262662277
 21
148.5
 31
0.0
 70
    32
 71
     5
 42
-1.0
 53
90.00000000000007
  3
Standard
100
AcDbAlignedDimension
 13
286.4999999999998
 23
162.4999999999999
 33
0.0
 14
286.4999999999998
 24
134.4999999999999
 34
0.0
 50
90.00000000000007
100
AcDbRotatedDimension
1001
Sigma
1000
DIM_TPVO
1001
KCAD_DIM_EXT
1002
{
1071
 20001212
1070
     0
1070
     2
1070
     2
1040
3.0
1040
0.0
1040
0.0
1040
0.0
1040
0.0
1040
0.0
1040
0.0
1040
0.0
1070
     0
1040
50.0
1040
-1.0
1013
1.0
1023
0.0
1033
0.0
1040
0.0
1013
1.0
1023
0.0
1033
0.0
1000
_None
1040
1.0
1040
28.0
1070
     0
1070
     0
1070
     0
1012
1.0
1022
0.0
1032
0.0
1013
1.0
1023
0.0
1033
0.0
1002
}
1001
ACAD
1000
DSTYLE
1002
{
1070
     3
1000
%%c<>
1070
    41
1040
3.0
1070
    42
1040
1.0
1070
    43
1040
8.0
1070
    44
1040
1.0
1070
    45
1040
0.0
1070
    73
1070
     0
1070
    74
1070
     0
1070
    77
1070
     1
1070
    78
1070
     8
1070
    79
1070
     2
1070
   140
1040
3.2
1070
   141
1040
2.5
1070
   145
1040
0.0001
1070
   146
1040
0.667
1070
   147
1040
0.5333000000000001
1070
   172
1070
     1
1070
   173
1070
     1
1070
   179
1070
     3
1070
   271
1070
     3
1070
   272
1070
     3
1070
   279
1070
     2
1070
   284
1070
     8
1070
   289
1070
     2
1070
   340
1005
189
1070
   341
1005
21
1070
   343
1005
12D
1070
   344
1005
12D
1002
}
  0
DIMENSION
  5
6BE
330
1F
100
AcDbEntity
  8
KCAD_DIMS
 62
     7
100
AcDbDimension
  2
*D50
 10
234.489290744295
 20
138.4999999999997
 30
0.0
 11
232.355957744295
 21
165.6615678776289
 31
0.0
 70
    32
 71
     5
 42
-1.0
 53
90.00000000000007
  3
Standard
100
AcDbAlignedDimension
 13
275.4999999999999
 23
158.5000000000001
 33
0.0
 14
275.4999999999997
 24
138.4999999999997
 34
0.0
 50
90.00000000000007
100
AcDbRotatedDimension
1001
Sigma
1000
DIM_TPVO
1001
KCAD_DIM_EXT
1002
{
1071
 20001212
1070
     0
1070
     1
1070
     1
1040
3.0
1040
11.33654535898281
1040
5.0
1040
0.0
1040
0.0
1040
0.0
1040
0.0
1040
0.0
1070
     0
1040
50.0
1040
-1.0
1013
1.0
1023
0.0
1033
0.0
1040
0.0
1013
1.0
1023
0.0
1033
0.0
1000
_None
1040
1.0
1040
20.00000000000047
1070
     0
1070
     0
1070
     0
1012
1.0
1022
0.0
1032
0.0
1013
1.0
1023
0.0
1033
0.0
1002
}
1001
ACAD
1000
DSTYLE
1002
{
1070
     3
1000
%%c<>
1070
    41
1040
3.0
1070
    42
1040
1.0
1070
    43
1040
8.0
1070
    44
1040
1.0
1070
    45
1040
0.0
1070
    73
1070
     0
1070
    74
1070
     0
1070
    77
1070
     1
1070
    78
1070
     8
1070
    79
1070
     2
1070
   140
1040
3.2
1070
   141
1040
2.5
1070
   145
1040
0.0001
1070
   146
1040
0.667
1070
   147
1040
0.5333000000000001
1070
   172
1070
     1
1070
   173
1070
     1
1070
   179
1070
     3
1070
   271
1070
     3
1070
   272
1070
     3
1070
   279
1070
     2
1070
   284
1070
     8
1070
   289
1070
     2
1070
   340
1005
189
1070
   341
1005
21
1070
   343
1005
12D
1070
   344
1005
12D
1002
}
  0
OLE2FRAME
  5
705
330
1F
100
AcDbEntity
  8
0
  6
Continuous
 62
   134
370
    15
100
AcDbOle2Frame
 70
     2
 10
195.0184098607278
 20
14.79230531826945
 30
0.0
 11
232.0256183579093
 21
8.999872683928006
 31
0.0
 72
     0
 73
   205
 90
    21632
310
005500B846D0966068400DD4EC0AA9952D400000000000000000B92C97DDD100
310
6D400DD4EC0AA9952D400000000000000000B92C97DDD1006D40E144FB4FEFFF
310
2140000000000000000000B846D096606840E144FB4FEFFF2140000000000000
310
0000000000000100000000010000010000000100000000000100000000540000
310
D0CF11E0A1B11AE1000000000000000000000000000000003E000300FEFF0900
310
0600000000000000000000000100000001000000000000000010000002000000
310
01000000FEFFFFFF0000000000000000FFFFFFFFFFFFFFFFFFFFFFFFFFFFFFFF
310
FFFFFFFFFFFFFFFFFFFFFFFFFFFFFFFFFFFFFFFFFFFFFFFFFFFFFFFFFFFFFFFF
310
FFFFFFFFFFFFFFFFFFFFFFFFFFFFFFFFFFFFFFFFFFFFFFFFFFFFFFFFFFFFFFFF
310
FFFFFFFFFFFFFFFFFFFFFFFFFFFFFFFFFFFFFFFFFFFFFFFFFFFFFFFFFFFFFFFF
310
FFFFFFFFFFFFFFFFFFFFFFFFFFFFFFFFFFFFFFFFFFFFFFFFFFFFFFFFFFFFFFFF
310
FFFFFFFFFFFFFFFFFFFFFFFFFFFFFFFFFFFFFFFFFFFFFFFFFFFFFFFFFFFFFFFF
310
FFFFFFFFFFFFFFFFFFFFFFFFFFFFFFFFFFFFFFFFFFFFFFFFFFFFFFFFFFFFFFFF
310
FFFFFFFFFFFFFFFFFFFFFFFFFFFFFFFFFFFFFFFFFFFFFFFFFFFFFFFFFFFFFFFF
310
FFFFFFFFFFFFFFFFFFFFFFFFFFFFFFFFFFFFFFFFFFFFFFFFFFFFFFFFFFFFFFFF
310
FFFFFFFFFFFFFFFFFFFFFFFFFFFFFFFFFFFFFFFFFFFFFFFFFFFFFFFFFFFFFFFF
310
FFFFFFFFFFFFFFFFFFFFFFFFFFFFFFFFFFFFFFFFFFFFFFFFFFFFFFFFFFFFFFFF
310
FFFFFFFFFFFFFFFFFFFFFFFFFFFFFFFFFFFFFFFFFFFFFFFFFFFFFFFFFFFFFFFF
310
FFFFFFFFFFFFFFFFFFFFFFFFFFFFFFFFFFFFFFFFFFFFFFFFFFFFFFFFFFFFFFFF
310
FFFFFFFFFFFFFFFFFFFFFFFFFFFFFFFFFFFFFFFFFFFFFFFFFFFFFFFFFFFFFFFF
310
FDFFFFFFFEFFFFFFFEFFFFFF2500000005000000060000000700000008000000
310
090000000A0000000B0000000C0000000D0000000E0000000F00000010000000
310
1100000012000000130000001400000015000000160000001700000018000000
310
190000001A0000001B0000001C0000001D0000001E0000001F00000020000000
310
21000000220000002300000024000000030000002600000027000000FEFFFFFF
310
FEFFFFFFFFFFFFFFFFFFFFFFFFFFFFFFFFFFFFFFFFFFFFFFFFFFFFFFFFFFFFFF
310
FFFFFFFFFFFFFFFFFFFFFFFFFFFFFFFFFFFFFFFFFFFFFFFFFFFFFFFFFFFFFFFF
310
FFFFFFFFFFFFFFFFFFFFFFFFFFFFFFFFFFFFFFFFFFFFFFFFFFFFFFFFFFFFFFFF
310
FFFFFFFFFFFFFFFFFFFFFFFFFFFFFFFFFFFFFFFFFFFFFFFFFFFFFFFFFFFFFFFF
310
FFFFFFFFFFFFFFFFFFFFFFFFFFFFFFFFFFFFFFFFFFFFFFFFFFFFFFFFFFFFFFFF
310
FFFFFFFFFFFFFFFFFFFFFFFFFFFFFFFFFFFFFFFFFFFFFFFFFFFFFFFFFFFFFFFF
310
FFFFFFFFFFFFFFFFFFFFFFFFFFFFFFFFFFFFFFFFFFFFFFFFFFFFFFFFFFFFFFFF
310
FFFFFFFFFFFFFFFFFFFFFFFFFFFFFFFFFFFFFFFFFFFFFFFFFFFFFFFFFFFFFFFF
310
FFFFFFFFFFFFFFFFFFFFFFFFFFFFFFFFFFFFFFFFFFFFFFFFFFFFFFFFFFFFFFFF
310
FFFFFFFFFFFFFFFFFFFFFFFFFFFFFFFFFFFFFFFFFFFFFFFFFFFFFFFFFFFFFFFF
310
FFFFFFFFFFFFFFFFFFFFFFFFFFFFFFFFFFFFFFFFFFFFFFFFFFFFFFFFFFFFFFFF
310
52006F006F007400200045006E00740072007900000000000000000000000000
310
0000000000000000000000000000000000000000000000000000000000000000
310
16000500FFFFFFFFFFFFFFFF020000000A00030000000000C000000000000046
310
000000000000000000000000D01AE407069AC80128000000C000000000000000
310
01004F006C006500310030004E00610074006900760065000000000000000000
310
0000000000000000000000000000000000000000000000000000000000000000
310
1A000200FFFFFFFFFFFFFFFFFFFFFFFF00000000000000000000000000000000
310
0000000000000000000000000000000000000000040000000448000000000000
310
010043006F006D0070004F0062006A0000000000000000000000000000000000
310
0000000000000000000000000000000000000000000000000000000000000000
310
120002010300000001000000FFFFFFFF00000000000000000000000000000000
310
0000000000000000000000000000000000000000000000004D00000000000000
310
01004F006C006500000000000000000000000000000000000000000000000000
310
0000000000000000000000000000000000000000000000000000000000000000
310
0A000200FFFFFFFFFFFFFFFFFFFFFFFF00000000000000000000000000000000
310
0000000000000000000000000000000000000000020000001400000000000000
310
01000000FEFFFFFFFEFFFFFFFFFFFFFFFFFFFFFFFFFFFFFFFFFFFFFFFFFFFFFF
310
FFFFFFFFFFFFFFFFFFFFFFFFFFFFFFFFFFFFFFFFFFFFFFFFFFFFFFFFFFFFFFFF
310
FFFFFFFFFFFFFFFFFFFFFFFFFFFFFFFFFFFFFFFFFFFFFFFFFFFFFFFFFFFFFFFF
310
FFFFFFFFFFFFFFFFFFFFFFFFFFFFFFFFFFFFFFFFFFFFFFFFFFFFFFFFFFFFFFFF
310
FFFFFFFFFFFFFFFFFFFFFFFFFFFFFFFFFFFFFFFFFFFFFFFFFFFFFFFFFFFFFFFF
310
FFFFFFFFFFFFFFFFFFFFFFFFFFFFFFFFFFFFFFFFFFFFFFFFFFFFFFFFFFFFFFFF
310
FFFFFFFFFFFFFFFFFFFFFFFFFFFFFFFFFFFFFFFFFFFFFFFFFFFFFFFFFFFFFFFF
310
FFFFFFFFFFFFFFFFFFFFFFFFFFFFFFFFFFFFFFFFFFFFFFFFFFFFFFFFFFFFFFFF
310
FFFFFFFFFFFFFFFFFFFFFFFFFFFFFFFFFFFFFFFFFFFFFFFFFFFFFFFFFFFFFFFF
310
FFFFFFFFFFFFFFFFFFFFFFFFFFFFFFFFFFFFFFFFFFFFFFFFFFFFFFFFFFFFFFFF
310
FFFFFFFFFFFFFFFFFFFFFFFFFFFFFFFFFFFFFFFFFFFFFFFFFFFFFFFFFFFFFFFF
310
FFFFFFFFFFFFFFFFFFFFFFFFFFFFFFFFFFFFFFFFFFFFFFFFFFFFFFFFFFFFFFFF
310
FFFFFFFFFFFFFFFFFFFFFFFFFFFFFFFFFFFFFFFFFFFFFFFFFFFFFFFFFFFFFFFF
310
FFFFFFFFFFFFFFFFFFFFFFFFFFFFFFFFFFFFFFFFFFFFFFFFFFFFFFFFFFFFFFFF
310
FFFFFFFFFFFFFFFFFFFFFFFFFFFFFFFFFFFFFFFFFFFFFFFFFFFFFFFFFFFFFFFF
310
FFFFFFFFFFFFFFFFFFFFFFFFFFFFFFFFFFFFFFFFFFFFFFFFFFFFFFFFFFFFFFFF
310
0000000000000000000000000000000000000000000000000000000000000000
310
0000FFFFFFFFFFFFFFFFFFFFFFFFFFFFFFFFFFFFFFFFFFFFFF00000000000000
310
00000000000000000000000000000001FFFFFFFFC00000000000000000000000
310
0000000000000007FFFFFFFF0000000000000000000000000000000000000000
310
000000000000000000000000000000000000000000000000000000000000FFFF
310
FFFFFFFFFFFFFFFFFFFFFFFFFFFFFFFFFFFFFFFFFF0000000000000000000000
310
000000000000000000000001FFFFFFFFC0000000000000000000000000000000
310
00000007FFFFFFFF000000000000000000000000000000000000000000000000
310
0000000000000000000000000000000000000000000000000000FFFFFFFFFFFF
310
FFFFFFFFFFFFFFFFFFFFFFFFFFFFFFFFFF000000000000000000000000000000
310
0000000000000001FFFFFFFFC000000000000000000000000000000000000007
310
FFFFFFFF00000000000000000000000000000000000000000000000000000000
310
00000000000000000000000000000000000000000000FFFFFFFFFFFFFFFFFFFF
310
FFFFFFFFFFFFFFFFFFFFFFFFFF00000000000000000000000000000000000000
310
00000001FFFFFFFFC000000000000000000000000000000000000007FFFFFFFF
310
0000000000000000000000000000000000000000000000000000000000000000
310
00480000424DF0470000000000003E00000028000000CD030000940000000100
310
01000000000000000000202E0000202E00000000000000000000FFFFFF000000
310
0000000000000000000001FFFFFFFFFE000000000000000000000003FFFFFFFF
310
FFFFFFFFFFFFFFFFFFFF000000000001FFFFFFFFC000000000000000000FFFFF
310
FFFFFFFFFF000007FFFFFFFF00001FFFFFFFFC0000000000000000000000007F
310
FFFFFFF0000000000FFFFFFFFFFFFFFFFFFFFFFFFFFFFFFFFFFFFFF800000000
310
00000000000001FFFFFFFFFE00000000000000000000003FFFFFFFFFFFFFFFFF
310
FFFFFFFFFFFFF80000000001FFFFFFFFC000000000000000003FFFFFFFFFFFFF
310
FE000007FFFFFFFF00001FFFFFFFFC0000000000000000000000007FFFFFFFF0
310
00000000FFFFFFFFFFFFFFFFFFFFFFFFFFFFFFFFFFFFFFF80000000000000000
310
000001FFFFFFFFFE0000000000000000000001FFFFFFFFFFFFFFFFFFFFFFFFFF
310
FFFFFE0000000001FFFFFFFFC000000000000000007FFFFFFFFFFFFFFC000007
310
FFFFFFFF00001FFFFFFFFC0000000000000000000000007FFFFFFFF000000007
310
FFFFFFFFFFFFFFFFFFFFFFFFFFFFFFFFFFFFFFF80000000000000000000001FF
310
FFFFFFFE0000000000000000000007FFFFFFFFFFFFFFFFFFFFFFFFFFFFFFFFC0
310
00000001FFFFFFFFC00000000000000000FFFFFFFFFFFFFFF0000007FFFFFFFF
310
00001FFFFFFFFC0000000000000000000000007FFFFFFFF00000003FFFFFFFFF
310
FFFFFFFFFFFFFFFFFFFFFFFFFFFFFFF80000000000000000000001FFFFFFFFFE
310
000000000000000000001FFFFFFFFFFFFFFFFFFFFFFFFFFFFFFFFFE000000001
310
FFFFFFFFC00000000000000003FFFFFFFFFFFFFFE0000007FFFFFFFF00001FFF
310
FFFFFC0000000000000000000000007FFFFFFFF0000000FFFFFFFFFFFFFFFFFF
310
FFFFFFFFFFFFFFFFFFFFFFF80000000000000000000001FFFFFFFFFE00000000
310
0000000000007FFFFFFFFFFFFFFFFFFFFFFFFFFFFFFFFFF800000001FFFFFFFF
310
C00000000000000007FFFFFFFFFFFFFF80000007FFFFFFFF00001FFFFFFFFC00
310
00000000000000000000007FFFFFFFF0000001FFFFFFFFFFFFFFFFFFFFFFFFFF
310
FFFFFFFFFFFFFFF80000000000000000000001FFFFFFFFFE0000000000000000
310
0001FFFFFFFFFFFFFFFFFFFFFFFFFFFFFFFFFFFE00000001FFFFFFFFC0000000
310
000000000FFFFFFFFFFFFFFF00000007FFFFFFFF00001FFFFFFFFC0000000000
310
000000000000007FFFFFFFF0000007FFFFFFFFFFFFFFFFFFFFFFFFFFFFFFFFFF
310
FFFFFFF80000000000000000000001FFFFFFFFFE00000000000000000003FFFF
310
FFFFFFFFFFFFFFFFFFFFFFFFFFFFFFFF00000001FFFFFFFFC000000000000000
310
3FFFFFFFFFFFFFFC00000007FFFFFFFF00001FFFFFFFFC000000000000000000
310
0000007FFFFFFFF000000FFFFFFFFFFFFFFFFFFFFFFFFFFFFFFFFFFFFFFFFFF8
310
0000000000000000000001FFFFFFFFFE00000000000000000007FFFFFFFFFFFF
310
FFFFFFFFFFFFFFFFFFFFFFFF80000001FFFFFFFFC0000000000000007FFFFFFF
310
FFFFFFF800000007FFFFFFFF00001FFFFFFFFC0000000000000000000000007F
310
FFFFFFF000001FFFFFFFFFFFFFFFFFFFFFFFFFFFFFFFFFFFFFFFFFF800000000
310
00000000000001FFFFFFFFFE0000000000000000000FFFFFFFFFFFFFFFFFFFFF
310
FFFFFFFFFFFFFFFFC0000001FFFFFFFFC000000000000000FFFFFFFFFFFFFFE0
310
00000007FFFFFFFF00001FFFFFFFFC0000000000000000000000007FFFFFFFF0
310
00003FFFFFFFFFFFFFFFFFFFFFFFFFFFFFFFFFFFFFFFFFF80000000000000000
310
000001FFFFFFFFFE0000000000000000001FFFFFFFFFFFFFFFFFFFFFFFFFFFFF
310
FFFFFFFFE0000001FFFFFFFFC000000000000003FFFFFFFFFFFFFFC000000007
310
FFFFFFFF00001FFFFFFFFC0000000000000000000000007FFFFFFFF000007FFF
310
FFFFFFFFFFFFFFFFFFFFFFFFFFFFFFFFFFFFFFF80000000000000000000001FF
310
FFFFFFFE0000000000000000003FFFFFFFFFFFFFFFFFFFFFFFFFFFFFFFFFFFFF
310
F0000001FFFFFFFFC000000000000007FFFFFFFFFFFFFF0000000007FFFFFFFF
310
00001FFFFFFFFC0000000000000000000000007FFFFFFFF00000FFFFFFFFFFFF
310
FFFFFFFFFFFFFFFFFFFFFFFFFFFFFFF80000000000000000000001FFFFFFFFFE
310
0000000000000000007FFFFFFFFFFFFFFFFFFFFFFFFFFFFFFFFFFFFFF8000001
310
FFFFFFFFC00000000000000FFFFFFFFFFFFFFE0000000007FFFFFFFF00001FFF
310
FFFFFC0000000000000000000000007FFFFFFFF00000FFFFFFFFFFFFFFFFFFFF
310
FFFFFFFFFFFFFFFFFFFFFFF80000000000000000000001FFFFFFFFFE00000000
310
0000000000FFFFFFFFFFFFFFFFFFFFFFFFFFFFFFFFFFFFFFFC000001FFFFFFFF
310
C00000000000003FFFFFFFFFFFFFF80000000007FFFFFFFF00001FFFFFFFFC00
310
00000000000000000000007FFFFFFFF00001FFFFFFFFFFFFFFFFFFFFFFFFFFFF
310
FFFFFFFFFFFFFFF80000000000000000000001FFFFFFFFFE0000000000000000
310
01FFFFFFFFFFFFFFFFFFFFFFFFFFFFFFFFFFFFFFFE000001FFFFFFFFC0000000
310
0000007FFFFFFFFFFFFFF00000000007FFFFFFFF00001FFFFFFFFC0000000000
310
000000000000007FFFFFFFF00003FFFFFFFFFFFFFFFFFFFFFFFFFFFFFFFFFFFF
310
FFFFFFF80000000000000000000001FFFFFFFFFE000000000000000003FFFFFF
310
FFFFFFFFFFFFFFFFFFFFFFFFFFFFFFFFFF000001FFFFFFFFC0000000000000FF
310
FFFFFFFFFFFFC00000000007FFFFFFFF00001FFFFFFFFC000000000000000000
310
0000007FFFFFFFF00003FFFFFFFFFFFFFFFFFFFFFFFFFFFFFFFFFFFFFFFFFFF8
310
0000000000000000000001FFFFFFFFFE000000000000000003FFFFFFFFFFFFFF
310
FFFFFFFFFFFFFFFFFFFFFFFFFF000001FFFFFFFFC0000000000003FFFFFFFFFF
310
FFFF800000000007FFFFFFFF00001FFFFFFFFC0000000000000000000000007F
310
FFFFFFF00003FFFFFFFFFFFFFFFFFFFFFFFFFFFFFFFFFFFFFFFFFFF800000000
310
00000000000001FFFFFFFFFE000000000000000007FFFFFFFFFFFFFFFFFFFFFF
310
FFFFFFFFFFFFFFFFFF800001FFFFFFFFC0000000000007FFFFFFFFFFFFFE0000
310
00000007FFFFFFFF00001FFFFFFFFC0000000000000000000000007FFFFFFFF0
310
0007FFFFFFFFFFFFFFFFFFFFFFFFFFFFFFFFFFFFFFFFFFF80000000000000000
310
000001FFFFFFFFFE00000000000000000FFFFFFFFFFFFFFFFFFFFFFFFFFFFFFF
310
FFFFFFFFFFC00001FFFFFFFFC000000000000FFFFFFFFFFFFFFC000000000007
310
FFFFFFFF00001FFFFFFFFC0000000000000000000000007FFFFFFFF00007FFFF
310
FFFFFFFFFFFFFFFFFFFFFFFFFFFFFFFFFFFFFFF80000000000000000000001FF
310
FFFFFFFE00000000000000000FFFFFFFFFFFFFFFFFFFFFFFFFFFFFFFFFFFFFFF
310
FFC00001FFFFFFFFC000000000003FFFFFFFFFFFFFF0000000000007FFFFFFFF
310
00001FFFFFFFFC0000000000000000000000007FFFFFFFF00007FFFFFFFFFFFF
310
FFFFFFFFFFFFFFFFFFFFFFFFFFFFFFF80000000000000000000001FFFFFFFFFE
310
00000000000000001FFFFFFFFFFFFFFFFFFFFFFFFFFFFFFFFFFFFFFFFFE00001
310
FFFFFFFFC000000000007FFFFFFFFFFFFFE0000000000007FFFFFFFF00001FFF
310
FFFFFC0000000000000000000000007FFFFFFFF00007FFFFFFFFFFFFFFFFFFFF
310
FFFFFFFFFFFFFFFFFFFFFFF80000000000000000000001FFFFFFFFFE00000000
310
000000001FFFFFFFFFFFFFFFFFFFFFFFFFFFFFFFFFFFFFFFFFE00001FFFFFFFF
310
C00000000000FFFFFFFFFFFFFF80000000000007FFFFFFFF00001FFFFFFFFC00
310
00000000000000000000007FFFFFFFF00007FFFFFFFFFFFFFFFFFFFFFFFFFFFF
310
FFFFFFFFFFFFFFF80000000000000000000001FFFFFFFFFE0000000000000000
310
3FFFFFFFFFFFFFFFFFFFFFFFFFFFFFFFFFFFFFFFFFE00001FFFFFFFFC0000000
310
0003FFFFFFFFFFFFFF00000000000007FFFFFFFF00001FFFFFFFFC0000000000
310
000000000000007FFFFFFFF00007FFFFFFFFFFFFFFFFFFFFFFFFFFFFFFFFFFFF
310
FFFFFFF80000000000000000000001FFFFFFFFFE00000000000000003FFFFFFF
310
FFFFFFFFFFFFFFFFFFFFFFFFFFFFFFFFFFF00001FFFFFFFFC00000000007FFFF
310
FFFFFFFFFC00000000000007FFFFFFFF00001FFFFFFFFC000000000000000000
310
0000007FFFFFFFF00007FFFFFFFFFFFFFFFFFFFFFFFFFFFFFFFFFFFFFFFFFFF8
310
0000000000000000000001FFFFFFFFFE00000000000000007FFFFFFFFFFFFFFF
310
FFFFFFFFFFFFFFFFFFFFFFFFFFF00001FFFFFFFFC0000000000FFFFFFFFFFFFF
310
F800000000000007FFFFFFFF00001FFFFFFFFC0000000000000000000000007F
310
FFFFFFF00007FFFFFFFFFFFFFFFFFFFFFFFFFFFFFFFFFFFFFFFFFFF800000000
310
00000000000001FFFFFFFFFE00000000000000007FFFFFFFFFFFFFFFFFFFFFFF
310
FFFFFFFFFFFFFFFFFFF80001FFFFFFFFC0000000001FFFFFFFFFFFFFE0000000
310
00000007FFFFFFFF00001FFFFFFFFC0000000000000000000000007FFFFFFFF0
310
0007FFFFFFFFFFFFFFFFFFFFFFFFFFFFFFFFFFFFFFFFFFF80000000000000000
310
000001FFFFFFFFFE00000000000000007FFFFFFFFFFFFFFFFFFFFFFFFFFFFFFF
310
FFFFFFFFFFF80001FFFFFFFFC0000000007FFFFFFFFFFFFFC000000000000007
310
FFFFFFFF00001FFFFFFFFC0000000000000000000000007FFFFFFFF00007FFFF
310
FFFFFF000000000000000000000001FFFFFFFFF80000000000000000000001FF
310
FFFFFFFE00000000000000007FFFFFFFFFFFFFFFFFFFFFFFFFFFFFFFFFFFFFFF
310
FFF80001FFFFFFFFC000000000FFFFFFFFFFFFFF0000000000000007FFFFFFFF
310
00001FFFFFFFFC0000000000000000000000007FFFFFFFF00007FFFFFFFFFE00
310
00000000000000000000007FFFFFFFF80000000000000000000001FFFFFFFFFE
310
0000000000000000FFFFFFFFFFFFFFFFFFFFFFFFFFFFFFFFFFFFFFFFFFF80001
310
FFFFFFFFC000000001FFFFFFFFFFFFFE0000000000000007FFFFFFFF00001FFF
310
FFFFFC0000000000000000000000007FFFFFFFF00007FFFFFFFFFC0000000000
310
000000000000003FFFFFFFF80000000000000000000001FFFFFFFFFE00000000
310
00000000FFFFFFFFFFFFFFFFFFFFFFFFFFFFFFFFFFFFFFFFFFFC0001FFFFFFFF
310
C000000007FFFFFFFFFFFFF80000000000000007FFFFFFFF00001FFFFFFFFC00
310
00000000000000000000007FFFFFFFF00007FFFFFFFFFC000000000000000000
310
0000003FFFFFFFF80000000000000000000001FFFFFFFFFE0000000000000000
310
FFFFFFFFE0000000000000000000000003FFFFFFFFFC0001FFFFFFFFC0000000
310
0FFFFFFFFFFFFFF00000000000000007FFFFFFFF00001FFFFFFFFC0000000000
310
000000000000007FFFFFFFF00007FFFFFFFFF80000000000000000000000003F
310
FFFFFFF80000000000000000000001FFFFFFFFFE0000000000000000FFFFFFFF
310
C0000000000000000000000001FFFFFFFFFC0001FFFFFFFFC00000001FFFFFFF
310
FFFFFFC00000000000000007FFFFFFFF00001FFFFFFFFC000000000000000000
310
0000007FFFFFFFF00007FFFFFFFFF80000000000000000000000003FFFFFFFF8
310
0000000000000000000001FFFFFFFFFE0000000000000000FFFFFFFF80000000
310
000000000000000000FFFFFFFFFC0001FFFFFFFFC00000007FFFFFFFFFFFFF80
310
0000000000000007FFFFFFFF00001FFFFFFFFC0000000000000000000000007F
310
FFFFFFF00007FFFFFFFFF80000000000000000000000003FFFFFFFF800000000
310
00000000000001FFFFFFFFFE0000000000000001FFFFFFFF8000000000000000
310
0000000000FFFFFFFFFC0001FFFFFFFFC0000000FFFFFFFFFFFFFE0000000000
310
00000007FFFFFFFF00001FFFFFFFFC0000000000000000000000007FFFFFFFF0
310
0007FFFFFFFFF80000000000000000000000003FFFFFFFF80000000000000000
310
000001FFFFFFFFFE0000000000000001FFFFFFFF000000000000000000000000
310
00FFFFFFFFFC0001FFFFFFFFC0000001FFFFFFFFFFFFFC000000000000000007
310
FFFFFFFF00001FFFFFFFFC0000000000000000000000007FFFFFFFF00007FFFF
310
FFFFF80000000000000000000000003FFFFFFFF80000000000000000000001FF
310
FFFFFFFE0000000000000001FFFFFFFF00000000000000000000000000FFFFFF
310
FFFC0001FFFFFFFFC0000007FFFFFFFFFFFFF0000000000000000007FFFFFFFF
310
00001FFFFFFFFC0000000000000000000000007FFFFFFFF00007FFFFFFFFF800
310
00000000000000000000003FFFFFFFF80000000000000000000001FFFFFFFFFE
310
0000000000000001FFFFFFFF00000000000000000000000000FFFFFFFFFC0001
310
FFFFFFFFC000000FFFFFFFFFFFFFE0000000000000000007FFFFFFFF00001FFF
310
FFFFFC0000000000000000000000007FFFFFFFF00007FFFFFFFFF80000000000
310
000000000000003FFFFFFFF80000000000000000000001FFFFFFFFFE00000000
310
00000001FFFFFFFF00000000000000000000000000FFFFFFFFFC0001FFFFFFFF
310
C000001FFFFFFFFFFFFF80000000000000000007FFFFFFFF00001FFFFFFFFC00
310
00000000000000000000007FFFFFFFF00007FFFFFFFFF8000000000000000000
310
0000003FFFFFFFF80000000000000000000001FFFFFFFFFE0000000000000001
310
FFFFFFFF00000000000000000000000000FFFFFFFFFC0001FFFFFFFFC000007F
310
FFFFFFFFFFFF00000000000000000007FFFFFFFF00001FFFFFFFFC0000000000
310
000000000000007FFFFFFFF00007FFFFFFFFFC0000000000000000000000003F
310
FFFFFFF80000000000000000000001FFFFFFFFFE0000000000000001FFFFFFFF
310
00000000000000000000000000FFFFFFFFFC0001FFFFFFFFC00000FFFFFFFFFF
310
FFFC00000000000000000007FFFFFFFF00001FFFFFFFFC000000000000000000
310
0000007FFFFFFFF00007FFFFFFFFFC0000000000000000000000003FFFFFFFF8
310
0000000000000000000001FFFFFFFFFE0000000000000001FFFFFFFF00000000
310
000000000000000000FFFFFFFFFC0001FFFFFFFFC00001FFFFFFFFFFFFF80000
310
0000000000000007FFFFFFFF00001FFFFFFFFC0000000000000000000000007F
310
FFFFFFF00007FFFFFFFFFE0000000000000000000000007FFFFFFFF800000000
310
00000000000001FFFFFFFFFE0000000000000001FFFFFFFF0000000000000000
310
0000000000FFFFFFFFFC0001FFFFFFFFC00007FFFFFFFFFFFFE0000000000000
310
00000007FFFFFFFF00001FFFFFFFFC0000000000000000000000007FFFFFFFF0
310
0007FFFFFFFFFF000000000000000000000001FFFFFFFFF80000000000000000
310
000001FFFFFFFFFE0000000000000001FFFFFFFF000000000000000000000000
310
00FFFFFFFFFC0001FFFFFFFFC0000FFFFFFFFFFFFFC000000000000000000007
310
FFFFFFFF00001FFFFFFFFC0000000000000000000000007FFFFFFFF00007FFFF
310
FFFFFFFFFFFFFFFFFFFFFFFFFFFFFFFFFFFFFFF80000000000000000000001FF
310
FFFFFFFE0000000000000001FFFFFFFF00000000000000000000000000FFFFFF
310
FFFC0001FFFFFFFFC0001FFFFFFFFFFFFF0000000000000000000007FFFFFFFF
310
00001FFFFFFFFC0000000000000000000000007FFFFFFFF00007FFFFFFFFFFFF
310
FFFFFFFFFFFFFFFFFFFFFFFFFFFFFFF80000000000000000000001FFFFFFFFFE
310
0000000000000001FFFFFFFF00000000000000000000000000FFFFFFFFFC0001
310
FFFFFFFFC0007FFFFFFFFFFFFE0000000000000000000007FFFFFFFF00001FFF
310
FFFFFC0000000000000000000000007FFFFFFFF00007FFFFFFFFFFFFFFFFFFFF
310
FFFFFFFFFFFFFFFFFFFFFFF80000000000000000000001FFFFFFFFFE00000000
310
00000001FFFFFFFF00000000000000000000000000FFFFFFFFFC0001FFFFFFFF
310
C000FFFFFFFFFFFFF80000000000000000000007FFFFFFFF00001FFFFFFFFC00
310
00000000000000000000007FFFFFFFF00007FFFFFFFFFFFFFFFFFFFFFFFFFFFF
310
FFFFFFFFFFFFFFF80000000000000000000001FFFFFFFFFE0000000000000001
310
FFFFFFFF00000000000000000000000000FFFFFFFFFC0001FFFFFFFFC001FFFF
310
FFFFFFFFF00000000000000000000007FFFFFFFF00001FFFFFFFFC0000000000
310
000000000000007FFFFFFFF00007FFFFFFFFFFFFFFFFFFFFFFFFFFFFFFFFFFFF
310
FFFFFFF80000000000000000000001FFFFFFFFFE0000000000000001FFFFFFFF
310
00000000000000000000000000FFFFFFFFFC0001FFFFFFFFC007FFFFFFFFFFFF
310
C00000000000000000000007FFFFFFFF00001FFFFFFFFC000000000000000000
310
0000007FFFFFFFF00007FFFFFFFFFFFFFFFFFFFFFFFFFFFFFFFFFFFFFFFFFFF8
310
0000000000000000000001FFFFFFFFFE0000000000000001FFFFFFFF00000000
310
000000000000000000FFFFFFFFFC0001FFFFFFFFC00FFFFFFFFFFFFF80000000
310
0000000000000007FFFFFFFF00001FFFFFFFFC0000000000000000000000007F
310
FFFFFFF00007FFFFFFFFFFFFFFFFFFFFFFFFFFFFFFFFFFFFFFFFFFF800000000
310
00000000000001FFFFFFFFFE0000000000000001FFFFFFFF0000000000000000
310
0000000000FFFFFFFFFC0001FFFFFFFFC01FFFFFFFFFFFFE0000000000000000
310
00000007FFFFFFFF00001FFFFFFFFC0000000000000000000000007FFFFFFFF0
310
0007FFFFFFFFFFFFFFFFFFFFFFFFFFFFFFFFFFFFFFFFFFF80000000000000000
310
000001FFFFFFFFFE0000000000000001FFFFFFFF000000000000000000000000
310
00FFFFFFFFFC0001FFFFFFFFC07FFFFFFFFFFFFC000000000000000000000007
310
FFFFFFFF00001FFFFFFFFC0000000000000000000000007FFFFFFFF00007FFFF
310
FFFFFFFFFFFFFFFFFFFFFFFFFFFFFFFFFFFFFFF80000000000000000000001FF
310
FFFFFFFE0000000000000001FFFFFFFF00000000000000000000000000FFFFFF
310
FFFC0001FFFFFFFFC0FFFFFFFFFFFFF0000000000000000000000007FFFFFFFF
310
00001FFFFFFFFC0000000000000000000000007FFFFFFFF00003FFFFFFFFFFFF
310
FFFFFFFFFFFFFFFFFFFFFFFFFFFFFFF80000000000000000000001FFFFFFFFFE
310
0000000000000001FFFFFFFF00000000000000000000000000FFFFFFFFFC0001
310
FFFFFFFFE1FFFFFFFFFFFFC0000000000000000000000007FFFFFFFF00001FFF
310
FFFFFC0000000000000000000000007FFFFFFFF00003FFFFFFFFFFFFFFFFFFFF
310
FFFFFFFFFFFFFFFFFFFFFFF80000000000000000000001FFFFFFFFFE00000000
310
00000001FFFFFFFF00000000000000000000000000FFFFFFFFFC0001FFFFFFFF
310
FFFFFFFFFFFFFF80000000000000000000000007FFFFFFFF00001FFFFFFFFC00
310
00000000000000000000007FFFFFFFF00003FFFFFFFFFFFFFFFFFFFFFFFFFFFF
310
FFFFFFFFFFFFFFF80000000000000000000001FFFFFFFFFE0000000000000001
310
FFFFFFFF00000000000000000000000000FFFFFFFFFC0001FFFFFFFFFFFFFFFF
310
FFFFFE00000000000000000000000007FFFFFFFF00001FFFFFFFFC0000000000
310
000000000000007FFFFFFFF00001FFFFFFFFFFFFFFFFFFFFFFFFFFFFFFFFFFFF
310
FFFFFFF80000000000000000000001FFFFFFFFFE0000000000000001FFFFFFFF
310
00000000000000000000000000FFFFFFFFFC0001FFFFFFFFFFFFFFFFFFFFFC00
310
000000000000000000000007FFFFFFFF00001FFFFFFFFC000000000000000000
310
0000007FFFFFFFF00001FFFFFFFFFFFFFFFFFFFFFFFFFFFFFFFFFFFFFFFFFFF8
310
0000000000000000000001FFFFFFFFFE0000000000000001FFFFFFFF00000000
310
000000000000000000FFFFFFFFFC0001FFFFFFFFFFFFFFFFFFFFF00000000000
310
0000000000000007FFFFFFFF00001FFFFFFFFC0000000000000000000000007F
310
FFFFFFF00000FFFFFFFFFFFFFFFFFFFFFFFFFFFFFFFFFFFFFFFFFFF800000000
310
00000000000001FFFFFFFFFE0000000000000001FFFFFFFF0000000000000000
310
0000000000FFFFFFFFFC0001FFFFFFFFFFFFFFFFFFFFF0000000000000000000
310
00000007FFFFFFFF00001FFFFFFFFC0000000000000000000000007FFFFFFFF0
310
0000FFFFFFFFFFFFFFFFFFFFFFFFFFFFFFFFFFFFFFFFFFF80000000000000000
310
000001FFFFFFFFFE0000000000000001FFFFFFFF000000000000000000000000
310
00FFFFFFFFFC0001FFFFFFFFFFFFFFFFFFFFFC00000000000000000000000007
310
FFFFFFFF00001FFFFFFFFC0000000000000000000000007FFFFFFFF000007FFF
310
FFFFFFFFFFFFFFFFFFFFFFFFFFFFFFFFFFFFFFF80000000000000000000001FF
310
FFFFFFFE0000000000000001FFFFFFFF00000000000000000000000000FFFFFF
310
FFFC0001FFFFFFFFFFFFFFFFFFFFFE00000000000000000000000007FFFFFFFF
310
00001FFFFFFFFC0000000000000000000000007FFFFFFFF000003FFFFFFFFFFF
310
FFFFFFFFFFFFFFFFFFFFFFFFFFFFFFF80000000000000000000001FFFFFFFFFE
310
0000000000000001FFFFFFFF00000000000000000000000000FFFFFFFFFC0001
310
FFFFFFFFF7FFFFFFFFFFFF80000000000000000000000007FFFFFFFF00001FFF
310
FFFFFC0000000000000000000000007FFFFFFFF000001FFFFFFFFFFFFFFFFFFF
310
FFFFFFFFFFFFFFFFFFFFFFF80000000000000000000001FFFFFFFFFE00000000
310
00000001FFFFFFFF00000000000000000000000000FFFFFFFFFC0001FFFFFFFF
310
E1FFFFFFFFFFFFC0000000000000000000000007FFFFFFFF00001FFFFFFFFC00
310
00000000000000000000007FFFFFFFF000000FFFFFFFFFFFFFFFFFFFFFFFFFFF
310
FFFFFFFFFFFFFFF80000000000000000000001FFFFFFFFFE0000000000000001
310
FFFFFFFF00000000000000000000000000FFFFFFFFFC0001FFFFFFFFC07FFFFF
310
FFFFFFF0000000000000000000000007FFFFFFFF00001FFFFFFFFC0000000000
310
000000000000007FFFFFFFF0000007FFFFFFFFFFFFFFFFFFFFFFFFFFFFFFFFFF
310
FFFFFFF80000000000000000000001FFFFFFFFFE0000000000000001FFFFFFFF
310
00000000000000000000000000FFFFFFFFFC0001FFFFFFFFC03FFFFFFFFFFFF8
310
000000000000000000000007FFFFFFFF00001FFFFFFFFC000000000000000000
310
0000007FFFFFFFF0000001FFFFFFFFFFFFFFFFFFFFFFFFFFFFFFFFFFFFFFFFF8
310
0000000000000000000001FFFFFFFFFE0000000000000001FFFFFFFF00000000
310
000000000000000000FFFFFFFFFC0001FFFFFFFFC01FFFFFFFFFFFFE00000000
310
0000000000000007FFFFFFFF00001FFFFFFFFC0000000000000000000000007F
310
FFFFFFF0000000FFFFFFFFFFFFFFFFFFFFFFFFFFFFFFFFFFFFFFFFF800000000
310
00000000000001FFFFFFFFFE0000000000000001FFFFFFFF0000000000000000
310
0000000000FFFFFFFFFC0001FFFFFFFFC007FFFFFFFFFFFF0000000000000000
310
00000007FFFFFFFF00001FFFFFFFFC0000000000000000000000007FFFFFFFF0
310
0000003FFFFFFFFFFFFFFFFFFFFFFFFFFFFFFFFFFFFFFFF80000000000000000
310
000001FFFFFFFFFE0000000000000001FFFFFFFF000000000000000000000000
310
00FFFFFFFFFC0001FFFFFFFFC003FFFFFFFFFFFF800000000000000000000007
310
FFFFFFFF00001FFFFFFFFC0000000000000000000000007FFFFFFFF000000007
310
FFFFFFFFFFFFFFFFFFFFFFFFFFFFFFFFFFFFFFF80000000000000000000001FF
310
FFFFFFFE0000000000000001FFFFFFFF00000000000000000000000000FFFFFF
310
FFFC0001FFFFFFFFC000FFFFFFFFFFFFE00000000000000000000007FFFFFFFF
310
00001FFFFFFFFC0000000000000000000000007FFFFFFFF000000000FFFFFFFF
310
FFFFFFFFFFFFFFFFFFFFFFFFFFFFFFF80000000000000000000001FFFFFFFFFE
310
0000000000000001FFFFFFFF00000000000000000000000000FFFFFFFFFC0001
310
FFFFFFFFC0007FFFFFFFFFFFF00000000000000000000007FFFFFFFF00001FFF
310
FFFFFC0000000000000000000000007FFFFFFFF0000000000FFFFFFFFFFFFFFF
310
FFFFFFFFFFFFFFFFFFFFFFF80000000000000000000001FFFFFFFFFE00000000
310
00000001FFFFFFFF00000000000000000000000000FFFFFFFFFC0001FFFFFFFF
310
C0003FFFFFFFFFFFFC0000000000000000000007FFFFFFFF00001FFFFFFFFC00
310
00000000000000000000007FFFFFFFF000000000000000000000000000000000
310
0000003FFFFFFFF80000000000000000000001FFFFFFFFFE0000000000000001
310
FFFFFFFF00000000000000000000000000FFFFFFFFFC0001FFFFFFFFC0000FFF
310
FFFFFFFFFE0000000000000000000007FFFFFFFF00001FFFFFFFFC0000000000
310
000000000000007FFFFFFFF0000000000000000000000000000000000000003F
310
FFFFFFF80000000000000000000001FFFFFFFFFE0000000000000001FFFFFFFF
310
00000000000000000000000000FFFFFFFFFC0001FFFFFFFFC00007FFFFFFFFFF
310
FF8000000000000000000007FFFFFFFF00001FFFFFFFFC000000000000000000
310
0000007FFFFFFFF0000000000000000000000000000000000000003FFFFFFFF8
310
0000000000000000000001FFFFFFFFFE0000000000000001FFFFFFFF00000000
310
000000000000000000FFFFFFFFFC0001FFFFFFFFC00001FFFFFFFFFFFFC00000
310
0000000000000007FFFFFFFF00001FFFFFFFFC0000000000000000000000007F
310
FFFFFFF0000000000000000000000000000000000000003FFFFFFFF800000000
310
00000000000001FFFFFFFFFE0000000000000001FFFFFFFF0000000000000000
310
0000000000FFFFFFFFFC0001FFFFFFFFC00000FFFFFFFFFFFFF0000000000000
310
00000007FFFFFFFF00001FFFFFFFFC0000000000000000000000007FFFFFFFF0
310
000000000000000000000000000000000000003FFFFFFFF80000000000000000
310
000001FFFFFFFFFE0000000000000001FFFFFFFF000000000000000000000000
310
00FFFFFFFFFC0001FFFFFFFFC000007FFFFFFFFFFFF800000000000000000007
310
FFFFFFFF00001FFFFFFFFC0000000000000000000000007FFFFFFFF000000000
310
0000000000000000000000000000003FFFFFFFF80000000000000000000001FF
310
FFFFFFFE0000000000000001FFFFFFFF00000000000000000000000000FFFFFF
310
FFFC0001FFFFFFFFC000001FFFFFFFFFFFFE00000000000000000007FFFFFFFF
310
00001FFFFFFFFC0000000000000000000000007FFFFFFFF00000000000000000
310
00000000000000000000003FFFFFFFF80000000000000000000001FFFFFFFFFE
310
0000000000000001FFFFFFFF00000000000000000000000000FFFFFFFFFC0001
310
FFFFFFFFC000000FFFFFFFFFFFFF00000000000000000007FFFFFFFF00001FFF
310
FFFFFC0000000000000000000000007FFFFFFFF0000000000000000000000000
310
000000000000003FFFFFFFF80000000000000000000001FFFFFFFFFE00000000
310
00000001FFFFFFFF00000000000000000000000000FFFFFFFFFC0001FFFFFFFF
310
C0000003FFFFFFFFFFFFC0000000000000000007FFFFFFFF00001FFFFFFFFC00
310
0000000000000000000000FFFFFFFFF000000000000000000000000000000000
310
0000003FFFFFFFF80000000000000000000001FFFFFFFFFE0000000000000001
310
FFFFFFFF00000000000000000000000000FFFFFFFFFC0001FFFFFFFFC0000001
310
FFFFFFFFFFFFE0000000000000000007FFFFFFFF00001FFFFFFFFC0000000000
310
00000000000000FFFFFFFFF0000000000000000000000000000000000000003F
310
FFFFFFF80000000000000000000001FFFFFFFFFE0000000000000001FFFFFFFF
310
00000000000000000000000000FFFFFFFFFC0001FFFFFFFFC0000000FFFFFFFF
310
FFFFF8000000000000000007FFFFFFFF00001FFFFFFFFC000000000000000000
310
000000FFFFFFFFF0000000000000000000000000000000000000003FFFFFFFF8
310
0000000000000000000001FFFFFFFFFE0000000000000001FFFFFFFF80000000
310
000000000000000000FFFFFFFFFC0001FFFFFFFFC00000003FFFFFFFFFFFFC00
310
0000000000000007FFFFFFFF00001FFFFFFFFC000000000000000000000001FF
310
FFFFFFF0000000000000000000000000000000000000003FFFFFFFF800000000
310
00000000000001FFFFFFFFFE0000000000000000FFFFFFFF8000000000000000
310
0000000000FFFFFFFFFC0001FFFFFFFFC00000001FFFFFFFFFFFFF0000000000
310
00000007FFFFFFFF00001FFFFFFFFC000000000000000000000003FFFFFFFFF0
310
000000000000000000000000000000000000003FFFFFFFF80000000000000000
310
000001FFFFFFFFFE0000000000000000FFFFFFFFC00000000000000000000000
310
01FFFFFFFFFC0001FFFFFFFFC000000007FFFFFFFFFFFF800000000000000007
310
FFFFFFFF00001FFFFFFFFC000000000000000000000007FFFFFFFFF000000000
310
0000000000000000000000000000003FFFFFFFF80000000000000000000001FF
310
FFFFFFFE0000000000000000FFFFFFFFF0000000000000000000000007FFFFFF
310
FFFC0001FFFFFFFFC000000003FFFFFFFFFFFFE00000000000000007FFFFFFFF
310
00001FFFFFFFFC00000000000000000000003FFFFFFFFFF00000000000000000
310
00000000000000000000007FFFFFFFF80000000000000000000001FFFFFFFFFE
310
0000000000000000FFFFFFFFFFFFFFFFFFFFFFFFFFFFFFFFFFFFFFFFFFF80001
310
FFFFFFFFC000000001FFFFFFFFFFFFF00000000000000007FFFFFFFF00001FFF
310
FFFFFFFFFFFFFFFFFFFFFFFFFFFFFFFFFFFFFFF0000000000000000000000000
310
00000000000000FFFFFFFFF80000000000000000000001FFFFFFFFFE00000000
310
00000000FFFFFFFFFFFFFFFFFFFFFFFFFFFFFFFFFFFFFFFFFFF80001FFFFFFFF
310
C0000000007FFFFFFFFFFFFC0000000000000007FFFFFFFF00001FFFFFFFFFFF
310
FFFFFFFFFFFFFFFFFFFFFFFFFFFFFFF000000000000000000000000000000000
310
000001FFFFFFFFF80000000000000000000001FFFFFFFFFE0000000000000000
310
7FFFFFFFFFFFFFFFFFFFFFFFFFFFFFFFFFFFFFFFFFF80001FFFFFFFFC0000000
310
003FFFFFFFFFFFFE0000000000000007FFFFFFFF00001FFFFFFFFFFFFFFFFFFF
310
FFFFFFFFFFFFFFFFFFFFFFF000000000000000000000000000000000000007FF
310
FFFFFFF80000000000000000000001FFFFFFFFFE00000000000000007FFFFFFF
310
FFFFFFFFFFFFFFFFFFFFFFFFFFFFFFFFFFF00001FFFFFFFFC0000000000FFFFF
310
FFFFFFFF8000000000000007FFFFFFFF00001FFFFFFFFFFFFFFFFFFFFFFFFFFF
310
FFFFFFFFFFFFFFF00000FFFFFFFFFFFFFFFFFFFFFFFFFFFFFFFFFFFFFFFFFFF8
310
0000000000000000000001FFFFFFFFFE00000000000000007FFFFFFFFFFFFFFF
310
FFFFFFFFFFFFFFFFFFFFFFFFFFF00001FFFFFFFFC00000000007FFFFFFFFFFFF
310
C000000000000007FFFFFFFF00001FFFFFFFFFFFFFFFFFFFFFFFFFFFFFFFFFFF
310
FFFFFFE00000FFFFFFFFFFFFFFFFFFFFFFFFFFFFFFFFFFFFFFFFFFF800000000
310
00000000000001FFFFFFFFFE00000000000000003FFFFFFFFFFFFFFFFFFFFFFF
310
FFFFFFFFFFFFFFFFFFF00001FFFFFFFFC00000000003FFFFFFFFFFFFF0000000
310
00000007FFFFFFFF00001FFFFFFFFFFFFFFFFFFFFFFFFFFFFFFFFFFFFFFFFFE0
310
0000FFFFFFFFFFFFFFFFFFFFFFFFFFFFFFFFFFFFFFFFFFF00000000000000000
310
000001FFFFFFFFFE00000000000000003FFFFFFFFFFFFFFFFFFFFFFFFFFFFFFF
310
FFFFFFFFFFE00001FFFFFFFFC00000000000FFFFFFFFFFFFF800000000000007
310
FFFFFFFF00001FFFFFFFFFFFFFFFFFFFFFFFFFFFFFFFFFFFFFFFFFE00000FFFF
310
FFFFFFFFFFFFFFFFFFFFFFFFFFFFFFFFFFFFFFF00000000000000000000001FF
310
FFFFFFFE00000000000000003FFFFFFFFFFFFFFFFFFFFFFFFFFFFFFFFFFFFFFF
310
FFE00001FFFFFFFFC000000000007FFFFFFFFFFFFE00000000000007FFFFFFFF
310
00001FFFFFFFFFFFFFFFFFFFFFFFFFFFFFFFFFFFFFFFFFE00000FFFFFFFFFFFF
310
FFFFFFFFFFFFFFFFFFFFFFFFFFFFFFF00000000000000000000001FFFFFFFFFE
310
00000000000000001FFFFFFFFFFFFFFFFFFFFFFFFFFFFFFFFFFFFFFFFFC00001
310
FFFFFFFFC000000000001FFFFFFFFFFFFF00000000000007FFFFFFFF00001FFF
310
FFFFFFFFFFFFFFFFFFFFFFFFFFFFFFFFFFFFFFC00000FFFFFFFFFFFFFFFFFFFF
310
FFFFFFFFFFFFFFFFFFFFFFE00000000000000000000001FFFFFFFFFE00000000
310
000000000FFFFFFFFFFFFFFFFFFFFFFFFFFFFFFFFFFFFFFFFFC00001FFFFFFFF
310
C000000000000FFFFFFFFFFFFFC0000000000007FFFFFFFF00001FFFFFFFFFFF
310
FFFFFFFFFFFFFFFFFFFFFFFFFFFFFFC00000FFFFFFFFFFFFFFFFFFFFFFFFFFFF
310
FFFFFFFFFFFFFFE00000000000000000000001FFFFFFFFFE0000000000000000
310
0FFFFFFFFFFFFFFFFFFFFFFFFFFFFFFFFFFFFFFFFF800001FFFFFFFFC0000000
310
000007FFFFFFFFFFFFE0000000000007FFFFFFFF00001FFFFFFFFFFFFFFFFFFF
310
FFFFFFFFFFFFFFFFFFFFFF800000FFFFFFFFFFFFFFFFFFFFFFFFFFFFFFFFFFFF
310
FFFFFFE00000000000000000000001FFFFFFFFFE000000000000000007FFFFFF
310
FFFFFFFFFFFFFFFFFFFFFFFFFFFFFFFFFF800001FFFFFFFFC0000000000001FF
310
FFFFFFFFFFF8000000000007FFFFFFFF00001FFFFFFFFFFFFFFFFFFFFFFFFFFF
310
FFFFFFFFFFFFFF800000FFFFFFFFFFFFFFFFFFFFFFFFFFFFFFFFFFFFFFFFFFC0
310
0000000000000000000001FFFFFFFFFE000000000000000007FFFFFFFFFFFFFF
310
FFFFFFFFFFFFFFFFFFFFFFFFFF000001FFFFFFFFC0000000000000FFFFFFFFFF
310
FFFC000000000007FFFFFFFF00001FFFFFFFFFFFFFFFFFFFFFFFFFFFFFFFFFFF
310
FFFFFF000000FFFFFFFFFFFFFFFFFFFFFFFFFFFFFFFFFFFFFFFFFFC000000000
310
00000000000001FFFFFFFFFE000000000000000003FFFFFFFFFFFFFFFFFFFFFF
310
FFFFFFFFFFFFFFFFFE000001FFFFFFFFC00000000000003FFFFFFFFFFFFE0000
310
00000007FFFFFFFF00001FFFFFFFFFFFFFFFFFFFFFFFFFFFFFFFFFFFFFFFFF00
310
0000FFFFFFFFFFFFFFFFFFFFFFFFFFFFFFFFFFFFFFFFFF800000000000000000
310
000001FFFFFFFFFE000000000000000001FFFFFFFFFFFFFFFFFFFFFFFFFFFFFF
310
FFFFFFFFFC000001FFFFFFFFC00000000000001FFFFFFFFFFFFF800000000007
310
FFFFFFFF00001FFFFFFFFFFFFFFFFFFFFFFFFFFFFFFFFFFFFFFFFE000000FFFF
310
FFFFFFFFFFFFFFFFFFFFFFFFFFFFFFFFFFFFFF000000000000000000000001FF
310
FFFFFFFE000000000000000000FFFFFFFFFFFFFFFFFFFFFFFFFFFFFFFFFFFFFF
310
FC000001FFFFFFFFC00000000000000FFFFFFFFFFFFFC00000000007FFFFFFFF
310
00001FFFFFFFFFFFFFFFFFFFFFFFFFFFFFFFFFFFFFFFFC000000FFFFFFFFFFFF
310
FFFFFFFFFFFFFFFFFFFFFFFFFFFFFE000000000000000000000001FFFFFFFFFE
310
0000000000000000007FFFFFFFFFFFFFFFFFFFFFFFFFFFFFFFFFFFFFF8000001
310
FFFFFFFFC000000000000003FFFFFFFFFFFFF00000000007FFFFFFFF00001FFF
310
FFFFFFFFFFFFFFFFFFFFFFFFFFFFFFFFFFFFFC000000FFFFFFFFFFFFFFFFFFFF
310
FFFFFFFFFFFFFFFFFFFFFE000000000000000000000001FFFFFFFFFE00000000
310
00000000007FFFFFFFFFFFFFFFFFFFFFFFFFFFFFFFFFFFFFF0000001FFFFFFFF
310
C000000000000001FFFFFFFFFFFFF80000000007FFFFFFFF00001FFFFFFFFFFF
310
FFFFFFFFFFFFFFFFFFFFFFFFFFFFF8000000FFFFFFFFFFFFFFFFFFFFFFFFFFFF
310
FFFFFFFFFFFFFC000000000000000000000001FFFFFFFFFE0000000000000000
310
003FFFFFFFFFFFFFFFFFFFFFFFFFFFFFFFFFFFFFE0000001FFFFFFFFC0000000
310
000000007FFFFFFFFFFFFE0000000007FFFFFFFF00001FFFFFFFFFFFFFFFFFFF
310
FFFFFFFFFFFFFFFFFFFFF0000000FFFFFFFFFFFFFFFFFFFFFFFFFFFFFFFFFFFF
310
FFFFF8000000000000000000000001FFFFFFFFFE0000000000000000001FFFFF
310
FFFFFFFFFFFFFFFFFFFFFFFFFFFFFFFFC0000001FFFFFFFFC000000000000000
310
3FFFFFFFFFFFFF0000000007FFFFFFFF00001FFFFFFFFFFFFFFFFFFFFFFFFFFF
310
FFFFFFFFFFFFE0000000FFFFFFFFFFFFFFFFFFFFFFFFFFFFFFFFFFFFFFFFF000
310
0000000000000000000001FFFFFFFFFE00000000000000000007FFFFFFFFFFFF
310
FFFFFFFFFFFFFFFFFFFFFFFF80000001FFFFFFFFC0000000000000001FFFFFFF
310
FFFFFFC000000007FFFFFFFF00001FFFFFFFFFFFFFFFFFFFFFFFFFFFFFFFFFFF
310
FFFFC0000000FFFFFFFFFFFFFFFFFFFFFFFFFFFFFFFFFFFFFFFFE00000000000
310
00000000000001FFFFFFFFFE00000000000000000003FFFFFFFFFFFFFFFFFFFF
310
FFFFFFFFFFFFFFFF00000001FFFFFFFFC00000000000000007FFFFFFFFFFFFE0
310
00000007FFFFFFFF00001FFFFFFFFFFFFFFFFFFFFFFFFFFFFFFFFFFFFFFF8000
310
0000FFFFFFFFFFFFFFFFFFFFFFFFFFFFFFFFFFFFFFFF80000000000000000000
310
000001FFFFFFFFFE00000000000000000001FFFFFFFFFFFFFFFFFFFFFFFFFFFF
310
FFFFFFFE00000001FFFFFFFFC00000000000000003FFFFFFFFFFFFF800000007
310
FFFFFFFF00001FFFFFFFFFFFFFFFFFFFFFFFFFFFFFFFFFFFFFFF00000000FFFF
310
FFFFFFFFFFFFFFFFFFFFFFFFFFFFFFFFFFFF00000000000000000000000001FF
310
FFFFFFFE000000000000000000007FFFFFFFFFFFFFFFFFFFFFFFFFFFFFFFFFF8
310
00000001FFFFFFFFC00000000000000000FFFFFFFFFFFFFC00000007FFFFFFFF
310
00001FFFFFFFFFFFFFFFFFFFFFFFFFFFFFFFFFFFFFFE00000000FFFFFFFFFFFF
310
FFFFFFFFFFFFFFFFFFFFFFFFFFFC00000000000000000000000001FFFFFFFFFE
310
000000000000000000003FFFFFFFFFFFFFFFFFFFFFFFFFFFFFFFFFF000000001
310
FFFFFFFFC000000000000000007FFFFFFFFFFFFF00000007FFFFFFFF00001FFF
310
FFFFFFFFFFFFFFFFFFFFFFFFFFFFFFFFFFF800000000FFFFFFFFFFFFFFFFFFFF
310
FFFFFFFFFFFFFFFFFFF800000000000000000000000001FFFFFFFFFE00000000
310
0000000000000FFFFFFFFFFFFFFFFFFFFFFFFFFFFFFFFFC000000001FFFFFFFF
310
C000000000000000003FFFFFFFFFFFFF80000007FFFFFFFF00001FFFFFFFFFFF
310
FFFFFFFFFFFFFFFFFFFFFFFFFFE000000000FFFFFFFFFFFFFFFFFFFFFFFFFFFF
310
FFFFFFFFFFE000000000000000000000000001FFFFFFFFFE0000000000000000
310
000003FFFFFFFFFFFFFFFFFFFFFFFFFFFFFFFF0000000001FFFFFFFFC0000000
310
00000000000FFFFFFFFFFFFFE0000007FFFFFFFF00001FFFFFFFFFFFFFFFFFFF
310
FFFFFFFFFFFFFFFFFFC000000000FFFFFFFFFFFFFFFFFFFFFFFFFFFFFFFFFFFF
310
FF8000000000000000000000000001FFFFFFFFFE0000000000000000000000FF
310
FFFFFFFFFFFFFFFFFFFFFFFFFFFFFC0000000001FFFFFFFFC000000000000000
310
0007FFFFFFFFFFFFF0000007FFFFFFFF00001FFFFFFFFFFFFFFFFFFFFFFFFFFF
310
FFFFFFFFFE0000000000FFFFFFFFFFFFFFFFFFFFFFFFFFFFFFFFFFFFFC000000
310
0000000000000000000001FFFFFFFFFE00000000000000000000001FFFFFFFFF
310
FFFFFFFFFFFFFFFFFFFFE00000000001FFFFFFFFC0000000000000000001FFFF
310
FFFFFFFFFC000007FFFFFFFF00001FFFFFFFFFFFFFFFFFFFFFFFFFFFFFFFFFFF
310
F80000000000FFFFFFFFFFFFFFFFFFFFFFFFFFFFFFFFFFFFC000000000000000
310
00000000000001FFFFFFFFFE000000000000000000000001FFFFFFFFFFFFFFFF
310
FFFFFFFFFFFE000000000001FFFFFFFFC0000000000000000000FFFFFFFFFFFF
310
FC000007FFFFFFFF00001FFFFFFFFFFFFFFFFFFFFFFFFFFFFFFFFFFF00000000
310
0000FFFFFFFFFFFFFFFFFFFFFFFFFFFFFFFFFFF0000000000000FFFFFFFFFFFF
310
FFFFFFFFFFFFFFFFFFFFFFFFFFFFFFFFFF000000000000000000000000000000
310
0000000000000001FFFFFFFFC000000000000000000000000000000000000000
310
0000000000000000000000000000000000000000000000000000000000000000
310
00000000000000000000000000000000000000000000FFFFFFFFFFFFFFFFFFFF
310
FFFFFFFFFFFFFFFFFFFFFFFFFF00000000000000000000000000000000000000
310
00000001FFFFFFFFC00000000000000000000000000000000000000000000000
310
0000000000000000000000000000000000000000000000000000000000000000
310
000000000000000000000000000000000000FFFFFFFFFFFFFFFFFFFFFFFFFFFF
310
FFFFFFFFFFFFFFFFFF0000000000000000000000000000000000000000000001
310
FFFFFFFFC0000000000000000000000000000000000000000000000000000000
310
0000000000000000000000000000000000000000000000000000000000000000
310
0000000000000000000000000000FFFFFFFFFFFFFFFFFFFFFFFFFFFFFFFFFFFF
310
FFFFFFFFFF0000000000000000000000000000000000000000000001FFFFFFFF
310
C000000000000000000000000000000000000000000000000000000000000000
310
0000000000000000000000000000000000000000000000000000000000000000
310
00000000000000000000FFFFFFFFFFFFFFFFFFFFFFFFFFFFFFFFFFFFFFFFFFFF
310
FF0000000000000000000000000000000000000000000001FFFFFFFFC0000000
310
0000000000000000000000000000000000000000000000000000000000000000
310
0000000000000000000000000000000000000000000000000000000000000000
310
000000000000FFFFFFFFFFFFFFFFFFFFFFFFFFFFFFFFFFFFFFFFFFFFFF000000
310
0000000000000000000000000000000000000001FFFFFFFFC000000000000000
310
0000000000000000000000000000000000000000000000000000000000000000
310
0000000000000000000000000000000000000000000000000000000000000000
310
0000FFFFFFFFFFFFFFFFFFFFFFFFFFFFFFFFFFFFFFFFFFFFFF00000000000000
310
00000000000000000000000000000001FFFFFFFFC00000000000000000000000
310
0000000000000000000000000000000000000000000000000000000000000000
310
000000000000000000000000000000000000000000000000000000000000FFFF
310
FFFFFFFFFFFFFFFFFFFFFFFFFFFFFFFFFFFFFFFFFF0000000000000000000000
310
000000000000000000000001FFFFFFFFC0000000000000000000000000000000
310
00000007FFFFFFFF000000000000000000000000000000000000000000000000
310
0000000000000000000000000000000000000000000000000000FFFFFFFFFFFF
310
FFFFFFFFFFFFFFFFFFFFFFFFFFFFFFFFFF000000000000000000000000000000
310
0000000000000001FFFFFFFFC000000000000000000000000000000000000007
310
FFFFFFFF00000000000000000000000000000000000000000000000000000000
310
00000000000000000000000000000000000000000000FFFFFFFFFFFFFFFFFFFF
310
FFFFFFFFFFFFFFFFFFFFFFFFFF00000000000000000000000000000000000000
310
00000001FFFFFFFFC000000000000000000000000000000000000007FFFFFFFF
310
0000000000000000000000000000000000000000000000000000000000000000
310
000000000000000000000000000000000000FFFFFFFFFFFFFFFFFFFFFFFFFFFF
310
FFFFFFFFFFFFFFFFFF0000000000000000000000000000000000000000000001
310
FFFFFFFFC000000000000000000000000000000000000007FFFFFFFF00000000
310
0000000000000000000000000000000000000000000000000000000000000000
310
0000000000000000000000000000FFFFFFFFFFFFFFFFFFFFFFFFFFFFFFFFFFFF
310
FFFFFFFFFF0000000000000000000000000000000000000000000001FFFFFFFF
310
C000000000000000000000000000000000000007FFFFFFFF0000000000000000
310
0000000000000000000000000000000000000000000000000000000000000000
310
00000000000000000000FFFFFFFFFFFFFFFFFFFFFFFFFFFFFFFFFFFFFFFFFFFF
310
FF0000000000000000000000000000000000000000000001FFFFFFFFC0000000
310
00000000000000000000000000000007FFFFFFFF000000000000000000000000
310
0000000000000000000000000000000000000000000000000000000000000000
310
000000000000FFFFFFFFFFFFFFFFFFFFFFFFFFFFFFFFFFFFFFFFFFFFFF000000
310
0000000000000000000000000000000000000001FFFFFFFFC000000000000000
310
000000000000000000000007FFFFFFFF00000000000000000000000000000000
310
0000000000000000000000000000000000000000000000000000000000000000
310
0000FFFFFFFFFFFFFFFFFFFFFFFFFFFFFFFFFFFFFFFFFFFFFF00000000000000
310
00000000000000000000000000000001FFFFFFFFC00000000000000000000000
310
0000000000000007FFFFFFFF0000000000000000000000000000000000000000
310
000000000000000000000000000000000000000000000000000000000000FFFF
310
FFFFFFFFFFFFFFFFFFFFFFFFFFFFFFFFFFFFFFFFFF0000000000000000000000
310
000000000000000000000001FFFFFFFFC0000000000000000000000000000000
310
00000007FFFFFFFF000000000000000000000000000000000000000000000000
310
0000000000000000000000000000000000000000000000000000FFFFFFFFFFFF
310
FFFFFFFFFFFFFFFFFFFFFFFFFFFFFFFFFF000000000000000000000000000000
310
0000000000000001FFFFFFFFC000000000000000000000000000000000000007
310
FFFFFFFF00000000000000000000000000000000000000000000000000000000
310
00000000000000000000000000000000000000000000FFFFFFFFFFFFFFFFFFFF
310
FFFFFFFFFFFFFFFFFFFFFFFFFF00000000000000000000000000000000000000
310
00000001FFFFFFFFC000000000000000000000000000000000000007FFFFFFFF
310
0000000000000000000000000000000000000000000000000000000000000000
310
000000000000000000000000000000000000FFFFFFFFFFFFFFFFFFFFFFFFFFFF
310
FFFFFFFFFFFFFFFFFF0000000000000000000000000000000000000000000001
310
FFFFFFFFC000000000000000000000000000000000000007FFFFFFFF00000000
310
0000000000000000000000000000000000000000000000000000000000000000
310
0000000000000000000000000000FFFFFFFFFFFFFFFFFFFFFFFFFFFFFFFFFFFF
310
FFFFFFFFFF0000000000000000000000000000000000000000000001FFFFFFFF
310
C000000000000000000000000000000000000007FFFFFFFF0000000000000000
310
0000000000000000000000000000000000000000000000000000000000000000
310
00000000000000000000FFFFFFFFFFFFFFFFFFFFFFFFFFFFFFFFFFFFFFFFFFFF
310
FF0000000000000000000000000000000000000000000001FFFFFFFFC0000000
310
00000000000000000000000000000007FFFFFFFF000000000000000000000000
310
0000000000000000000000000000000000000000000000000000000000000000
310
000000000000FFFFFFFFFFFFFFFFFFFFFFFFFFFFFFFFFFFFFFFFFFFFFF000000
310
0000000000000000000000000000000000000001FFFFFFFFC000000000000000
310
000000000000000000000007FFFFFFFF00000000000000000000000000000000
310
000000000000000000000000000000000000FFFFFFFFFFFFFFFFFFFFFFFFFFFF
310
FFFFFFFFFFFFFFFFFF0000000000000000000000000000000000000000000001
310
FFFFFFFFC000000000000000000000000000000000000007FFFFFFFF00000000
310
0000000000000000000000000000000000000000000000000000000000000000
310
0000000000000000000000000000FFFFFFFFFFFFFFFFFFFFFFFFFFFFFFFFFFFF
310
FFFFFFFFFF0000000000000000000000000000000000000000000001FFFFFFFF
310
C000000000000000000000000000000000000007FFFFFFFF0000000000000000
310
0000000000000000000000000000000000000000000000000000000000000000
310
00000000000000000000FFFFFFFFFFFFFFFFFFFFFFFFFFFFFFFFFFFFFFFFFFFF
310
FF0000000000000000000000000000000000000000000001FFFFFFFFC0000000
310
00000000000000000000000000000007FFFFFFFF000000000000000000000000
310
0000000000000000000000000000000000000000000000000000000000000000
310
000000000000FFFFFFFFFFFFFFFFFFFFFFFFFFFFFFFFFFFFFFFFFFFFFF000000
310
0000000000000000000000000000000000000001FFFFFFFFC000000000000000
310
000000000000000000000007FFFFFFFF00000000000000000000000000000000
310
0000000000000000000000000000000000000000000000000000000000000000
310
0000FFFFFFFFFFFFFFFFFFFFFFFFFFFFFFFFFFFFFFFFFFFFFF00000000000000
310
00000000000000000000000000000001FFFFFFFFC00000000000000000000000
310
0000000000000007FFFFFFFF0000000000000000000000000000000000000000
310
000000000000000000000000000000000000000000000000000000000000FFFF
310
FFFFFFFFFFFFFFFFFFFFFFFFFFFFFFFFFFFFFFFFFF0000000000000000000000
310
000000000000000000000001FFFFFFFFC0000000000000000000000000000000
310
00000007FFFFFFFF000000000000000000000000000000000000000000000000
310
0000000000000000000000000000000000000000000000000000FFFFFFFFFFFF
310
FFFFFFFFFFFFFFFFFFFFFFFFFFFFFFFFFF000000000000000000000000000000
310
0000000000000001FFFFFFFFC000000000000000000000000000000000000007
310
FFFFFFFF00000000000000000000000000000000000000000000000000000000
310
00000000000000000000000000000000000000000000FFFFFFFFFFFFFFFFFFFF
310
FFFFFFFFFFFFFFFFFFFFFFFFFF00000000000000000000000000000000000000
310
00000001FFFFFFFFC000000000000000000000000000000000000007FFFFFFFF
310
0000000000000000000000000000000000000000000000000000000000000000
310
0000000000000000000000000000000000000000000000000000000000000000
310
0000000000000000000000000401C1000002030A001000010000000000000000
310
0000000000000000000000000000000000000000000000000000000000000000
310
0000000000000000000000000000000000000000000000000000000000000000
310
0000000000000000000000000000000000000000000000000000000000000000
310
0000000000000000000000000000000000000000000000000000000000000000
310
0000000000000000000000000000000000000000000000000000000000000000
310
0000000000000000000000000000000000000000000000000000000000000000
310
0000000000000000000000000000000000000000000000000000000000000000
310
0000000000000000000000000000000000000000000000000000000000000000
310
0000000000000000000000000000000000000000000000000000000000000000
310
0000000000000000000000000000000000000000000000000000000000000000
310
0000000000000000000000000000000000000000000000000000000000000000
310
0000000000000000000000000000000000000000000000000000000000000000
310
0000000000000000000000000000000000000000000000000000000000000000
310
0000000000000000000000000000000000000000000000000000000000000000
310
0000000000000000000000000000000000000000000000000000000000000000
310
0100FEFF030A0000FFFFFFFF0A00030000000000C00000000000004607000000
310
5042727573680007000000504272757368000700000050427275736800F439B2
310
7100000000000000000000000000000000000000000000000000000000000000
310
0000000000000000000000000000000000000000000000000000000000000000
310
0100000200000000000000000000000000000000000000000000000000000000
310
0000000000000000000000000000000000000000000000000000000000000000
310
0000000000000000000000000000000000000000000000000000000000000000
310
0000000000000000000000000000000000000000000000000000000000000000
310
0000000000000000000000000000000000000000000000000000000000000000
310
0000000000000000000000000000000000000000000000000000000000000000
310
0000000000000000000000000000000000000000000000000000000000000000
310
0000000000000000000000000000000000000000000000000000000000000000
310
0000000000000000000000000000000000000000000000000000000000000000
310
0000000000000000000000000000000000000000000000000000000000000000
310
0000000000000000000000000000000000000000000000000000000000000000
310
0000000000000000000000000000000000000000000000000000000000000000
  1
OLE
  0
TEXT
  5
707
330
1F
100
AcDbEntity
  8
99
  6
Continuous
 62
     7
370
    30
100
AcDbText
 10
329.7388205673085
 20
9.60831627327233
 30
0.0
 40
4.0
  1
株式会社トキナー
  7
KCADTEXTSTANDARD
100
AcDbText
1001
Sigma
1000

  0
TEXT
  5
708
330
1F
100
AcDbEntity
  8
99
  6
Continuous
 62
     7
370
    30
100
AcDbText
 10
376.4010111154251
 20
9.963044212045068
 30
0.0
 40
4.0
  1
Tokina Co.,Ltd.
 41
0.7000000000000001
  7
KCADTEXTSTANDARD
100
AcDbText
1001
Sigma
1000

  0
TEXT
  5
893
330
1F
100
AcDbEntity
  8
99
  6
Continuous
 62
     7
370
    30
100
AcDbText
 10
154.7514436613901
 20
24.8733055901975
 30
0.0
 40
2.5
  1
図番登録
 41
0.7000000000000001
  7
KCADTEXTSTANDARD
100
AcDbText
1001
Sigma
1000

  0
TEXT
  5
894
330
1F
100
AcDbEntity
  8
99
  6
Continuous
 62
     7
370
    30
100
AcDbText
 10
154.2949925946164
 20
19.69765663648312
 30
0.0
 40
2.0
  1
2008.5.15
 41
0.7000000000000001
  7
KCADTEXTSTANDARD
100
AcDbText
1001
Sigma
1000

  0
ENDSEC
  0
SECTION
  2
OBJECTS
  0
DICTIONARY
  5
C
330
0
100
AcDbDictionary
281
     1
  3
ACAD_COLOR
350
6C
  3
ACAD_GROUP
350
D
  3
ACAD_LAYOUT
350
1A
  3
ACAD_MATERIAL
350
6B
  3
ACAD_MLINESTYLE
350
17
  3
ACAD_PLOTSETTINGS
350
19
  3
ACAD_PLOTSTYLENAME
350
E
  3
ACAD_TABLESTYLE
350
92
  3
ACDBHEADERROUNDTRIPXREC
350
97F
  3
AcDbVariableDictionary
350
59
  3
DWGPROPS
350
982
  3
KCADFRAMEINFO
350
2A7
  0
DICTIONARY
  5
6C
102
{ACAD_REACTORS
330
C
102
}
330
C
100
AcDbDictionary
281
     1
  0
DICTIONARY
  5
D
102
{ACAD_REACTORS
330
C
102
}
330
C
100
AcDbDictionary
281
     1
  3
*A1
350
3E5
  3
*A2
350
3F9
  3
*A3
350
400
  3
*A4
350
407
  3
*A5
350
40E
  3
*A6
350
415
  0
DICTIONARY
  5
1A
102
{ACAD_REACTORS
330
C
102
}
330
C
100
AcDbDictionary
281
     1
  3
Model
350
22
  3
ﾚｲｱｳﾄ1
350
22F
  0
DICTIONARY
  5
6B
102
{ACAD_REACTORS
330
C
102
}
330
C
100
AcDbDictionary
281
     1
  0
DICTIONARY
  5
17
102
{ACAD_REACTORS
330
C
102
}
330
C
100
AcDbDictionary
281
     1
  3
Standard
350
18
  0
DICTIONARY
  5
19
102
{ACAD_REACTORS
330
C
102
}
330
C
100
AcDbDictionary
281
     1
  0
ACDBDICTIONARYWDFLT
  5
E
102
{ACAD_REACTORS
330
C
102
}
330
C
100
AcDbDictionary
281
     1
  3
Normal
350
F
100
AcDbDictionaryWithDefault
340
F
  0
DICTIONARY
  5
92
102
{ACAD_REACTORS
330
C
102
}
330
C
100
AcDbDictionary
281
     1
  0
DICTIONARY
  5
97F
102
{ACAD_REACTORS
330
C
102
}
330
C
100
AcDbDictionary
281
     1
  3
COLORDICT
350
980
  3
MATERIALDICT
350
981
  0
DICTIONARY
  5
59
102
{ACAD_REACTORS
330
C
102
}
330
C
100
AcDbDictionary
281
     1
  3
DIMASSOC
350
97E
  0
XRECORD
  5
982
102
{ACAD_REACTORS
330
C
102
}
330
C
100
AcDbXrecord
280
     1
  1
DWGPROPS COOKIE
  2

  3

  4

  6

  7

  8
fottrem
  9

300
=
301
=
302
=
303
=
304
=
305
=
306
=
307
=
308
=
309
=
 40
0.0
 41
2453353.717125822
 42
2453294.152265625
  1

 90
        0
  0
XRECORD
  5
2A7
102
{ACAD_REACTORS
330
C
102
}
330
C
100
AcDbXrecord
280
     1
  1
A3
 40
420.0
 40
297.0
 90
        1
 90
        1
  0
GROUP
  5
3E5
102
{ACAD_REACTORS
330
D
102
}
330
D
100
AcDbGroup
300
line with arrowBlockRef from kcad family
 70
     1
 71
     1
340
3E7
340
3E9
  0
GROUP
  5
3F9
102
{ACAD_REACTORS
330
D
102
}
330
D
100
AcDbGroup
300
group from kcad family
 70
     1
 71
     1
340
3FA
340
3FC
340
3FE
  0
GROUP
  5
400
102
{ACAD_REACTORS
330
D
102
}
330
D
100
AcDbGroup
300
group from kcad family
 70
     1
 71
     1
340
401
340
403
340
405
  0
GROUP
  5
407
102
{ACAD_REACTORS
330
D
102
}
330
D
100
AcDbGroup
300
group from kcad family
 70
     1
 71
     1
340
408
340
40A
340
40C
  0
GROUP
  5
40E
102
{ACAD_REACTORS
330
D
102
}
330
D
100
AcDbGroup
300
group from kcad family
 70
     1
 71
     1
340
40F
340
411
340
413
  0
GROUP
  5
415
102
{ACAD_REACTORS
330
D
102
}
330
D
100
AcDbGroup
300
group from kcad family
 70
     1
 71
     1
340
416
340
418
340
41A
  0
LAYOUT
  5
22
102
{ACAD_REACTORS
330
1A
102
}
330
1A
100
AcDbPlotSettings
  1

  2
DWF ePlot.pc3
  4
ISO_A3_(297.00_x_420.00_MM)
  6

 40
5.793749809265136
 41
17.79375076293945
 42
5.79376220703125
 43
17.79376220703125
 44
297.0
 45
420.0
 46
0.0
 47
0.0
 48
0.0
 49
0.0
140
0.0
141
0.0
142
1.0
143
1.0
 70
 11952
 72
     1
 73
     1
 74
     2
  7

 75
    16
147
1.0
148
0.0
149
0.0
100
AcDbLayout
  1
Model
 70
     1
 71
     0
 10
0.0
 20
0.0
 11
420.0
 21
297.0
 12
0.0
 22
0.0
 32
0.0
 14
26.8189987163
 24
8.999872683928006
 34
0.0
 15
413.31900676123
 25
288.431941923775
 35
0.0
146
0.0
 13
0.0
 23
0.0
 33
0.0
 16
1.0
 26
0.0
 36
0.0
 17
0.0
 27
1.0
 37
0.0
 76
     0
330
1F
  0
LAYOUT
  5
22F
102
{ACAD_REACTORS
330
1A
102
}
330
1A
100
AcDbPlotSettings
  1

  2
D:\ACAD2000\plotters\HP DesignJet 700(System).pc3
  4

  6

 40
0.0
 41
0.0
 42
0.0
 43
0.0
 44
0.0
 45
0.0
 46
0.0
 47
0.0
 48
0.0
 49
0.0
140
0.0
141
0.0
142
1.0
143
1.0
 70
   688
 72
     0
 73
     0
 74
     5
  7
monochrome.ctb
 75
    16
147
1.0
148
0.0
149
0.0
100
AcDbLayout
  1
ﾚｲｱｳﾄ1
 70
     1
 71
     1
 10
0.0
 20
0.0
 11
12.0
 21
9.0
 12
0.0
 22
0.0
 32
0.0
 14
0.0
 24
0.0
 34
0.0
 15
0.0
 25
0.0
 35
0.0
146
0.0
 13
0.0
 23
0.0
 33
0.0
 16
1.0
 26
0.0
 36
0.0
 17
0.0
 27
1.0
 37
0.0
 76
     0
330
73
  0
MLINESTYLE
  5
18
102
{ACAD_REACTORS
330
17
102
}
330
17
100
AcDbMlineStyle
  2
Standard
 70
     0
  3

 62
   256
 51
90.0
 52
90.0
 71
     2
 49
0.5
 62
   256
  6
BYLAYER
 49
-0.5
 62
   256
  6
BYLAYER
  0
ACDBPLACEHOLDER
  5
F
102
{ACAD_REACTORS
330
E
102
}
330
E
  0
XRECORD
  5
980
102
{ACAD_REACTORS
330
97F
102
}
330
97F
100
AcDbXrecord
280
     1
340
6C
  0
XRECORD
  5
981
102
{ACAD_REACTORS
330
97F
102
}
330
97F
100
AcDbXrecord
280
     1
340
6B
  0
DICTIONARYVAR
  5
97E
102
{ACAD_REACTORS
330
59
102
}
330
59
100
DictionaryVariables
280
     0
  1
1
  0
ENDSEC
  0
EOF
