  0
SECTION
  2
HEADER
  9
$ACADVER
  1
AC1015
  9
$ACADMAINTVER
 70
     6
  9
$DWGCODEPAGE
  3
ANSI_932
  9
$INSBASE
 10
0.0
 20
0.0
 30
0.0
  9
$EXTMIN
 10
26.8189987163
 20
8.546619562789232
 30
0.0
  9
$EXTMAX
 10
413.31900676123
 20
288.431941923775
 30
0.0
  9
$LIMMIN
 10
0.0
 20
0.0
  9
$LIMMAX
 10
420.0
 20
297.0
  9
$ORTHOMODE
 70
     0
  9
$REGENMODE
 70
     1
  9
$FILLMODE
 70
     1
  9
$QTEXTMODE
 70
     0
  9
$MIRRTEXT
 70
     1
  9
$LTSCALE
 40
0.2
  9
$ATTMODE
 70
     1
  9
$TEXTSIZE
 40
3.2
  9
$TRACEWID
 40
1.0
  9
$TEXTSTYLE
  7
KCADTEXTSTANDARD
  9
$CLAYER
  8
0
  9
$CELTYPE
  6
Continuous
  9
$CECOLOR
 62
   134
  9
$CELTSCALE
 40
1.0
  9
$DISPSILH
 70
     0
  9
$DIMSCALE
 40
1.0
  9
$DIMASZ
 40
3.0
  9
$DIMEXO
 40
1.0
  9
$DIMDLI
 40
8.0
  9
$DIMRND
 40
0.0
  9
$DIMDLE
 40
0.0
  9
$DIMEXE
 40
1.0
  9
$DIMTP
 40
0.0
  9
$DIMTM
 40
0.0
  9
$DIMTXT
 40
3.2
  9
$DIMCEN
 40
2.5
  9
$DIMTSZ
 40
0.0
  9
$DIMTOL
 70
     0
  9
$DIMLIM
 70
     0
  9
$DIMTIH
 70
     0
  9
$DIMTOH
 70
     0
  9
$DIMSE1
 70
     0
  9
$DIMSE2
 70
     0
  9
$DIMTAD
 70
     1
  9
$DIMZIN
 70
     8
  9
$DIMBLK
  1

  9
$DIMASO
 70
     1
  9
$DIMSHO
 70
     1
  9
$DIMPOST
  1

  9
$DIMAPOST
  1

  9
$DIMALT
 70
     0
  9
$DIMALTD
 70
     2
  9
$DIMALTF
 40
25.4
  9
$DIMLFAC
 40
1.0
  9
$DIMTOFL
 70
     1
  9
$DIMTVP
 40
0.0
  9
$DIMTIX
 70
     0
  9
$DIMSOXD
 70
     0
  9
$DIMSAH
 70
     1
  9
$DIMBLK1
  1
KCAD_OPEN30
  9
$DIMBLK2
  1
KCAD_OPEN30
  9
$DIMSTYLE
  2
Standard
  9
$DIMCLRD
 70
     0
  9
$DIMCLRE
 70
     0
  9
$DIMCLRT
 70
     0
  9
$DIMTFAC
 40
0.667
  9
$DIMGAP
 40
0.5333000000000001
  9
$DIMJUST
 70
     0
  9
$DIMSD1
 70
     0
  9
$DIMSD2
 70
     0
  9
$DIMTOLJ
 70
     1
  9
$DIMTZIN
 70
     8
  9
$DIMALTZ
 70
     0
  9
$DIMALTTZ
 70
     0
  9
$DIMUPT
 70
     0
  9
$DIMDEC
 70
     3
  9
$DIMTDEC
 70
     3
  9
$DIMALTU
 70
     2
  9
$DIMALTTD
 70
     2
  9
$DIMTXSTY
  7
KCADDIMSTANDARD
  9
$DIMAUNIT
 70
     0
  9
$DIMADEC
 70
     3
  9
$DIMALTRND
 40
0.0
  9
$DIMAZIN
 70
     2
  9
$DIMDSEP
 70
    46
  9
$DIMATFIT
 70
     3
  9
$DIMFRAC
 70
     0
  9
$DIMLDRBLK
  1
KCAD_OPEN
  9
$DIMLUNIT
 70
     2
  9
$DIMLWD
 70
    -2
  9
$DIMLWE
 70
    -2
  9
$DIMTMOVE
 70
     0
  9
$LUNITS
 70
     2
  9
$LUPREC
 70
     4
  9
$SKETCHINC
 40
1.0
  9
$FILLETRAD
 40
5.0
  9
$AUNITS
 70
     0
  9
$AUPREC
 70
     0
  9
$MENU
  1
.
  9
$ELEVATION
 40
0.0
  9
$PELEVATION
 40
0.0
  9
$THICKNESS
 40
0.0
  9
$LIMCHECK
 70
     0
  9
$CHAMFERA
 40
5.0
  9
$CHAMFERB
 40
5.0
  9
$CHAMFERC
 40
5.0
  9
$CHAMFERD
 40
0.7853981633974483
  9
$SKPOLY
 70
     0
  9
$TDCREATE
 40
2453354.092125822
  9
$TDUCREATE
 40
2453353.717125822
  9
$TDUPDATE
 40
2453294.503746331
  9
$TDUUPDATE
 40
2453294.128746331
  9
$TDINDWG
 40
0.380363588
  9
$TDUSRTIMER
 40
0.3803519907
  9
$USRTIMER
 70
     1
  9
$ANGBASE
 50
0.0
  9
$ANGDIR
 70
     0
  9
$PDMODE
 70
     0
  9
$PDSIZE
 40
0.0
  9
$PLINEWID
 40
0.0
  9
$SPLFRAME
 70
     0
  9
$SPLINETYPE
 70
     6
  9
$SPLINESEGS
 70
     8
  9
$HANDSEED
  5
9ED
  9
$SURFTAB1
 70
     6
  9
$SURFTAB2
 70
     6
  9
$SURFTYPE
 70
     6
  9
$SURFU
 70
     6
  9
$SURFV
 70
     6
  9
$UCSBASE
  2

  9
$UCSNAME
  2

  9
$UCSORG
 10
0.0
 20
0.0
 30
0.0
  9
$UCSXDIR
 10
1.0
 20
0.0
 30
0.0
  9
$UCSYDIR
 10
0.0
 20
1.0
 30
0.0
  9
$UCSORTHOREF
  2

  9
$UCSORTHOVIEW
 70
     0
  9
$UCSORGTOP
 10
0.0
 20
0.0
 30
0.0
  9
$UCSORGBOTTOM
 10
0.0
 20
0.0
 30
0.0
  9
$UCSORGLEFT
 10
0.0
 20
0.0
 30
0.0
  9
$UCSORGRIGHT
 10
0.0
 20
0.0
 30
0.0
  9
$UCSORGFRONT
 10
0.0
 20
0.0
 30
0.0
  9
$UCSORGBACK
 10
0.0
 20
0.0
 30
0.0
  9
$PUCSBASE
  2

  9
$PUCSNAME
  2

  9
$PUCSORG
 10
0.0
 20
0.0
 30
0.0
  9
$PUCSXDIR
 10
1.0
 20
0.0
 30
0.0
  9
$PUCSYDIR
 10
0.0
 20
1.0
 30
0.0
  9
$PUCSORTHOREF
  2

  9
$PUCSORTHOVIEW
 70
     0
  9
$PUCSORGTOP
 10
0.0
 20
0.0
 30
0.0
  9
$PUCSORGBOTTOM
 10
0.0
 20
0.0
 30
0.0
  9
$PUCSORGLEFT
 10
0.0
 20
0.0
 30
0.0
  9
$PUCSORGRIGHT
 10
0.0
 20
0.0
 30
0.0
  9
$PUCSORGFRONT
 10
0.0
 20
0.0
 30
0.0
  9
$PUCSORGBACK
 10
0.0
 20
0.0
 30
0.0
  9
$USERI1
 70
     0
  9
$USERI2
 70
     0
  9
$USERI3
 70
     0
  9
$USERI4
 70
   257
  9
$USERI5
 70
     0
  9
$USERR1
 40
0.0
  9
$USERR2
 40
0.0
  9
$USERR3
 40
0.0
  9
$USERR4
 40
0.0
  9
$USERR5
 40
0.0
  9
$WORLDVIEW
 70
     1
  9
$SHADEDGE
 70
     3
  9
$SHADEDIF
 70
    70
  9
$TILEMODE
 70
     1
  9
$MAXACTVP
 70
    48
  9
$PINSBASE
 10
0.0
 20
0.0
 30
0.0
  9
$PLIMCHECK
 70
     0
  9
$PEXTMIN
 10
0.0
 20
0.0
 30
0.0
  9
$PEXTMAX
 10
0.0
 20
0.0
 30
0.0
  9
$PLIMMIN
 10
0.0
 20
0.0
  9
$PLIMMAX
 10
12.0
 20
9.0
  9
$UNITMODE
 70
     0
  9
$VISRETAIN
 70
     1
  9
$PLINEGEN
 70
     0
  9
$PSLTSCALE
 70
     1
  9
$TREEDEPTH
 70
  3020
  9
$CMLSTYLE
  2
Standard
  9
$CMLJUST
 70
     0
  9
$CMLSCALE
 40
20.0
  9
$PROXYGRAPHICS
 70
     1
  9
$MEASUREMENT
 70
     1
  9
$CELWEIGHT
370
    15
  9
$ENDCAPS
280
     0
  9
$JOINSTYLE
280
     0
  9
$LWDISPLAY
290
     0
  9
$INSUNITS
 70
     0
  9
$HYPERLINKBASE
  1

  9
$STYLESHEET
  1

  9
$XEDIT
290
     0
  9
$CEPSNTYPE
380
     0
  9
$PSTYLEMODE
290
     1
  9
$FINGERPRINTGUID
  2
{1989D620-E742-11D2-9219-00105A146177}
  9
$VERSIONGUID
  2
{2D01CBE8-CAA9-4616-B680-FF41DED6443C}
  9
$EXTNAMES
290
     1
  9
$PSVPSCALE
 40
0.0
  9
$OLESTARTUP
290
     0
  0
ENDSEC
  0
SECTION
  2
CLASSES
  0
CLASS
  1
ACDBDICTIONARYWDFLT
  2
AcDbDictionaryWithDefault
  3
ObjectDBX Classes
 90
        0
280
     0
281
     0
  0
CLASS
  1
ACDBPLACEHOLDER
  2
AcDbPlaceHolder
  3
ObjectDBX Classes
 90
        0
280
     0
281
     0
  0
CLASS
  1
LAYOUT
  2
AcDbLayout
  3
ObjectDBX Classes
 90
        0
280
     0
281
     0
  0
CLASS
  1
DICTIONARYVAR
  2
AcDbDictionaryVar
  3
ObjectDBX Classes
 90
        0
280
     0
281
     0
  0
CLASS
  1
TABLESTYLE
  2
AcDbTableStyle
  3
ObjectDBX Classes
 90
     2047
280
     0
281
     0
  0
ENDSEC
  0
SECTION
  2
TABLES
  0
TABLE
  2
VPORT
  5
8
330
0
100
AcDbSymbolTable
 70
     2
  0
VPORT
  5
97
330
8
100
AcDbSymbolTableRecord
100
AcDbViewportTableRecord
  2
*Active
 70
     0
 10
0.0
 20
0.0
 11
1.0
 21
1.0
 12
220.069002738765
 22
148.4892807432821
 13
0.0
 23
0.0
 14
10.0
 24
10.0
 15
10.0
 25
10.0
 16
0.0
 26
0.0
 36
1.0
 17
0.0
 27
0.0
 37
0.0
 40
308.2888657325681
 41
2.20035778175313
 42
50.0
 43
0.0
 44
0.0
 50
0.0
 51
0.0
 71
    16
 72
 20000
 73
     1
 74
     1
 75
     0
 76
     0
 77
     0
 78
     0
281
     0
 65
     0
110
0.0
120
0.0
130
0.0
111
1.0
121
0.0
131
0.0
112
0.0
122
1.0
132
0.0
 79
     0
146
0.0
  0
ENDTAB
  0
TABLE
  2
LTYPE
  5
5
330
0
100
AcDbSymbolTable
 70
     6
  0
LTYPE
  5
14
330
5
100
AcDbSymbolTableRecord
100
AcDbLinetypeTableRecord
  2
ByBlock
 70
     0
  3

 72
    65
 73
     0
 40
0.0
  0
LTYPE
  5
15
330
5
100
AcDbSymbolTableRecord
100
AcDbLinetypeTableRecord
  2
ByLayer
 70
     0
  3

 72
    65
 73
     0
 40
0.0
  0
LTYPE
  5
16
330
5
100
AcDbSymbolTableRecord
100
AcDbLinetypeTableRecord
  2
Continuous
 70
     0
  3
Solid line
 72
    65
 73
     0
 40
0.0
  0
LTYPE
  5
97D
330
5
100
AcDbSymbolTableRecord
100
AcDbLinetypeTableRecord
  2
CENTER
 70
     0
  3
Center ____ _ ____ _ ____ _ ____ _ ____ _ ____
 72
    65
 73
     4
 40
50.8
 49
31.75
 74
     4
 75
     0
340
0
 46
1.0
 50
0.0
 44
0.0
 45
0.0
 49
-6.349999999999999
 74
     4
 75
     0
340
0
 46
1.0
 50
0.0
 44
0.0
 45
0.0
 49
6.349999999999999
 74
     4
 75
     0
340
0
 46
1.0
 50
0.0
 44
0.0
 45
0.0
 49
-6.349999999999999
 74
     4
 75
     0
340
0
 46
1.0
 50
0.0
 44
0.0
 45
0.0
  0
LTYPE
  5
97E
330
5
100
AcDbSymbolTableRecord
100
AcDbLinetypeTableRecord
  2
DASHED
 70
     0
  3
Dashed __ __ __ __ __ __ __ __ __ __ __ __ __ _
 72
    65
 73
     2
 40
19.05
 49
12.7
 74
     4
 75
     0
340
0
 46
1.0
 50
0.0
 44
0.0
 45
0.0
 49
-6.349999999999999
 74
     4
 75
     0
340
0
 46
1.0
 50
0.0
 44
0.0
 45
0.0
  0
LTYPE
  5
97F
330
5
100
AcDbSymbolTableRecord
100
AcDbLinetypeTableRecord
  2
HIDDEN
 70
     0
  3
Hidden __ __ __ __ __ __ __ __ __ __ __ __ __ _
 72
    65
 73
     2
 40
9.524999999999999
 49
6.349999999999999
 74
     4
 75
     0
340
0
 46
1.0
 50
0.0
 44
0.0
 45
0.0
 49
-3.174999999999999
 74
     4
 75
     0
340
0
 46
1.0
 50
0.0
 44
0.0
 45
0.0
  0
LTYPE
  5
980
330
5
100
AcDbSymbolTableRecord
100
AcDbLinetypeTableRecord
  2
PHANTOM
 70
     0
  3
Phantom ______  __  __  ______  __  __  ______
 72
    65
 73
     6
 40
63.50000000000001
 49
31.75
 74
     4
 75
     0
340
0
 46
1.0
 50
0.0
 44
0.0
 45
0.0
 49
-6.349999999999999
 74
     4
 75
     0
340
0
 46
1.0
 50
0.0
 44
0.0
 45
0.0
 49
6.349999999999999
 74
     4
 75
     0
340
0
 46
1.0
 50
0.0
 44
0.0
 45
0.0
 49
-6.349999999999999
 74
     4
 75
     0
340
0
 46
1.0
 50
0.0
 44
0.0
 45
0.0
 49
6.349999999999999
 74
     4
 75
     0
340
0
 46
1.0
 50
0.0
 44
0.0
 45
0.0
 49
-6.349999999999999
 74
     4
 75
     0
340
0
 46
1.0
 50
0.0
 44
0.0
 45
0.0
  0
LTYPE
  5
981
330
5
100
AcDbSymbolTableRecord
100
AcDbLinetypeTableRecord
  2
RUPTURE
 70
     0
  3
Rupture line
 72
    65
 73
     4
 40
45.72
 49
25.4
 74
     4
 75
     0
340
0
 46
1.0
 50
0.0
 44
0.0
 45
0.0
 49
-5.08
 74
     4
 75
   131
340
11
 46
5.08
 50
0.0
 44
-5.08
 45
0.0
 49
-10.16
 74
     4
 75
   131
340
11
 46
5.08
 50
180.0
 44
5.08
 45
0.0
 49
-5.08
 74
     4
 75
     0
340
0
 46
1.0
 50
0.0
 44
0.0
 45
0.0
  0
ENDTAB
  0
TABLE
  2
LAYER
  5
2
330
0
100
AcDbSymbolTable
 70
    17
  0
LAYER
  5
10
330
2
100
AcDbSymbolTableRecord
100
AcDbLayerTableRecord
  2
0
 70
     0
 62
     7
  6
Continuous
370
    -3
390
F
  0
LAYER
  5
6C4
330
2
100
AcDbSymbolTableRecord
100
AcDbLayerTableRecord
  2
KCAD_DIMS
 70
     0
 62
   134
  6
Continuous
370
    15
390
F
  0
LAYER
  5
4F
330
2
100
AcDbSymbolTableRecord
100
AcDbLayerTableRecord
  2
DEFPOINTS
 70
     0
 62
     7
  6
Continuous
290
     0
370
    -3
390
F
  0
LAYER
  5
20B
330
2
100
AcDbSymbolTableRecord
100
AcDbLayerTableRecord
  2
KCAD_ASST
 70
     0
 62
   134
  6
Continuous
370
    15
390
F
  0
LAYER
  5
20C
330
2
100
AcDbSymbolTableRecord
100
AcDbLayerTableRecord
  2
KCAD_RASTER
 70
     0
 62
     7
  6
Continuous
370
    30
390
F
  0
LAYER
  5
20D
330
2
100
AcDbSymbolTableRecord
100
AcDbLayerTableRecord
  2
SYBCENTER
 70
     0
 62
   134
  6
CENTER
370
    15
390
F
  0
LAYER
  5
20E
330
2
100
AcDbSymbolTableRecord
100
AcDbLayerTableRecord
  2
SYBHIDE
 70
     0
 62
   134
  6
HIDDEN
370
    15
390
F
  0
LAYER
  5
20F
330
2
100
AcDbSymbolTableRecord
100
AcDbLayerTableRecord
  2
SYBOUTLINE
 70
     0
 62
     7
  6
Continuous
370
    30
390
F
  0
LAYER
  5
210
330
2
100
AcDbSymbolTableRecord
100
AcDbLayerTableRecord
  2
SYBTHREAD
 70
     0
 62
   134
  6
Continuous
370
    15
390
F
  0
LAYER
  5
211
330
2
100
AcDbSymbolTableRecord
100
AcDbLayerTableRecord
  2
SYBTHRHID
 70
     0
 62
   134
  6
HIDDEN
370
    15
390
F
  0
LAYER
  5
282
330
2
100
AcDbSymbolTableRecord
100
AcDbLayerTableRecord
  2
KCAD_UIR_TMP_LAYER_
 70
     0
 62
     7
  6
Continuous
370
    -3
390
F
  0
LAYER
  5
2A8
330
2
100
AcDbSymbolTableRecord
100
AcDbLayerTableRecord
  2
KCAD_CPM_MAX_LAYER
 70
     3
 62
     7
  6
Continuous
370
    -3
390
F
  0
LAYER
  5
2F3
330
2
100
AcDbSymbolTableRecord
100
AcDbLayerTableRecord
  2
90-ScaleR0.4
 70
     0
 62
     7
  6
Continuous
370
    -3
390
F
1001
Layer_Scale
1002
{
1071
   200007
1070
     0
1040
0.4
1040
1.0
1002
}
  0
LAYER
  5
395
330
2
100
AcDbSymbolTableRecord
100
AcDbLayerTableRecord
  2
2
 70
     0
 62
     7
  6
Continuous
370
    -3
390
F
  0
LAYER
  5
3A2
330
2
100
AcDbSymbolTableRecord
100
AcDbLayerTableRecord
  2
3
 70
     0
 62
     7
  6
Continuous
370
    -3
390
F
  0
LAYER
  5
3E6
330
2
100
AcDbSymbolTableRecord
100
AcDbLayerTableRecord
  2
4
 70
     0
 62
     7
  6
Continuous
370
    -3
390
F
  0
LAYER
  5
718
330
2
100
AcDbSymbolTableRecord
100
AcDbLayerTableRecord
  2
99
 70
     0
 62
     7
  6
Continuous
370
    -3
390
F
  0
ENDTAB
  0
TABLE
  2
STYLE
  5
3
330
0
100
AcDbSymbolTable
 70
     5
  0
STYLE
  5
11
330
3
100
AcDbSymbolTableRecord
100
AcDbTextStyleTableRecord
  2
Standard
 70
     0
 40
0.0
 41
1.0
 50
0.0
 71
     0
 42
3.2
  3
txt.shx
  4
bigfont.shx
  0
STYLE
  5
17F
330
3
100
AcDbSymbolTableRecord
100
AcDbTextStyleTableRecord
  2

 70
     1
 40
0.0
 41
1.0
 50
0.0
 71
     0
 42
3.2
  3
ltypeshp.shx
  4

  0
STYLE
  5
189
330
3
100
AcDbSymbolTableRecord
100
AcDbTextStyleTableRecord
  2
KCADDIMSTANDARD
 70
     0
 40
0.0
 41
1.0
 50
0.0
 71
     0
 42
3.2
  3
txt.shx
  4
bigfont.shx
  0
STYLE
  5
18A
330
3
100
AcDbSymbolTableRecord
100
AcDbTextStyleTableRecord
  2
KCADTEXTSTANDARD
 70
     0
 40
0.0
 41
1.0
 50
0.0
 71
     0
 42
3.2
  3
txt.shx
  4
bigfont.shx
  0
STYLE
  5
1AD
330
3
100
AcDbSymbolTableRecord
100
AcDbTextStyleTableRecord
  2
KCADTEXT2
 70
     0
 40
0.0
 41
1.0
 50
0.0
 71
     0
 42
3.2
  3
txt.shx
  4
extfont.shx
  0
ENDTAB
  0
TABLE
  2
VIEW
  5
6
330
0
100
AcDbSymbolTable
 70
     0
  0
ENDTAB
  0
TABLE
  2
UCS
  5
7
330
0
100
AcDbSymbolTable
 70
     0
  0
ENDTAB
  0
TABLE
  2
APPID
  5
9
330
0
100
AcDbSymbolTable
 70
     4
  0
APPID
  5
12
330
9
100
AcDbSymbolTableRecord
100
AcDbRegAppTableRecord
  2
ACAD
 70
     0
  0
APPID
  5
97A
330
9
100
AcDbSymbolTableRecord
100
AcDbRegAppTableRecord
  2
Sigma
 70
     0
  0
APPID
  5
97B
330
9
100
AcDbSymbolTableRecord
100
AcDbRegAppTableRecord
  2
Layer_Scale
 70
     0
  0
APPID
  5
97C
330
9
100
AcDbSymbolTableRecord
100
AcDbRegAppTableRecord
  2
KCAD_DIM_EXT
 70
     0
  0
ENDTAB
  0
TABLE
  2
DIMSTYLE
  5
A
330
0
100
AcDbSymbolTable
 70
     1
100
AcDbDimStyleTable
  0
DIMSTYLE
105
27
102
{ACAD_REACTORS
330
41C
330
466
330
49C
330
4D8
330
514
330
550
330
58C
330
5C8
330
606
330
641
330
67C
102
}
330
A
100
AcDbSymbolTableRecord
100
AcDbDimStyleTableRecord
  2
Standard
 70
     0
340
11
  0
ENDTAB
  0
TABLE
  2
BLOCK_RECORD
  5
1
330
0
100
AcDbSymbolTable
 70
    50
  0
BLOCK_RECORD
  5
1F
330
1
100
AcDbSymbolTableRecord
100
AcDbBlockTableRecord
  2
*Model_Space
340
22
  0
BLOCK_RECORD
  5
73
330
1
100
AcDbSymbolTableRecord
100
AcDbBlockTableRecord
  2
*Paper_Space
340
22F
  0
BLOCK_RECORD
  5
6C5
330
1
100
AcDbSymbolTableRecord
100
AcDbBlockTableRecord
  2
KCAD_OPEN
340
0
  0
BLOCK_RECORD
  5
3C
330
1
100
AcDbSymbolTableRecord
100
AcDbBlockTableRecord
  2
KCAD_DOTSMALL
340
0
  0
BLOCK_RECORD
  5
44
330
1
100
AcDbSymbolTableRecord
100
AcDbBlockTableRecord
  2
KCAD_NONE
340
0
  0
BLOCK_RECORD
  5
FC
330
1
100
AcDbSymbolTableRecord
100
AcDbBlockTableRecord
  2
_CLOSED
340
0
  0
BLOCK_RECORD
  5
103
330
1
100
AcDbSymbolTableRecord
100
AcDbBlockTableRecord
  2
_DOT
340
0
  0
BLOCK_RECORD
  5
10B
330
1
100
AcDbSymbolTableRecord
100
AcDbBlockTableRecord
  2
_CLOSEDBLANK
340
0
  0
BLOCK_RECORD
  5
111
330
1
100
AcDbSymbolTableRecord
100
AcDbBlockTableRecord
  2
_OBLIQUE
340
0
  0
BLOCK_RECORD
  5
115
330
1
100
AcDbSymbolTableRecord
100
AcDbBlockTableRecord
  2
_ARCHTICK
340
0
  0
BLOCK_RECORD
  5
11C
330
1
100
AcDbSymbolTableRecord
100
AcDbBlockTableRecord
  2
_OPEN
340
0
  0
BLOCK_RECORD
  5
122
330
1
100
AcDbSymbolTableRecord
100
AcDbBlockTableRecord
  2
_ORIGIN
340
0
  0
BLOCK_RECORD
  5
127
330
1
100
AcDbSymbolTableRecord
100
AcDbBlockTableRecord
  2
_OPEN90
340
0
  0
BLOCK_RECORD
  5
12D
330
1
100
AcDbSymbolTableRecord
100
AcDbBlockTableRecord
  2
_OPEN30
340
0
102
{BLKREFS
331
45D
331
45E
331
495
331
496
331
4D1
331
4D2
331
50D
331
50E
331
549
331
54A
331
585
331
586
331
5C1
331
5C2
331
5FF
331
600
331
63E
331
679
331
6B1
331
6B2
331
3E9
102
}
  0
BLOCK_RECORD
  5
133
330
1
100
AcDbSymbolTableRecord
100
AcDbBlockTableRecord
  2
_DOTBLANK
340
0
  0
BLOCK_RECORD
  5
138
330
1
100
AcDbSymbolTableRecord
100
AcDbBlockTableRecord
  2
_DOTSMALL
340
0
  0
BLOCK_RECORD
  5
13F
330
1
100
AcDbSymbolTableRecord
100
AcDbBlockTableRecord
  2
_BOXFILLED
340
0
  0
BLOCK_RECORD
  5
144
330
1
100
AcDbSymbolTableRecord
100
AcDbBlockTableRecord
  2
_BOXBLANK
340
0
  0
BLOCK_RECORD
  5
14C
330
1
100
AcDbSymbolTableRecord
100
AcDbBlockTableRecord
  2
_DATUMFILLED
340
0
  0
BLOCK_RECORD
  5
150
330
1
100
AcDbSymbolTableRecord
100
AcDbBlockTableRecord
  2
_DATUMBLANK
340
0
  0
BLOCK_RECORD
  5
156
330
1
100
AcDbSymbolTableRecord
100
AcDbBlockTableRecord
  2
_INTEGRAL
340
0
  0
BLOCK_RECORD
  5
1F1
330
1
100
AcDbSymbolTableRecord
100
AcDbBlockTableRecord
  2
_Origin2
340
0
  0
BLOCK_RECORD
  5
1F7
330
1
100
AcDbSymbolTableRecord
100
AcDbBlockTableRecord
  2
KCAD_OPEN30
340
0
  0
BLOCK_RECORD
  5
222
330
1
100
AcDbSymbolTableRecord
100
AcDbBlockTableRecord
  2
_None
340
0
  0
BLOCK_RECORD
  5
283
330
1
100
AcDbSymbolTableRecord
100
AcDbBlockTableRecord
  2
_Small
340
0
  0
BLOCK_RECORD
  5
287
330
1
100
AcDbSymbolTableRecord
100
AcDbBlockTableRecord
  2
KCAD_OPEN_2
340
0
  0
BLOCK_RECORD
  5
28E
330
1
100
AcDbSymbolTableRecord
100
AcDbBlockTableRecord
  2
KCAD_OPEN30_2
340
0
  0
BLOCK_RECORD
  5
2AD
330
1
100
AcDbSymbolTableRecord
100
AcDbBlockTableRecord
  2
KCAD_OPEN30ANG
340
0
  0
BLOCK_RECORD
  5
2B6
330
1
100
AcDbSymbolTableRecord
100
AcDbBlockTableRecord
  2
KCAD_DOTANG
340
0
  0
BLOCK_RECORD
  5
41D
330
1
100
AcDbSymbolTableRecord
100
AcDbBlockTableRecord
  2
*D27
340
0
  0
BLOCK_RECORD
  5
467
330
1
100
AcDbSymbolTableRecord
100
AcDbBlockTableRecord
  2
*D28
340
0
  0
BLOCK_RECORD
  5
49D
330
1
100
AcDbSymbolTableRecord
100
AcDbBlockTableRecord
  2
*D29
340
0
  0
BLOCK_RECORD
  5
4D9
330
1
100
AcDbSymbolTableRecord
100
AcDbBlockTableRecord
  2
*D30
340
0
  0
BLOCK_RECORD
  5
515
330
1
100
AcDbSymbolTableRecord
100
AcDbBlockTableRecord
  2
*D31
340
0
  0
BLOCK_RECORD
  5
551
330
1
100
AcDbSymbolTableRecord
100
AcDbBlockTableRecord
  2
*D32
340
0
  0
BLOCK_RECORD
  5
58D
330
1
100
AcDbSymbolTableRecord
100
AcDbBlockTableRecord
  2
*D33
340
0
  0
BLOCK_RECORD
  5
5C9
330
1
100
AcDbSymbolTableRecord
100
AcDbBlockTableRecord
  2
*D34
340
0
  0
BLOCK_RECORD
  5
607
330
1
100
AcDbSymbolTableRecord
100
AcDbBlockTableRecord
  2
*D35
340
0
  0
BLOCK_RECORD
  5
642
330
1
100
AcDbSymbolTableRecord
100
AcDbBlockTableRecord
  2
*D36
340
0
  0
BLOCK_RECORD
  5
67D
330
1
100
AcDbSymbolTableRecord
100
AcDbBlockTableRecord
  2
*D37
340
0
  0
BLOCK_RECORD
  5
72C
330
1
100
AcDbSymbolTableRecord
100
AcDbBlockTableRecord
  2
*D38
340
0
  0
BLOCK_RECORD
  5
737
330
1
100
AcDbSymbolTableRecord
100
AcDbBlockTableRecord
  2
*D39
340
0
  0
BLOCK_RECORD
  5
743
330
1
100
AcDbSymbolTableRecord
100
AcDbBlockTableRecord
  2
*D40
340
0
  0
BLOCK_RECORD
  5
74F
330
1
100
AcDbSymbolTableRecord
100
AcDbBlockTableRecord
  2
*D41
340
0
  0
BLOCK_RECORD
  5
75B
330
1
100
AcDbSymbolTableRecord
100
AcDbBlockTableRecord
  2
*D42
340
0
  0
BLOCK_RECORD
  5
767
330
1
100
AcDbSymbolTableRecord
100
AcDbBlockTableRecord
  2
*D43
340
0
  0
BLOCK_RECORD
  5
773
330
1
100
AcDbSymbolTableRecord
100
AcDbBlockTableRecord
  2
*D44
340
0
  0
BLOCK_RECORD
  5
77F
330
1
100
AcDbSymbolTableRecord
100
AcDbBlockTableRecord
  2
*D45
340
0
  0
BLOCK_RECORD
  5
78A
330
1
100
AcDbSymbolTableRecord
100
AcDbBlockTableRecord
  2
*D46
340
0
  0
BLOCK_RECORD
  5
795
330
1
100
AcDbSymbolTableRecord
100
AcDbBlockTableRecord
  2
*D47
340
0
  0
BLOCK_RECORD
  5
7A1
330
1
100
AcDbSymbolTableRecord
100
AcDbBlockTableRecord
  2
*D48
340
0
  0
BLOCK_RECORD
  5
890
330
1
100
AcDbSymbolTableRecord
100
AcDbBlockTableRecord
  2
*D49
340
0
  0
ENDTAB
  0
ENDSEC
  0
SECTION
  2
BLOCKS
  0
BLOCK
  5
20
330
1F
100
AcDbEntity
  8
0
100
AcDbBlockBegin
  2
*Model_Space
 70
     0
 71
     0
 10
0.0
 20
0.0
 30
0.0
  3
*Model_Space
  1

  0
ENDBLK
  5
21
330
1F
100
AcDbEntity
  8
0
100
AcDbBlockEnd
  0
BLOCK
  5
75
330
73
100
AcDbEntity
 67
     1
  8
0
100
AcDbBlockBegin
  2
*Paper_Space
 70
     0
 71
     0
 10
0.0
 20
0.0
 30
0.0
  3
*Paper_Space
  1

  0
ENDBLK
  5
76
330
73
100
AcDbEntity
 67
     1
  8
0
100
AcDbBlockEnd
  0
BLOCK
  5
984
330
6C5
100
AcDbEntity
  8
KCAD_DIMS
100
AcDbBlockBegin
  2
KCAD_OPEN
 70
     0
 71
     0
 10
0.0
 20
0.0
 30
0.0
  3
KCAD_OPEN
  1

  0
LINE
  5
712
330
6C5
100
AcDbEntity
  8
0
  6
Continuous
 62
     0
370
    -2
100
AcDbLine
 10
0.0
 20
0.0
 30
0.0
 11
-1.0
 21
0.0
 31
0.0
  0
LINE
  5
23
330
6C5
100
AcDbEntity
  8
0
  6
Continuous
 62
     0
370
    -2
100
AcDbLine
 10
0.0
 20
0.0
 30
0.0
 11
-1.0
 21
0.158384
 31
0.0
  0
LINE
  5
24
330
6C5
100
AcDbEntity
  8
0
  6
Continuous
 62
     0
370
    -2
100
AcDbLine
 10
0.0
 20
0.0
 30
0.0
 11
-1.0
 21
-0.158384
 31
0.0
  0
ENDBLK
  5
985
330
6C5
100
AcDbEntity
  8
KCAD_DIMS
100
AcDbBlockEnd
  0
BLOCK
  5
986
330
3C
100
AcDbEntity
  8
KCAD_DIMS
100
AcDbBlockBegin
  2
KCAD_DOTSMALL
 70
     0
 71
     0
 10
0.0
 20
0.0
 30
0.0
  3
KCAD_DOTSMALL
  1

  0
LWPOLYLINE
  5
3D
330
3C
100
AcDbEntity
  8
KCAD_DIMS
 62
     0
100
AcDbPolyline
 90
        2
 70
     1
 43
0.5
 10
0.06252
 20
0.0
 42
1.0
 10
-0.06262
 20
0.0
 42
1.0
  0
LINE
  5
41
330
3C
100
AcDbEntity
  8
0
  6
Continuous
 62
     0
370
    -2
100
AcDbLine
 10
0.0
 20
0.0
 30
0.0
 11
-1.0
 21
0.0
 31
0.0
  0
ENDBLK
  5
987
330
3C
100
AcDbEntity
  8
0
100
AcDbBlockEnd
  0
BLOCK
  5
988
330
44
100
AcDbEntity
  8
KCAD_DIMS
100
AcDbBlockBegin
  2
KCAD_NONE
 70
     0
 71
     0
 10
0.0
 20
0.0
 30
0.0
  3
KCAD_NONE
  1

  0
LINE
  5
45
330
44
100
AcDbEntity
  8
0
  6
Continuous
 62
     0
370
    -2
100
AcDbLine
 10
0.0
 20
0.0
 30
0.0
 11
-1.0
 21
0.0
 31
0.0
  0
ENDBLK
  5
989
330
44
100
AcDbEntity
  8
0
100
AcDbBlockEnd
  0
BLOCK
  5
98A
330
FC
100
AcDbEntity
  8
0
100
AcDbBlockBegin
  2
_CLOSED
 70
     0
 71
     0
 10
0.0
 20
0.0
 30
0.0
  3
_CLOSED
  1

  0
LINE
  5
FE
330
FC
100
AcDbEntity
  8
0
  6
Continuous
 62
     0
370
    -2
100
AcDbLine
 10
-1.0
 20
0.166667
 30
0.0
 11
0.0
 21
0.0
 31
0.0
  0
LINE
  5
FF
330
FC
100
AcDbEntity
  8
0
  6
Continuous
 62
     0
370
    -2
100
AcDbLine
 10
0.0
 20
0.0
 30
0.0
 11
-1.0
 21
-0.166667
 31
0.0
  0
LINE
  5
100
330
FC
100
AcDbEntity
  8
0
  6
Continuous
 62
     0
370
    -2
100
AcDbLine
 10
-1.0
 20
0.166667
 30
0.0
 11
-1.0
 21
-0.166667
 31
0.0
  0
LINE
  5
101
330
FC
100
AcDbEntity
  8
0
  6
Continuous
 62
     0
370
    -2
100
AcDbLine
 10
0.0
 20
0.0
 30
0.0
 11
-1.0
 21
0.0
 31
0.0
  0
ENDBLK
  5
98B
330
FC
100
AcDbEntity
  8
0
100
AcDbBlockEnd
  0
BLOCK
  5
98C
330
103
100
AcDbEntity
  8
0
100
AcDbBlockBegin
  2
_DOT
 70
     0
 71
     0
 10
0.0
 20
0.0
 30
0.0
  3
_DOT
  1

  0
LWPOLYLINE
  5
105
330
103
100
AcDbEntity
  8
0
  6
ByBlock
 62
     0
100
AcDbPolyline
 90
        2
 70
     1
 43
0.5
 10
-0.25
 20
0.0
 42
1.0
 10
0.25
 20
0.0
 42
1.0
  0
LINE
  5
109
330
103
100
AcDbEntity
  8
0
  6
Continuous
 62
     0
370
    -2
100
AcDbLine
 10
-0.5
 20
0.0
 30
0.0
 11
-1.0
 21
0.0
 31
0.0
  0
ENDBLK
  5
98D
330
103
100
AcDbEntity
  8
0
100
AcDbBlockEnd
  0
BLOCK
  5
98E
330
10B
100
AcDbEntity
  8
0
100
AcDbBlockBegin
  2
_CLOSEDBLANK
 70
     0
 71
     0
 10
0.0
 20
0.0
 30
0.0
  3
_CLOSEDBLANK
  1

  0
LINE
  5
10D
330
10B
100
AcDbEntity
  8
0
  6
Continuous
 62
     0
370
    -2
100
AcDbLine
 10
-1.0
 20
0.166667
 30
0.0
 11
0.0
 21
0.0
 31
0.0
  0
LINE
  5
10E
330
10B
100
AcDbEntity
  8
0
  6
Continuous
 62
     0
370
    -2
100
AcDbLine
 10
0.0
 20
0.0
 30
0.0
 11
-1.0
 21
-0.166667
 31
0.0
  0
LINE
  5
10F
330
10B
100
AcDbEntity
  8
0
  6
Continuous
 62
     0
370
    -2
100
AcDbLine
 10
-1.0
 20
0.166667
 30
0.0
 11
-1.0
 21
-0.166667
 31
0.0
  0
ENDBLK
  5
98F
330
10B
100
AcDbEntity
  8
0
100
AcDbBlockEnd
  0
BLOCK
  5
990
330
111
100
AcDbEntity
  8
0
100
AcDbBlockBegin
  2
_OBLIQUE
 70
     0
 71
     0
 10
0.0
 20
0.0
 30
0.0
  3
_OBLIQUE
  1

  0
LINE
  5
113
330
111
100
AcDbEntity
  8
0
  6
Continuous
 62
     0
370
    -2
100
AcDbLine
 10
-0.5
 20
-0.5
 30
0.0
 11
0.5
 21
0.5
 31
0.0
  0
ENDBLK
  5
991
330
111
100
AcDbEntity
  8
0
100
AcDbBlockEnd
  0
BLOCK
  5
992
330
115
100
AcDbEntity
  8
0
100
AcDbBlockBegin
  2
_ARCHTICK
 70
     0
 71
     0
 10
0.0
 20
0.0
 30
0.0
  3
_ARCHTICK
  1

  0
LWPOLYLINE
  5
117
330
115
100
AcDbEntity
  8
0
  6
ByBlock
 62
     0
100
AcDbPolyline
 90
        2
 70
     0
 43
0.15
 10
-0.5
 20
-0.5
 10
0.5
 20
0.5
  0
ENDBLK
  5
993
330
115
100
AcDbEntity
  8
0
100
AcDbBlockEnd
  0
BLOCK
  5
994
330
11C
100
AcDbEntity
  8
0
100
AcDbBlockBegin
  2
_OPEN
 70
     0
 71
     0
 10
0.0
 20
0.0
 30
0.0
  3
_OPEN
  1

  0
LINE
  5
11E
330
11C
100
AcDbEntity
  8
0
  6
Continuous
 62
     0
370
    -2
100
AcDbLine
 10
-1.0
 20
0.166667
 30
0.0
 11
0.0
 21
0.0
 31
0.0
  0
LINE
  5
11F
330
11C
100
AcDbEntity
  8
0
  6
Continuous
 62
     0
370
    -2
100
AcDbLine
 10
0.0
 20
0.0
 30
0.0
 11
-1.0
 21
-0.166667
 31
0.0
  0
LINE
  5
120
330
11C
100
AcDbEntity
  8
0
  6
Continuous
 62
     0
370
    -2
100
AcDbLine
 10
0.0
 20
0.0
 30
0.0
 11
-1.0
 21
0.0
 31
0.0
  0
ENDBLK
  5
995
330
11C
100
AcDbEntity
  8
0
100
AcDbBlockEnd
  0
BLOCK
  5
996
330
122
100
AcDbEntity
  8
0
100
AcDbBlockBegin
  2
_ORIGIN
 70
     0
 71
     0
 10
0.0
 20
0.0
 30
0.0
  3
_ORIGIN
  1

  0
CIRCLE
  5
124
330
122
100
AcDbEntity
  8
0
  6
ByBlock
 62
     0
100
AcDbCircle
 10
0.0
 20
0.0
 30
0.0
 40
0.5
  0
LINE
  5
125
330
122
100
AcDbEntity
  8
0
  6
Continuous
 62
     0
370
    -2
100
AcDbLine
 10
0.0
 20
0.0
 30
0.0
 11
-1.0
 21
0.0
 31
0.0
  0
ENDBLK
  5
997
330
122
100
AcDbEntity
  8
0
100
AcDbBlockEnd
  0
BLOCK
  5
998
330
127
100
AcDbEntity
  8
0
100
AcDbBlockBegin
  2
_OPEN90
 70
     0
 71
     0
 10
0.0
 20
0.0
 30
0.0
  3
_OPEN90
  1

  0
LINE
  5
129
330
127
100
AcDbEntity
  8
0
  6
Continuous
 62
     0
370
    -2
100
AcDbLine
 10
-0.5
 20
0.5
 30
0.0
 11
0.0
 21
0.0
 31
0.0
  0
LINE
  5
12A
330
127
100
AcDbEntity
  8
0
  6
Continuous
 62
     0
370
    -2
100
AcDbLine
 10
0.0
 20
0.0
 30
0.0
 11
-0.5
 21
-0.5
 31
0.0
  0
LINE
  5
12B
330
127
100
AcDbEntity
  8
0
  6
Continuous
 62
     0
370
    -2
100
AcDbLine
 10
0.0
 20
0.0
 30
0.0
 11
-1.0
 21
0.0
 31
0.0
  0
ENDBLK
  5
999
330
127
100
AcDbEntity
  8
0
100
AcDbBlockEnd
  0
BLOCK
  5
99A
330
12D
100
AcDbEntity
  8
0
100
AcDbBlockBegin
  2
_OPEN30
 70
     0
 71
     0
 10
0.0
 20
0.0
 30
0.0
  3
_OPEN30
  1

  0
LINE
  5
12F
330
12D
100
AcDbEntity
  8
0
  6
Continuous
 62
     0
370
    -2
100
AcDbLine
 10
-1.0
 20
0.267949
 30
0.0
 11
0.0
 21
0.0
 31
0.0
  0
LINE
  5
130
330
12D
100
AcDbEntity
  8
0
  6
Continuous
 62
     0
370
    -2
100
AcDbLine
 10
0.0
 20
0.0
 30
0.0
 11
-1.0
 21
-0.267949
 31
0.0
  0
LINE
  5
131
330
12D
100
AcDbEntity
  8
0
  6
Continuous
 62
     0
370
    -2
100
AcDbLine
 10
0.0
 20
0.0
 30
0.0
 11
-1.0
 21
0.0
 31
0.0
  0
ENDBLK
  5
99B
330
12D
100
AcDbEntity
  8
0
100
AcDbBlockEnd
  0
BLOCK
  5
99C
330
133
100
AcDbEntity
  8
0
100
AcDbBlockBegin
  2
_DOTBLANK
 70
     0
 71
     0
 10
0.0
 20
0.0
 30
0.0
  3
_DOTBLANK
  1

  0
CIRCLE
  5
135
330
133
100
AcDbEntity
  8
0
  6
ByBlock
 62
     0
100
AcDbCircle
 10
0.0
 20
0.0
 30
0.0
 40
0.5
  0
LINE
  5
136
330
133
100
AcDbEntity
  8
0
  6
Continuous
 62
     0
370
    -2
100
AcDbLine
 10
-0.5
 20
0.0
 30
0.0
 11
-1.0
 21
0.0
 31
0.0
  0
ENDBLK
  5
99D
330
133
100
AcDbEntity
  8
0
100
AcDbBlockEnd
  0
BLOCK
  5
99E
330
138
100
AcDbEntity
  8
0
100
AcDbBlockBegin
  2
_DOTSMALL
 70
     0
 71
     0
 10
0.0
 20
0.0
 30
0.0
  3
_DOTSMALL
  1

  0
LWPOLYLINE
  5
13A
330
138
100
AcDbEntity
  8
0
  6
ByBlock
 62
     0
100
AcDbPolyline
 90
        2
 70
     1
 43
0.5
 10
-0.0625
 20
0.0
 42
1.0
 10
0.0625
 20
0.0
 42
1.0
  0
ENDBLK
  5
99F
330
138
100
AcDbEntity
  8
0
100
AcDbBlockEnd
  0
BLOCK
  5
9A0
330
13F
100
AcDbEntity
  8
0
100
AcDbBlockBegin
  2
_BOXFILLED
 70
     0
 71
     0
 10
0.0
 20
0.0
 30
0.0
  3
_BOXFILLED
  1

  0
SOLID
  5
141
330
13F
100
AcDbEntity
  8
0
  6
ByBlock
 62
     0
100
AcDbTrace
 10
-0.5
 20
0.5
 30
0.0
 11
0.5
 21
0.5
 31
0.0
 12
-0.5
 22
-0.5
 32
0.0
 13
0.5
 23
-0.5
 33
0.0
  0
LINE
  5
142
330
13F
100
AcDbEntity
  8
0
  6
Continuous
 62
     0
370
    -2
100
AcDbLine
 10
-0.5
 20
0.0
 30
0.0
 11
-1.0
 21
0.0
 31
0.0
  0
ENDBLK
  5
9A1
330
13F
100
AcDbEntity
  8
0
100
AcDbBlockEnd
  0
BLOCK
  5
9A2
330
144
100
AcDbEntity
  8
0
100
AcDbBlockBegin
  2
_BOXBLANK
 70
     0
 71
     0
 10
0.0
 20
0.0
 30
0.0
  3
_BOXBLANK
  1

  0
LINE
  5
146
330
144
100
AcDbEntity
  8
0
  6
Continuous
 62
     0
370
    -2
100
AcDbLine
 10
-0.5
 20
-0.5
 30
0.0
 11
0.5
 21
-0.5
 31
0.0
  0
LINE
  5
147
330
144
100
AcDbEntity
  8
0
  6
Continuous
 62
     0
370
    -2
100
AcDbLine
 10
0.5
 20
-0.5
 30
0.0
 11
0.5
 21
0.5
 31
0.0
  0
LINE
  5
148
330
144
100
AcDbEntity
  8
0
  6
Continuous
 62
     0
370
    -2
100
AcDbLine
 10
0.5
 20
0.5
 30
0.0
 11
-0.5
 21
0.5
 31
0.0
  0
LINE
  5
149
330
144
100
AcDbEntity
  8
0
  6
Continuous
 62
     0
370
    -2
100
AcDbLine
 10
-0.5
 20
0.5
 30
0.0
 11
-0.5
 21
-0.5
 31
0.0
  0
LINE
  5
14A
330
144
100
AcDbEntity
  8
0
  6
Continuous
 62
     0
370
    -2
100
AcDbLine
 10
-0.5
 20
0.0
 30
0.0
 11
-1.0
 21
0.0
 31
0.0
  0
ENDBLK
  5
9A3
330
144
100
AcDbEntity
  8
0
100
AcDbBlockEnd
  0
BLOCK
  5
9A4
330
14C
100
AcDbEntity
  8
0
100
AcDbBlockBegin
  2
_DATUMFILLED
 70
     0
 71
     0
 10
0.0
 20
0.0
 30
0.0
  3
_DATUMFILLED
  1

  0
SOLID
  5
14E
330
14C
100
AcDbEntity
  8
0
  6
ByBlock
 62
     0
100
AcDbTrace
 10
0.0
 20
0.5773500000000001
 30
0.0
 11
-1.0
 21
0.0
 31
0.0
 12
0.0
 22
-0.5773500000000001
 32
0.0
 13
0.0
 23
-0.5773500000000001
 33
0.0
  0
ENDBLK
  5
9A5
330
14C
100
AcDbEntity
  8
0
100
AcDbBlockEnd
  0
BLOCK
  5
9A6
330
150
100
AcDbEntity
  8
0
100
AcDbBlockBegin
  2
_DATUMBLANK
 70
     0
 71
     0
 10
0.0
 20
0.0
 30
0.0
  3
_DATUMBLANK
  1

  0
LINE
  5
152
330
150
100
AcDbEntity
  8
0
  6
Continuous
 62
     0
370
    -2
100
AcDbLine
 10
0.0
 20
0.5773500000000001
 30
0.0
 11
-1.0
 21
0.0
 31
0.0
  0
LINE
  5
153
330
150
100
AcDbEntity
  8
0
  6
Continuous
 62
     0
370
    -2
100
AcDbLine
 10
-1.0
 20
0.0
 30
0.0
 11
0.0
 21
-0.5773500000000001
 31
0.0
  0
LINE
  5
154
330
150
100
AcDbEntity
  8
0
  6
Continuous
 62
     0
370
    -2
100
AcDbLine
 10
0.0
 20
-0.5773500000000001
 30
0.0
 11
0.0
 21
0.5773500000000001
 31
0.0
  0
ENDBLK
  5
9A7
330
150
100
AcDbEntity
  8
0
100
AcDbBlockEnd
  0
BLOCK
  5
9A8
330
156
100
AcDbEntity
  8
0
100
AcDbBlockBegin
  2
_INTEGRAL
 70
     0
 71
     0
 10
0.0
 20
0.0
 30
0.0
  3
_INTEGRAL
  1

  0
ARC
  5
158
330
156
100
AcDbEntity
  8
0
  6
ByBlock
 62
     0
100
AcDbCircle
 10
0.444888
 20
-0.091335
 30
0.0
 40
0.454167
100
AcDbArc
 50
102.0
 51
168.0
  0
ARC
  5
159
330
156
100
AcDbEntity
  8
0
  6
ByBlock
 62
     0
100
AcDbCircle
 10
-0.444888
 20
0.091335
 30
0.0
 40
0.454167
100
AcDbArc
 50
282.0
 51
348.0
  0
ENDBLK
  5
9A9
330
156
100
AcDbEntity
  8
0
100
AcDbBlockEnd
  0
BLOCK
  5
9AA
330
1F1
100
AcDbEntity
  8
0
100
AcDbBlockBegin
  2
_Origin2
 70
     0
 71
     0
 10
0.0
 20
0.0
 30
0.0
  3
_Origin2
  1

  0
CIRCLE
  5
1F2
330
1F1
100
AcDbEntity
  8
0
  6
Continuous
 62
     0
370
    -2
100
AcDbCircle
 10
0.0
 20
0.0
 30
0.0
 40
0.5
  0
CIRCLE
  5
1F3
330
1F1
100
AcDbEntity
  8
0
  6
Continuous
 62
     0
370
    -2
100
AcDbCircle
 10
0.0
 20
0.0
 30
0.0
 40
0.25
  0
LINE
  5
1F4
330
1F1
100
AcDbEntity
  8
0
  6
Continuous
 62
     0
370
    -2
100
AcDbLine
 10
-0.5
 20
0.0
 30
0.0
 11
-1.0
 21
0.0
 31
0.0
  0
ENDBLK
  5
9AB
330
1F1
100
AcDbEntity
  8
0
100
AcDbBlockEnd
  0
BLOCK
  5
9AC
330
1F7
100
AcDbEntity
  8
0
100
AcDbBlockBegin
  2
KCAD_OPEN30
 70
     0
 71
     0
 10
0.0
 20
0.0
 30
0.0
  3
KCAD_OPEN30
  1

  0
LINE
  5
1F8
330
1F7
100
AcDbEntity
  8
0
  6
Continuous
 62
     0
370
    -2
100
AcDbLine
 10
0.0
 20
0.0
 30
0.0
 11
-1.0
 21
0.0
 31
0.0
  0
LINE
  5
1F9
330
1F7
100
AcDbEntity
  8
0
  6
Continuous
 62
     0
370
    -2
100
AcDbLine
 10
0.0
 20
0.0
 30
0.0
 11
-1.0
 21
0.2679491924311227
 31
0.0
  0
LINE
  5
1FA
330
1F7
100
AcDbEntity
  8
0
  6
Continuous
 62
     0
370
    -2
100
AcDbLine
 10
0.0
 20
0.0
 30
0.0
 11
-1.0
 21
-0.2679491924311227
 31
0.0
  0
ENDBLK
  5
9AD
330
1F7
100
AcDbEntity
  8
0
100
AcDbBlockEnd
  0
BLOCK
  5
9AE
330
222
100
AcDbEntity
  8
0
100
AcDbBlockBegin
  2
_None
 70
     0
 71
     0
 10
0.0
 20
0.0
 30
0.0
  3
_None
  1

  0
ENDBLK
  5
9AF
330
222
100
AcDbEntity
  8
0
100
AcDbBlockEnd
  0
BLOCK
  5
9B0
330
283
100
AcDbEntity
  8
0
100
AcDbBlockBegin
  2
_Small
 70
     0
 71
     0
 10
0.0
 20
0.0
 30
0.0
  3
_Small
  1

  0
CIRCLE
  5
284
330
283
100
AcDbEntity
  8
0
  6
ByBlock
 62
     0
370
    -2
100
AcDbCircle
 10
0.0
 20
0.0
 30
0.0
 40
0.25
  0
ENDBLK
  5
9B1
330
283
100
AcDbEntity
  8
0
100
AcDbBlockEnd
  0
BLOCK
  5
9B2
330
287
100
AcDbEntity
  8
0
100
AcDbBlockBegin
  2
KCAD_OPEN_2
 70
     0
 71
     0
 10
0.0
 20
0.0
 30
0.0
  3
KCAD_OPEN_2
  1

  0
LINE
  5
288
330
287
100
AcDbEntity
  8
0
  6
Continuous
 62
     0
370
    -2
100
AcDbLine
 10
0.0
 20
0.0
 30
0.0
 11
-2.0
 21
0.0
 31
0.0
  0
LINE
  5
289
330
287
100
AcDbEntity
  8
0
  6
Continuous
 62
     0
370
    -2
100
AcDbLine
 10
0.0
 20
0.0
 30
0.0
 11
-2.0
 21
0.3167688806490725
 31
0.0
  0
LINE
  5
28A
330
287
100
AcDbEntity
  8
0
  6
Continuous
 62
     0
370
    -2
100
AcDbLine
 10
0.0
 20
0.0
 30
0.0
 11
-2.0
 21
-0.3167688806490725
 31
0.0
  0
LINE
  5
28B
330
287
100
AcDbEntity
  8
0
  6
Continuous
 62
     0
370
    -2
100
AcDbLine
 10
-2.0
 20
0.0
 30
0.0
 11
-4.0
 21
0.0
 31
0.0
  0
ENDBLK
  5
9B3
330
287
100
AcDbEntity
  8
0
100
AcDbBlockEnd
  0
BLOCK
  5
9B4
330
28E
100
AcDbEntity
  8
0
100
AcDbBlockBegin
  2
KCAD_OPEN30_2
 70
     0
 71
     0
 10
0.0
 20
0.0
 30
0.0
  3
KCAD_OPEN30_2
  1

  0
LINE
  5
28F
330
28E
100
AcDbEntity
  8
0
  6
Continuous
 62
     0
370
    -2
100
AcDbLine
 10
0.0
 20
0.0
 30
0.0
 11
-2.0
 21
0.0
 31
0.0
  0
LINE
  5
290
330
28E
100
AcDbEntity
  8
0
  6
Continuous
 62
     0
370
    -2
100
AcDbLine
 10
0.0
 20
0.0
 30
0.0
 11
-2.0
 21
0.5358983848622455
 31
0.0
  0
LINE
  5
291
330
28E
100
AcDbEntity
  8
0
  6
Continuous
 62
     0
370
    -2
100
AcDbLine
 10
0.0
 20
0.0
 30
0.0
 11
-2.0
 21
-0.5358983848622455
 31
0.0
  0
LINE
  5
292
330
28E
100
AcDbEntity
  8
0
  6
Continuous
 62
     0
370
    -2
100
AcDbLine
 10
-2.0
 20
0.0
 30
0.0
 11
-4.0
 21
0.0
 31
0.0
  0
ENDBLK
  5
9B5
330
28E
100
AcDbEntity
  8
0
100
AcDbBlockEnd
  0
BLOCK
  5
9B6
330
2AD
100
AcDbEntity
  8
0
100
AcDbBlockBegin
  2
KCAD_OPEN30ANG
 70
     0
 71
     0
 10
0.0
 20
0.0
 30
0.0
  3
KCAD_OPEN30ANG
  1

  0
LINE
  5
2D7
330
2AD
100
AcDbEntity
  8
0
  6
Continuous
 62
     0
370
    -2
100
AcDbLine
 10
0.0
 20
0.0
 30
0.0
 11
-1.0
 21
-0.267949
 31
0.0
  0
LINE
  5
2D8
330
2AD
100
AcDbEntity
  8
0
  6
Continuous
 62
     0
370
    -2
100
AcDbLine
 10
-1.0
 20
0.267949
 30
0.0
 11
0.0
 21
0.0
 31
0.0
  0
ENDBLK
  5
9B7
330
2AD
100
AcDbEntity
  8
0
100
AcDbBlockEnd
  0
BLOCK
  5
9B8
330
2B6
100
AcDbEntity
  8
0
100
AcDbBlockBegin
  2
KCAD_DOTANG
 70
     0
 71
     0
 10
0.0
 20
0.0
 30
0.0
  3
KCAD_DOTANG
  1

  0
LWPOLYLINE
  5
2DD
330
2B6
100
AcDbEntity
  8
0
  6
ByBlock
 62
     0
100
AcDbPolyline
 90
        2
 70
     1
 43
0.5
 10
-0.25
 20
0.0
 42
1.0
 10
0.25
 20
0.0
 42
1.0
  0
ENDBLK
  5
9B9
330
2B6
100
AcDbEntity
  8
0
100
AcDbBlockEnd
  0
BLOCK
  5
9BA
330
41D
100
AcDbEntity
  8
0
100
AcDbBlockBegin
  2
*D27
 70
     1
 71
     0
 10
0.0
 20
0.0
 30
0.0
  3
*D27
  1

  0
LINE
  5
459
330
41D
100
AcDbEntity
  8
KCAD_DIMS
 62
     0
370
    -2
100
AcDbLine
 10
269.4351834430853
 20
181.156590890895
 30
0.0
 11
269.4351834430853
 21
136.5
 31
0.0
  0
LINE
  5
45A
330
41D
100
AcDbEntity
  8
KCAD_DIMS
 62
     0
370
    -2
100
AcDbLine
 10
273.4351834430853
 20
181.156590890895
 30
0.0
 11
273.4351834430853
 21
149.5
 31
0.0
  0
LINE
  5
45B
330
41D
100
AcDbEntity
  8
KCAD_DIMS
 62
     0
370
    -2
100
AcDbLine
 10
271.4351834430853
 20
180.156590890895
 30
0.0
 11
276.798095014111
 21
180.168938021657
 31
0.0
  0
LINE
  5
45C
330
41D
100
AcDbEntity
  8
KCAD_DIMS
 62
     0
370
    -2
100
AcDbLine
 10
276.798095014111
 20
180.168938021657
 30
0.0
 11
279.1480497477136
 21
180.168938021657
 31
0.0
  0
INSERT
  5
45D
330
41D
100
AcDbEntity
  8
KCAD_DIMS
 62
     0
370
    -2
100
AcDbBlockReference
  2
_OPEN30
 10
269.4351834430853
 20
180.156590890895
 30
0.0
 41
3.0
 42
3.0
 43
3.0
  0
INSERT
  5
45E
330
41D
100
AcDbEntity
  8
KCAD_DIMS
 62
     0
370
    -2
100
AcDbBlockReference
  2
_OPEN30
 10
273.4351834430853
 20
180.156590890895
 30
0.0
 41
3.0
 42
3.0
 43
3.0
 50
180.0
  0
LINE
  5
45F
330
41D
100
AcDbEntity
  8
KCAD_DIMS
 62
     0
370
    -2
100
AcDbLine
 10
269.4351834430853
 20
180.156590890895
 30
0.0
 11
273.4351834430853
 21
180.156590890895
 31
0.0
  0
LINE
  5
460
330
41D
100
AcDbEntity
  8
KCAD_DIMS
 62
     0
370
    -2
100
AcDbLine
 10
266.4351834430852
 20
180.156590890895
 30
0.0
 11
264.4351834430853
 21
180.156590890895
 31
0.0
  0
LINE
  5
461
330
41D
100
AcDbEntity
  8
KCAD_DIMS
 62
     0
370
    -2
100
AcDbLine
 10
276.4351834430852
 20
180.156590890895
 30
0.0
 11
278.4351834430852
 21
180.156590890895
 31
0.0
  0
POINT
  5
462
330
41D
100
AcDbEntity
  8
DEFPOINTS
 62
     0
370
    15
100
AcDbPoint
 10
269.4351834430853
 20
135.5
 30
0.0
  0
POINT
  5
463
330
41D
100
AcDbEntity
  8
DEFPOINTS
 62
     0
370
    15
100
AcDbPoint
 10
273.4351834430853
 20
148.5000000000001
 30
0.0
  0
POINT
  5
464
330
41D
100
AcDbEntity
  8
DEFPOINTS
 62
     0
370
    15
100
AcDbPoint
 10
273.4351834430853
 20
180.156590890895
 30
0.0
  0
MTEXT
  5
465
330
41D
100
AcDbEntity
  8
KCAD_DIMS
 62
     0
100
AcDbMText
 10
277.9730723809123
 20
182.302271021657
 30
0.0
 40
3.2
 41
0.0
 71
     5
 72
     1
  1
\A1;4
  7
KCADDIMSTANDARD
 73
     1
 44
1.0
  0
ENDBLK
  5
9BB
330
41D
100
AcDbEntity
  8
0
100
AcDbBlockEnd
  0
BLOCK
  5
9BC
330
467
100
AcDbEntity
  8
0
100
AcDbBlockBegin
  2
*D28
 70
     1
 71
     0
 10
0.0
 20
0.0
 30
0.0
  3
*D28
  1

  0
LINE
  5
494
330
467
100
AcDbEntity
  8
KCAD_DIMS
 62
     0
370
    -2
100
AcDbLine
 10
153.9351834430854
 20
195.2208622725726
 30
0.0
 11
153.9351834430854
 21
181.156590890895
 31
0.0
  0
INSERT
  5
495
330
467
100
AcDbEntity
  8
KCAD_DIMS
 62
     0
370
    -2
100
AcDbBlockReference
  2
_OPEN30
 10
269.4351834430853
 20
194.2208622725726
 30
0.0
 41
3.0
 42
3.0
 43
3.0
  0
INSERT
  5
496
330
467
100
AcDbEntity
  8
KCAD_DIMS
 62
     0
370
    -2
100
AcDbBlockReference
  2
_OPEN30
 10
153.9351834430854
 20
194.2208622725726
 30
0.0
 41
3.0
 42
3.0
 43
3.0
 50
180.0
  0
LINE
  5
497
330
467
100
AcDbEntity
  8
KCAD_DIMS
 62
     0
370
    -2
100
AcDbLine
 10
266.4351834430852
 20
194.2208622725726
 30
0.0
 11
156.9351834430854
 21
194.2208622725726
 31
0.0
  0
POINT
  5
498
330
467
100
AcDbEntity
  8
DEFPOINTS
 62
     0
370
    15
100
AcDbPoint
 10
269.4351834430853
 20
194.2208622725726
 30
0.0
  0
POINT
  5
499
330
467
100
AcDbEntity
  8
DEFPOINTS
 62
     0
370
    15
100
AcDbPoint
 10
153.9351834430854
 20
180.156590890895
 30
0.0
  0
POINT
  5
49A
330
467
100
AcDbEntity
  8
DEFPOINTS
 62
     0
370
    15
100
AcDbPoint
 10
153.9351834430854
 20
194.2208622725726
 30
0.0
  0
MTEXT
  5
49B
330
467
100
AcDbEntity
  8
KCAD_DIMS
 62
     0
100
AcDbMText
 10
211.6851834430853
 20
196.3541952725726
 30
0.0
 40
3.2
 41
0.0
 71
     5
 72
     1
  1
\A1;115.5
  7
KCADDIMSTANDARD
 73
     1
 44
1.0
  0
ENDBLK
  5
9BD
330
467
100
AcDbEntity
  8
0
100
AcDbBlockEnd
  0
BLOCK
  5
9BE
330
49D
100
AcDbEntity
  8
0
100
AcDbBlockBegin
  2
*D29
 70
     1
 71
     0
 10
0.0
 20
0.0
 30
0.0
  3
*D29
  1

  0
LINE
  5
4CF
330
49D
100
AcDbEntity
  8
KCAD_DIMS
 62
     0
370
    -2
100
AcDbLine
 10
286.9611834430853
 20
214.6662234042553
 30
0.0
 11
286.9611834430853
 21
149.5
 31
0.0
  0
LINE
  5
4D0
330
49D
100
AcDbEntity
  8
KCAD_DIMS
 62
     0
370
    -2
100
AcDbLine
 10
81.63518344308474
 20
214.6662234042553
 30
0.0
 11
81.63518344308474
 21
149.4999999999996
 31
0.0
  0
INSERT
  5
4D1
330
49D
100
AcDbEntity
  8
KCAD_DIMS
 62
     0
370
    -2
100
AcDbBlockReference
  2
_OPEN30
 10
286.9611834430853
 20
213.6662234042553
 30
0.0
 41
3.0
 42
3.0
 43
3.0
  0
INSERT
  5
4D2
330
49D
100
AcDbEntity
  8
KCAD_DIMS
 62
     0
370
    -2
100
AcDbBlockReference
  2
_OPEN30
 10
81.63518344308474
 20
213.6662234042553
 30
0.0
 41
3.0
 42
3.0
 43
3.0
 50
180.0
  0
LINE
  5
4D3
330
49D
100
AcDbEntity
  8
KCAD_DIMS
 62
     0
370
    -2
100
AcDbLine
 10
283.9611834430852
 20
213.6662234042553
 30
0.0
 11
84.63518344308473
 21
213.6662234042553
 31
0.0
  0
POINT
  5
4D4
330
49D
100
AcDbEntity
  8
DEFPOINTS
 62
     0
370
    15
100
AcDbPoint
 10
286.9611834430853
 20
148.5000000000001
 30
0.0
  0
POINT
  5
4D5
330
49D
100
AcDbEntity
  8
DEFPOINTS
 62
     0
370
    15
100
AcDbPoint
 10
81.63518344308474
 20
148.4999999999996
 30
0.0
  0
POINT
  5
4D6
330
49D
100
AcDbEntity
  8
DEFPOINTS
 62
     0
370
    15
100
AcDbPoint
 10
81.63518344308474
 20
213.6662234042553
 30
0.0
  0
MTEXT
  5
4D7
330
49D
100
AcDbEntity
  8
KCAD_DIMS
 62
     0
100
AcDbMText
 10
184.298183443085
 20
215.7995564042553
 30
0.0
 40
3.2
 41
0.0
 71
     5
 72
     1
  1
\A1;205.33
  7
KCADDIMSTANDARD
 73
     1
 44
1.0
  0
ENDBLK
  5
9BF
330
49D
100
AcDbEntity
  8
0
100
AcDbBlockEnd
  0
BLOCK
  5
9C0
330
4D9
100
AcDbEntity
  8
0
100
AcDbBlockBegin
  2
*D30
 70
     1
 71
     0
 10
0.0
 20
0.0
 30
0.0
  3
*D30
  1

  0
LINE
  5
50B
330
4D9
100
AcDbEntity
  8
KCAD_DIMS
 62
     0
370
    -2
100
AcDbLine
 10
81.6351834430861
 20
181.156590890895
 30
0.0
 11
81.6351834430861
 21
149.4999999999996
 31
0.0
  0
LINE
  5
50C
330
4D9
100
AcDbEntity
  8
KCAD_DIMS
 62
     0
370
    -2
100
AcDbLine
 10
153.9351834430854
 20
181.156590890895
 30
0.0
 11
153.9351834430854
 21
149.4999999999998
 31
0.0
  0
INSERT
  5
50D
330
4D9
100
AcDbEntity
  8
KCAD_DIMS
 62
     0
370
    -2
100
AcDbBlockReference
  2
_OPEN30
 10
81.6351834430861
 20
180.156590890895
 30
0.0
 41
3.0
 42
3.0
 43
3.0
 50
180.0
  0
INSERT
  5
50E
330
4D9
100
AcDbEntity
  8
KCAD_DIMS
 62
     0
370
    -2
100
AcDbBlockReference
  2
_OPEN30
 10
153.9351834430854
 20
180.156590890895
 30
0.0
 41
3.0
 42
3.0
 43
3.0
  0
LINE
  5
50F
330
4D9
100
AcDbEntity
  8
KCAD_DIMS
 62
     0
370
    -2
100
AcDbLine
 10
84.6351834430861
 20
180.156590890895
 30
0.0
 11
150.9351834430854
 21
180.156590890895
 31
0.0
  0
POINT
  5
510
330
4D9
100
AcDbEntity
  8
DEFPOINTS
 62
     0
370
    15
100
AcDbPoint
 10
81.6351834430861
 20
148.4999999999996
 30
0.0
  0
POINT
  5
511
330
4D9
100
AcDbEntity
  8
DEFPOINTS
 62
     0
370
    15
100
AcDbPoint
 10
153.9351834430854
 20
148.4999999999998
 30
0.0
  0
POINT
  5
512
330
4D9
100
AcDbEntity
  8
DEFPOINTS
 62
     0
370
    15
100
AcDbPoint
 10
153.9351834430854
 20
180.156590890895
 30
0.0
  0
MTEXT
  5
513
330
4D9
100
AcDbEntity
  8
KCAD_DIMS
 62
     0
100
AcDbMText
 10
117.7851834430857
 20
182.289923890895
 30
0.0
 40
3.2
 41
0.0
 71
     5
 72
     1
  1
\A1;WD=72.3
  7
KCADDIMSTANDARD
 73
     1
 44
1.0
  0
ENDBLK
  5
9C1
330
4D9
100
AcDbEntity
  8
0
100
AcDbBlockEnd
  0
BLOCK
  5
9C2
330
515
100
AcDbEntity
  8
0
100
AcDbBlockBegin
  2
*D31
 70
     1
 71
     0
 10
0.0
 20
0.0
 30
0.0
  3
*D31
  1

  0
LINE
  5
547
330
515
100
AcDbEntity
  8
KCAD_DIMS
 62
     0
370
    -2
100
AcDbLine
 10
133.1303857008464
 20
158.5000000000003
 30
0.0
 11
168.9351834430854
 21
158.5000000000003
 31
0.0
  0
LINE
  5
548
330
515
100
AcDbEntity
  8
KCAD_DIMS
 62
     0
370
    -2
100
AcDbLine
 10
133.1303857008465
 20
138.4999999999998
 30
0.0
 11
153.2351834430854
 21
138.4999999999998
 31
0.0
  0
INSERT
  5
549
330
515
100
AcDbEntity
  8
KCAD_DIMS
 62
     0
370
    -2
100
AcDbBlockReference
  2
_OPEN30
 10
134.1303857008464
 20
158.5000000000003
 30
0.0
 41
3.0
 42
3.0
 43
3.0
 50
90.00000000000007
  0
INSERT
  5
54A
330
515
100
AcDbEntity
  8
KCAD_DIMS
 62
     0
370
    -2
100
AcDbBlockReference
  2
_OPEN30
 10
134.1303857008465
 20
138.4999999999998
 30
0.0
 41
3.0
 42
3.0
 43
3.0
 50
270.0000000000001
  0
LINE
  5
54B
330
515
100
AcDbEntity
  8
KCAD_DIMS
 62
     0
370
    -2
100
AcDbLine
 10
134.1303857008464
 20
155.5000000000003
 30
0.0
 11
134.1303857008465
 21
141.4999999999998
 31
0.0
  0
POINT
  5
54C
330
515
100
AcDbEntity
  8
DEFPOINTS
 62
     0
370
    15
100
AcDbPoint
 10
169.9351834430854
 20
158.5000000000003
 30
0.0
  0
POINT
  5
54D
330
515
100
AcDbEntity
  8
DEFPOINTS
 62
     0
370
    15
100
AcDbPoint
 10
154.2351834430854
 20
138.4999999999998
 30
0.0
  0
POINT
  5
54E
330
515
100
AcDbEntity
  8
DEFPOINTS
 62
     0
370
    15
100
AcDbPoint
 10
134.1303857008465
 20
138.4999999999998
 30
0.0
  0
MTEXT
  5
54F
330
515
100
AcDbEntity
  8
KCAD_DIMS
 62
     0
100
AcDbMText
 10
131.9970527008465
 20
148.5
 30
0.0
 40
3.2
 41
0.0
 71
     5
 72
     1
  1
\A1;%%c20
  7
KCADDIMSTANDARD
 11
1.000000000000000E-16
 21
1.0
 31
0.0
 73
     1
 44
1.0
  0
ENDBLK
  5
9C3
330
515
100
AcDbEntity
  8
0
100
AcDbBlockEnd
  0
BLOCK
  5
9C4
330
551
100
AcDbEntity
  8
0
100
AcDbBlockBegin
  2
*D32
 70
     1
 71
     0
 10
0.0
 20
0.0
 30
0.0
  3
*D32
  1

  0
LINE
  5
583
330
551
100
AcDbEntity
  8
KCAD_DIMS
 62
     0
370
    -2
100
AcDbLine
 10
153.9351834430854
 20
181.156590890895
 30
0.0
 11
153.9351834430854
 21
149.5000000000003
 31
0.0
  0
LINE
  5
584
330
551
100
AcDbEntity
  8
KCAD_DIMS
 62
     0
370
    -2
100
AcDbLine
 10
257.4351834430852
 20
181.156590890895
 30
0.0
 11
257.4351834430852
 21
149.5
 31
0.0
  0
INSERT
  5
585
330
551
100
AcDbEntity
  8
KCAD_DIMS
 62
     0
370
    -2
100
AcDbBlockReference
  2
_OPEN30
 10
153.9351834430854
 20
180.156590890895
 30
0.0
 41
3.0
 42
3.0
 43
3.0
 50
180.0
  0
INSERT
  5
586
330
551
100
AcDbEntity
  8
KCAD_DIMS
 62
     0
370
    -2
100
AcDbBlockReference
  2
_OPEN30
 10
257.4351834430852
 20
180.156590890895
 30
0.0
 41
3.0
 42
3.0
 43
3.0
  0
LINE
  5
587
330
551
100
AcDbEntity
  8
KCAD_DIMS
 62
     0
370
    -2
100
AcDbLine
 10
156.9351834430854
 20
180.156590890895
 30
0.0
 11
254.4351834430853
 21
180.156590890895
 31
0.0
  0
POINT
  5
588
330
551
100
AcDbEntity
  8
DEFPOINTS
 62
     0
370
    15
100
AcDbPoint
 10
153.9351834430854
 20
148.5000000000003
 30
0.0
  0
POINT
  5
589
330
551
100
AcDbEntity
  8
DEFPOINTS
 62
     0
370
    15
100
AcDbPoint
 10
257.4351834430852
 20
148.5000000000001
 30
0.0
  0
POINT
  5
58A
330
551
100
AcDbEntity
  8
DEFPOINTS
 62
     0
370
    15
100
AcDbPoint
 10
257.4351834430852
 20
180.156590890895
 30
0.0
  0
MTEXT
  5
58B
330
551
100
AcDbEntity
  8
KCAD_DIMS
 62
     0
100
AcDbMText
 10
205.6851834430853
 20
182.289923890895
 30
0.0
 40
3.2
 41
0.0
 71
     5
 72
     1
  1
\A1;103.5
  7
KCADDIMSTANDARD
 73
     1
 44
1.0
  0
ENDBLK
  5
9C5
330
551
100
AcDbEntity
  8
0
100
AcDbBlockEnd
  0
BLOCK
  5
9C6
330
58D
100
AcDbEntity
  8
0
100
AcDbBlockBegin
  2
*D33
 70
     1
 71
     0
 10
0.0
 20
0.0
 30
0.0
  3
*D33
  1

  0
LINE
  5
5BF
330
58D
100
AcDbEntity
  8
KCAD_DIMS
 62
     0
370
    -2
100
AcDbLine
 10
257.4351834430852
 20
181.156590890895
 30
0.0
 11
257.4351834430852
 21
149.5
 31
0.0
  0
LINE
  5
5C0
330
58D
100
AcDbEntity
  8
KCAD_DIMS
 62
     0
370
    -2
100
AcDbLine
 10
269.4351834430853
 20
181.156590890895
 30
0.0
 11
269.4351834430853
 21
149.5
 31
0.0
  0
INSERT
  5
5C1
330
58D
100
AcDbEntity
  8
KCAD_DIMS
 62
     0
370
    -2
100
AcDbBlockReference
  2
_OPEN30
 10
257.4351834430852
 20
180.156590890895
 30
0.0
 41
3.0
 42
3.0
 43
3.0
 50
180.0
  0
INSERT
  5
5C2
330
58D
100
AcDbEntity
  8
KCAD_DIMS
 62
     0
370
    -2
100
AcDbBlockReference
  2
_OPEN30
 10
269.4351834430853
 20
180.156590890895
 30
0.0
 41
3.0
 42
3.0
 43
3.0
  0
LINE
  5
5C3
330
58D
100
AcDbEntity
  8
KCAD_DIMS
 62
     0
370
    -2
100
AcDbLine
 10
260.4351834430853
 20
180.156590890895
 30
0.0
 11
266.4351834430852
 21
180.156590890895
 31
0.0
  0
POINT
  5
5C4
330
58D
100
AcDbEntity
  8
DEFPOINTS
 62
     0
370
    15
100
AcDbPoint
 10
257.4351834430852
 20
148.5000000000001
 30
0.0
  0
POINT
  5
5C5
330
58D
100
AcDbEntity
  8
DEFPOINTS
 62
     0
370
    15
100
AcDbPoint
 10
269.4351834430853
 20
148.5000000000001
 30
0.0
  0
POINT
  5
5C6
330
58D
100
AcDbEntity
  8
DEFPOINTS
 62
     0
370
    15
100
AcDbPoint
 10
269.4351834430853
 20
180.156590890895
 30
0.0
  0
MTEXT
  5
5C7
330
58D
100
AcDbEntity
  8
KCAD_DIMS
 62
     0
100
AcDbMText
 10
263.4351834430852
 20
182.289923890895
 30
0.0
 40
3.2
 41
0.0
 71
     5
 72
     1
  1
\A1;12
  7
KCADDIMSTANDARD
 73
     1
 44
1.0
  0
ENDBLK
  5
9C7
330
58D
100
AcDbEntity
  8
0
100
AcDbBlockEnd
  0
BLOCK
  5
9C8
330
5C9
100
AcDbEntity
  8
0
100
AcDbBlockBegin
  2
*D34
 70
     1
 71
     0
 10
0.0
 20
0.0
 30
0.0
  3
*D34
  1

  0
LINE
  5
5FB
330
5C9
100
AcDbEntity
  8
KCAD_DIMS
 62
     0
370
    -2
100
AcDbLine
 10
269.4351834430853
 20
195.2208622725726
 30
0.0
 11
269.4351834430853
 21
149.5
 31
0.0
  0
LINE
  5
5FC
330
5C9
100
AcDbEntity
  8
KCAD_DIMS
 62
     0
370
    -2
100
AcDbLine
 10
286.9611834430853
 20
195.2208622725726
 30
0.0
 11
286.9611834430853
 21
149.5
 31
0.0
  0
LINE
  5
5FD
330
5C9
100
AcDbEntity
  8
KCAD_DIMS
 62
     0
370
    -2
100
AcDbLine
 10
278.1981834430852
 20
194.2208622725726
 30
0.0
 11
291.6230479774222
 21
214.3508849402533
 31
0.0
  0
LINE
  5
5FE
330
5C9
100
AcDbEntity
  8
KCAD_DIMS
 62
     0
370
    -2
100
AcDbLine
 10
291.6230479774222
 20
214.3508849402533
 30
0.0
 11
331.1479814524582
 21
214.3508849402533
 31
0.0
  0
INSERT
  5
5FF
330
5C9
100
AcDbEntity
  8
KCAD_DIMS
 62
     0
370
    -2
100
AcDbBlockReference
  2
_OPEN30
 10
269.4351834430853
 20
194.2208622725726
 30
0.0
 41
3.0
 42
3.0
 43
3.0
 50
180.0
  0
INSERT
  5
600
330
5C9
100
AcDbEntity
  8
KCAD_DIMS
 62
     0
370
    -2
100
AcDbBlockReference
  2
_OPEN30
 10
286.9611834430853
 20
194.2208622725726
 30
0.0
 41
3.0
 42
3.0
 43
3.0
  0
LINE
  5
601
330
5C9
100
AcDbEntity
  8
KCAD_DIMS
 62
     0
370
    -2
100
AcDbLine
 10
272.4351834430852
 20
194.2208622725726
 30
0.0
 11
283.9611834430852
 21
194.2208622725726
 31
0.0
  0
POINT
  5
602
330
5C9
100
AcDbEntity
  8
DEFPOINTS
 62
     0
370
    15
100
AcDbPoint
 10
269.4351834430853
 20
148.5000000000001
 30
0.0
  0
POINT
  5
603
330
5C9
100
AcDbEntity
  8
DEFPOINTS
 62
     0
370
    15
100
AcDbPoint
 10
286.9611834430853
 20
148.5000000000001
 30
0.0
  0
POINT
  5
604
330
5C9
100
AcDbEntity
  8
DEFPOINTS
 62
     0
370
    15
100
AcDbPoint
 10
286.9611834430853
 20
194.2208622725726
 30
0.0
  0
MTEXT
  5
605
330
5C9
100
AcDbEntity
  8
KCAD_DIMS
 62
     0
100
AcDbMText
 10
317.9730036274461
 20
216.4842179402533
 30
0.0
 40
3.2
 41
0.0
 71
     5
 72
     1
  1
\A1;FB=17.526
  7
KCADDIMSTANDARD
 73
     1
 44
1.0
  0
ENDBLK
  5
9C9
330
5C9
100
AcDbEntity
  8
0
100
AcDbBlockEnd
  0
BLOCK
  5
9CA
330
607
100
AcDbEntity
  8
0
100
AcDbBlockBegin
  2
*D35
 70
     1
 71
     0
 10
0.0
 20
0.0
 30
0.0
  3
*D35
  1

  0
MTEXT
  5
63C
330
607
100
AcDbEntity
  8
KCAD_DIMS
 62
     0
100
AcDbMText
 10
277.9957666980244
 20
168.4863158266048
 30
0.0
 40
3.2
 41
0.0
 71
     5
 72
     1
  1
\A1;C1{\H0.667000x;}
  7
KCADDIMSTANDARD
 73
     1
 44
1.0
  0
LINE
  5
63D
330
607
100
AcDbEntity
  8
KCAD_DIMS
 62
     0
370
    -2
100
AcDbLine
 10
271.1320819876418
 20
164.0457421425627
 30
0.0
 11
273.441706341185
 21
166.3553664961059
 31
0.0
  0
INSERT
  5
63E
330
607
100
AcDbEntity
  8
KCAD_DIMS
 62
     0
370
    -2
100
AcDbBlockReference
  2
_OPEN30
 10
269.0107616440822
 20
161.924421799003
 30
0.0
 41
3.0
 42
3.0
 43
3.0
 50
225.0000000000005
  0
LINE
  5
63F
330
607
100
AcDbEntity
  8
KCAD_DIMS
 62
     0
370
    -2
100
AcDbLine
 10
271.5502116650987
 20
164.4638718200196
 30
0.0
 11
273.4640169332079
 21
166.3529828266048
 31
0.0
  0
LINE
  5
640
330
607
100
AcDbEntity
  8
KCAD_DIMS
 62
     0
370
    -2
100
AcDbLine
 10
273.4640169332079
 20
166.3529828266048
 30
0.0
 11
280.670744122102
 21
166.3529828266048
 31
0.0
  0
ENDBLK
  5
9CB
330
607
100
AcDbEntity
  8
0
100
AcDbBlockEnd
  0
BLOCK
  5
9CC
330
642
100
AcDbEntity
  8
0
100
AcDbBlockBegin
  2
*D36
 70
     1
 71
     0
 10
0.0
 20
0.0
 30
0.0
  3
*D36
  1

  0
MTEXT
  5
677
330
642
100
AcDbEntity
  8
KCAD_DIMS
 62
     0
100
AcDbMText
 10
247.082901106713
 20
169.4370448952783
 30
0.0
 40
3.2
 41
0.0
 71
     5
 72
     1
  1
\A1;C0.5{\H0.667000x;}
  7
KCADDIMSTANDARD
 73
     1
 44
1.0
  0
LINE
  5
678
330
642
100
AcDbEntity
  8
KCAD_DIMS
 62
     0
370
    -2
100
AcDbLine
 10
255.6270666482938
 20
164.4345238923279
 30
0.0
 11
252.7949224346306
 21
167.266668105991
 31
0.0
  0
INSERT
  5
679
330
642
100
AcDbEntity
  8
KCAD_DIMS
 62
     0
370
    -2
100
AcDbBlockReference
  2
_OPEN30
 10
257.7483869918534
 20
162.3132035487682
 30
0.0
 41
3.0
 42
3.0
 43
3.0
 50
315.0000000000005
  0
LINE
  5
67A
330
642
100
AcDbEntity
  8
KCAD_DIMS
 62
     0
370
    -2
100
AcDbLine
 10
256.8077375352775
 20
163.2538530053442
 30
0.0
 11
252.7578786453433
 21
167.3037118952783
 31
0.0
  0
LINE
  5
67B
330
642
100
AcDbEntity
  8
KCAD_DIMS
 62
     0
370
    -2
100
AcDbLine
 10
252.7578786453433
 20
167.3037118952783
 30
0.0
 11
241.4079235680826
 21
167.3037118952783
 31
0.0
  0
ENDBLK
  5
9CD
330
642
100
AcDbEntity
  8
0
100
AcDbBlockEnd
  0
BLOCK
  5
9CE
330
67D
100
AcDbEntity
  8
0
100
AcDbBlockBegin
  2
*D37
 70
     1
 71
     0
 10
0.0
 20
0.0
 30
0.0
  3
*D37
  1

  0
LINE
  5
6AF
330
67D
100
AcDbEntity
  8
KCAD_DIMS
 62
     0
370
    -2
100
AcDbLine
 10
312.2342427093132
 20
162.5000000000001
 30
0.0
 11
269.4351834430853
 21
162.5
 31
0.0
  0
LINE
  5
6B0
330
67D
100
AcDbEntity
  8
KCAD_DIMS
 62
     0
370
    -2
100
AcDbLine
 10
312.2342427093132
 20
134.5000000000001
 30
0.0
 11
269.4351834430853
 21
134.5
 31
0.0
  0
INSERT
  5
6B1
330
67D
100
AcDbEntity
  8
KCAD_DIMS
 62
     0
370
    -2
100
AcDbBlockReference
  2
_OPEN30
 10
311.2342427093132
 20
162.5000000000001
 30
0.0
 41
3.0
 42
3.0
 43
3.0
 50
90.00000000000011
  0
INSERT
  5
6B2
330
67D
100
AcDbEntity
  8
KCAD_DIMS
 62
     0
370
    -2
100
AcDbBlockReference
  2
_OPEN30
 10
311.2342427093132
 20
134.5000000000001
 30
0.0
 41
3.0
 42
3.0
 43
3.0
 50
270.0000000000001
  0
LINE
  5
6B3
330
67D
100
AcDbEntity
  8
KCAD_DIMS
 62
     0
370
    -2
100
AcDbLine
 10
311.2342427093132
 20
159.5000000000001
 30
0.0
 11
311.2342427093132
 21
137.5000000000001
 31
0.0
  0
POINT
  5
6B4
330
67D
100
AcDbEntity
  8
DEFPOINTS
 62
     0
370
    15
100
AcDbPoint
 10
268.4351834430852
 20
162.5
 30
0.0
  0
POINT
  5
6B5
330
67D
100
AcDbEntity
  8
DEFPOINTS
 62
     0
370
    15
100
AcDbPoint
 10
268.4351834430852
 20
134.5
 30
0.0
  0
POINT
  5
6B6
330
67D
100
AcDbEntity
  8
DEFPOINTS
 62
     0
370
    15
100
AcDbPoint
 10
311.2342427093132
 20
134.5
 30
0.0
  0
MTEXT
  5
6B7
330
67D
100
AcDbEntity
  8
KCAD_DIMS
 62
     0
100
AcDbMText
 10
309.1009097093132
 20
148.5000000000002
 30
0.0
 40
3.2
 41
0.0
 71
     5
 72
     1
  1
\A1;%%c28
  7
KCADDIMSTANDARD
 11
1.000000000000000E-16
 21
1.0
 31
0.0
 73
     1
 44
1.0
  0
ENDBLK
  5
9CF
330
67D
100
AcDbEntity
  8
0
100
AcDbBlockEnd
  0
BLOCK
  5
9D0
330
72C
100
AcDbEntity
  8
0
100
AcDbBlockBegin
  2
*D38
 70
     1
 71
     0
 10
0.0
 20
0.0
 30
0.0
  3
*D38
  1

  0
POINT
  5
721
330
72C
100
AcDbEntity
  8
DEFPOINTS
  6
ByBlock
 62
     0
370
    15
100
AcDbPoint
 10
269.4351834430853
 20
135.5
 30
0.0
  0
POINT
  5
722
330
72C
100
AcDbEntity
  8
DEFPOINTS
  6
ByBlock
 62
     0
370
    15
100
AcDbPoint
 10
273.4351834430853
 20
148.5000000000001
 30
0.0
  0
LINE
  5
723
330
72C
100
AcDbEntity
  8
0
  6
ByBlock
 62
     0
370
    -2
100
AcDbLine
 10
269.4351834430853
 20
136.5
 30
0.0
 11
269.4351834430853
 21
181.156590890895
 31
0.0
  0
LINE
  5
724
330
72C
100
AcDbEntity
  8
0
  6
ByBlock
 62
     0
370
    -2
100
AcDbLine
 10
273.4351834430853
 20
149.5000000000001
 30
0.0
 11
273.4351834430853
 21
181.156590890895
 31
0.0
  0
LINE
  5
725
330
72C
100
AcDbEntity
  8
0
  6
ByBlock
 62
     0
370
    -2
100
AcDbLine
 10
266.4351834430853
 20
180.156590890895
 30
0.0
 11
263.4351834430853
 21
180.156590890895
 31
0.0
  0
SOLID
  5
726
330
72C
100
AcDbEntity
  8
0
  6
ByBlock
 62
     0
370
    15
100
AcDbTrace
 10
269.4351834430853
 20
180.156590890895
 30
0.0
 11
266.4351834430853
 21
179.6565908908949
 31
0.0
 12
266.4351834430853
 22
180.6565908908951
 32
0.0
 13
266.4351834430853
 23
180.6565908908951
 33
0.0
  0
LINE
  5
727
330
72C
100
AcDbEntity
  8
0
  6
ByBlock
 62
     0
370
    -2
100
AcDbLine
 10
276.4351834430853
 20
180.156590890895
 30
0.0
 11
279.4351834430853
 21
180.156590890895
 31
0.0
  0
SOLID
  5
728
330
72C
100
AcDbEntity
  8
0
  6
ByBlock
 62
     0
370
    15
100
AcDbTrace
 10
273.4351834430853
 20
180.156590890895
 30
0.0
 11
276.4351834430853
 21
179.6565908908949
 31
0.0
 12
276.4351834430853
 22
180.6565908908951
 32
0.0
 13
276.4351834430853
 23
180.6565908908951
 33
0.0
  0
LINE
  5
729
330
72C
100
AcDbEntity
  8
0
  6
ByBlock
 62
     0
370
    -2
100
AcDbLine
 10
269.4351834430853
 20
180.156590890895
 30
0.0
 11
273.4351834430853
 21
180.156590890895
 31
0.0
  0
MTEXT
  5
72A
330
72C
100
AcDbEntity
  8
0
  6
ByBlock
 62
     0
100
AcDbMText
 10
277.9730723809123
 20
182.302271021657
 30
0.0
 40
3.2
 41
0.0
 71
     5
 72
     1
  1
4
  7
KCADDIMSTANDARD
 73
     1
 44
1.0
  0
ENDBLK
  5
9D1
330
72C
100
AcDbEntity
  8
0
100
AcDbBlockEnd
  0
BLOCK
  5
9D2
330
737
100
AcDbEntity
  8
0
100
AcDbBlockBegin
  2
*D39
 70
     1
 71
     0
 10
0.0
 20
0.0
 30
0.0
  3
*D39
  1

  0
POINT
  5
72E
330
737
100
AcDbEntity
  8
DEFPOINTS
  6
ByBlock
 62
     0
370
    15
100
AcDbPoint
 10
269.4351834430853
 20
194.2208622725726
 30
0.0
  0
POINT
  5
72F
330
737
100
AcDbEntity
  8
DEFPOINTS
  6
ByBlock
 62
     0
370
    15
100
AcDbPoint
 10
153.9351834430854
 20
180.156590890895
 30
0.0
  0
LINE
  5
730
330
737
100
AcDbEntity
  8
0
  6
ByBlock
 62
     0
370
    -2
100
AcDbLine
 10
153.9351834430854
 20
181.156590890895
 30
0.0
 11
153.9351834430854
 21
195.2208622725726
 31
0.0
  0
LINE
  5
731
330
737
100
AcDbEntity
  8
0
  6
ByBlock
 62
     0
370
    -2
100
AcDbLine
 10
269.4351834430853
 20
194.2208622725726
 30
0.0
 11
153.9351834430854
 21
194.2208622725726
 31
0.0
  0
SOLID
  5
732
330
737
100
AcDbEntity
  8
0
  6
ByBlock
 62
     0
370
    15
100
AcDbTrace
 10
269.4351834430853
 20
194.2208622725726
 30
0.0
 11
266.4351834430853
 21
194.7208622725727
 31
0.0
 12
266.4351834430853
 22
193.7208622725725
 32
0.0
 13
266.4351834430853
 23
193.7208622725725
 33
0.0
  0
SOLID
  5
733
330
737
100
AcDbEntity
  8
0
  6
ByBlock
 62
     0
370
    15
100
AcDbTrace
 10
153.9351834430854
 20
194.2208622725726
 30
0.0
 11
156.9351834430854
 21
194.7208622725727
 31
0.0
 12
156.9351834430854
 22
193.7208622725725
 32
0.0
 13
156.9351834430854
 23
193.7208622725725
 33
0.0
  0
LINE
  5
734
330
737
100
AcDbEntity
  8
0
  6
ByBlock
 62
     0
370
    -2
100
AcDbLine
 10
269.4351834430853
 20
194.2208622725726
 30
0.0
 11
269.4351834430853
 21
194.2208622725726
 31
0.0
  0
MTEXT
  5
735
330
737
100
AcDbEntity
  8
0
  6
ByBlock
 62
     0
100
AcDbMText
 10
211.6851834430853
 20
196.3541952725726
 30
0.0
 40
3.2
 41
0.0
 71
     5
 72
     1
  1
115.5
  7
KCADDIMSTANDARD
 73
     1
 44
1.0
  0
ENDBLK
  5
9D3
330
737
100
AcDbEntity
  8
0
100
AcDbBlockEnd
  0
BLOCK
  5
9D4
330
743
100
AcDbEntity
  8
0
100
AcDbBlockBegin
  2
*D40
 70
     1
 71
     0
 10
0.0
 20
0.0
 30
0.0
  3
*D40
  1

  0
POINT
  5
739
330
743
100
AcDbEntity
  8
DEFPOINTS
  6
ByBlock
 62
     0
370
    15
100
AcDbPoint
 10
286.9611834430853
 20
148.5000000000001
 30
0.0
  0
POINT
  5
73A
330
743
100
AcDbEntity
  8
DEFPOINTS
  6
ByBlock
 62
     0
370
    15
100
AcDbPoint
 10
81.63518344308474
 20
148.4999999999996
 30
0.0
  0
LINE
  5
73B
330
743
100
AcDbEntity
  8
0
  6
ByBlock
 62
     0
370
    -2
100
AcDbLine
 10
286.9611834430853
 20
149.5000000000001
 30
0.0
 11
286.9611834430853
 21
214.6662234042553
 31
0.0
  0
LINE
  5
73C
330
743
100
AcDbEntity
  8
0
  6
ByBlock
 62
     0
370
    -2
100
AcDbLine
 10
81.63518344308474
 20
149.4999999999996
 30
0.0
 11
81.63518344308474
 21
214.6662234042553
 31
0.0
  0
LINE
  5
73D
330
743
100
AcDbEntity
  8
0
  6
ByBlock
 62
     0
370
    -2
100
AcDbLine
 10
286.9611834430853
 20
213.6662234042553
 30
0.0
 11
81.63518344308474
 21
213.6662234042553
 31
0.0
  0
SOLID
  5
73E
330
743
100
AcDbEntity
  8
0
  6
ByBlock
 62
     0
370
    15
100
AcDbTrace
 10
286.9611834430853
 20
213.6662234042553
 30
0.0
 11
283.9611834430853
 21
214.1662234042554
 31
0.0
 12
283.9611834430853
 22
213.1662234042552
 32
0.0
 13
283.9611834430853
 23
213.1662234042552
 33
0.0
  0
SOLID
  5
73F
330
743
100
AcDbEntity
  8
0
  6
ByBlock
 62
     0
370
    15
100
AcDbTrace
 10
81.63518344308474
 20
213.6662234042553
 30
0.0
 11
84.63518344308474
 21
214.1662234042554
 31
0.0
 12
84.63518344308474
 22
213.1662234042552
 32
0.0
 13
84.63518344308474
 23
213.1662234042552
 33
0.0
  0
LINE
  5
740
330
743
100
AcDbEntity
  8
0
  6
ByBlock
 62
     0
370
    -2
100
AcDbLine
 10
286.9611834430853
 20
148.5000000000001
 30
0.0
 11
286.9611834430853
 21
148.5000000000001
 31
0.0
  0
MTEXT
  5
741
330
743
100
AcDbEntity
  8
0
  6
ByBlock
 62
     0
100
AcDbMText
 10
184.298183443085
 20
215.7995564042553
 30
0.0
 40
3.2
 41
0.0
 71
     5
 72
     1
  1
205.33
  7
KCADDIMSTANDARD
 73
     1
 44
1.0
  0
ENDBLK
  5
9D5
330
743
100
AcDbEntity
  8
0
100
AcDbBlockEnd
  0
BLOCK
  5
9D6
330
74F
100
AcDbEntity
  8
0
100
AcDbBlockBegin
  2
*D41
 70
     1
 71
     0
 10
0.0
 20
0.0
 30
0.0
  3
*D41
  1

  0
POINT
  5
745
330
74F
100
AcDbEntity
  8
DEFPOINTS
  6
ByBlock
 62
     0
370
    15
100
AcDbPoint
 10
81.6351834430861
 20
148.4999999999996
 30
0.0
  0
POINT
  5
746
330
74F
100
AcDbEntity
  8
DEFPOINTS
  6
ByBlock
 62
     0
370
    15
100
AcDbPoint
 10
153.9351834430854
 20
148.4999999999998
 30
0.0
  0
LINE
  5
747
330
74F
100
AcDbEntity
  8
0
  6
ByBlock
 62
     0
370
    -2
100
AcDbLine
 10
81.6351834430861
 20
149.4999999999996
 30
0.0
 11
81.6351834430861
 21
181.156590890895
 31
0.0
  0
LINE
  5
748
330
74F
100
AcDbEntity
  8
0
  6
ByBlock
 62
     0
370
    -2
100
AcDbLine
 10
153.9351834430854
 20
149.4999999999998
 30
0.0
 11
153.9351834430854
 21
181.156590890895
 31
0.0
  0
LINE
  5
749
330
74F
100
AcDbEntity
  8
0
  6
ByBlock
 62
     0
370
    -2
100
AcDbLine
 10
81.6351834430861
 20
180.156590890895
 30
0.0
 11
153.9351834430854
 21
180.156590890895
 31
0.0
  0
SOLID
  5
74A
330
74F
100
AcDbEntity
  8
0
  6
ByBlock
 62
     0
370
    15
100
AcDbTrace
 10
81.6351834430861
 20
180.156590890895
 30
0.0
 11
84.6351834430861
 21
179.6565908908949
 31
0.0
 12
84.6351834430861
 22
180.6565908908951
 32
0.0
 13
84.6351834430861
 23
180.6565908908951
 33
0.0
  0
SOLID
  5
74B
330
74F
100
AcDbEntity
  8
0
  6
ByBlock
 62
     0
370
    15
100
AcDbTrace
 10
153.9351834430854
 20
180.156590890895
 30
0.0
 11
150.9351834430854
 21
179.6565908908949
 31
0.0
 12
150.9351834430854
 22
180.6565908908951
 32
0.0
 13
150.9351834430854
 23
180.6565908908951
 33
0.0
  0
LINE
  5
74C
330
74F
100
AcDbEntity
  8
0
  6
ByBlock
 62
     0
370
    -2
100
AcDbLine
 10
81.6351834430861
 20
148.4999999999996
 30
0.0
 11
81.6351834430861
 21
148.4999999999996
 31
0.0
  0
MTEXT
  5
74D
330
74F
100
AcDbEntity
  8
0
  6
ByBlock
 62
     0
100
AcDbMText
 10
117.7851834430857
 20
182.289923890895
 30
0.0
 40
3.2
 41
0.0
 71
     5
 72
     1
  1
\A1;WD=72.3
  7
KCADDIMSTANDARD
 73
     1
 44
1.0
  0
ENDBLK
  5
9D7
330
74F
100
AcDbEntity
  8
0
100
AcDbBlockEnd
  0
BLOCK
  5
9D8
330
75B
100
AcDbEntity
  8
0
100
AcDbBlockBegin
  2
*D42
 70
     1
 71
     0
 10
0.0
 20
0.0
 30
0.0
  3
*D42
  1

  0
POINT
  5
751
330
75B
100
AcDbEntity
  8
DEFPOINTS
  6
ByBlock
 62
     0
370
    15
100
AcDbPoint
 10
169.9351834430854
 20
158.5000000000003
 30
0.0
  0
POINT
  5
752
330
75B
100
AcDbEntity
  8
DEFPOINTS
  6
ByBlock
 62
     0
370
    15
100
AcDbPoint
 10
154.2351834430854
 20
138.4999999999998
 30
0.0
  0
LINE
  5
753
330
75B
100
AcDbEntity
  8
0
  6
ByBlock
 62
     0
370
    -2
100
AcDbLine
 10
168.9351834430854
 20
158.5000000000003
 30
0.0
 11
133.1303857008465
 21
158.5000000000003
 31
0.0
  0
LINE
  5
754
330
75B
100
AcDbEntity
  8
0
  6
ByBlock
 62
     0
370
    -2
100
AcDbLine
 10
153.2351834430854
 20
138.4999999999998
 30
0.0
 11
133.1303857008465
 21
138.4999999999998
 31
0.0
  0
LINE
  5
755
330
75B
100
AcDbEntity
  8
0
  6
ByBlock
 62
     0
370
    -2
100
AcDbLine
 10
134.1303857008465
 20
158.5000000000003
 30
0.0
 11
134.1303857008465
 21
138.4999999999998
 31
0.0
  0
SOLID
  5
756
330
75B
100
AcDbEntity
  8
0
  6
ByBlock
 62
     0
370
    15
100
AcDbTrace
 10
134.1303857008465
 20
158.5000000000003
 30
0.0
 11
133.6303857008464
 21
155.5000000000003
 31
0.0
 12
134.6303857008466
 22
155.5000000000003
 32
0.0
 13
134.6303857008466
 23
155.5000000000003
 33
0.0
  0
SOLID
  5
757
330
75B
100
AcDbEntity
  8
0
  6
ByBlock
 62
     0
370
    15
100
AcDbTrace
 10
134.1303857008465
 20
138.4999999999998
 30
0.0
 11
133.6303857008464
 21
141.4999999999998
 31
0.0
 12
134.6303857008466
 22
141.4999999999998
 32
0.0
 13
134.6303857008466
 23
141.4999999999998
 33
0.0
  0
LINE
  5
758
330
75B
100
AcDbEntity
  8
0
  6
ByBlock
 62
     0
370
    -2
100
AcDbLine
 10
169.9351834430854
 20
158.5000000000003
 30
0.0
 11
169.9351834430854
 21
158.5000000000003
 31
0.0
  0
MTEXT
  5
759
330
75B
100
AcDbEntity
  8
0
  6
ByBlock
 62
     0
100
AcDbMText
 10
131.9970527008465
 20
148.5
 30
0.0
 40
3.2
 41
0.0
 71
     5
 72
     1
  1
\A1;%%c20
  7
KCADDIMSTANDARD
 11
-1.271037311859069E-15
 21
1.0
 31
0.0
 73
     1
 44
1.0
  0
ENDBLK
  5
9D9
330
75B
100
AcDbEntity
  8
0
100
AcDbBlockEnd
  0
BLOCK
  5
9DA
330
767
100
AcDbEntity
  8
0
100
AcDbBlockBegin
  2
*D43
 70
     1
 71
     0
 10
0.0
 20
0.0
 30
0.0
  3
*D43
  1

  0
POINT
  5
75D
330
767
100
AcDbEntity
  8
DEFPOINTS
  6
ByBlock
 62
     0
370
    15
100
AcDbPoint
 10
153.9351834430854
 20
148.5000000000003
 30
0.0
  0
POINT
  5
75E
330
767
100
AcDbEntity
  8
DEFPOINTS
  6
ByBlock
 62
     0
370
    15
100
AcDbPoint
 10
257.4351834430852
 20
148.5000000000001
 30
0.0
  0
LINE
  5
75F
330
767
100
AcDbEntity
  8
0
  6
ByBlock
 62
     0
370
    -2
100
AcDbLine
 10
153.9351834430854
 20
149.5000000000003
 30
0.0
 11
153.9351834430854
 21
181.156590890895
 31
0.0
  0
LINE
  5
760
330
767
100
AcDbEntity
  8
0
  6
ByBlock
 62
     0
370
    -2
100
AcDbLine
 10
257.4351834430852
 20
149.5000000000001
 30
0.0
 11
257.4351834430852
 21
181.156590890895
 31
0.0
  0
LINE
  5
761
330
767
100
AcDbEntity
  8
0
  6
ByBlock
 62
     0
370
    -2
100
AcDbLine
 10
153.9351834430854
 20
180.156590890895
 30
0.0
 11
257.4351834430852
 21
180.156590890895
 31
0.0
  0
SOLID
  5
762
330
767
100
AcDbEntity
  8
0
  6
ByBlock
 62
     0
370
    15
100
AcDbTrace
 10
153.9351834430854
 20
180.156590890895
 30
0.0
 11
156.9351834430854
 21
179.6565908908949
 31
0.0
 12
156.9351834430854
 22
180.6565908908951
 32
0.0
 13
156.9351834430854
 23
180.6565908908951
 33
0.0
  0
SOLID
  5
763
330
767
100
AcDbEntity
  8
0
  6
ByBlock
 62
     0
370
    15
100
AcDbTrace
 10
257.4351834430852
 20
180.156590890895
 30
0.0
 11
254.4351834430852
 21
179.6565908908949
 31
0.0
 12
254.4351834430852
 22
180.6565908908951
 32
0.0
 13
254.4351834430852
 23
180.6565908908951
 33
0.0
  0
LINE
  5
764
330
767
100
AcDbEntity
  8
0
  6
ByBlock
 62
     0
370
    -2
100
AcDbLine
 10
153.9351834430854
 20
148.5000000000003
 30
0.0
 11
153.9351834430854
 21
148.5000000000003
 31
0.0
  0
MTEXT
  5
765
330
767
100
AcDbEntity
  8
0
  6
ByBlock
 62
     0
100
AcDbMText
 10
205.6851834430853
 20
182.289923890895
 30
0.0
 40
3.2
 41
0.0
 71
     5
 72
     1
  1
103.5
  7
KCADDIMSTANDARD
 73
     1
 44
1.0
  0
ENDBLK
  5
9DB
330
767
100
AcDbEntity
  8
0
100
AcDbBlockEnd
  0
BLOCK
  5
9DC
330
773
100
AcDbEntity
  8
0
100
AcDbBlockBegin
  2
*D44
 70
     1
 71
     0
 10
0.0
 20
0.0
 30
0.0
  3
*D44
  1

  0
POINT
  5
769
330
773
100
AcDbEntity
  8
DEFPOINTS
  6
ByBlock
 62
     0
370
    15
100
AcDbPoint
 10
257.4351834430852
 20
148.5000000000001
 30
0.0
  0
POINT
  5
76A
330
773
100
AcDbEntity
  8
DEFPOINTS
  6
ByBlock
 62
     0
370
    15
100
AcDbPoint
 10
269.4351834430853
 20
148.5000000000001
 30
0.0
  0
LINE
  5
76B
330
773
100
AcDbEntity
  8
0
  6
ByBlock
 62
     0
370
    -2
100
AcDbLine
 10
257.4351834430852
 20
149.5000000000001
 30
0.0
 11
257.4351834430852
 21
181.156590890895
 31
0.0
  0
LINE
  5
76C
330
773
100
AcDbEntity
  8
0
  6
ByBlock
 62
     0
370
    -2
100
AcDbLine
 10
269.4351834430853
 20
149.5000000000001
 30
0.0
 11
269.4351834430853
 21
181.156590890895
 31
0.0
  0
LINE
  5
76D
330
773
100
AcDbEntity
  8
0
  6
ByBlock
 62
     0
370
    -2
100
AcDbLine
 10
257.4351834430852
 20
180.156590890895
 30
0.0
 11
269.4351834430853
 21
180.156590890895
 31
0.0
  0
SOLID
  5
76E
330
773
100
AcDbEntity
  8
0
  6
ByBlock
 62
     0
370
    15
100
AcDbTrace
 10
257.4351834430852
 20
180.156590890895
 30
0.0
 11
260.4351834430852
 21
179.6565908908949
 31
0.0
 12
260.4351834430852
 22
180.6565908908951
 32
0.0
 13
260.4351834430852
 23
180.6565908908951
 33
0.0
  0
SOLID
  5
76F
330
773
100
AcDbEntity
  8
0
  6
ByBlock
 62
     0
370
    15
100
AcDbTrace
 10
269.4351834430853
 20
180.156590890895
 30
0.0
 11
266.4351834430853
 21
179.6565908908949
 31
0.0
 12
266.4351834430853
 22
180.6565908908951
 32
0.0
 13
266.4351834430853
 23
180.6565908908951
 33
0.0
  0
LINE
  5
770
330
773
100
AcDbEntity
  8
0
  6
ByBlock
 62
     0
370
    -2
100
AcDbLine
 10
257.4351834430852
 20
148.5000000000001
 30
0.0
 11
257.4351834430852
 21
148.5000000000001
 31
0.0
  0
MTEXT
  5
771
330
773
100
AcDbEntity
  8
0
  6
ByBlock
 62
     0
100
AcDbMText
 10
263.4351834430852
 20
182.289923890895
 30
0.0
 40
3.2
 41
0.0
 71
     5
 72
     1
  1
12
  7
KCADDIMSTANDARD
 73
     1
 44
1.0
  0
ENDBLK
  5
9DD
330
773
100
AcDbEntity
  8
0
100
AcDbBlockEnd
  0
BLOCK
  5
9DE
330
77F
100
AcDbEntity
  8
0
100
AcDbBlockBegin
  2
*D45
 70
     1
 71
     0
 10
0.0
 20
0.0
 30
0.0
  3
*D45
  1

  0
POINT
  5
775
330
77F
100
AcDbEntity
  8
DEFPOINTS
  6
ByBlock
 62
     0
370
    15
100
AcDbPoint
 10
269.4351834430853
 20
148.5000000000001
 30
0.0
  0
POINT
  5
776
330
77F
100
AcDbEntity
  8
DEFPOINTS
  6
ByBlock
 62
     0
370
    15
100
AcDbPoint
 10
286.9611834430853
 20
148.5000000000001
 30
0.0
  0
LINE
  5
777
330
77F
100
AcDbEntity
  8
0
  6
ByBlock
 62
     0
370
    -2
100
AcDbLine
 10
269.4351834430853
 20
149.5000000000001
 30
0.0
 11
269.4351834430853
 21
195.2208622725726
 31
0.0
  0
LINE
  5
778
330
77F
100
AcDbEntity
  8
0
  6
ByBlock
 62
     0
370
    -2
100
AcDbLine
 10
286.9611834430853
 20
149.5000000000001
 30
0.0
 11
286.9611834430853
 21
195.2208622725726
 31
0.0
  0
LINE
  5
779
330
77F
100
AcDbEntity
  8
0
  6
ByBlock
 62
     0
370
    -2
100
AcDbLine
 10
269.4351834430853
 20
194.2208622725726
 30
0.0
 11
286.9611834430853
 21
194.2208622725726
 31
0.0
  0
SOLID
  5
77A
330
77F
100
AcDbEntity
  8
0
  6
ByBlock
 62
     0
370
    15
100
AcDbTrace
 10
269.4351834430853
 20
194.2208622725726
 30
0.0
 11
272.4351834430853
 21
193.7208622725725
 31
0.0
 12
272.4351834430853
 22
194.7208622725727
 32
0.0
 13
272.4351834430853
 23
194.7208622725727
 33
0.0
  0
SOLID
  5
77B
330
77F
100
AcDbEntity
  8
0
  6
ByBlock
 62
     0
370
    15
100
AcDbTrace
 10
286.9611834430853
 20
194.2208622725726
 30
0.0
 11
283.9611834430853
 21
193.7208622725725
 31
0.0
 12
283.9611834430853
 22
194.7208622725727
 32
0.0
 13
283.9611834430853
 23
194.7208622725727
 33
0.0
  0
LINE
  5
77C
330
77F
100
AcDbEntity
  8
0
  6
ByBlock
 62
     0
370
    -2
100
AcDbLine
 10
269.4351834430853
 20
148.5000000000001
 30
0.0
 11
269.4351834430853
 21
148.5000000000001
 31
0.0
  0
MTEXT
  5
77D
330
77F
100
AcDbEntity
  8
0
  6
ByBlock
 62
     0
100
AcDbMText
 10
317.9730036274461
 20
216.4842179402533
 30
0.0
 40
3.2
 41
0.0
 71
     5
 72
     1
  1
\A1;FB=17.526
  7
KCADDIMSTANDARD
 73
     1
 44
1.0
  0
ENDBLK
  5
9DF
330
77F
100
AcDbEntity
  8
0
100
AcDbBlockEnd
  0
BLOCK
  5
9E0
330
78A
100
AcDbEntity
  8
0
100
AcDbBlockBegin
  2
*D46
 70
     1
 71
     0
 10
0.0
 20
0.0
 30
0.0
  3
*D46
  1

  0
POINT
  5
781
330
78A
100
AcDbEntity
  8
DEFPOINTS
  6
ByBlock
 62
     0
370
    15
100
AcDbPoint
 10
269.0107616440822
 20
161.924421799003
 30
0.0
  0
POINT
  5
782
330
78A
100
AcDbEntity
  8
DEFPOINTS
  6
ByBlock
 62
     0
370
    15
100
AcDbPoint
 10
273.441706341185
 20
166.3553664961059
 30
0.0
  0
LINE
  5
783
330
78A
100
AcDbEntity
  8
0
  6
ByBlock
 62
     0
370
    -2
100
AcDbLine
 10
266.8894413005226
 20
159.8031014554433
 30
0.0
 11
264.768120956963
 21
157.6817811118837
 31
0.0
  0
SOLID
  5
784
330
78A
100
AcDbEntity
  8
0
  6
ByBlock
 62
     0
370
    15
100
AcDbTrace
 10
269.0107616440823
 20
161.924421799003
 30
0.0
 11
267.2429946911159
 21
159.4495480648499
 31
0.0
 12
266.5358879099293
 22
160.1566548460366
 32
0.0
 13
266.5358879099293
 23
160.1566548460366
 33
0.0
  0
LINE
  5
785
330
78A
100
AcDbEntity
  8
0
  6
ByBlock
 62
     0
370
    -2
100
AcDbLine
 10
275.5630266847447
 20
168.4766868396655
 30
0.0
 11
277.6843470283043
 21
170.5980071832251
 31
0.0
  0
SOLID
  5
786
330
78A
100
AcDbEntity
  8
0
  6
ByBlock
 62
     0
370
    15
100
AcDbTrace
 10
273.4417063411851
 20
166.3553664961059
 30
0.0
 11
275.916580075338
 21
168.1231334490722
 31
0.0
 12
275.2094732941513
 22
168.8302402302589
 32
0.0
 13
275.2094732941513
 23
168.8302402302589
 33
0.0
  0
LINE
  5
787
330
78A
100
AcDbEntity
  8
0
  6
ByBlock
 62
     0
370
    -2
100
AcDbLine
 10
269.0107616440823
 20
161.924421799003
 30
0.0
 11
273.4417063411851
 21
166.3553664961059
 31
0.0
  0
MTEXT
  5
788
330
78A
100
AcDbEntity
  8
0
  6
ByBlock
 62
     0
100
AcDbMText
 10
277.9957666980244
 20
168.4863158266048
 30
0.0
 40
3.2
 41
0.0
 71
     5
 72
     1
  1
\A1;C1{\H0.667000x;}
  7
KCADDIMSTANDARD
 73
     1
 44
1.0
  0
ENDBLK
  5
9E1
330
78A
100
AcDbEntity
  8
0
100
AcDbBlockEnd
  0
BLOCK
  5
9E2
330
795
100
AcDbEntity
  8
0
100
AcDbBlockBegin
  2
*D47
 70
     1
 71
     0
 10
0.0
 20
0.0
 30
0.0
  3
*D47
  1

  0
POINT
  5
78C
330
795
100
AcDbEntity
  8
DEFPOINTS
  6
ByBlock
 62
     0
370
    15
100
AcDbPoint
 10
257.7483869918534
 20
162.3132035487682
 30
0.0
  0
POINT
  5
78D
330
795
100
AcDbEntity
  8
DEFPOINTS
  6
ByBlock
 62
     0
370
    15
100
AcDbPoint
 10
252.7949224346306
 20
167.266668105991
 30
0.0
  0
LINE
  5
78E
330
795
100
AcDbEntity
  8
0
  6
ByBlock
 62
     0
370
    -2
100
AcDbLine
 10
259.869707335413
 20
160.1918832052085
 30
0.0
 11
261.9910276789727
 21
158.0705628616489
 31
0.0
  0
SOLID
  5
78F
330
795
100
AcDbEntity
  8
0
  6
ByBlock
 62
     0
370
    15
100
AcDbTrace
 10
257.7483869918534
 20
162.3132035487681
 30
0.0
 11
260.2232607260063
 21
160.5454365958018
 31
0.0
 12
259.5161539448197
 22
159.8383298146152
 32
0.0
 13
259.5161539448197
 23
159.8383298146152
 33
0.0
  0
LINE
  5
790
330
795
100
AcDbEntity
  8
0
  6
ByBlock
 62
     0
370
    -2
100
AcDbLine
 10
250.6736020910708
 20
169.3879884495505
 30
0.0
 11
248.5522817475112
 21
171.5093087931102
 31
0.0
  0
SOLID
  5
791
330
795
100
AcDbEntity
  8
0
  6
ByBlock
 62
     0
370
    15
100
AcDbTrace
 10
252.7949224346305
 20
167.2666681059909
 30
0.0
 11
251.0271554816642
 21
169.7415418401439
 31
0.0
 12
250.3200487004775
 22
169.0344350589572
 32
0.0
 13
250.3200487004775
 23
169.0344350589572
 33
0.0
  0
LINE
  5
792
330
795
100
AcDbEntity
  8
0
  6
ByBlock
 62
     0
370
    -2
100
AcDbLine
 10
257.7483869918534
 20
162.3132035487681
 30
0.0
 11
252.7949224346305
 21
167.2666681059909
 31
0.0
  0
MTEXT
  5
793
330
795
100
AcDbEntity
  8
0
  6
ByBlock
 62
     0
100
AcDbMText
 10
247.082901106713
 20
169.4370448952783
 30
0.0
 40
3.2
 41
0.0
 71
     5
 72
     1
  1
\A1;C0.5{\H0.667000x;}
  7
KCADDIMSTANDARD
 73
     1
 44
1.0
  0
ENDBLK
  5
9E3
330
795
100
AcDbEntity
  8
0
100
AcDbBlockEnd
  0
BLOCK
  5
9E4
330
7A1
100
AcDbEntity
  8
0
100
AcDbBlockBegin
  2
*D48
 70
     1
 71
     0
 10
0.0
 20
0.0
 30
0.0
  3
*D48
  1

  0
POINT
  5
797
330
7A1
100
AcDbEntity
  8
DEFPOINTS
  6
ByBlock
 62
     0
370
    15
100
AcDbPoint
 10
268.4351834430852
 20
162.5
 30
0.0
  0
POINT
  5
798
330
7A1
100
AcDbEntity
  8
DEFPOINTS
  6
ByBlock
 62
     0
370
    15
100
AcDbPoint
 10
268.4351834430852
 20
134.5
 30
0.0
  0
LINE
  5
799
330
7A1
100
AcDbEntity
  8
0
  6
ByBlock
 62
     0
370
    -2
100
AcDbLine
 10
269.4351834430852
 20
162.5
 30
0.0
 11
312.2342427093132
 21
162.5
 31
0.0
  0
LINE
  5
79A
330
7A1
100
AcDbEntity
  8
0
  6
ByBlock
 62
     0
370
    -2
100
AcDbLine
 10
269.4351834430852
 20
134.5
 30
0.0
 11
312.2342427093132
 21
134.5
 31
0.0
  0
LINE
  5
79B
330
7A1
100
AcDbEntity
  8
0
  6
ByBlock
 62
     0
370
    -2
100
AcDbLine
 10
311.2342427093132
 20
162.5
 30
0.0
 11
311.2342427093132
 21
134.5
 31
0.0
  0
SOLID
  5
79C
330
7A1
100
AcDbEntity
  8
0
  6
ByBlock
 62
     0
370
    15
100
AcDbTrace
 10
311.2342427093132
 20
162.5
 30
0.0
 11
310.7342427093131
 21
159.5
 31
0.0
 12
311.7342427093133
 22
159.5
 32
0.0
 13
311.7342427093133
 23
159.5
 33
0.0
  0
SOLID
  5
79D
330
7A1
100
AcDbEntity
  8
0
  6
ByBlock
 62
     0
370
    15
100
AcDbTrace
 10
311.2342427093132
 20
134.5
 30
0.0
 11
310.7342427093131
 21
137.5
 31
0.0
 12
311.7342427093133
 22
137.5
 32
0.0
 13
311.7342427093133
 23
137.5
 33
0.0
  0
LINE
  5
79E
330
7A1
100
AcDbEntity
  8
0
  6
ByBlock
 62
     0
370
    -2
100
AcDbLine
 10
268.4351834430852
 20
162.5
 30
0.0
 11
268.4351834430852
 21
162.5
 31
0.0
  0
MTEXT
  5
79F
330
7A1
100
AcDbEntity
  8
0
  6
ByBlock
 62
     0
100
AcDbMText
 10
309.1009097093132
 20
148.5000000000002
 30
0.0
 40
3.2
 41
0.0
 71
     5
 72
     1
  1
\A1;%%c28
  7
KCADDIMSTANDARD
 11
-1.271037311859069E-15
 21
1.0
 31
0.0
 73
     1
 44
1.0
  0
ENDBLK
  5
9E5
330
7A1
100
AcDbEntity
  8
0
100
AcDbBlockEnd
  0
BLOCK
  5
9E6
330
890
100
AcDbEntity
  8
0
100
AcDbBlockBegin
  2
*D49
 70
     1
 71
     0
 10
0.0
 20
0.0
 30
0.0
  3
*D49
  1

  0
POINT
  5
886
330
890
100
AcDbEntity
  8
DEFPOINTS
  6
ByBlock
 62
     0
370
    15
100
AcDbPoint
 10
269.4351834430853
 20
148.5000000000001
 30
0.0
  0
POINT
  5
887
330
890
100
AcDbEntity
  8
DEFPOINTS
  6
ByBlock
 62
     0
370
    15
100
AcDbPoint
 10
286.9611834430853
 20
148.5000000000001
 30
0.0
  0
LINE
  5
888
330
890
100
AcDbEntity
  8
0
  6
ByBlock
 62
     0
370
    -2
100
AcDbLine
 10
269.4351834430853
 20
149.5000000000001
 30
0.0
 11
269.4351834430853
 21
195.2208622725726
 31
0.0
  0
LINE
  5
889
330
890
100
AcDbEntity
  8
0
  6
ByBlock
 62
     0
370
    -2
100
AcDbLine
 10
286.9611834430853
 20
149.5000000000001
 30
0.0
 11
286.9611834430853
 21
195.2208622725726
 31
0.0
  0
LINE
  5
88A
330
890
100
AcDbEntity
  8
0
  6
ByBlock
 62
     0
370
    -2
100
AcDbLine
 10
269.4351834430853
 20
194.2208622725726
 30
0.0
 11
286.9611834430853
 21
194.2208622725726
 31
0.0
  0
SOLID
  5
88B
330
890
100
AcDbEntity
  8
0
  6
ByBlock
 62
     0
370
    15
100
AcDbTrace
 10
269.4351834430853
 20
194.2208622725726
 30
0.0
 11
272.4351834430853
 21
193.7208622725725
 31
0.0
 12
272.4351834430853
 22
194.7208622725727
 32
0.0
 13
272.4351834430853
 23
194.7208622725727
 33
0.0
  0
SOLID
  5
88C
330
890
100
AcDbEntity
  8
0
  6
ByBlock
 62
     0
370
    15
100
AcDbTrace
 10
286.9611834430853
 20
194.2208622725726
 30
0.0
 11
283.9611834430853
 21
193.7208622725725
 31
0.0
 12
283.9611834430853
 22
194.7208622725727
 32
0.0
 13
283.9611834430853
 23
194.7208622725727
 33
0.0
  0
LINE
  5
88D
330
890
100
AcDbEntity
  8
0
  6
ByBlock
 62
     0
370
    -2
100
AcDbLine
 10
269.4351834430853
 20
148.5000000000001
 30
0.0
 11
269.4351834430853
 21
148.5000000000001
 31
0.0
  0
MTEXT
  5
88E
330
890
100
AcDbEntity
  8
0
  6
ByBlock
 62
     0
100
AcDbMText
 10
304.909733835288
 20
194.3274008617827
 30
0.0
 40
3.2
 41
0.0
 71
     5
 72
     1
  1
\A1;FB=17.526
  7
KCADDIMSTANDARD
 73
     1
 44
1.0
  0
ENDBLK
  5
9E7
330
890
100
AcDbEntity
  8
0
100
AcDbBlockEnd
  0
ENDSEC
  0
SECTION
  2
ENTITIES
  0
TEXT
  5
2EF
330
1F
100
AcDbEntity
  8
0
  6
Continuous
 62
     7
370
    30
100
AcDbText
 10
196.54356005135
 20
38.16647005444999
 30
0.0
 40
4.049999999999999
  1
質
 41
0.95
  7
KCADTEXTSTANDARD
100
AcDbText
1001
Sigma
1000

  0
TEXT
  5
2F1
330
1F
100
AcDbEntity
  8
0
  6
Continuous
 62
     7
370
    30
100
AcDbText
 10
196.54356005135
 20
43.16647005444999
 30
0.0
 40
4.049999999999999
  1
材
 41
0.95
  7
KCADTEXTSTANDARD
100
AcDbText
1001
Sigma
1000

  0
LINE
  5
2F4
330
1F
100
AcDbEntity
  8
90-ScaleR0.4
  6
Continuous
 62
     7
370
    30
100
AcDbLine
 10
411.81900676123
 20
286.431941923775
 30
0.0
 11
28.8189987163
 21
286.431941923775
 31
0.0
1001
Sigma
1000

  0
LINE
  5
2F7
330
1F
100
AcDbEntity
  8
90-ScaleR0.4
  6
Continuous
 62
     7
370
    30
100
AcDbLine
 10
28.8189987163
 20
286.431941923775
 30
0.0
 11
28.8189987163
 21
17.43194192379999
 31
0.0
1001
Sigma
1000

  0
LINE
  5
2F9
330
1F
100
AcDbEntity
  8
90-ScaleR0.4
  6
Continuous
 62
     7
370
    30
100
AcDbLine
 10
28.8189987163
 20
17.43194192379999
 30
0.0
 11
411.81900676123
 21
17.43194192379999
 31
0.0
1001
Sigma
1000

  0
LINE
  5
2FB
330
1F
100
AcDbEntity
  8
90-ScaleR0.4
  6
Continuous
 62
     7
370
    30
100
AcDbLine
 10
411.81900676123
 20
286.431941923775
 30
0.0
 11
411.81900676123
 21
17.43194192379999
 31
0.0
1001
Sigma
1000

  0
TEXT
  5
305
330
1F
100
AcDbEntity
  8
90-ScaleR0.4
  6
Continuous
 62
     7
370
    30
100
AcDbText
 10
294.5736529428192
 20
25.10870778889007
 30
0.0
 40
4.049999999999999
  1
型
 41
0.95
  7
KCADTEXTSTANDARD
100
AcDbText
1001
Sigma
1000

  0
TEXT
  5
307
330
1F
100
AcDbEntity
  8
90-ScaleR0.4
  6
Continuous
 62
     7
370
    30
100
AcDbText
 10
294.5736529428193
 20
18.68367649349752
 30
0.0
 40
4.049999999999999
  1
番
 41
0.95
  7
KCADTEXTSTANDARD
100
AcDbText
1001
Sigma
1000

  0
TEXT
  5
309
330
1F
100
AcDbEntity
  8
90-ScaleR0.4
  6
Continuous
 62
     7
370
    30
100
AcDbText
 10
354.5543974871092
 20
26.09641225653346
 30
0.0
 40
4.049999999999999
  1
図
 41
0.95
  7
KCADTEXTSTANDARD
100
AcDbText
1001
Sigma
1000

  0
TEXT
  5
30B
330
1F
100
AcDbEntity
  8
90-ScaleR0.4
  6
Continuous
 62
     7
370
    30
100
AcDbText
 10
354.5543974871092
 20
18.94033240173345
 30
0.0
 40
4.049999999999999
  1
番
 41
0.95
  7
KCADTEXTSTANDARD
100
AcDbText
1001
Sigma
1000

  0
LINE
  5
311
330
1F
100
AcDbEntity
  8
90-ScaleR0.4
  6
Continuous
 62
     7
370
    15
100
AcDbLine
 10
361.8190067612349
 20
47.43194192379998
 30
0.0
 11
361.8190067612349
 21
17.43194192379999
 31
0.0
1001
Sigma
1000

  0
LINE
  5
313
330
1F
100
AcDbEntity
  8
90-ScaleR0.4
  6
Continuous
 62
     7
370
    30
100
AcDbLine
 10
195.819006375325
 20
17.43194192379999
 30
0.0
 11
195.819006375325
 21
47.43194192379998
 31
0.0
1001
Sigma
1000

  0
LINE
  5
315
330
1F
100
AcDbEntity
  8
90-ScaleR0.4
  6
Continuous
 62
     7
370
    30
100
AcDbLine
 10
351.8190067612349
 20
17.43194192379999
 30
0.0
 11
351.8190067612349
 21
47.43194192379998
 31
0.0
1001
Sigma
1000

  0
LINE
  5
317
330
1F
100
AcDbEntity
  8
90-ScaleR0.4
  6
Continuous
 62
     7
370
    30
100
AcDbLine
 10
411.81900676123
 20
32.43194192379999
 30
0.0
 11
291.819006761235
 21
32.43194192379999
 31
0.0
1001
Sigma
1000

  0
LINE
  5
319
330
1F
100
AcDbEntity
  8
90-ScaleR0.4
  6
Continuous
 62
     7
370
    30
100
AcDbLine
 10
195.819006375325
 20
27.43194192375
 30
0.0
 11
261.819006761233
 21
27.43194192375
 31
0.0
1001
Sigma
1000

  0
TEXT
  5
31B
330
1F
100
AcDbEntity
  8
90-ScaleR0.4
  6
Continuous
 62
     7
370
    30
100
AcDbText
 10
237.6691982128943
 20
19.17763136437326
 30
0.0
 40
6.750000429153442
  1
三角法
 41
0.9795555531731359
  7
KCADTEXTSTANDARD
100
AcDbText
1001
Sigma
1000

  0
TEXT
  5
31D
330
1F
100
AcDbEntity
  8
90-ScaleR0.4
  6
Continuous
 62
     7
370
    30
100
AcDbText
 10
285.101783110845
 20
19.67921960074998
 30
0.0
 40
4.5
  1
１
 41
0.855
  7
KCADTEXTSTANDARD
100
AcDbText
1001
Sigma
1000

  0
TEXT
  5
31F
330
1F
100
AcDbEntity
  8
0
  6
Continuous
 62
     7
370
    30
100
AcDbText
 10
279.18425066367
 20
26.72636116154999
 30
0.0
 40
4.049999999999999
  1
１
 41
0.95
  7
KCADTEXTSTANDARD
100
AcDbText
1001
Sigma
1000

  0
TEXT
  5
321
330
1F
100
AcDbEntity
  8
90-ScaleR0.4
  6
Continuous
 62
     7
370
    30
100
AcDbText
 10
267.55679596432
 20
22.91333938295
 30
0.0
 40
4.5
  1
１
 41
0.855
  7
KCADTEXTSTANDARD
100
AcDbText
1001
Sigma
1000

  0
TEXT
  5
323
330
1F
100
AcDbEntity
  8
90-ScaleR0.4
  6
Continuous
 62
     7
370
    30
100
AcDbText
 10
243.0270582668935
 20
30.19010889289998
 30
0.0
 40
4.5
  1
Ｃ０.１
 41
0.8023937520384787
  7
KCADTEXTSTANDARD
100
AcDbText
1001
Sigma
1000

  0
LINE
  5
325
330
1F
100
AcDbEntity
  8
90-ScaleR0.4
  6
Continuous
 62
     7
370
    30
100
AcDbLine
 10
135.8190063753
 20
17.43194192379999
 30
0.0
 11
135.8190063753
 21
47.43194192379998
 31
0.0
1001
Sigma
1000

  0
TEXT
  5
327
330
1F
100
AcDbEntity
  8
90-ScaleR0.4
  6
Continuous
 62
     7
370
    30
100
AcDbText
 10
236.6668214301804
 20
38.47586206894999
 30
0.0
 40
3.6
  1
処理
 41
1.02125000283122
  7
KCADTEXTSTANDARD
100
AcDbText
1001
Sigma
1000

  0
TEXT
  5
329
330
1F
100
AcDbEntity
  8
90-ScaleR0.4
  6
Continuous
 62
     7
370
    30
100
AcDbText
 10
32.71276480665001
 20
43.8507259528
 30
0.0
 40
2.033999999999999
  1
5
 41
0.577433628318584
  7
KCADTEXTSTANDARD
100
AcDbText
1001
Sigma
1000

  0
TEXT
  5
32B
330
1F
100
AcDbEntity
  8
90-ScaleR0.4
  6
Continuous
 62
     7
370
    30
100
AcDbText
 10
32.57780336705001
 20
39.26905626134999
 30
0.0
 40
2.033999999999999
  1
4
 41
0.577433628318584
  7
KCADTEXTSTANDARD
100
AcDbText
1001
Sigma
1000

  0
TEXT
  5
32D
330
1F
100
AcDbEntity
  8
90-ScaleR0.4
  6
Continuous
 62
     7
370
    30
100
AcDbText
 10
32.84772624624999
 20
33.60934664244999
 30
0.0
 40
2.033999999999999
  1
3
 41
0.577433628318584
  7
KCADTEXTSTANDARD
100
AcDbText
1001
Sigma
1000

  0
TEXT
  5
32F
330
1F
100
AcDbEntity
  8
90-ScaleR0.4
  6
Continuous
 62
     7
370
    30
100
AcDbText
 10
32.84772624624999
 20
28.75816696914998
 30
0.0
 40
2.033999999999999
  1
2
 41
0.577433628318584
  7
KCADTEXTSTANDARD
100
AcDbText
1001
Sigma
1000

  0
TEXT
  5
331
330
1F
100
AcDbEntity
  8
90-ScaleR0.4
  6
Continuous
 62
     7
370
    30
100
AcDbText
 10
32.57780336705001
 20
24.04174228674998
 30
0.0
 40
2.033999999999999
  1
1
 41
0.577433628318584
  7
KCADTEXTSTANDARD
100
AcDbText
1001
Sigma
1000

  0
LINE
  5
333
330
1F
100
AcDbEntity
  8
90-ScaleR0.4
  6
Continuous
 62
     7
370
    30
100
AcDbLine
 10
261.819006761233
 20
37.43194192379999
 30
0.0
 11
261.819006761233
 21
17.48820326680001
 31
0.0
1001
Sigma
1000

  0
LINE
  5
335
330
1F
100
AcDbEntity
  8
90-ScaleR0.4
  6
Continuous
 62
     7
370
    15
100
AcDbLine
 10
261.819006761233
 20
32.43194192379999
 30
0.0
 11
291.819006761235
 21
32.43194192379999
 31
0.0
1001
Sigma
1000

  0
TEXT
  5
337
330
1F
100
AcDbEntity
  8
90-ScaleR0.4
  6
Continuous
 62
     7
370
    30
100
AcDbText
 10
280.370224528175
 20
33.2063520871
 30
0.0
 40
3.6
  1
尺度
 41
1.02125000283122
  7
KCADTEXTSTANDARD
100
AcDbText
1001
Sigma
1000

  0
TEXT
  5
339
330
1F
100
AcDbEntity
  8
90-ScaleR0.4
  6
Continuous
 62
     7
370
    30
100
AcDbText
 10
265.2545432942399
 20
33.2063520871
 30
0.0
 40
3.6
  1
個数
 41
1.02125000283122
  7
KCADTEXTSTANDARD
100
AcDbText
1001
Sigma
1000

  0
TEXT
  5
33B
330
1F
100
AcDbEntity
  8
90-ScaleR0.4
  6
Continuous
 62
     7
370
    30
100
AcDbText
 10
39.4396252236
 20
18.19818511794998
 30
0.0
 40
3.6
  1
年月日
 41
1.04500000377496
  7
KCADTEXTSTANDARD
100
AcDbText
1001
Sigma
1000

  0
TEXT
  5
33D
330
1F
100
AcDbEntity
  8
90-ScaleR0.4
  6
Continuous
 62
     7
370
    30
100
AcDbText
 10
56.75421837015001
 20
18.46769509979999
 30
0.0
 40
3.6
  1
担当
 41
1.02125000283122
  7
KCADTEXTSTANDARD
100
AcDbText
1001
Sigma
1000

  0
TEXT
  5
33F
330
1F
100
AcDbEntity
  8
90-ScaleR0.4
  6
Continuous
 62
     7
370
    30
100
AcDbText
 10
30.16822753154999
 20
18.91769509979999
 30
0.0
 40
2.7
  1
符号
 41
1.013333334277073
  7
KCADTEXTSTANDARD
100
AcDbText
1001
Sigma
1000

  0
TEXT
  5
341
330
1F
100
AcDbEntity
  8
90-ScaleR0.4
  6
Continuous
 62
     7
370
    30
100
AcDbText
 10
85.75645015410001
 20
18.19818511794998
 30
0.0
 40
3.6
  1
訂  正  記  事
 41
0.7505000033974647
  7
KCADTEXTSTANDARD
100
AcDbText
1001
Sigma
1000

  0
LINE
  5
343
330
1F
100
AcDbEntity
  8
90-ScaleR0.4
  6
Continuous
 62
     7
370
    15
100
AcDbLine
 10
201.36302619882
 20
17.43194192379999
 30
0.0
 11
201.36302619882
 21
47.43194192379998
 31
0.0
1001
Sigma
1000

  0
TEXT
  5
345
330
1F
100
AcDbEntity
  8
90-ScaleR0.4
  6
Continuous
 62
     7
370
    30
100
AcDbText
 10
236.6372452482055
 20
33.2063520871
 30
0.0
 40
3.6
  1
面
 41
0.95
  7
KCADTEXTSTANDARD
100
AcDbText
1001
Sigma
1000

  0
LINE
  5
347
330
1F
100
AcDbEntity
  8
90-ScaleR0.4
  6
Continuous
 62
     7
370
    30
100
AcDbLine
 10
235.8190065201555
 20
17.43194192379999
 30
0.0
 11
235.8190065201555
 21
47.43194192379998
 31
0.0
1001
Sigma
1000

  0
LINE
  5
349
330
1F
100
AcDbEntity
  8
90-ScaleR0.4
  6
Continuous
 62
     7
370
    30
100
AcDbLine
 10
276.819006761235
 20
17.48820326680001
 30
0.0
 11
276.819006761235
 21
37.43194192379999
 31
0.0
1001
Sigma
1000

  0
LINE
  5
34B
330
1F
100
AcDbEntity
  8
90-ScaleR0.4
  6
Continuous
 62
     7
370
    30
100
AcDbLine
 10
280.41882254347
 20
21.12369774049999
 30
0.0
 11
287.970676149205
 21
28.67555134625
 31
0.0
1001
Sigma
1000

  0
LINE
  5
34D
330
1F
100
AcDbEntity
  8
90-ScaleR0.4
  6
Continuous
 62
     7
370
    15
100
AcDbLine
 10
241.044198427471
 20
27.43194192379998
 30
0.0
 11
241.044198427471
 21
37.43194192379999
 31
0.0
1001
Sigma
1000

  0
TEXT
  5
34F
330
1F
100
AcDbEntity
  8
90-ScaleR0.4
  6
Continuous
 62
     7
370
    30
100
AcDbText
 10
236.6372452482055
 20
28.20635208709998
 30
0.0
 40
3.6
  1
取
 41
0.95
  7
KCADTEXTSTANDARD
100
AcDbText
1001
Sigma
1000

  0
TEXT
  5
351
330
1F
100
AcDbEntity
  8
90-ScaleR0.4
  6
Continuous
 62
     7
370
    30
100
AcDbText
 10
142.80210074895
 20
40.29800362975
 30
0.0
 40
3.6
  1
１９９６年４月２６日
 41
1.078250005096197
  7
KCADTEXTSTANDARD
100
AcDbText
1001
Sigma
1000

  0
LINE
  5
353
330
1F
100
AcDbEntity
  8
90-ScaleR0.4
  6
Continuous
 62
     7
370
    30
100
AcDbLine
 10
411.81900676123
 20
47.43194192379998
 30
0.0
 11
28.8189987163
 21
47.43194192379998
 31
0.0
1001
Sigma
1000

  0
TEXT
  5
355
330
1F
100
AcDbEntity
  8
90-ScaleR0.4
  6
Continuous
 62
     7
370
    30
100
AcDbText
 10
196.857370671825
 20
23.2344827586
 30
0.0
 40
3.6
  1
公
 41
0.95
  7
KCADTEXTSTANDARD
100
AcDbText
1001
Sigma
1000

  0
TEXT
  5
357
330
1F
100
AcDbEntity
  8
90-ScaleR0.4
  6
Continuous
 62
     7
370
    30
100
AcDbText
 10
196.857370671825
 20
18.2344827586
 30
0.0
 40
3.6
  1
差
 41
0.95
  7
KCADTEXTSTANDARD
100
AcDbText
1001
Sigma
1000

  0
LINE
  5
359
330
1F
100
AcDbEntity
  8
90-ScaleR0.4
  6
Continuous
 62
     7
370
    15
100
AcDbLine
 10
212.0000000000001
 20
15.43194192379999
 30
0.0
 11
212.0000000000001
 21
17.51814882035
 31
0.0
1001
Sigma
1000

  0
LINE
  5
35B
330
1F
100
AcDbEntity
  8
90-ScaleR0.4
  6
Continuous
 62
     7
370
    30
100
AcDbLine
 10
135.8190063753
 20
37.43194192379999
 30
0.0
 11
291.819006761235
 21
37.43194192379999
 31
0.0
1001
Sigma
1000

  0
TEXT
  5
35D
330
1F
100
AcDbEntity
  8
90-ScaleR0.4
  6
Continuous
 62
     7
370
    30
100
AcDbText
 10
139.09066116025
 20
33.35812159709999
 30
0.0
 40
3.6
  1
設計
 41
1.02125000283122
  7
KCADTEXTSTANDARD
100
AcDbText
1001
Sigma
1000

  0
TEXT
  5
35F
330
1F
100
AcDbEntity
  8
90-ScaleR0.4
  6
Continuous
 62
     7
370
    30
100
AcDbText
 10
154.47626527335
 20
33.35812159709999
 30
0.0
 40
3.6
  1
製図
 41
1.02125000283122
  7
KCADTEXTSTANDARD
100
AcDbText
1001
Sigma
1000

  0
TEXT
  5
361
330
1F
100
AcDbEntity
  8
90-ScaleR0.4
  6
Continuous
 62
     7
370
    30
100
AcDbText
 10
168.9171393093599
 20
33.35812159709999
 30
0.0
 40
3.6
  1
検図
 41
1.02125000283122
  7
KCADTEXTSTANDARD
100
AcDbText
1001
Sigma
1000

  0
TEXT
  5
363
330
1F
100
AcDbEntity
  8
90-ScaleR0.4
  6
Continuous
 62
     7
370
    30
100
AcDbText
 10
183.7628976641149
 20
33.35812159709999
 30
0.0
 40
3.6
  1
承認
 41
1.02125000283122
  7
KCADTEXTSTANDARD
100
AcDbText
1001
Sigma
1000

  0
LINE
  5
365
330
1F
100
AcDbEntity
  8
90-ScaleR0.4
  6
Continuous
 62
     7
370
    30
100
AcDbLine
 10
291.819006761235
 20
17.43194192379999
 30
0.0
 11
291.819006761235
 21
47.43194192379998
 31
0.0
1001
Sigma
1000

  0
LINE
  5
367
330
1F
100
AcDbEntity
  8
90-ScaleR0.4
  6
Continuous
 62
     7
370
    15
100
AcDbLine
 10
301.819006761235
 20
47.43194192379998
 30
0.0
 11
301.819006761235
 21
17.43194192379999
 31
0.0
1001
Sigma
1000

  0
LINE
  5
369
330
1F
100
AcDbEntity
  8
90-ScaleR0.4
  6
Continuous
 62
     7
370
    15
100
AcDbLine
 10
36.8189987398
 20
17.43194192379999
 30
0.0
 11
36.8189987398
 21
47.43194192379998
 31
0.0
1001
Sigma
1000

  0
LINE
  5
36B
330
1F
100
AcDbEntity
  8
90-ScaleR0.4
  6
Continuous
 62
     7
370
    15
100
AcDbLine
 10
135.8190063753
 20
32.43194192379999
 30
0.0
 11
195.819006375325
 21
32.43194192379999
 31
0.0
1001
Sigma
1000

  0
LINE
  5
36D
330
1F
100
AcDbEntity
  8
90-ScaleR0.4
  6
Continuous
 62
     7
370
    30
100
AcDbLine
 10
150.8190063753
 20
17.43194192379999
 30
0.0
 11
150.8190063753
 21
37.43194192379999
 31
0.0
1001
Sigma
1000

  0
LINE
  5
36F
330
1F
100
AcDbEntity
  8
90-ScaleR0.4
  6
Continuous
 62
     7
370
    30
100
AcDbLine
 10
165.8190063753249
 20
17.43194192379999
 30
0.0
 11
165.8190063753249
 21
37.43194192379999
 31
0.0
1001
Sigma
1000

  0
LINE
  5
371
330
1F
100
AcDbEntity
  8
90-ScaleR0.4
  6
Continuous
 62
     7
370
    30
100
AcDbLine
 10
180.819006375325
 20
37.43194192379999
 30
0.0
 11
180.819006375325
 21
17.43194192379999
 31
0.0
1001
Sigma
1000

  0
LINE
  5
373
330
1F
100
AcDbEntity
  8
90-ScaleR0.4
  6
Continuous
 62
     7
370
    15
100
AcDbLine
 10
54.81899953979999
 20
17.43194192379999
 30
0.0
 11
54.81899953979999
 21
47.43194192379998
 31
0.0
1001
Sigma
1000

  0
LINE
  5
375
330
1F
100
AcDbEntity
  8
90-ScaleR0.4
  6
Continuous
 62
     7
370
    15
100
AcDbLine
 10
28.8189987163
 20
22.43194192379998
 30
0.0
 11
135.8190063753
 21
22.43194192379998
 31
0.0
1001
Sigma
1000

  0
TEXT
  5
377
330
1F
100
AcDbEntity
  8
90-ScaleR0.4
  6
Continuous
 62
     7
370
    30
100
AcDbText
 10
196.84238913154
 20
33.36923774954999
 30
0.0
 40
3.6
  1
仕
 41
0.95
  7
KCADTEXTSTANDARD
100
AcDbText
1001
Sigma
1000

  0
LINE
  5
379
330
1F
100
AcDbEntity
  8
90-ScaleR0.4
  6
Continuous
 62
     7
370
    15
100
AcDbLine
 10
28.8189987163
 20
27.43194192379998
 30
0.0
 11
135.8190063753
 21
27.43194192379998
 31
0.0
1001
Sigma
1000

  0
TEXT
  5
37B
330
1F
100
AcDbEntity
  8
90-ScaleR0.4
  6
Continuous
 62
     7
370
    30
100
AcDbText
 10
196.84238913154
 20
28.36923774954999
 30
0.0
 40
3.6
  1
上
 41
0.95
  7
KCADTEXTSTANDARD
100
AcDbText
1001
Sigma
1000

  0
LINE
  5
37D
330
1F
100
AcDbEntity
  8
90-ScaleR0.4
  6
Continuous
 62
     7
370
    15
100
AcDbLine
 10
245.8190065201555
 20
37.43194192379999
 30
0.0
 11
245.8190065201555
 21
47.43194192379998
 31
0.0
1001
Sigma
1000

  0
TEXT
  5
37F
330
1F
100
AcDbEntity
  8
90-ScaleR0.4
  6
Continuous
 62
     7
370
    30
100
AcDbText
 10
236.9367443093575
 20
42.93684210524999
 30
0.0
 40
3.6
  1
表面
 41
1.02125000283122
  7
KCADTEXTSTANDARD
100
AcDbText
1001
Sigma
1000

  0
LINE
  5
381
330
1F
100
AcDbEntity
  8
90-ScaleR0.4
  6
Continuous
 62
     7
370
    15
100
AcDbLine
 10
28.8189987163
 20
32.43194192379999
 30
0.0
 11
135.8190063753
 21
32.43194192379999
 31
0.0
1001
Sigma
1000

  0
LINE
  5
383
330
1F
100
AcDbEntity
  8
90-ScaleR0.4
  6
Continuous
 62
     7
370
    15
100
AcDbLine
 10
28.8189987163
 20
37.43194192379999
 30
0.0
 11
135.8190063753
 21
37.43194192379999
 31
0.0
1001
Sigma
1000

  0
LINE
  5
385
330
1F
100
AcDbEntity
  8
90-ScaleR0.4
  6
Continuous
 62
     7
370
    15
100
AcDbLine
 10
66.81899986114999
 20
17.43194192379999
 30
0.0
 11
66.81899986114999
 21
47.43194192379998
 31
0.0
1001
Sigma
1000

  0
LINE
  5
387
330
1F
100
AcDbEntity
  8
90-ScaleR0.4
  6
Continuous
 62
     7
370
    15
100
AcDbLine
 10
28.8189987163
 20
42.43194192379998
 30
0.0
 11
135.8190063753
 21
42.43194192379998
 31
0.0
1001
Sigma
1000

  0
LINE
  5
38B
330
1F
100
AcDbEntity
  8
90-ScaleR0.4
  6
Continuous
 62
     7
370
    15
100
AcDbLine
 10
212.0
 20
285.931941923775
 30
0.0
 11
212.0
 21
288.431941923775
 31
0.0
1001
Sigma
1000

  0
LINE
  5
38D
330
1F
100
AcDbEntity
  8
90-ScaleR0.4
  6
Continuous
 62
     7
370
    15
100
AcDbLine
 10
29.3189987163
 20
148.5
 30
0.0
 11
26.8189987163
 21
148.5
 31
0.0
1001
Sigma
1000

  0
LINE
  5
38F
330
1F
100
AcDbEntity
  8
90-ScaleR0.4
  6
Continuous
 62
     7
370
    15
100
AcDbLine
 10
410.8190067612301
 20
148.5
 30
0.0
 11
413.31900676123
 21
148.5
 31
0.0
1001
Sigma
1000

  0
LINE
  5
391
330
1F
100
AcDbEntity
  8
0
  6
CENTER
 62
     7
370
    15
100
AcDbLine
 10
71.06539196940727
 20
148.4999999999996
 30
0.0
 11
255.5239887111947
 21
148.4999999999996
 31
0.0
1001
Sigma
1000

  0
LINE
  5
393
330
1F
100
AcDbEntity
  8
0
  6
CENTER
 62
     7
370
    15
100
AcDbLine
 10
253.0999999999998
 20
148.5000000000001
 30
0.0
 11
294.388805268109
 21
148.5000000000001
 31
0.0
1001
Sigma
1000

  0
LINE
  5
396
330
1F
100
AcDbEntity
  8
2
  6
Continuous
 62
     7
370
    30
100
AcDbLine
 10
153.9351834430854
 20
158.2000000000003
 30
0.0
 11
153.9351834430854
 21
148.5000000000003
 31
0.0
1001
Sigma
1000

  0
LINE
  5
398
330
1F
100
AcDbEntity
  8
2
  6
Continuous
 62
     7
370
    30
100
AcDbLine
 10
158.9351834430854
 20
148.5000000000003
 30
0.0
 11
158.9351834430854
 21
158.5000000000003
 31
0.0
1001
Sigma
1000

  0
LINE
  5
39A
330
1F
100
AcDbEntity
  8
2
  6
Continuous
 62
     7
370
    30
100
AcDbLine
 10
153.9351834430854
 20
138.7999999999998
 30
0.0
 11
153.9351834430854
 21
148.4999999999998
 31
0.0
1001
Sigma
1000

  0
LINE
  5
39C
330
1F
100
AcDbEntity
  8
2
  6
Continuous
 62
     7
370
    30
100
AcDbLine
 10
158.9351834430854
 20
148.4999999999998
 30
0.0
 11
158.9351834430854
 21
138.4999999999998
 31
0.0
1001
Sigma
1000

  0
LINE
  5
39E
330
1F
100
AcDbEntity
  8
2
  6
Continuous
 62
     7
370
    30
100
AcDbLine
 10
190.9351834430854
 20
148.5000000000002
 30
0.0
 11
190.9351834430854
 21
158.5000000000003
 31
0.0
1001
Sigma
1000

  0
LINE
  5
3A0
330
1F
100
AcDbEntity
  8
2
  6
Continuous
 62
     7
370
    30
100
AcDbLine
 10
190.9351834430854
 20
148.4999999999999
 30
0.0
 11
190.9351834430854
 21
138.4999999999998
 31
0.0
1001
Sigma
1000

  0
LINE
  5
3A3
330
1F
100
AcDbEntity
  8
3
  6
Continuous
 62
     7
370
    30
100
AcDbLine
 10
82.56871134484875
 20
149.4335279017636
 30
0.0
 11
80.59317042292965
 21
147.4579869798445
 31
0.0
1001
Sigma
1000

  0
LINE
  5
3A5
330
1F
100
AcDbEntity
  8
3
  6
Continuous
 62
     7
370
    30
100
AcDbLine
 10
80.70165554132211
 20
149.4335279017636
 30
0.0
 11
82.67719646324122
 21
147.4579869798445
 31
0.0
1001
Sigma
1000

  0
LINE
  5
3A7
330
1F
100
AcDbEntity
  8
2
  6
Continuous
 62
     7
370
    30
100
AcDbLine
 10
257.4351834430853
 20
158.5000000000003
 30
0.0
 11
154.2351834430854
 21
158.5000000000003
 31
0.0
1001
Sigma
1000

  0
LINE
  5
3A9
330
1F
100
AcDbEntity
  8
2
  6
Continuous
 62
     7
370
    30
100
AcDbLine
 10
257.4351834430852
 20
138.4999999999998
 30
0.0
 11
154.2351834430854
 21
138.4999999999998
 31
0.0
1001
Sigma
1000

  0
LINE
  5
3AB
330
1F
100
AcDbEntity
  8
2
  6
Continuous
 62
     7
370
    30
100
AcDbLine
 10
257.4351834430852
 20
162.0
 30
0.0
 11
257.4351834430852
 21
148.5000000000001
 31
0.0
1001
Sigma
1000

  0
LINE
  5
3AD
330
1F
100
AcDbEntity
  8
2
  6
Continuous
 62
     7
370
    30
100
AcDbLine
 10
257.4351834430852
 20
135.0
 30
0.0
 11
257.4351834430852
 21
148.5000000000001
 31
0.0
1001
Sigma
1000

  0
LINE
  5
3AF
330
1F
100
AcDbEntity
  8
2
  6
Continuous
 62
     7
370
    30
100
AcDbLine
 10
257.9351834430852
 20
162.5
 30
0.0
 11
268.4351834430852
 21
162.5
 31
0.0
1001
Sigma
1000

  0
LINE
  5
3B1
330
1F
100
AcDbEntity
  8
2
  6
Continuous
 62
     7
370
    30
100
AcDbLine
 10
257.9351834430852
 20
134.5
 30
0.0
 11
268.4351834430852
 21
134.5
 31
0.0
1001
Sigma
1000

  0
LINE
  5
3B3
330
1F
100
AcDbEntity
  8
2
  6
Continuous
 62
     7
370
    30
100
AcDbLine
 10
269.4351834430853
 20
135.5
 30
0.0
 11
269.4351834430853
 21
161.5
 31
0.0
1001
Sigma
1000

  0
LINE
  5
3B5
330
1F
100
AcDbEntity
  8
3
  6
Continuous
 62
     7
370
    30
100
AcDbLine
 10
287.8947113448485
 20
149.4335279017634
 30
0.0
 11
285.9191704229295
 21
147.4579869798442
 31
0.0
1001
Sigma
1000

  0
LINE
  5
3B7
330
1F
100
AcDbEntity
  8
3
  6
Continuous
 62
     7
370
    30
100
AcDbLine
 10
286.027655541322
 20
149.4335279017634
 30
0.0
 11
288.0031964632411
 21
147.4579869798443
 31
0.0
1001
Sigma
1000

  0
LINE
  5
3B9
330
1F
100
AcDbEntity
  8
2
  6
Continuous
 62
     7
370
    30
100
AcDbLine
 10
229.9351834430854
 20
158.5000000000009
 30
0.0
 11
229.9351834430854
 21
138.5000000000005
 31
0.0
1001
Sigma
1000

  0
LINE
  5
3BB
330
1F
100
AcDbEntity
  8
2
  6
Continuous
 62
     7
370
    30
100
AcDbLine
 10
270.2351834430853
 20
161.1500000000001
 30
0.0
 11
272.916442074818
 21
161.1500000000001
 31
0.0
1001
Sigma
1000

  0
LINE
  5
3BD
330
1F
100
AcDbEntity
  8
2
  6
Continuous
 62
     7
370
    30
100
AcDbLine
 10
273.4351834430853
 20
148.5000000000001
 30
0.0
 11
273.4351834430853
 21
160.6312586317328
 31
0.0
1001
Sigma
1000

  0
LINE
  5
3BF
330
1F
100
AcDbEntity
  8
2
  6
Continuous
 62
     7
370
    30
100
AcDbLine
 10
272.1518579492002
 20
160.6312586317328
 30
0.0
 11
273.4351834430853
 21
160.6312586317328
 31
0.0
1001
Sigma
1000

  0
LINE
  5
3C1
330
1F
100
AcDbEntity
  8
2
  6
Continuous
 62
     7
370
    30
100
AcDbLine
 10
270.2351834430853
 20
148.5000000000001
 30
0.0
 11
270.2351834430853
 21
161.1500000000001
 31
0.0
1001
Sigma
1000

  0
LINE
  5
3C3
330
1F
100
AcDbEntity
  8
2
  6
Continuous
 62
     7
370
    30
100
AcDbLine
 10
272.1518579492002
 20
160.6312586317328
 30
0.0
 11
269.4351834430853
 21
160.6312586317328
 31
0.0
1001
Sigma
1000

  0
LINE
  5
3C5
330
1F
100
AcDbEntity
  8
2
  6
Continuous
 62
     7
370
    30
100
AcDbLine
 10
268.4351834430852
 20
162.5
 30
0.0
 11
269.4351834430853
 21
161.5
 31
0.0
1001
Sigma
1000

  0
LINE
  5
3C7
330
1F
100
AcDbEntity
  8
2
  6
Continuous
 62
     7
370
    30
100
AcDbLine
 10
268.4351834430852
 20
162.5
 30
0.0
 11
268.4351834430852
 21
134.5
 31
0.0
1001
Sigma
1000

  0
LINE
  5
3C9
330
1F
100
AcDbEntity
  8
2
  6
Continuous
 62
     7
370
    30
100
AcDbLine
 10
269.4351834430853
 20
135.5
 30
0.0
 11
268.4351834430852
 21
134.5
 31
0.0
1001
Sigma
1000

  0
LINE
  5
3CB
330
1F
100
AcDbEntity
  8
2
  6
Continuous
 62
     7
370
    30
100
AcDbLine
 10
257.4351834430852
 20
162.0
 30
0.0
 11
257.9351834430852
 21
162.5
 31
0.0
1001
Sigma
1000

  0
LINE
  5
3CD
330
1F
100
AcDbEntity
  8
2
  6
Continuous
 62
     7
370
    30
100
AcDbLine
 10
257.9351834430852
 20
162.5
 30
0.0
 11
257.9351834430852
 21
134.5
 31
0.0
1001
Sigma
1000

  0
LINE
  5
3CF
330
1F
100
AcDbEntity
  8
2
  6
Continuous
 62
     7
370
    30
100
AcDbLine
 10
257.4351834430852
 20
135.0
 30
0.0
 11
257.9351834430852
 21
134.5
 31
0.0
1001
Sigma
1000

  0
LINE
  5
3D1
330
1F
100
AcDbEntity
  8
2
  6
Continuous
 62
     7
370
    30
100
AcDbLine
 10
273.4351834430853
 20
160.6312586317328
 30
0.0
 11
272.916442074818
 21
161.1500000000001
 31
0.0
1001
Sigma
1000

  0
LINE
  5
3D3
330
1F
100
AcDbEntity
  8
2
  6
Continuous
 62
     7
370
    30
100
AcDbLine
 10
272.916442074818
 20
161.1500000000001
 30
0.0
 11
272.916442074818
 21
148.5000000000001
 31
0.0
1001
Sigma
1000

  0
LINE
  5
3D5
330
1F
100
AcDbEntity
  8
2
  6
Continuous
 62
     7
370
    30
100
AcDbLine
 10
270.2351834430853
 20
135.85
 30
0.0
 11
272.916442074818
 21
135.85
 31
0.0
1001
Sigma
1000

  0
LINE
  5
3D7
330
1F
100
AcDbEntity
  8
2
  6
Continuous
 62
     7
370
    30
100
AcDbLine
 10
273.4351834430853
 20
148.5000000000001
 30
0.0
 11
273.4351834430853
 21
136.3687413682673
 31
0.0
1001
Sigma
1000

  0
LINE
  5
3D9
330
1F
100
AcDbEntity
  8
2
  6
Continuous
 62
     7
370
    30
100
AcDbLine
 10
273.4351834430853
 20
136.3687413682673
 30
0.0
 11
269.4351834430853
 21
136.3687413682673
 31
0.0
1001
Sigma
1000

  0
LINE
  5
3DB
330
1F
100
AcDbEntity
  8
2
  6
Continuous
 62
     7
370
    30
100
AcDbLine
 10
270.2351834430853
 20
148.5000000000001
 30
0.0
 11
270.2351834430853
 21
135.85
 31
0.0
1001
Sigma
1000

  0
LINE
  5
3DD
330
1F
100
AcDbEntity
  8
2
  6
Continuous
 62
     7
370
    30
100
AcDbLine
 10
273.4351834430853
 20
136.3687413682673
 30
0.0
 11
272.916442074818
 21
135.85
 31
0.0
1001
Sigma
1000

  0
LINE
  5
3DF
330
1F
100
AcDbEntity
  8
2
  6
Continuous
 62
     7
370
    30
100
AcDbLine
 10
272.916442074818
 20
135.85
 30
0.0
 11
272.916442074818
 21
148.5000000000001
 31
0.0
1001
Sigma
1000

  0
LINE
  5
3E1
330
1F
100
AcDbEntity
  8
2
  6
Continuous
 62
     7
370
    30
100
AcDbLine
 10
153.9351834430854
 20
158.2000000000003
 30
0.0
 11
154.2351834430854
 21
158.5000000000003
 31
0.0
1001
Sigma
1000

  0
LINE
  5
3E3
330
1F
100
AcDbEntity
  8
2
  6
Continuous
 62
     7
370
    30
100
AcDbLine
 10
153.9351834430854
 20
138.7999999999998
 30
0.0
 11
154.2351834430854
 21
138.4999999999998
 31
0.0
1001
Sigma
1000

  0
LINE
  5
3E7
102
{ACAD_REACTORS
330
3E5
102
}
330
1F
100
AcDbEntity
  8
4
  6
Continuous
 62
     7
370
    15
100
AcDbLine
 10
271.5219190968954
 20
135.413816526891
 30
0.0
 11
261.1598048703867
 21
115.6106648940074
 31
0.0
1001
Sigma
1000

  0
INSERT
  5
3E9
102
{ACAD_REACTORS
330
3E5
102
}
330
1F
100
AcDbEntity
  8
4
  6
Continuous
 62
     7
370
    15
100
AcDbBlockReference
  2
_OPEN30
 10
271.5219190968954
 20
135.413816526891
 30
0.0
 41
3.0
 42
3.0
 43
3.0
 50
62.37892501692484
1001
Sigma
1000
_BRRS
  0
LINE
  5
3EB
330
1F
100
AcDbEntity
  8
4
  6
Continuous
 62
     7
370
    15
100
AcDbLine
 10
261.1598048703866
 20
115.6106648940074
 30
0.0
 11
316.2926152398869
 21
115.6106648940074
 31
0.0
1001
Sigma
1000

  0
TEXT
  5
3ED
330
1F
100
AcDbEntity
  8
4
  6
Continuous
 62
     7
370
    30
100
AcDbText
 10
267.3951552210723
 20
116.6680498288666
 30
0.0
 40
4.5
  1
Ｍ２５．４　３２山
 41
1.027206374804178
  7
KCADTEXTSTANDARD
100
AcDbText
1001
Sigma
1000

  0
TEXT
  5
3EF
330
1F
100
AcDbEntity
  8
0
  6
Continuous
 62
     7
370
    30
100
AcDbText
 10
311.9697709633156
 20
22.1418545525032
 30
0.0
 40
4.5
  1
ＫＣＭ－３
 41
1.01948573732376
  7
KCADTEXTSTANDARD
100
AcDbText
1001
Sigma
1000

  0
TEXT
  5
3F1
330
1F
100
AcDbEntity
  8
0
  6
Continuous
 62
     7
370
    30
100
AcDbText
 10
367.3256017428714
 20
22.29872367887415
 30
0.0
 40
4.5
  1
TSTM-063
 41
1.026000025197863
  7
KCADTEXTSTANDARD
100
AcDbText
1001
Sigma
1000

  0
TEXT
  5
3F3
330
1F
100
AcDbEntity
  8
0
  6
Continuous
 62
     7
370
    30
100
AcDbText
 10
316.0835926704377
 20
37.31791641617381
 30
0.0
 40
4.5
  1
外 観 図
 41
0.8121143029928207
  7
KCADTEXTSTANDARD
100
AcDbText
1001
Sigma
1000

  0
CIRCLE
  5
3F5
330
1F
100
AcDbEntity
  8
2
  6
Continuous
 62
     7
370
    15
100
AcDbCircle
 10
261.4351834430852
 20
148.5000000000001
 30
0.0
 40
1.5
1001
Sigma
1000

  0
CIRCLE
  5
3F7
330
1F
100
AcDbEntity
  8
2
  6
Continuous
 62
     7
370
    15
100
AcDbCircle
 10
261.4351834430852
 20
148.5000000000001
 30
0.0
 40
1.0
1001
Sigma
1000

  0
LINE
  5
3FA
102
{ACAD_REACTORS
330
3F9
102
}
330
1F
100
AcDbEntity
  8
90-ScaleR0.4
  6
Continuous
 62
     7
370
    15
100
AcDbLine
 10
33.1352874227
 20
46.8197959774
 30
0.0
 11
35.1352874227
 21
43.35569436225
 31
0.0
1001
Sigma
1000

  0
LINE
  5
3FC
102
{ACAD_REACTORS
330
3F9
102
}
330
1F
100
AcDbEntity
  8
90-ScaleR0.4
  6
Continuous
 62
     7
370
    15
100
AcDbLine
 10
35.1352874227
 20
43.35569436225
 30
0.0
 11
31.1352874227
 21
43.35569436225
 31
0.0
1001
Sigma
1000

  0
LINE
  5
3FE
102
{ACAD_REACTORS
330
3F9
102
}
330
1F
100
AcDbEntity
  8
90-ScaleR0.4
  6
Continuous
 62
     7
370
    15
100
AcDbLine
 10
31.1352874227
 20
43.35569436225
 30
0.0
 11
33.1352874227
 21
46.8197959774
 31
0.0
1001
Sigma
1000

  0
LINE
  5
401
102
{ACAD_REACTORS
330
400
102
}
330
1F
100
AcDbEntity
  8
90-ScaleR0.4
  6
Continuous
 62
     7
370
    15
100
AcDbLine
 10
33.1352874227
 20
41.96861630409998
 30
0.0
 11
35.1352874227
 21
38.50451468894999
 31
0.0
1001
Sigma
1000

  0
LINE
  5
403
102
{ACAD_REACTORS
330
400
102
}
330
1F
100
AcDbEntity
  8
90-ScaleR0.4
  6
Continuous
 62
     7
370
    15
100
AcDbLine
 10
35.1352874227
 20
38.50451468894999
 30
0.0
 11
31.1352874227
 21
38.50451468894999
 31
0.0
1001
Sigma
1000

  0
LINE
  5
405
102
{ACAD_REACTORS
330
400
102
}
330
1F
100
AcDbEntity
  8
90-ScaleR0.4
  6
Continuous
 62
     7
370
    15
100
AcDbLine
 10
31.1352874227
 20
38.50451468894999
 30
0.0
 11
33.1352874227
 21
41.96861630409998
 31
0.0
1001
Sigma
1000

  0
LINE
  5
408
102
{ACAD_REACTORS
330
407
102
}
330
1F
100
AcDbEntity
  8
90-ScaleR0.4
  6
Continuous
 62
     7
370
    15
100
AcDbLine
 10
30.86536454349999
 20
23.41195570529998
 30
0.0
 11
32.86536454349996
 21
26.87605732039997
 31
0.0
1001
Sigma
1000

  0
LINE
  5
40A
102
{ACAD_REACTORS
330
407
102
}
330
1F
100
AcDbEntity
  8
90-ScaleR0.4
  6
Continuous
 62
     7
370
    15
100
AcDbLine
 10
34.86536454349999
 20
23.41195570529998
 30
0.0
 11
30.86536454349999
 21
23.41195570529998
 31
0.0
1001
Sigma
1000

  0
LINE
  5
40C
102
{ACAD_REACTORS
330
407
102
}
330
1F
100
AcDbEntity
  8
90-ScaleR0.4
  6
Continuous
 62
     7
370
    15
100
AcDbLine
 10
32.86536454349996
 20
26.87605732039997
 30
0.0
 11
34.86536454349999
 21
23.41195570529998
 31
0.0
1001
Sigma
1000

  0
LINE
  5
40F
102
{ACAD_REACTORS
330
40E
102
}
330
1F
100
AcDbEntity
  8
90-ScaleR0.4
  6
Continuous
 62
     7
370
    15
100
AcDbLine
 10
33.1352874227
 20
31.72723699375
 30
0.0
 11
35.1352874227
 21
28.26313537859998
 31
0.0
1001
Sigma
1000

  0
LINE
  5
411
102
{ACAD_REACTORS
330
40E
102
}
330
1F
100
AcDbEntity
  8
90-ScaleR0.4
  6
Continuous
 62
     7
370
    15
100
AcDbLine
 10
35.1352874227
 20
28.26313537859998
 30
0.0
 11
31.1352874227
 21
28.26313537859998
 31
0.0
1001
Sigma
1000

  0
LINE
  5
413
102
{ACAD_REACTORS
330
40E
102
}
330
1F
100
AcDbEntity
  8
90-ScaleR0.4
  6
Continuous
 62
     7
370
    15
100
AcDbLine
 10
31.1352874227
 20
28.26313537859998
 30
0.0
 11
33.1352874227
 21
31.72723699375
 31
0.0
1001
Sigma
1000

  0
LINE
  5
416
102
{ACAD_REACTORS
330
415
102
}
330
1F
100
AcDbEntity
  8
90-ScaleR0.4
  6
Continuous
 62
     7
370
    15
100
AcDbLine
 10
33.1352874227
 20
36.57841666704999
 30
0.0
 11
35.1352874227
 21
33.11431505189999
 31
0.0
1001
Sigma
1000

  0
LINE
  5
418
102
{ACAD_REACTORS
330
415
102
}
330
1F
100
AcDbEntity
  8
90-ScaleR0.4
  6
Continuous
 62
     7
370
    15
100
AcDbLine
 10
35.1352874227
 20
33.11431505189999
 30
0.0
 11
31.1352874227
 21
33.11431505189999
 31
0.0
1001
Sigma
1000

  0
LINE
  5
41A
102
{ACAD_REACTORS
330
415
102
}
330
1F
100
AcDbEntity
  8
90-ScaleR0.4
  6
Continuous
 62
     7
370
    15
100
AcDbLine
 10
31.1352874227
 20
33.11431505189999
 30
0.0
 11
33.1352874227
 21
36.57841666704999
 31
0.0
1001
Sigma
1000

  0
DIMENSION
  5
41C
330
1F
100
AcDbEntity
  8
KCAD_DIMS
 62
     7
100
AcDbDimension
  2
*D38
 10
273.4351834430853
 20
180.156590890895
 30
0.0
 11
277.9730723809123
 21
182.302271021657
 31
0.0
 70
    32
 71
     5
 42
-1.0
  3
Standard
100
AcDbAlignedDimension
 13
269.4351834430853
 23
135.5
 33
0.0
 14
273.4351834430853
 24
148.5000000000001
 34
0.0
100
AcDbRotatedDimension
1001
Sigma
1000
DIM_TPHO
1001
KCAD_DIM_EXT
1002
{
1071
 20001212
1070
     0
1070
     1
1070
     1
1040
3.0
1040
5.0
1040
5.0
1040
0.0
1040
0.0
1040
0.0
1040
0.0
1040
0.0
1070
     1
1040
50.0
1040
5.362925784520929
1013
0.9999973496751962
1023
0.0023023124425195
1033
0.0
1040
2.3499547336026
1013
1.0
1023
0.0
1033
0.0
1000
_NONE
1040
0.0
1040
3.999999999999985
1070
     0
1070
     0
1070
     0
1012
1.0
1022
0.0
1032
0.0
1013
1.0
1023
0.0
1033
0.0
1002
}
1001
ACAD
1000
DSTYLE
1002
{
1070
    41
1040
3.0
1070
    42
1040
1.0
1070
    43
1040
8.0
1070
    44
1040
1.0
1070
    45
1040
0.0
1070
    73
1070
     0
1070
    74
1070
     0
1070
    77
1070
     1
1070
    78
1070
     8
1070
    79
1070
     2
1070
   140
1040
3.2
1070
   141
1040
2.5
1070
   145
1040
0.0001
1070
   146
1040
0.667
1070
   147
1040
0.5333000000000001
1070
   172
1070
     1
1070
   173
1070
     1
1070
   179
1070
     3
1070
   271
1070
     3
1070
   272
1070
     3
1070
   279
1070
     2
1070
   284
1070
     8
1070
   289
1070
     2
1070
   340
1005
189
1070
   341
1005
21
1070
   343
1005
12D
1070
   344
1005
12D
1002
}
  0
DIMENSION
  5
466
330
1F
100
AcDbEntity
  8
KCAD_DIMS
 62
     7
100
AcDbDimension
  2
*D39
 10
153.9351834430854
 20
194.2208622725726
 30
0.0
 11
211.6851834430853
 21
196.3541952725726
 31
0.0
 70
    32
 71
     5
 42
-1.0
  3
Standard
100
AcDbAlignedDimension
 13
269.4351834430853
 23
194.2208622725726
 33
0.0
 14
153.9351834430854
 24
180.156590890895
 34
0.0
100
AcDbRotatedDimension
1001
Sigma
1000
DIM_TPHO
1001
KCAD_DIM_EXT
1002
{
1071
 20001212
1070
     0
1070
     2
1070
     2
1040
3.0
1040
0.0
1040
0.0
1040
0.0
1040
0.0
1040
0.0
1040
0.0
1040
0.0
1070
     0
1040
50.0
1040
-1.0
1013
1.0
1023
0.0
1033
0.0
1040
0.0
1013
1.0
1023
0.0
1033
0.0
1000
_None
1040
1.0
1040
115.4999999999998
1070
     0
1070
     0
1070
     0
1012
1.0
1022
0.0
1032
0.0
1013
1.0
1023
0.0
1033
0.0
1002
}
1001
ACAD
1000
DSTYLE
1002
{
1070
    41
1040
3.0
1070
    42
1040
1.0
1070
    43
1040
8.0
1070
    44
1040
1.0
1070
    45
1040
0.0
1070
    73
1070
     0
1070
    74
1070
     0
1070
    75
1070
     1
1070
    77
1070
     1
1070
    78
1070
     8
1070
    79
1070
     2
1070
   140
1040
3.2
1070
   141
1040
2.5
1070
   145
1040
0.0001
1070
   146
1040
0.667
1070
   147
1040
0.5333000000000001
1070
   172
1070
     1
1070
   173
1070
     1
1070
   179
1070
     3
1070
   271
1070
     3
1070
   272
1070
     3
1070
   279
1070
     2
1070
   284
1070
     8
1070
   289
1070
     2
1070
   340
1005
189
1070
   341
1005
21
1070
   343
1005
12D
1070
   344
1005
12D
1002
}
  0
DIMENSION
  5
49C
330
1F
100
AcDbEntity
  8
KCAD_DIMS
 62
     7
100
AcDbDimension
  2
*D40
 10
81.63518344308474
 20
213.6662234042553
 30
0.0
 11
184.298183443085
 21
215.7995564042553
 31
0.0
 70
    32
 71
     5
 42
-1.0
  3
Standard
100
AcDbAlignedDimension
 13
286.9611834430853
 23
148.5000000000001
 33
0.0
 14
81.63518344308474
 24
148.4999999999996
 34
0.0
100
AcDbRotatedDimension
1001
Sigma
1000
DIM_TPHO
1001
KCAD_DIM_EXT
1002
{
1071
 20001212
1070
     0
1070
     2
1070
     2
1040
3.0
1040
0.0
1040
0.0
1040
0.0
1040
0.0
1040
0.0
1040
0.0
1040
0.0
1070
     0
1040
50.0
1040
-1.0
1013
1.0
1023
0.0
1033
0.0
1040
0.0
1013
1.0
1023
0.0
1033
0.0
1000
_None
1040
1.0
1040
205.3260000000005
1070
     0
1070
     0
1070
     0
1012
1.0
1022
0.0
1032
0.0
1013
1.0
1023
0.0
1033
0.0
1002
}
1001
ACAD
1000
DSTYLE
1002
{
1070
    41
1040
3.0
1070
    42
1040
1.0
1070
    43
1040
8.0
1070
    44
1040
1.0
1070
    45
1040
0.0
1070
    73
1070
     0
1070
    74
1070
     0
1070
    77
1070
     1
1070
    78
1070
     8
1070
    79
1070
     2
1070
   140
1040
3.2
1070
   141
1040
2.5
1070
   145
1040
0.0001
1070
   146
1040
0.667
1070
   147
1040
0.5333000000000001
1070
   172
1070
     1
1070
   173
1070
     1
1070
   179
1070
     3
1070
   271
1070
     2
1070
   272
1070
     3
1070
   279
1070
     2
1070
   284
1070
     8
1070
   289
1070
     2
1070
   340
1005
189
1070
   341
1005
21
1070
   343
1005
12D
1070
   344
1005
12D
1002
}
  0
DIMENSION
  5
4D8
330
1F
100
AcDbEntity
  8
KCAD_DIMS
 62
     7
100
AcDbDimension
  2
*D41
 10
153.9351834430854
 20
180.156590890895
 30
0.0
 11
117.7851834430857
 21
182.289923890895
 31
0.0
 70
    32
 71
     5
 42
-1.0
  3
Standard
100
AcDbAlignedDimension
 13
81.6351834430861
 23
148.4999999999996
 33
0.0
 14
153.9351834430854
 24
148.4999999999998
 34
0.0
100
AcDbRotatedDimension
1001
Sigma
1000
DIM_TPHO
1001
KCAD_DIM_EXT
1002
{
1071
 20001212
1070
     0
1070
     2
1070
     2
1040
3.0
1040
0.0
1040
0.0
1040
0.0
1040
0.0
1040
0.0
1040
0.0
1040
0.0
1070
     0
1040
50.0
1040
-1.0
1013
1.0
1023
0.0
1033
0.0
1040
0.0
1013
1.0
1023
0.0
1033
0.0
1000
_None
1040
1.0
1040
72.2999999999993
1070
     0
1070
     0
1070
     0
1012
1.0
1022
0.0
1032
0.0
1013
1.0
1023
0.0
1033
0.0
1002
}
1001
ACAD
1000
DSTYLE
1002
{
1070
     3
1000
WD=<>
1070
    41
1040
3.0
1070
    42
1040
1.0
1070
    43
1040
8.0
1070
    44
1040
1.0
1070
    45
1040
0.0
1070
    73
1070
     0
1070
    74
1070
     0
1070
    77
1070
     1
1070
    78
1070
     8
1070
    79
1070
     2
1070
   140
1040
3.2
1070
   141
1040
2.5
1070
   145
1040
0.0001
1070
   146
1040
0.667
1070
   147
1040
0.5333000000000001
1070
   172
1070
     1
1070
   173
1070
     1
1070
   179
1070
     3
1070
   271
1070
     3
1070
   272
1070
     3
1070
   279
1070
     2
1070
   284
1070
     8
1070
   289
1070
     2
1070
   340
1005
189
1070
   341
1005
21
1070
   343
1005
12D
1070
   344
1005
12D
1002
}
  0
DIMENSION
  5
514
330
1F
100
AcDbEntity
  8
KCAD_DIMS
 62
     7
100
AcDbDimension
  2
*D42
 10
134.1303857008465
 20
138.4999999999998
 30
0.0
 11
131.9970527008465
 21
148.5
 31
0.0
 70
    32
 71
     5
 42
-1.0
 53
90.00000000000007
  3
Standard
100
AcDbAlignedDimension
 13
169.9351834430854
 23
158.5000000000003
 33
0.0
 14
154.2351834430854
 24
138.4999999999998
 34
0.0
 50
90.00000000000007
100
AcDbRotatedDimension
1001
Sigma
1000
DIM_TPVO
1001
KCAD_DIM_EXT
1002
{
1071
 20001212
1070
     0
1070
     2
1070
     2
1040
3.0
1040
0.0
1040
0.0
1040
0.0
1040
0.0
1040
0.0
1040
0.0
1040
0.0
1070
     0
1040
50.0
1040
-1.0
1013
1.0
1023
0.0
1033
0.0
1040
0.0
1013
1.0
1023
0.0
1033
0.0
1000
_None
1040
1.0
1040
20.00000000000045
1070
     0
1070
     0
1070
     0
1012
1.0
1022
0.0
1032
0.0
1013
1.0
1023
0.0
1033
0.0
1002
}
1001
ACAD
1000
DSTYLE
1002
{
1070
     3
1000
%%c<>
1070
    41
1040
3.0
1070
    42
1040
1.0
1070
    43
1040
8.0
1070
    44
1040
1.0
1070
    45
1040
0.0
1070
    73
1070
     0
1070
    74
1070
     0
1070
    77
1070
     1
1070
    78
1070
     8
1070
    79
1070
     2
1070
   140
1040
3.2
1070
   141
1040
2.5
1070
   145
1040
0.0001
1070
   146
1040
0.667
1070
   147
1040
0.5333000000000001
1070
   172
1070
     1
1070
   173
1070
     1
1070
   179
1070
     3
1070
   271
1070
     1
1070
   272
1070
     3
1070
   279
1070
     2
1070
   284
1070
     8
1070
   289
1070
     2
1070
   340
1005
189
1070
   341
1005
21
1070
   343
1005
12D
1070
   344
1005
12D
1002
}
  0
DIMENSION
  5
550
330
1F
100
AcDbEntity
  8
KCAD_DIMS
 62
     7
100
AcDbDimension
  2
*D43
 10
257.4351834430852
 20
180.156590890895
 30
0.0
 11
205.6851834430853
 21
182.289923890895
 31
0.0
 70
    32
 71
     5
 42
-1.0
  3
Standard
100
AcDbAlignedDimension
 13
153.9351834430854
 23
148.5000000000003
 33
0.0
 14
257.4351834430852
 24
148.5000000000001
 34
0.0
100
AcDbRotatedDimension
1001
Sigma
1000
DIM_TPHO
1001
KCAD_DIM_EXT
1002
{
1071
 20001212
1070
     0
1070
     2
1070
     2
1040
3.0
1040
0.0
1040
0.0
1040
0.0
1040
0.0
1040
0.0
1040
0.0
1040
0.0
1070
     0
1040
50.0
1040
-1.0
1013
1.0
1023
0.0
1033
0.0
1040
0.0
1013
1.0
1023
0.0
1033
0.0
1000
_None
1040
1.0
1040
103.4999999999998
1070
     0
1070
     0
1070
     0
1012
1.0
1022
0.0
1032
0.0
1013
1.0
1023
0.0
1033
0.0
1002
}
1001
ACAD
1000
DSTYLE
1002
{
1070
    41
1040
3.0
1070
    42
1040
1.0
1070
    43
1040
8.0
1070
    44
1040
1.0
1070
    45
1040
0.0
1070
    73
1070
     0
1070
    74
1070
     0
1070
    77
1070
     1
1070
    78
1070
     8
1070
    79
1070
     2
1070
   140
1040
3.2
1070
   141
1040
2.5
1070
   145
1040
0.0001
1070
   146
1040
0.667
1070
   147
1040
0.5333000000000001
1070
   172
1070
     1
1070
   173
1070
     1
1070
   179
1070
     3
1070
   271
1070
     3
1070
   272
1070
     3
1070
   279
1070
     2
1070
   284
1070
     8
1070
   289
1070
     2
1070
   340
1005
189
1070
   341
1005
21
1070
   343
1005
12D
1070
   344
1005
12D
1002
}
  0
DIMENSION
  5
58C
330
1F
100
AcDbEntity
  8
KCAD_DIMS
 62
     7
100
AcDbDimension
  2
*D44
 10
269.4351834430853
 20
180.156590890895
 30
0.0
 11
263.4351834430852
 21
182.289923890895
 31
0.0
 70
    32
 71
     5
 42
-1.0
  3
Standard
100
AcDbAlignedDimension
 13
257.4351834430852
 23
148.5000000000001
 33
0.0
 14
269.4351834430853
 24
148.5000000000001
 34
0.0
100
AcDbRotatedDimension
1001
Sigma
1000
DIM_TPHO
1001
KCAD_DIM_EXT
1002
{
1071
 20001212
1070
     0
1070
     2
1070
     2
1040
3.0
1040
0.0
1040
0.0
1040
0.0
1040
0.0
1040
0.0
1040
0.0
1040
0.0
1070
     0
1040
50.0
1040
-1.0
1013
1.0
1023
0.0
1033
0.0
1040
0.0
1013
1.0
1023
0.0
1033
0.0
1000
_None
1040
1.0
1040
12.0
1070
     0
1070
     0
1070
     0
1012
1.0
1022
0.0
1032
0.0
1013
1.0
1023
0.0
1033
0.0
1002
}
1001
ACAD
1000
DSTYLE
1002
{
1070
    41
1040
3.0
1070
    42
1040
1.0
1070
    43
1040
8.0
1070
    44
1040
1.0
1070
    45
1040
0.0
1070
    73
1070
     0
1070
    74
1070
     0
1070
    77
1070
     1
1070
    78
1070
     8
1070
    79
1070
     2
1070
   140
1040
3.2
1070
   141
1040
2.5
1070
   145
1040
0.0001
1070
   146
1040
0.667
1070
   147
1040
0.5333000000000001
1070
   172
1070
     1
1070
   173
1070
     1
1070
   179
1070
     3
1070
   271
1070
     1
1070
   272
1070
     3
1070
   279
1070
     2
1070
   284
1070
     8
1070
   289
1070
     2
1070
   340
1005
189
1070
   341
1005
21
1070
   343
1005
12D
1070
   344
1005
12D
1002
}
  0
DIMENSION
  5
5C8
330
1F
100
AcDbEntity
  8
KCAD_DIMS
 62
     7
100
AcDbDimension
  2
*D49
 10
286.9611834430853
 20
194.2208622725726
 30
0.0
 11
304.909733835288
 21
194.3274008617827
 31
0.0
 70
    32
 71
     5
 42
-1.0
  3
Standard
100
AcDbAlignedDimension
 13
269.4351834430853
 23
148.5000000000001
 33
0.0
 14
286.9611834430853
 24
148.5000000000001
 34
0.0
100
AcDbRotatedDimension
1001
Sigma
1000
DIM_TPHO
1001
KCAD_DIM_EXT
1002
{
1071
 20001212
1070
     0
1070
     2
1070
     2
1040
3.0
1040
0.0
1040
0.0
1040
0.0
1040
0.0
1040
0.0
1040
0.0
1040
0.0
1070
     1
1040
49.99999999999984
1040
24.19596661360399
1013
0.5548389427347326
1023
0.8319577799534085
1033
0.0
1040
39.52493347503599
1013
1.0
1023
0.0
1033
0.0
1000
_NONE
1040
0.0
1040
17.52599999999999
1070
     0
1070
     0
1070
     0
1012
1.0
1022
0.0
1032
0.0
1013
1.0
1023
0.0
1033
0.0
1002
}
1001
ACAD
1000
DSTYLE
1002
{
1070
     3
1000
FB=<>
1070
    41
1040
3.0
1070
    42
1040
1.0
1070
    43
1040
8.0
1070
    44
1040
1.0
1070
    45
1040
0.0
1070
    73
1070
     0
1070
    74
1070
     0
1070
    77
1070
     1
1070
    78
1070
     8
1070
    79
1070
     2
1070
   140
1040
3.2
1070
   141
1040
2.5
1070
   145
1040
0.0001
1070
   146
1040
0.667
1070
   147
1040
0.5333000000000001
1070
   172
1070
     1
1070
   173
1070
     1
1070
   179
1070
     3
1070
   271
1070
     3
1070
   272
1070
     3
1070
   279
1070
     2
1070
   284
1070
     8
1070
   289
1070
     2
1070
   340
1005
189
1070
   341
1005
21
1070
   343
1005
12D
1070
   344
1005
12D
1002
}
  0
DIMENSION
  5
606
330
1F
100
AcDbEntity
  8
KCAD_DIMS
 62
     7
100
AcDbDimension
  2
*D46
 10
273.4417063411851
 20
166.3553664961059
 30
0.0
 11
277.9957666980244
 21
168.4863158266048
 31
0.0
 70
    32
  1
\A1;C1{\H0.667000x;}
 71
     5
 42
-1.0
  3
Standard
100
AcDbAlignedDimension
 13
269.0107616440822
 23
161.924421799003
 33
0.0
 14
273.441706341185
 24
166.3553664961059
 34
0.0
 50
45.00000000000045
100
AcDbRotatedDimension
1001
Sigma
1000
DIM_TPCHO
1001
KCAD_DIM_EXT
1002
{
1071
 20001212
1070
     7
1070
     2
1070
     2
1040
3.0
1040
0.0
1040
0.0
1040
0.0
1040
0.0
1040
0.0
1040
0.0
1040
0.0
1070
     1
1040
57.31170652337424
1040
2.689124578639562
1013
0.7116833795321345
1023
0.7025003681833342
1033
0.0
1040
7.206727188894171
1013
1.0
1023
0.0
1033
0.0
1000
_NONE
1040
0.0
1040
1.000000000000001
1070
     0
1070
     0
1070
     0
1012
1.0
1022
0.0
1032
0.0
1013
1.0
1023
0.0
1033
0.0
1002
}
1001
ACAD
1000
DSTYLE
1002
{
1070
     3
1000
C<>
1070
    41
1040
3.0
1070
    42
1040
1.0
1070
    43
1040
8.0
1070
    44
1040
1.0
1070
    45
1040
0.0
1070
    75
1070
     1
1070
    76
1070
     1
1070
    77
1070
     1
1070
    78
1070
     8
1070
    79
1070
     2
1070
   140
1040
3.2
1070
   141
1040
2.5
1070
   145
1040
0.0001
1070
   146
1040
0.667
1070
   147
1040
0.5333000000000001
1070
   172
1070
     1
1070
   173
1070
     1
1070
   179
1070
     3
1070
   271
1070
     3
1070
   272
1070
     3
1070
   279
1070
     2
1070
   284
1070
     8
1070
   289
1070
     2
1070
   340
1005
189
1070
   341
1005
21
1070
   343
1005
12D
1070
   344
1005
12D
1002
}
  0
DIMENSION
  5
641
330
1F
100
AcDbEntity
  8
KCAD_DIMS
 62
     7
100
AcDbDimension
  2
*D47
 10
252.7949224346305
 20
167.2666681059909
 30
0.0
 11
247.082901106713
 21
169.4370448952783
 31
0.0
 70
    32
  1
\A1;C0.5{\H0.667000x;}
 71
     5
 42
-1.0
  3
Standard
100
AcDbAlignedDimension
 13
257.7483869918534
 23
162.3132035487682
 33
0.0
 14
252.7949224346306
 24
167.266668105991
 34
0.0
 50
315.0000000000004
100
AcDbRotatedDimension
1001
Sigma
1000
DIM_TPCHO
1001
KCAD_DIM_EXT
1002
{
1071
 20001212
1070
     7
1070
     2
1070
     2
1040
3.0
1040
0.0
1040
0.0
1040
0.0
1040
0.0
1040
0.0
1040
0.0
1040
0.0
1070
     1
1040
18.98972821364705
1040
5.727365367842112
1013
-0.7071067811865464
1023
0.7071067811865488
1033
0.0
1040
11.34995507726063
1013
-1.0
1023
0.0
1033
0.0
1000
_NONE
1040
0.0
1040
0.4999999999999993
1070
     0
1070
     0
1070
     0
1012
1.0
1022
0.0
1032
0.0
1013
1.0
1023
0.0
1033
0.0
1002
}
1001
ACAD
1000
DSTYLE
1002
{
1070
     3
1000
C<>
1070
    41
1040
3.0
1070
    42
1040
1.0
1070
    43
1040
8.0
1070
    44
1040
1.0
1070
    45
1040
0.0
1070
    75
1070
     1
1070
    76
1070
     1
1070
    77
1070
     1
1070
    78
1070
     8
1070
    79
1070
     2
1070
   140
1040
3.2
1070
   141
1040
2.5
1070
   145
1040
0.0001
1070
   146
1040
0.667
1070
   147
1040
0.5333000000000001
1070
   172
1070
     1
1070
   173
1070
     1
1070
   179
1070
     3
1070
   271
1070
     3
1070
   272
1070
     3
1070
   279
1070
     2
1070
   284
1070
     8
1070
   289
1070
     2
1070
   340
1005
189
1070
   341
1005
21
1070
   343
1005
12D
1070
   344
1005
12D
1002
}
  0
DIMENSION
  5
67C
330
1F
100
AcDbEntity
  8
KCAD_DIMS
 62
     7
100
AcDbDimension
  2
*D48
 10
311.2342427093132
 20
134.5
 30
0.0
 11
309.1009097093132
 21
148.5000000000002
 31
0.0
 70
    32
 71
     5
 42
-1.0
 53
90.00000000000007
  3
Standard
100
AcDbAlignedDimension
 13
268.4351834430852
 23
162.5
 33
0.0
 14
268.4351834430852
 24
134.5
 34
0.0
 50
90.00000000000007
100
AcDbRotatedDimension
1001
Sigma
1000
DIM_TPVO
1001
KCAD_DIM_EXT
1002
{
1071
 20001212
1070
     0
1070
     2
1070
     2
1040
3.0
1040
0.0
1040
0.0
1040
0.0
1040
0.0
1040
0.0
1040
0.0
1040
0.0
1070
     0
1040
50.0
1040
-1.0
1013
1.0
1023
0.0
1033
0.0
1040
0.0
1013
1.0
1023
0.0
1033
0.0
1000
_None
1040
1.0
1040
28.0
1070
     0
1070
     0
1070
     0
1012
1.0
1022
0.0
1032
0.0
1013
1.0
1023
0.0
1033
0.0
1002
}
1001
ACAD
1000
DSTYLE
1002
{
1070
     3
1000
%%c<>
1070
    41
1040
3.0
1070
    42
1040
1.0
1070
    43
1040
8.0
1070
    44
1040
1.0
1070
    45
1040
0.0
1070
    73
1070
     0
1070
    74
1070
     0
1070
    77
1070
     1
1070
    78
1070
     8
1070
    79
1070
     2
1070
   140
1040
3.2
1070
   141
1040
2.5
1070
   145
1040
0.0001
1070
   146
1040
0.667
1070
   147
1040
0.5333000000000001
1070
   172
1070
     1
1070
   173
1070
     1
1070
   179
1070
     3
1070
   271
1070
     3
1070
   272
1070
     3
1070
   279
1070
     2
1070
   284
1070
     8
1070
   289
1070
     2
1070
   340
1005
189
1070
   341
1005
21
1070
   343
1005
12D
1070
   344
1005
12D
1002
}
  0
TEXT
  5
719
330
1F
100
AcDbEntity
  8
99
  6
Continuous
 62
     7
370
    30
100
AcDbText
 10
371.4271476265468
 20
10.54266464886839
 30
0.0
 40
4.0
  1
株式会社トキナー
  7
KCADTEXTSTANDARD
100
AcDbText
1001
Sigma
1000

  0
OLE2FRAME
  5
71F
330
1F
100
AcDbEntity
  8
0
  6
Continuous
 62
   134
370
    15
100
AcDbOle2Frame
 70
     2
 10
204.0958077704043
 20
15.69252257495057
 30
0.0
 11
248.6526147874103
 21
8.546619562789232
 31
0.0
 72
     0
 73
   205
 90
    21632
310
0055DC1275DB10836940104FA65192622F400000000000000000071A6838E214
310
6F40104FA65192622F400000000000000000071A6838E2146F403011F384DE17
310
21400000000000000000DC1275DB108369403011F384DE172140000000000000
310
0000000000000100000000010000010000000100000000000100000000540000
310
D0CF11E0A1B11AE1000000000000000000000000000000003E000300FEFF0900
310
0600000000000000000000000100000001000000000000000010000002000000
310
01000000FEFFFFFF0000000000000000FFFFFFFFFFFFFFFFFFFFFFFFFFFFFFFF
310
FFFFFFFFFFFFFFFFFFFFFFFFFFFFFFFFFFFFFFFFFFFFFFFFFFFFFFFFFFFFFFFF
310
FFFFFFFFFFFFFFFFFFFFFFFFFFFFFFFFFFFFFFFFFFFFFFFFFFFFFFFFFFFFFFFF
310
FFFFFFFFFFFFFFFFFFFFFFFFFFFFFFFFFFFFFFFFFFFFFFFFFFFFFFFFFFFFFFFF
310
FFFFFFFFFFFFFFFFFFFFFFFFFFFFFFFFFFFFFFFFFFFFFFFFFFFFFFFFFFFFFFFF
310
FFFFFFFFFFFFFFFFFFFFFFFFFFFFFFFFFFFFFFFFFFFFFFFFFFFFFFFFFFFFFFFF
310
FFFFFFFFFFFFFFFFFFFFFFFFFFFFFFFFFFFFFFFFFFFFFFFFFFFFFFFFFFFFFFFF
310
FFFFFFFFFFFFFFFFFFFFFFFFFFFFFFFFFFFFFFFFFFFFFFFFFFFFFFFFFFFFFFFF
310
FFFFFFFFFFFFFFFFFFFFFFFFFFFFFFFFFFFFFFFFFFFFFFFFFFFFFFFFFFFFFFFF
310
FFFFFFFFFFFFFFFFFFFFFFFFFFFFFFFFFFFFFFFFFFFFFFFFFFFFFFFFFFFFFFFF
310
FFFFFFFFFFFFFFFFFFFFFFFFFFFFFFFFFFFFFFFFFFFFFFFFFFFFFFFFFFFFFFFF
310
FFFFFFFFFFFFFFFFFFFFFFFFFFFFFFFFFFFFFFFFFFFFFFFFFFFFFFFFFFFFFFFF
310
FFFFFFFFFFFFFFFFFFFFFFFFFFFFFFFFFFFFFFFFFFFFFFFFFFFFFFFFFFFFFFFF
310
FFFFFFFFFFFFFFFFFFFFFFFFFFFFFFFFFFFFFFFFFFFFFFFFFFFFFFFFFFFFFFFF
310
FDFFFFFFFEFFFFFFFEFFFFFF2500000005000000060000000700000008000000
310
090000000A0000000B0000000C0000000D0000000E0000000F00000010000000
310
1100000012000000130000001400000015000000160000001700000018000000
310
190000001A0000001B0000001C0000001D0000001E0000001F00000020000000
310
21000000220000002300000024000000030000002600000027000000FEFFFFFF
310
FEFFFFFFFFFFFFFFFFFFFFFFFFFFFFFFFFFFFFFFFFFFFFFFFFFFFFFFFFFFFFFF
310
FFFFFFFFFFFFFFFFFFFFFFFFFFFFFFFFFFFFFFFFFFFFFFFFFFFFFFFFFFFFFFFF
310
FFFFFFFFFFFFFFFFFFFFFFFFFFFFFFFFFFFFFFFFFFFFFFFFFFFFFFFFFFFFFFFF
310
FFFFFFFFFFFFFFFFFFFFFFFFFFFFFFFFFFFFFFFFFFFFFFFFFFFFFFFFFFFFFFFF
310
FFFFFFFFFFFFFFFFFFFFFFFFFFFFFFFFFFFFFFFFFFFFFFFFFFFFFFFFFFFFFFFF
310
FFFFFFFFFFFFFFFFFFFFFFFFFFFFFFFFFFFFFFFFFFFFFFFFFFFFFFFFFFFFFFFF
310
FFFFFFFFFFFFFFFFFFFFFFFFFFFFFFFFFFFFFFFFFFFFFFFFFFFFFFFFFFFFFFFF
310
FFFFFFFFFFFFFFFFFFFFFFFFFFFFFFFFFFFFFFFFFFFFFFFFFFFFFFFFFFFFFFFF
310
FFFFFFFFFFFFFFFFFFFFFFFFFFFFFFFFFFFFFFFFFFFFFFFFFFFFFFFFFFFFFFFF
310
FFFFFFFFFFFFFFFFFFFFFFFFFFFFFFFFFFFFFFFFFFFFFFFFFFFFFFFFFFFFFFFF
310
FFFFFFFFFFFFFFFFFFFFFFFFFFFFFFFFFFFFFFFFFFFFFFFFFFFFFFFFFFFFFFFF
310
52006F006F007400200045006E00740072007900000000000000000000000000
310
0000000000000000000000000000000000000000000000000000000000000000
310
16000500FFFFFFFFFFFFFFFF020000000A00030000000000C000000000000046
310
0000000000000000000000002072D387039AC80128000000C000000000000000
310
01004F006C006500310030004E00610074006900760065000000000000000000
310
0000000000000000000000000000000000000000000000000000000000000000
310
1A000200FFFFFFFFFFFFFFFFFFFFFFFF00000000000000000000000000000000
310
0000000000000000000000000000000000000000040000000448000000000000
310
010043006F006D0070004F0062006A0000000000000000000000000000000000
310
0000000000000000000000000000000000000000000000000000000000000000
310
120002010300000001000000FFFFFFFF00000000000000000000000000000000
310
0000000000000000000000000000000000000000000000004D00000000000000
310
01004F006C006500000000000000000000000000000000000000000000000000
310
0000000000000000000000000000000000000000000000000000000000000000
310
0A000200FFFFFFFFFFFFFFFFFFFFFFFF00000000000000000000000000000000
310
0000000000000000000000000000000000000000020000001400000000000000
310
01000000FEFFFFFFFEFFFFFFFFFFFFFFFFFFFFFFFFFFFFFFFFFFFFFFFFFFFFFF
310
FFFFFFFFFFFFFFFFFFFFFFFFFFFFFFFFFFFFFFFFFFFFFFFFFFFFFFFFFFFFFFFF
310
FFFFFFFFFFFFFFFFFFFFFFFFFFFFFFFFFFFFFFFFFFFFFFFFFFFFFFFFFFFFFFFF
310
FFFFFFFFFFFFFFFFFFFFFFFFFFFFFFFFFFFFFFFFFFFFFFFFFFFFFFFFFFFFFFFF
310
FFFFFFFFFFFFFFFFFFFFFFFFFFFFFFFFFFFFFFFFFFFFFFFFFFFFFFFFFFFFFFFF
310
FFFFFFFFFFFFFFFFFFFFFFFFFFFFFFFFFFFFFFFFFFFFFFFFFFFFFFFFFFFFFFFF
310
FFFFFFFFFFFFFFFFFFFFFFFFFFFFFFFFFFFFFFFFFFFFFFFFFFFFFFFFFFFFFFFF
310
FFFFFFFFFFFFFFFFFFFFFFFFFFFFFFFFFFFFFFFFFFFFFFFFFFFFFFFFFFFFFFFF
310
FFFFFFFFFFFFFFFFFFFFFFFFFFFFFFFFFFFFFFFFFFFFFFFFFFFFFFFFFFFFFFFF
310
FFFFFFFFFFFFFFFFFFFFFFFFFFFFFFFFFFFFFFFFFFFFFFFFFFFFFFFFFFFFFFFF
310
FFFFFFFFFFFFFFFFFFFFFFFFFFFFFFFFFFFFFFFFFFFFFFFFFFFFFFFFFFFFFFFF
310
FFFFFFFFFFFFFFFFFFFFFFFFFFFFFFFFFFFFFFFFFFFFFFFFFFFFFFFFFFFFFFFF
310
FFFFFFFFFFFFFFFFFFFFFFFFFFFFFFFFFFFFFFFFFFFFFFFFFFFFFFFFFFFFFFFF
310
FFFFFFFFFFFFFFFFFFFFFFFFFFFFFFFFFFFFFFFFFFFFFFFFFFFFFFFFFFFFFFFF
310
FFFFFFFFFFFFFFFFFFFFFFFFFFFFFFFFFFFFFFFFFFFFFFFFFFFFFFFFFFFFFFFF
310
FFFFFFFFFFFFFFFFFFFFFFFFFFFFFFFFFFFFFFFFFFFFFFFFFFFFFFFFFFFFFFFF
310
0000000000000000000000000000000000000000000000000000000000000000
310
0000FFFFFFFFFFFFFFFFFFFFFFFFFFFFFFFFFFFFFFFFFFFFFF00000000000000
310
00000000000000000000000000000001FFFFFFFFC00000000000000000000000
310
0000000000000007FFFFFFFF0000000000000000000000000000000000000000
310
000000000000000000000000000000000000000000000000000000000000FFFF
310
FFFFFFFFFFFFFFFFFFFFFFFFFFFFFFFFFFFFFFFFFF0000000000000000000000
310
000000000000000000000001FFFFFFFFC0000000000000000000000000000000
310
00000007FFFFFFFF000000000000000000000000000000000000000000000000
310
0000000000000000000000000000000000000000000000000000FFFFFFFFFFFF
310
FFFFFFFFFFFFFFFFFFFFFFFFFFFFFFFFFF000000000000000000000000000000
310
0000000000000001FFFFFFFFC000000000000000000000000000000000000007
310
FFFFFFFF00000000000000000000000000000000000000000000000000000000
310
00000000000000000000000000000000000000000000FFFFFFFFFFFFFFFFFFFF
310
FFFFFFFFFFFFFFFFFFFFFFFFFF00000000000000000000000000000000000000
310
00000001FFFFFFFFC000000000000000000000000000000000000007FFFFFFFF
310
0000000000000000000000000000000000000000000000000000000000000000
310
00480000424DF0470000000000003E00000028000000CD030000940000000100
310
01000000000000000000202E0000202E00000000000000000000FFFFFF000000
310
0000000000000000000001FFFFFFFFFE000000000000000000000003FFFFFFFF
310
FFFFFFFFFFFFFFFFFFFF000000000001FFFFFFFFC000000000000000000FFFFF
310
FFFFFFFFFF000007FFFFFFFF00001FFFFFFFFC0000000000000000000000007F
310
FFFFFFF0000000000FFFFFFFFFFFFFFFFFFFFFFFFFFFFFFFFFFFFFF800000000
310
00000000000001FFFFFFFFFE00000000000000000000003FFFFFFFFFFFFFFFFF
310
FFFFFFFFFFFFF80000000001FFFFFFFFC000000000000000003FFFFFFFFFFFFF
310
FE000007FFFFFFFF00001FFFFFFFFC0000000000000000000000007FFFFFFFF0
310
00000000FFFFFFFFFFFFFFFFFFFFFFFFFFFFFFFFFFFFFFF80000000000000000
310
000001FFFFFFFFFE0000000000000000000001FFFFFFFFFFFFFFFFFFFFFFFFFF
310
FFFFFE0000000001FFFFFFFFC000000000000000007FFFFFFFFFFFFFFC000007
310
FFFFFFFF00001FFFFFFFFC0000000000000000000000007FFFFFFFF000000007
310
FFFFFFFFFFFFFFFFFFFFFFFFFFFFFFFFFFFFFFF80000000000000000000001FF
310
FFFFFFFE0000000000000000000007FFFFFFFFFFFFFFFFFFFFFFFFFFFFFFFFC0
310
00000001FFFFFFFFC00000000000000000FFFFFFFFFFFFFFF0000007FFFFFFFF
310
00001FFFFFFFFC0000000000000000000000007FFFFFFFF00000003FFFFFFFFF
310
FFFFFFFFFFFFFFFFFFFFFFFFFFFFFFF80000000000000000000001FFFFFFFFFE
310
000000000000000000001FFFFFFFFFFFFFFFFFFFFFFFFFFFFFFFFFE000000001
310
FFFFFFFFC00000000000000003FFFFFFFFFFFFFFE0000007FFFFFFFF00001FFF
310
FFFFFC0000000000000000000000007FFFFFFFF0000000FFFFFFFFFFFFFFFFFF
310
FFFFFFFFFFFFFFFFFFFFFFF80000000000000000000001FFFFFFFFFE00000000
310
0000000000007FFFFFFFFFFFFFFFFFFFFFFFFFFFFFFFFFF800000001FFFFFFFF
310
C00000000000000007FFFFFFFFFFFFFF80000007FFFFFFFF00001FFFFFFFFC00
310
00000000000000000000007FFFFFFFF0000001FFFFFFFFFFFFFFFFFFFFFFFFFF
310
FFFFFFFFFFFFFFF80000000000000000000001FFFFFFFFFE0000000000000000
310
0001FFFFFFFFFFFFFFFFFFFFFFFFFFFFFFFFFFFE00000001FFFFFFFFC0000000
310
000000000FFFFFFFFFFFFFFF00000007FFFFFFFF00001FFFFFFFFC0000000000
310
000000000000007FFFFFFFF0000007FFFFFFFFFFFFFFFFFFFFFFFFFFFFFFFFFF
310
FFFFFFF80000000000000000000001FFFFFFFFFE00000000000000000003FFFF
310
FFFFFFFFFFFFFFFFFFFFFFFFFFFFFFFF00000001FFFFFFFFC000000000000000
310
3FFFFFFFFFFFFFFC00000007FFFFFFFF00001FFFFFFFFC000000000000000000
310
0000007FFFFFFFF000000FFFFFFFFFFFFFFFFFFFFFFFFFFFFFFFFFFFFFFFFFF8
310
0000000000000000000001FFFFFFFFFE00000000000000000007FFFFFFFFFFFF
310
FFFFFFFFFFFFFFFFFFFFFFFF80000001FFFFFFFFC0000000000000007FFFFFFF
310
FFFFFFF800000007FFFFFFFF00001FFFFFFFFC0000000000000000000000007F
310
FFFFFFF000001FFFFFFFFFFFFFFFFFFFFFFFFFFFFFFFFFFFFFFFFFF800000000
310
00000000000001FFFFFFFFFE0000000000000000000FFFFFFFFFFFFFFFFFFFFF
310
FFFFFFFFFFFFFFFFC0000001FFFFFFFFC000000000000000FFFFFFFFFFFFFFE0
310
00000007FFFFFFFF00001FFFFFFFFC0000000000000000000000007FFFFFFFF0
310
00003FFFFFFFFFFFFFFFFFFFFFFFFFFFFFFFFFFFFFFFFFF80000000000000000
310
000001FFFFFFFFFE0000000000000000001FFFFFFFFFFFFFFFFFFFFFFFFFFFFF
310
FFFFFFFFE0000001FFFFFFFFC000000000000003FFFFFFFFFFFFFFC000000007
310
FFFFFFFF00001FFFFFFFFC0000000000000000000000007FFFFFFFF000007FFF
310
FFFFFFFFFFFFFFFFFFFFFFFFFFFFFFFFFFFFFFF80000000000000000000001FF
310
FFFFFFFE0000000000000000003FFFFFFFFFFFFFFFFFFFFFFFFFFFFFFFFFFFFF
310
F0000001FFFFFFFFC000000000000007FFFFFFFFFFFFFF0000000007FFFFFFFF
310
00001FFFFFFFFC0000000000000000000000007FFFFFFFF00000FFFFFFFFFFFF
310
FFFFFFFFFFFFFFFFFFFFFFFFFFFFFFF80000000000000000000001FFFFFFFFFE
310
0000000000000000007FFFFFFFFFFFFFFFFFFFFFFFFFFFFFFFFFFFFFF8000001
310
FFFFFFFFC00000000000000FFFFFFFFFFFFFFE0000000007FFFFFFFF00001FFF
310
FFFFFC0000000000000000000000007FFFFFFFF00000FFFFFFFFFFFFFFFFFFFF
310
FFFFFFFFFFFFFFFFFFFFFFF80000000000000000000001FFFFFFFFFE00000000
310
0000000000FFFFFFFFFFFFFFFFFFFFFFFFFFFFFFFFFFFFFFFC000001FFFFFFFF
310
C00000000000003FFFFFFFFFFFFFF80000000007FFFFFFFF00001FFFFFFFFC00
310
00000000000000000000007FFFFFFFF00001FFFFFFFFFFFFFFFFFFFFFFFFFFFF
310
FFFFFFFFFFFFFFF80000000000000000000001FFFFFFFFFE0000000000000000
310
01FFFFFFFFFFFFFFFFFFFFFFFFFFFFFFFFFFFFFFFE000001FFFFFFFFC0000000
310
0000007FFFFFFFFFFFFFF00000000007FFFFFFFF00001FFFFFFFFC0000000000
310
000000000000007FFFFFFFF00003FFFFFFFFFFFFFFFFFFFFFFFFFFFFFFFFFFFF
310
FFFFFFF80000000000000000000001FFFFFFFFFE000000000000000003FFFFFF
310
FFFFFFFFFFFFFFFFFFFFFFFFFFFFFFFFFF000001FFFFFFFFC0000000000000FF
310
FFFFFFFFFFFFC00000000007FFFFFFFF00001FFFFFFFFC000000000000000000
310
0000007FFFFFFFF00003FFFFFFFFFFFFFFFFFFFFFFFFFFFFFFFFFFFFFFFFFFF8
310
0000000000000000000001FFFFFFFFFE000000000000000003FFFFFFFFFFFFFF
310
FFFFFFFFFFFFFFFFFFFFFFFFFF000001FFFFFFFFC0000000000003FFFFFFFFFF
310
FFFF800000000007FFFFFFFF00001FFFFFFFFC0000000000000000000000007F
310
FFFFFFF00003FFFFFFFFFFFFFFFFFFFFFFFFFFFFFFFFFFFFFFFFFFF800000000
310
00000000000001FFFFFFFFFE000000000000000007FFFFFFFFFFFFFFFFFFFFFF
310
FFFFFFFFFFFFFFFFFF800001FFFFFFFFC0000000000007FFFFFFFFFFFFFE0000
310
00000007FFFFFFFF00001FFFFFFFFC0000000000000000000000007FFFFFFFF0
310
0007FFFFFFFFFFFFFFFFFFFFFFFFFFFFFFFFFFFFFFFFFFF80000000000000000
310
000001FFFFFFFFFE00000000000000000FFFFFFFFFFFFFFFFFFFFFFFFFFFFFFF
310
FFFFFFFFFFC00001FFFFFFFFC000000000000FFFFFFFFFFFFFFC000000000007
310
FFFFFFFF00001FFFFFFFFC0000000000000000000000007FFFFFFFF00007FFFF
310
FFFFFFFFFFFFFFFFFFFFFFFFFFFFFFFFFFFFFFF80000000000000000000001FF
310
FFFFFFFE00000000000000000FFFFFFFFFFFFFFFFFFFFFFFFFFFFFFFFFFFFFFF
310
FFC00001FFFFFFFFC000000000003FFFFFFFFFFFFFF0000000000007FFFFFFFF
310
00001FFFFFFFFC0000000000000000000000007FFFFFFFF00007FFFFFFFFFFFF
310
FFFFFFFFFFFFFFFFFFFFFFFFFFFFFFF80000000000000000000001FFFFFFFFFE
310
00000000000000001FFFFFFFFFFFFFFFFFFFFFFFFFFFFFFFFFFFFFFFFFE00001
310
FFFFFFFFC000000000007FFFFFFFFFFFFFE0000000000007FFFFFFFF00001FFF
310
FFFFFC0000000000000000000000007FFFFFFFF00007FFFFFFFFFFFFFFFFFFFF
310
FFFFFFFFFFFFFFFFFFFFFFF80000000000000000000001FFFFFFFFFE00000000
310
000000001FFFFFFFFFFFFFFFFFFFFFFFFFFFFFFFFFFFFFFFFFE00001FFFFFFFF
310
C00000000000FFFFFFFFFFFFFF80000000000007FFFFFFFF00001FFFFFFFFC00
310
00000000000000000000007FFFFFFFF00007FFFFFFFFFFFFFFFFFFFFFFFFFFFF
310
FFFFFFFFFFFFFFF80000000000000000000001FFFFFFFFFE0000000000000000
310
3FFFFFFFFFFFFFFFFFFFFFFFFFFFFFFFFFFFFFFFFFE00001FFFFFFFFC0000000
310
0003FFFFFFFFFFFFFF00000000000007FFFFFFFF00001FFFFFFFFC0000000000
310
000000000000007FFFFFFFF00007FFFFFFFFFFFFFFFFFFFFFFFFFFFFFFFFFFFF
310
FFFFFFF80000000000000000000001FFFFFFFFFE00000000000000003FFFFFFF
310
FFFFFFFFFFFFFFFFFFFFFFFFFFFFFFFFFFF00001FFFFFFFFC00000000007FFFF
310
FFFFFFFFFC00000000000007FFFFFFFF00001FFFFFFFFC000000000000000000
310
0000007FFFFFFFF00007FFFFFFFFFFFFFFFFFFFFFFFFFFFFFFFFFFFFFFFFFFF8
310
0000000000000000000001FFFFFFFFFE00000000000000007FFFFFFFFFFFFFFF
310
FFFFFFFFFFFFFFFFFFFFFFFFFFF00001FFFFFFFFC0000000000FFFFFFFFFFFFF
310
F800000000000007FFFFFFFF00001FFFFFFFFC0000000000000000000000007F
310
FFFFFFF00007FFFFFFFFFFFFFFFFFFFFFFFFFFFFFFFFFFFFFFFFFFF800000000
310
00000000000001FFFFFFFFFE00000000000000007FFFFFFFFFFFFFFFFFFFFFFF
310
FFFFFFFFFFFFFFFFFFF80001FFFFFFFFC0000000001FFFFFFFFFFFFFE0000000
310
00000007FFFFFFFF00001FFFFFFFFC0000000000000000000000007FFFFFFFF0
310
0007FFFFFFFFFFFFFFFFFFFFFFFFFFFFFFFFFFFFFFFFFFF80000000000000000
310
000001FFFFFFFFFE00000000000000007FFFFFFFFFFFFFFFFFFFFFFFFFFFFFFF
310
FFFFFFFFFFF80001FFFFFFFFC0000000007FFFFFFFFFFFFFC000000000000007
310
FFFFFFFF00001FFFFFFFFC0000000000000000000000007FFFFFFFF00007FFFF
310
FFFFFF000000000000000000000001FFFFFFFFF80000000000000000000001FF
310
FFFFFFFE00000000000000007FFFFFFFFFFFFFFFFFFFFFFFFFFFFFFFFFFFFFFF
310
FFF80001FFFFFFFFC000000000FFFFFFFFFFFFFF0000000000000007FFFFFFFF
310
00001FFFFFFFFC0000000000000000000000007FFFFFFFF00007FFFFFFFFFE00
310
00000000000000000000007FFFFFFFF80000000000000000000001FFFFFFFFFE
310
0000000000000000FFFFFFFFFFFFFFFFFFFFFFFFFFFFFFFFFFFFFFFFFFF80001
310
FFFFFFFFC000000001FFFFFFFFFFFFFE0000000000000007FFFFFFFF00001FFF
310
FFFFFC0000000000000000000000007FFFFFFFF00007FFFFFFFFFC0000000000
310
000000000000003FFFFFFFF80000000000000000000001FFFFFFFFFE00000000
310
00000000FFFFFFFFFFFFFFFFFFFFFFFFFFFFFFFFFFFFFFFFFFFC0001FFFFFFFF
310
C000000007FFFFFFFFFFFFF80000000000000007FFFFFFFF00001FFFFFFFFC00
310
00000000000000000000007FFFFFFFF00007FFFFFFFFFC000000000000000000
310
0000003FFFFFFFF80000000000000000000001FFFFFFFFFE0000000000000000
310
FFFFFFFFE0000000000000000000000003FFFFFFFFFC0001FFFFFFFFC0000000
310
0FFFFFFFFFFFFFF00000000000000007FFFFFFFF00001FFFFFFFFC0000000000
310
000000000000007FFFFFFFF00007FFFFFFFFF80000000000000000000000003F
310
FFFFFFF80000000000000000000001FFFFFFFFFE0000000000000000FFFFFFFF
310
C0000000000000000000000001FFFFFFFFFC0001FFFFFFFFC00000001FFFFFFF
310
FFFFFFC00000000000000007FFFFFFFF00001FFFFFFFFC000000000000000000
310
0000007FFFFFFFF00007FFFFFFFFF80000000000000000000000003FFFFFFFF8
310
0000000000000000000001FFFFFFFFFE0000000000000000FFFFFFFF80000000
310
000000000000000000FFFFFFFFFC0001FFFFFFFFC00000007FFFFFFFFFFFFF80
310
0000000000000007FFFFFFFF00001FFFFFFFFC0000000000000000000000007F
310
FFFFFFF00007FFFFFFFFF80000000000000000000000003FFFFFFFF800000000
310
00000000000001FFFFFFFFFE0000000000000001FFFFFFFF8000000000000000
310
0000000000FFFFFFFFFC0001FFFFFFFFC0000000FFFFFFFFFFFFFE0000000000
310
00000007FFFFFFFF00001FFFFFFFFC0000000000000000000000007FFFFFFFF0
310
0007FFFFFFFFF80000000000000000000000003FFFFFFFF80000000000000000
310
000001FFFFFFFFFE0000000000000001FFFFFFFF000000000000000000000000
310
00FFFFFFFFFC0001FFFFFFFFC0000001FFFFFFFFFFFFFC000000000000000007
310
FFFFFFFF00001FFFFFFFFC0000000000000000000000007FFFFFFFF00007FFFF
310
FFFFF80000000000000000000000003FFFFFFFF80000000000000000000001FF
310
FFFFFFFE0000000000000001FFFFFFFF00000000000000000000000000FFFFFF
310
FFFC0001FFFFFFFFC0000007FFFFFFFFFFFFF0000000000000000007FFFFFFFF
310
00001FFFFFFFFC0000000000000000000000007FFFFFFFF00007FFFFFFFFF800
310
00000000000000000000003FFFFFFFF80000000000000000000001FFFFFFFFFE
310
0000000000000001FFFFFFFF00000000000000000000000000FFFFFFFFFC0001
310
FFFFFFFFC000000FFFFFFFFFFFFFE0000000000000000007FFFFFFFF00001FFF
310
FFFFFC0000000000000000000000007FFFFFFFF00007FFFFFFFFF80000000000
310
000000000000003FFFFFFFF80000000000000000000001FFFFFFFFFE00000000
310
00000001FFFFFFFF00000000000000000000000000FFFFFFFFFC0001FFFFFFFF
310
C000001FFFFFFFFFFFFF80000000000000000007FFFFFFFF00001FFFFFFFFC00
310
00000000000000000000007FFFFFFFF00007FFFFFFFFF8000000000000000000
310
0000003FFFFFFFF80000000000000000000001FFFFFFFFFE0000000000000001
310
FFFFFFFF00000000000000000000000000FFFFFFFFFC0001FFFFFFFFC000007F
310
FFFFFFFFFFFF00000000000000000007FFFFFFFF00001FFFFFFFFC0000000000
310
000000000000007FFFFFFFF00007FFFFFFFFFC0000000000000000000000003F
310
FFFFFFF80000000000000000000001FFFFFFFFFE0000000000000001FFFFFFFF
310
00000000000000000000000000FFFFFFFFFC0001FFFFFFFFC00000FFFFFFFFFF
310
FFFC00000000000000000007FFFFFFFF00001FFFFFFFFC000000000000000000
310
0000007FFFFFFFF00007FFFFFFFFFC0000000000000000000000003FFFFFFFF8
310
0000000000000000000001FFFFFFFFFE0000000000000001FFFFFFFF00000000
310
000000000000000000FFFFFFFFFC0001FFFFFFFFC00001FFFFFFFFFFFFF80000
310
0000000000000007FFFFFFFF00001FFFFFFFFC0000000000000000000000007F
310
FFFFFFF00007FFFFFFFFFE0000000000000000000000007FFFFFFFF800000000
310
00000000000001FFFFFFFFFE0000000000000001FFFFFFFF0000000000000000
310
0000000000FFFFFFFFFC0001FFFFFFFFC00007FFFFFFFFFFFFE0000000000000
310
00000007FFFFFFFF00001FFFFFFFFC0000000000000000000000007FFFFFFFF0
310
0007FFFFFFFFFF000000000000000000000001FFFFFFFFF80000000000000000
310
000001FFFFFFFFFE0000000000000001FFFFFFFF000000000000000000000000
310
00FFFFFFFFFC0001FFFFFFFFC0000FFFFFFFFFFFFFC000000000000000000007
310
FFFFFFFF00001FFFFFFFFC0000000000000000000000007FFFFFFFF00007FFFF
310
FFFFFFFFFFFFFFFFFFFFFFFFFFFFFFFFFFFFFFF80000000000000000000001FF
310
FFFFFFFE0000000000000001FFFFFFFF00000000000000000000000000FFFFFF
310
FFFC0001FFFFFFFFC0001FFFFFFFFFFFFF0000000000000000000007FFFFFFFF
310
00001FFFFFFFFC0000000000000000000000007FFFFFFFF00007FFFFFFFFFFFF
310
FFFFFFFFFFFFFFFFFFFFFFFFFFFFFFF80000000000000000000001FFFFFFFFFE
310
0000000000000001FFFFFFFF00000000000000000000000000FFFFFFFFFC0001
310
FFFFFFFFC0007FFFFFFFFFFFFE0000000000000000000007FFFFFFFF00001FFF
310
FFFFFC0000000000000000000000007FFFFFFFF00007FFFFFFFFFFFFFFFFFFFF
310
FFFFFFFFFFFFFFFFFFFFFFF80000000000000000000001FFFFFFFFFE00000000
310
00000001FFFFFFFF00000000000000000000000000FFFFFFFFFC0001FFFFFFFF
310
C000FFFFFFFFFFFFF80000000000000000000007FFFFFFFF00001FFFFFFFFC00
310
00000000000000000000007FFFFFFFF00007FFFFFFFFFFFFFFFFFFFFFFFFFFFF
310
FFFFFFFFFFFFFFF80000000000000000000001FFFFFFFFFE0000000000000001
310
FFFFFFFF00000000000000000000000000FFFFFFFFFC0001FFFFFFFFC001FFFF
310
FFFFFFFFF00000000000000000000007FFFFFFFF00001FFFFFFFFC0000000000
310
000000000000007FFFFFFFF00007FFFFFFFFFFFFFFFFFFFFFFFFFFFFFFFFFFFF
310
FFFFFFF80000000000000000000001FFFFFFFFFE0000000000000001FFFFFFFF
310
00000000000000000000000000FFFFFFFFFC0001FFFFFFFFC007FFFFFFFFFFFF
310
C00000000000000000000007FFFFFFFF00001FFFFFFFFC000000000000000000
310
0000007FFFFFFFF00007FFFFFFFFFFFFFFFFFFFFFFFFFFFFFFFFFFFFFFFFFFF8
310
0000000000000000000001FFFFFFFFFE0000000000000001FFFFFFFF00000000
310
000000000000000000FFFFFFFFFC0001FFFFFFFFC00FFFFFFFFFFFFF80000000
310
0000000000000007FFFFFFFF00001FFFFFFFFC0000000000000000000000007F
310
FFFFFFF00007FFFFFFFFFFFFFFFFFFFFFFFFFFFFFFFFFFFFFFFFFFF800000000
310
00000000000001FFFFFFFFFE0000000000000001FFFFFFFF0000000000000000
310
0000000000FFFFFFFFFC0001FFFFFFFFC01FFFFFFFFFFFFE0000000000000000
310
00000007FFFFFFFF00001FFFFFFFFC0000000000000000000000007FFFFFFFF0
310
0007FFFFFFFFFFFFFFFFFFFFFFFFFFFFFFFFFFFFFFFFFFF80000000000000000
310
000001FFFFFFFFFE0000000000000001FFFFFFFF000000000000000000000000
310
00FFFFFFFFFC0001FFFFFFFFC07FFFFFFFFFFFFC000000000000000000000007
310
FFFFFFFF00001FFFFFFFFC0000000000000000000000007FFFFFFFF00007FFFF
310
FFFFFFFFFFFFFFFFFFFFFFFFFFFFFFFFFFFFFFF80000000000000000000001FF
310
FFFFFFFE0000000000000001FFFFFFFF00000000000000000000000000FFFFFF
310
FFFC0001FFFFFFFFC0FFFFFFFFFFFFF0000000000000000000000007FFFFFFFF
310
00001FFFFFFFFC0000000000000000000000007FFFFFFFF00003FFFFFFFFFFFF
310
FFFFFFFFFFFFFFFFFFFFFFFFFFFFFFF80000000000000000000001FFFFFFFFFE
310
0000000000000001FFFFFFFF00000000000000000000000000FFFFFFFFFC0001
310
FFFFFFFFE1FFFFFFFFFFFFC0000000000000000000000007FFFFFFFF00001FFF
310
FFFFFC0000000000000000000000007FFFFFFFF00003FFFFFFFFFFFFFFFFFFFF
310
FFFFFFFFFFFFFFFFFFFFFFF80000000000000000000001FFFFFFFFFE00000000
310
00000001FFFFFFFF00000000000000000000000000FFFFFFFFFC0001FFFFFFFF
310
FFFFFFFFFFFFFF80000000000000000000000007FFFFFFFF00001FFFFFFFFC00
310
00000000000000000000007FFFFFFFF00003FFFFFFFFFFFFFFFFFFFFFFFFFFFF
310
FFFFFFFFFFFFFFF80000000000000000000001FFFFFFFFFE0000000000000001
310
FFFFFFFF00000000000000000000000000FFFFFFFFFC0001FFFFFFFFFFFFFFFF
310
FFFFFE00000000000000000000000007FFFFFFFF00001FFFFFFFFC0000000000
310
000000000000007FFFFFFFF00001FFFFFFFFFFFFFFFFFFFFFFFFFFFFFFFFFFFF
310
FFFFFFF80000000000000000000001FFFFFFFFFE0000000000000001FFFFFFFF
310
00000000000000000000000000FFFFFFFFFC0001FFFFFFFFFFFFFFFFFFFFFC00
310
000000000000000000000007FFFFFFFF00001FFFFFFFFC000000000000000000
310
0000007FFFFFFFF00001FFFFFFFFFFFFFFFFFFFFFFFFFFFFFFFFFFFFFFFFFFF8
310
0000000000000000000001FFFFFFFFFE0000000000000001FFFFFFFF00000000
310
000000000000000000FFFFFFFFFC0001FFFFFFFFFFFFFFFFFFFFF00000000000
310
0000000000000007FFFFFFFF00001FFFFFFFFC0000000000000000000000007F
310
FFFFFFF00000FFFFFFFFFFFFFFFFFFFFFFFFFFFFFFFFFFFFFFFFFFF800000000
310
00000000000001FFFFFFFFFE0000000000000001FFFFFFFF0000000000000000
310
0000000000FFFFFFFFFC0001FFFFFFFFFFFFFFFFFFFFF0000000000000000000
310
00000007FFFFFFFF00001FFFFFFFFC0000000000000000000000007FFFFFFFF0
310
0000FFFFFFFFFFFFFFFFFFFFFFFFFFFFFFFFFFFFFFFFFFF80000000000000000
310
000001FFFFFFFFFE0000000000000001FFFFFFFF000000000000000000000000
310
00FFFFFFFFFC0001FFFFFFFFFFFFFFFFFFFFFC00000000000000000000000007
310
FFFFFFFF00001FFFFFFFFC0000000000000000000000007FFFFFFFF000007FFF
310
FFFFFFFFFFFFFFFFFFFFFFFFFFFFFFFFFFFFFFF80000000000000000000001FF
310
FFFFFFFE0000000000000001FFFFFFFF00000000000000000000000000FFFFFF
310
FFFC0001FFFFFFFFFFFFFFFFFFFFFE00000000000000000000000007FFFFFFFF
310
00001FFFFFFFFC0000000000000000000000007FFFFFFFF000003FFFFFFFFFFF
310
FFFFFFFFFFFFFFFFFFFFFFFFFFFFFFF80000000000000000000001FFFFFFFFFE
310
0000000000000001FFFFFFFF00000000000000000000000000FFFFFFFFFC0001
310
FFFFFFFFF7FFFFFFFFFFFF80000000000000000000000007FFFFFFFF00001FFF
310
FFFFFC0000000000000000000000007FFFFFFFF000001FFFFFFFFFFFFFFFFFFF
310
FFFFFFFFFFFFFFFFFFFFFFF80000000000000000000001FFFFFFFFFE00000000
310
00000001FFFFFFFF00000000000000000000000000FFFFFFFFFC0001FFFFFFFF
310
E1FFFFFFFFFFFFC0000000000000000000000007FFFFFFFF00001FFFFFFFFC00
310
00000000000000000000007FFFFFFFF000000FFFFFFFFFFFFFFFFFFFFFFFFFFF
310
FFFFFFFFFFFFFFF80000000000000000000001FFFFFFFFFE0000000000000001
310
FFFFFFFF00000000000000000000000000FFFFFFFFFC0001FFFFFFFFC07FFFFF
310
FFFFFFF0000000000000000000000007FFFFFFFF00001FFFFFFFFC0000000000
310
000000000000007FFFFFFFF0000007FFFFFFFFFFFFFFFFFFFFFFFFFFFFFFFFFF
310
FFFFFFF80000000000000000000001FFFFFFFFFE0000000000000001FFFFFFFF
310
00000000000000000000000000FFFFFFFFFC0001FFFFFFFFC03FFFFFFFFFFFF8
310
000000000000000000000007FFFFFFFF00001FFFFFFFFC000000000000000000
310
0000007FFFFFFFF0000001FFFFFFFFFFFFFFFFFFFFFFFFFFFFFFFFFFFFFFFFF8
310
0000000000000000000001FFFFFFFFFE0000000000000001FFFFFFFF00000000
310
000000000000000000FFFFFFFFFC0001FFFFFFFFC01FFFFFFFFFFFFE00000000
310
0000000000000007FFFFFFFF00001FFFFFFFFC0000000000000000000000007F
310
FFFFFFF0000000FFFFFFFFFFFFFFFFFFFFFFFFFFFFFFFFFFFFFFFFF800000000
310
00000000000001FFFFFFFFFE0000000000000001FFFFFFFF0000000000000000
310
0000000000FFFFFFFFFC0001FFFFFFFFC007FFFFFFFFFFFF0000000000000000
310
00000007FFFFFFFF00001FFFFFFFFC0000000000000000000000007FFFFFFFF0
310
0000003FFFFFFFFFFFFFFFFFFFFFFFFFFFFFFFFFFFFFFFF80000000000000000
310
000001FFFFFFFFFE0000000000000001FFFFFFFF000000000000000000000000
310
00FFFFFFFFFC0001FFFFFFFFC003FFFFFFFFFFFF800000000000000000000007
310
FFFFFFFF00001FFFFFFFFC0000000000000000000000007FFFFFFFF000000007
310
FFFFFFFFFFFFFFFFFFFFFFFFFFFFFFFFFFFFFFF80000000000000000000001FF
310
FFFFFFFE0000000000000001FFFFFFFF00000000000000000000000000FFFFFF
310
FFFC0001FFFFFFFFC000FFFFFFFFFFFFE00000000000000000000007FFFFFFFF
310
00001FFFFFFFFC0000000000000000000000007FFFFFFFF000000000FFFFFFFF
310
FFFFFFFFFFFFFFFFFFFFFFFFFFFFFFF80000000000000000000001FFFFFFFFFE
310
0000000000000001FFFFFFFF00000000000000000000000000FFFFFFFFFC0001
310
FFFFFFFFC0007FFFFFFFFFFFF00000000000000000000007FFFFFFFF00001FFF
310
FFFFFC0000000000000000000000007FFFFFFFF0000000000FFFFFFFFFFFFFFF
310
FFFFFFFFFFFFFFFFFFFFFFF80000000000000000000001FFFFFFFFFE00000000
310
00000001FFFFFFFF00000000000000000000000000FFFFFFFFFC0001FFFFFFFF
310
C0003FFFFFFFFFFFFC0000000000000000000007FFFFFFFF00001FFFFFFFFC00
310
00000000000000000000007FFFFFFFF000000000000000000000000000000000
310
0000003FFFFFFFF80000000000000000000001FFFFFFFFFE0000000000000001
310
FFFFFFFF00000000000000000000000000FFFFFFFFFC0001FFFFFFFFC0000FFF
310
FFFFFFFFFE0000000000000000000007FFFFFFFF00001FFFFFFFFC0000000000
310
000000000000007FFFFFFFF0000000000000000000000000000000000000003F
310
FFFFFFF80000000000000000000001FFFFFFFFFE0000000000000001FFFFFFFF
310
00000000000000000000000000FFFFFFFFFC0001FFFFFFFFC00007FFFFFFFFFF
310
FF8000000000000000000007FFFFFFFF00001FFFFFFFFC000000000000000000
310
0000007FFFFFFFF0000000000000000000000000000000000000003FFFFFFFF8
310
0000000000000000000001FFFFFFFFFE0000000000000001FFFFFFFF00000000
310
000000000000000000FFFFFFFFFC0001FFFFFFFFC00001FFFFFFFFFFFFC00000
310
0000000000000007FFFFFFFF00001FFFFFFFFC0000000000000000000000007F
310
FFFFFFF0000000000000000000000000000000000000003FFFFFFFF800000000
310
00000000000001FFFFFFFFFE0000000000000001FFFFFFFF0000000000000000
310
0000000000FFFFFFFFFC0001FFFFFFFFC00000FFFFFFFFFFFFF0000000000000
310
00000007FFFFFFFF00001FFFFFFFFC0000000000000000000000007FFFFFFFF0
310
000000000000000000000000000000000000003FFFFFFFF80000000000000000
310
000001FFFFFFFFFE0000000000000001FFFFFFFF000000000000000000000000
310
00FFFFFFFFFC0001FFFFFFFFC000007FFFFFFFFFFFF800000000000000000007
310
FFFFFFFF00001FFFFFFFFC0000000000000000000000007FFFFFFFF000000000
310
0000000000000000000000000000003FFFFFFFF80000000000000000000001FF
310
FFFFFFFE0000000000000001FFFFFFFF00000000000000000000000000FFFFFF
310
FFFC0001FFFFFFFFC000001FFFFFFFFFFFFE00000000000000000007FFFFFFFF
310
00001FFFFFFFFC0000000000000000000000007FFFFFFFF00000000000000000
310
00000000000000000000003FFFFFFFF80000000000000000000001FFFFFFFFFE
310
0000000000000001FFFFFFFF00000000000000000000000000FFFFFFFFFC0001
310
FFFFFFFFC000000FFFFFFFFFFFFF00000000000000000007FFFFFFFF00001FFF
310
FFFFFC0000000000000000000000007FFFFFFFF0000000000000000000000000
310
000000000000003FFFFFFFF80000000000000000000001FFFFFFFFFE00000000
310
00000001FFFFFFFF00000000000000000000000000FFFFFFFFFC0001FFFFFFFF
310
C0000003FFFFFFFFFFFFC0000000000000000007FFFFFFFF00001FFFFFFFFC00
310
0000000000000000000000FFFFFFFFF000000000000000000000000000000000
310
0000003FFFFFFFF80000000000000000000001FFFFFFFFFE0000000000000001
310
FFFFFFFF00000000000000000000000000FFFFFFFFFC0001FFFFFFFFC0000001
310
FFFFFFFFFFFFE0000000000000000007FFFFFFFF00001FFFFFFFFC0000000000
310
00000000000000FFFFFFFFF0000000000000000000000000000000000000003F
310
FFFFFFF80000000000000000000001FFFFFFFFFE0000000000000001FFFFFFFF
310
00000000000000000000000000FFFFFFFFFC0001FFFFFFFFC0000000FFFFFFFF
310
FFFFF8000000000000000007FFFFFFFF00001FFFFFFFFC000000000000000000
310
000000FFFFFFFFF0000000000000000000000000000000000000003FFFFFFFF8
310
0000000000000000000001FFFFFFFFFE0000000000000001FFFFFFFF80000000
310
000000000000000000FFFFFFFFFC0001FFFFFFFFC00000003FFFFFFFFFFFFC00
310
0000000000000007FFFFFFFF00001FFFFFFFFC000000000000000000000001FF
310
FFFFFFF0000000000000000000000000000000000000003FFFFFFFF800000000
310
00000000000001FFFFFFFFFE0000000000000000FFFFFFFF8000000000000000
310
0000000000FFFFFFFFFC0001FFFFFFFFC00000001FFFFFFFFFFFFF0000000000
310
00000007FFFFFFFF00001FFFFFFFFC000000000000000000000003FFFFFFFFF0
310
000000000000000000000000000000000000003FFFFFFFF80000000000000000
310
000001FFFFFFFFFE0000000000000000FFFFFFFFC00000000000000000000000
310
01FFFFFFFFFC0001FFFFFFFFC000000007FFFFFFFFFFFF800000000000000007
310
FFFFFFFF00001FFFFFFFFC000000000000000000000007FFFFFFFFF000000000
310
0000000000000000000000000000003FFFFFFFF80000000000000000000001FF
310
FFFFFFFE0000000000000000FFFFFFFFF0000000000000000000000007FFFFFF
310
FFFC0001FFFFFFFFC000000003FFFFFFFFFFFFE00000000000000007FFFFFFFF
310
00001FFFFFFFFC00000000000000000000003FFFFFFFFFF00000000000000000
310
00000000000000000000007FFFFFFFF80000000000000000000001FFFFFFFFFE
310
0000000000000000FFFFFFFFFFFFFFFFFFFFFFFFFFFFFFFFFFFFFFFFFFF80001
310
FFFFFFFFC000000001FFFFFFFFFFFFF00000000000000007FFFFFFFF00001FFF
310
FFFFFFFFFFFFFFFFFFFFFFFFFFFFFFFFFFFFFFF0000000000000000000000000
310
00000000000000FFFFFFFFF80000000000000000000001FFFFFFFFFE00000000
310
00000000FFFFFFFFFFFFFFFFFFFFFFFFFFFFFFFFFFFFFFFFFFF80001FFFFFFFF
310
C0000000007FFFFFFFFFFFFC0000000000000007FFFFFFFF00001FFFFFFFFFFF
310
FFFFFFFFFFFFFFFFFFFFFFFFFFFFFFF000000000000000000000000000000000
310
000001FFFFFFFFF80000000000000000000001FFFFFFFFFE0000000000000000
310
7FFFFFFFFFFFFFFFFFFFFFFFFFFFFFFFFFFFFFFFFFF80001FFFFFFFFC0000000
310
003FFFFFFFFFFFFE0000000000000007FFFFFFFF00001FFFFFFFFFFFFFFFFFFF
310
FFFFFFFFFFFFFFFFFFFFFFF000000000000000000000000000000000000007FF
310
FFFFFFF80000000000000000000001FFFFFFFFFE00000000000000007FFFFFFF
310
FFFFFFFFFFFFFFFFFFFFFFFFFFFFFFFFFFF00001FFFFFFFFC0000000000FFFFF
310
FFFFFFFF8000000000000007FFFFFFFF00001FFFFFFFFFFFFFFFFFFFFFFFFFFF
310
FFFFFFFFFFFFFFF00000FFFFFFFFFFFFFFFFFFFFFFFFFFFFFFFFFFFFFFFFFFF8
310
0000000000000000000001FFFFFFFFFE00000000000000007FFFFFFFFFFFFFFF
310
FFFFFFFFFFFFFFFFFFFFFFFFFFF00001FFFFFFFFC00000000007FFFFFFFFFFFF
310
C000000000000007FFFFFFFF00001FFFFFFFFFFFFFFFFFFFFFFFFFFFFFFFFFFF
310
FFFFFFE00000FFFFFFFFFFFFFFFFFFFFFFFFFFFFFFFFFFFFFFFFFFF800000000
310
00000000000001FFFFFFFFFE00000000000000003FFFFFFFFFFFFFFFFFFFFFFF
310
FFFFFFFFFFFFFFFFFFF00001FFFFFFFFC00000000003FFFFFFFFFFFFF0000000
310
00000007FFFFFFFF00001FFFFFFFFFFFFFFFFFFFFFFFFFFFFFFFFFFFFFFFFFE0
310
0000FFFFFFFFFFFFFFFFFFFFFFFFFFFFFFFFFFFFFFFFFFF00000000000000000
310
000001FFFFFFFFFE00000000000000003FFFFFFFFFFFFFFFFFFFFFFFFFFFFFFF
310
FFFFFFFFFFE00001FFFFFFFFC00000000000FFFFFFFFFFFFF800000000000007
310
FFFFFFFF00001FFFFFFFFFFFFFFFFFFFFFFFFFFFFFFFFFFFFFFFFFE00000FFFF
310
FFFFFFFFFFFFFFFFFFFFFFFFFFFFFFFFFFFFFFF00000000000000000000001FF
310
FFFFFFFE00000000000000003FFFFFFFFFFFFFFFFFFFFFFFFFFFFFFFFFFFFFFF
310
FFE00001FFFFFFFFC000000000007FFFFFFFFFFFFE00000000000007FFFFFFFF
310
00001FFFFFFFFFFFFFFFFFFFFFFFFFFFFFFFFFFFFFFFFFE00000FFFFFFFFFFFF
310
FFFFFFFFFFFFFFFFFFFFFFFFFFFFFFF00000000000000000000001FFFFFFFFFE
310
00000000000000001FFFFFFFFFFFFFFFFFFFFFFFFFFFFFFFFFFFFFFFFFC00001
310
FFFFFFFFC000000000001FFFFFFFFFFFFF00000000000007FFFFFFFF00001FFF
310
FFFFFFFFFFFFFFFFFFFFFFFFFFFFFFFFFFFFFFC00000FFFFFFFFFFFFFFFFFFFF
310
FFFFFFFFFFFFFFFFFFFFFFE00000000000000000000001FFFFFFFFFE00000000
310
000000000FFFFFFFFFFFFFFFFFFFFFFFFFFFFFFFFFFFFFFFFFC00001FFFFFFFF
310
C000000000000FFFFFFFFFFFFFC0000000000007FFFFFFFF00001FFFFFFFFFFF
310
FFFFFFFFFFFFFFFFFFFFFFFFFFFFFFC00000FFFFFFFFFFFFFFFFFFFFFFFFFFFF
310
FFFFFFFFFFFFFFE00000000000000000000001FFFFFFFFFE0000000000000000
310
0FFFFFFFFFFFFFFFFFFFFFFFFFFFFFFFFFFFFFFFFF800001FFFFFFFFC0000000
310
000007FFFFFFFFFFFFE0000000000007FFFFFFFF00001FFFFFFFFFFFFFFFFFFF
310
FFFFFFFFFFFFFFFFFFFFFF800000FFFFFFFFFFFFFFFFFFFFFFFFFFFFFFFFFFFF
310
FFFFFFE00000000000000000000001FFFFFFFFFE000000000000000007FFFFFF
310
FFFFFFFFFFFFFFFFFFFFFFFFFFFFFFFFFF800001FFFFFFFFC0000000000001FF
310
FFFFFFFFFFF8000000000007FFFFFFFF00001FFFFFFFFFFFFFFFFFFFFFFFFFFF
310
FFFFFFFFFFFFFF800000FFFFFFFFFFFFFFFFFFFFFFFFFFFFFFFFFFFFFFFFFFC0
310
0000000000000000000001FFFFFFFFFE000000000000000007FFFFFFFFFFFFFF
310
FFFFFFFFFFFFFFFFFFFFFFFFFF000001FFFFFFFFC0000000000000FFFFFFFFFF
310
FFFC000000000007FFFFFFFF00001FFFFFFFFFFFFFFFFFFFFFFFFFFFFFFFFFFF
310
FFFFFF000000FFFFFFFFFFFFFFFFFFFFFFFFFFFFFFFFFFFFFFFFFFC000000000
310
00000000000001FFFFFFFFFE000000000000000003FFFFFFFFFFFFFFFFFFFFFF
310
FFFFFFFFFFFFFFFFFE000001FFFFFFFFC00000000000003FFFFFFFFFFFFE0000
310
00000007FFFFFFFF00001FFFFFFFFFFFFFFFFFFFFFFFFFFFFFFFFFFFFFFFFF00
310
0000FFFFFFFFFFFFFFFFFFFFFFFFFFFFFFFFFFFFFFFFFF800000000000000000
310
000001FFFFFFFFFE000000000000000001FFFFFFFFFFFFFFFFFFFFFFFFFFFFFF
310
FFFFFFFFFC000001FFFFFFFFC00000000000001FFFFFFFFFFFFF800000000007
310
FFFFFFFF00001FFFFFFFFFFFFFFFFFFFFFFFFFFFFFFFFFFFFFFFFE000000FFFF
310
FFFFFFFFFFFFFFFFFFFFFFFFFFFFFFFFFFFFFF000000000000000000000001FF
310
FFFFFFFE000000000000000000FFFFFFFFFFFFFFFFFFFFFFFFFFFFFFFFFFFFFF
310
FC000001FFFFFFFFC00000000000000FFFFFFFFFFFFFC00000000007FFFFFFFF
310
00001FFFFFFFFFFFFFFFFFFFFFFFFFFFFFFFFFFFFFFFFC000000FFFFFFFFFFFF
310
FFFFFFFFFFFFFFFFFFFFFFFFFFFFFE000000000000000000000001FFFFFFFFFE
310
0000000000000000007FFFFFFFFFFFFFFFFFFFFFFFFFFFFFFFFFFFFFF8000001
310
FFFFFFFFC000000000000003FFFFFFFFFFFFF00000000007FFFFFFFF00001FFF
310
FFFFFFFFFFFFFFFFFFFFFFFFFFFFFFFFFFFFFC000000FFFFFFFFFFFFFFFFFFFF
310
FFFFFFFFFFFFFFFFFFFFFE000000000000000000000001FFFFFFFFFE00000000
310
00000000007FFFFFFFFFFFFFFFFFFFFFFFFFFFFFFFFFFFFFF0000001FFFFFFFF
310
C000000000000001FFFFFFFFFFFFF80000000007FFFFFFFF00001FFFFFFFFFFF
310
FFFFFFFFFFFFFFFFFFFFFFFFFFFFF8000000FFFFFFFFFFFFFFFFFFFFFFFFFFFF
310
FFFFFFFFFFFFFC000000000000000000000001FFFFFFFFFE0000000000000000
310
003FFFFFFFFFFFFFFFFFFFFFFFFFFFFFFFFFFFFFE0000001FFFFFFFFC0000000
310
000000007FFFFFFFFFFFFE0000000007FFFFFFFF00001FFFFFFFFFFFFFFFFFFF
310
FFFFFFFFFFFFFFFFFFFFF0000000FFFFFFFFFFFFFFFFFFFFFFFFFFFFFFFFFFFF
310
FFFFF8000000000000000000000001FFFFFFFFFE0000000000000000001FFFFF
310
FFFFFFFFFFFFFFFFFFFFFFFFFFFFFFFFC0000001FFFFFFFFC000000000000000
310
3FFFFFFFFFFFFF0000000007FFFFFFFF00001FFFFFFFFFFFFFFFFFFFFFFFFFFF
310
FFFFFFFFFFFFE0000000FFFFFFFFFFFFFFFFFFFFFFFFFFFFFFFFFFFFFFFFF000
310
0000000000000000000001FFFFFFFFFE00000000000000000007FFFFFFFFFFFF
310
FFFFFFFFFFFFFFFFFFFFFFFF80000001FFFFFFFFC0000000000000001FFFFFFF
310
FFFFFFC000000007FFFFFFFF00001FFFFFFFFFFFFFFFFFFFFFFFFFFFFFFFFFFF
310
FFFFC0000000FFFFFFFFFFFFFFFFFFFFFFFFFFFFFFFFFFFFFFFFE00000000000
310
00000000000001FFFFFFFFFE00000000000000000003FFFFFFFFFFFFFFFFFFFF
310
FFFFFFFFFFFFFFFF00000001FFFFFFFFC00000000000000007FFFFFFFFFFFFE0
310
00000007FFFFFFFF00001FFFFFFFFFFFFFFFFFFFFFFFFFFFFFFFFFFFFFFF8000
310
0000FFFFFFFFFFFFFFFFFFFFFFFFFFFFFFFFFFFFFFFF80000000000000000000
310
000001FFFFFFFFFE00000000000000000001FFFFFFFFFFFFFFFFFFFFFFFFFFFF
310
FFFFFFFE00000001FFFFFFFFC00000000000000003FFFFFFFFFFFFF800000007
310
FFFFFFFF00001FFFFFFFFFFFFFFFFFFFFFFFFFFFFFFFFFFFFFFF00000000FFFF
310
FFFFFFFFFFFFFFFFFFFFFFFFFFFFFFFFFFFF00000000000000000000000001FF
310
FFFFFFFE000000000000000000007FFFFFFFFFFFFFFFFFFFFFFFFFFFFFFFFFF8
310
00000001FFFFFFFFC00000000000000000FFFFFFFFFFFFFC00000007FFFFFFFF
310
00001FFFFFFFFFFFFFFFFFFFFFFFFFFFFFFFFFFFFFFE00000000FFFFFFFFFFFF
310
FFFFFFFFFFFFFFFFFFFFFFFFFFFC00000000000000000000000001FFFFFFFFFE
310
000000000000000000003FFFFFFFFFFFFFFFFFFFFFFFFFFFFFFFFFF000000001
310
FFFFFFFFC000000000000000007FFFFFFFFFFFFF00000007FFFFFFFF00001FFF
310
FFFFFFFFFFFFFFFFFFFFFFFFFFFFFFFFFFF800000000FFFFFFFFFFFFFFFFFFFF
310
FFFFFFFFFFFFFFFFFFF800000000000000000000000001FFFFFFFFFE00000000
310
0000000000000FFFFFFFFFFFFFFFFFFFFFFFFFFFFFFFFFC000000001FFFFFFFF
310
C000000000000000003FFFFFFFFFFFFF80000007FFFFFFFF00001FFFFFFFFFFF
310
FFFFFFFFFFFFFFFFFFFFFFFFFFE000000000FFFFFFFFFFFFFFFFFFFFFFFFFFFF
310
FFFFFFFFFFE000000000000000000000000001FFFFFFFFFE0000000000000000
310
000003FFFFFFFFFFFFFFFFFFFFFFFFFFFFFFFF0000000001FFFFFFFFC0000000
310
00000000000FFFFFFFFFFFFFE0000007FFFFFFFF00001FFFFFFFFFFFFFFFFFFF
310
FFFFFFFFFFFFFFFFFFC000000000FFFFFFFFFFFFFFFFFFFFFFFFFFFFFFFFFFFF
310
FF8000000000000000000000000001FFFFFFFFFE0000000000000000000000FF
310
FFFFFFFFFFFFFFFFFFFFFFFFFFFFFC0000000001FFFFFFFFC000000000000000
310
0007FFFFFFFFFFFFF0000007FFFFFFFF00001FFFFFFFFFFFFFFFFFFFFFFFFFFF
310
FFFFFFFFFE0000000000FFFFFFFFFFFFFFFFFFFFFFFFFFFFFFFFFFFFFC000000
310
0000000000000000000001FFFFFFFFFE00000000000000000000001FFFFFFFFF
310
FFFFFFFFFFFFFFFFFFFFE00000000001FFFFFFFFC0000000000000000001FFFF
310
FFFFFFFFFC000007FFFFFFFF00001FFFFFFFFFFFFFFFFFFFFFFFFFFFFFFFFFFF
310
F80000000000FFFFFFFFFFFFFFFFFFFFFFFFFFFFFFFFFFFFC000000000000000
310
00000000000001FFFFFFFFFE000000000000000000000001FFFFFFFFFFFFFFFF
310
FFFFFFFFFFFE000000000001FFFFFFFFC0000000000000000000FFFFFFFFFFFF
310
FC000007FFFFFFFF00001FFFFFFFFFFFFFFFFFFFFFFFFFFFFFFFFFFF00000000
310
0000FFFFFFFFFFFFFFFFFFFFFFFFFFFFFFFFFFF0000000000000FFFFFFFFFFFF
310
FFFFFFFFFFFFFFFFFFFFFFFFFFFFFFFFFF000000000000000000000000000000
310
0000000000000001FFFFFFFFC000000000000000000000000000000000000000
310
0000000000000000000000000000000000000000000000000000000000000000
310
00000000000000000000000000000000000000000000FFFFFFFFFFFFFFFFFFFF
310
FFFFFFFFFFFFFFFFFFFFFFFFFF00000000000000000000000000000000000000
310
00000001FFFFFFFFC00000000000000000000000000000000000000000000000
310
0000000000000000000000000000000000000000000000000000000000000000
310
000000000000000000000000000000000000FFFFFFFFFFFFFFFFFFFFFFFFFFFF
310
FFFFFFFFFFFFFFFFFF0000000000000000000000000000000000000000000001
310
FFFFFFFFC0000000000000000000000000000000000000000000000000000000
310
0000000000000000000000000000000000000000000000000000000000000000
310
0000000000000000000000000000FFFFFFFFFFFFFFFFFFFFFFFFFFFFFFFFFFFF
310
FFFFFFFFFF0000000000000000000000000000000000000000000001FFFFFFFF
310
C000000000000000000000000000000000000000000000000000000000000000
310
0000000000000000000000000000000000000000000000000000000000000000
310
00000000000000000000FFFFFFFFFFFFFFFFFFFFFFFFFFFFFFFFFFFFFFFFFFFF
310
FF0000000000000000000000000000000000000000000001FFFFFFFFC0000000
310
0000000000000000000000000000000000000000000000000000000000000000
310
0000000000000000000000000000000000000000000000000000000000000000
310
000000000000FFFFFFFFFFFFFFFFFFFFFFFFFFFFFFFFFFFFFFFFFFFFFF000000
310
0000000000000000000000000000000000000001FFFFFFFFC000000000000000
310
0000000000000000000000000000000000000000000000000000000000000000
310
0000000000000000000000000000000000000000000000000000000000000000
310
0000FFFFFFFFFFFFFFFFFFFFFFFFFFFFFFFFFFFFFFFFFFFFFF00000000000000
310
00000000000000000000000000000001FFFFFFFFC00000000000000000000000
310
0000000000000000000000000000000000000000000000000000000000000000
310
000000000000000000000000000000000000000000000000000000000000FFFF
310
FFFFFFFFFFFFFFFFFFFFFFFFFFFFFFFFFFFFFFFFFF0000000000000000000000
310
000000000000000000000001FFFFFFFFC0000000000000000000000000000000
310
00000007FFFFFFFF000000000000000000000000000000000000000000000000
310
0000000000000000000000000000000000000000000000000000FFFFFFFFFFFF
310
FFFFFFFFFFFFFFFFFFFFFFFFFFFFFFFFFF000000000000000000000000000000
310
0000000000000001FFFFFFFFC000000000000000000000000000000000000007
310
FFFFFFFF00000000000000000000000000000000000000000000000000000000
310
00000000000000000000000000000000000000000000FFFFFFFFFFFFFFFFFFFF
310
FFFFFFFFFFFFFFFFFFFFFFFFFF00000000000000000000000000000000000000
310
00000001FFFFFFFFC000000000000000000000000000000000000007FFFFFFFF
310
0000000000000000000000000000000000000000000000000000000000000000
310
000000000000000000000000000000000000FFFFFFFFFFFFFFFFFFFFFFFFFFFF
310
FFFFFFFFFFFFFFFFFF0000000000000000000000000000000000000000000001
310
FFFFFFFFC000000000000000000000000000000000000007FFFFFFFF00000000
310
0000000000000000000000000000000000000000000000000000000000000000
310
0000000000000000000000000000FFFFFFFFFFFFFFFFFFFFFFFFFFFFFFFFFFFF
310
FFFFFFFFFF0000000000000000000000000000000000000000000001FFFFFFFF
310
C000000000000000000000000000000000000007FFFFFFFF0000000000000000
310
0000000000000000000000000000000000000000000000000000000000000000
310
00000000000000000000FFFFFFFFFFFFFFFFFFFFFFFFFFFFFFFFFFFFFFFFFFFF
310
FF0000000000000000000000000000000000000000000001FFFFFFFFC0000000
310
00000000000000000000000000000007FFFFFFFF000000000000000000000000
310
0000000000000000000000000000000000000000000000000000000000000000
310
000000000000FFFFFFFFFFFFFFFFFFFFFFFFFFFFFFFFFFFFFFFFFFFFFF000000
310
0000000000000000000000000000000000000001FFFFFFFFC000000000000000
310
000000000000000000000007FFFFFFFF00000000000000000000000000000000
310
0000000000000000000000000000000000000000000000000000000000000000
310
0000FFFFFFFFFFFFFFFFFFFFFFFFFFFFFFFFFFFFFFFFFFFFFF00000000000000
310
00000000000000000000000000000001FFFFFFFFC00000000000000000000000
310
0000000000000007FFFFFFFF0000000000000000000000000000000000000000
310
000000000000000000000000000000000000000000000000000000000000FFFF
310
FFFFFFFFFFFFFFFFFFFFFFFFFFFFFFFFFFFFFFFFFF0000000000000000000000
310
000000000000000000000001FFFFFFFFC0000000000000000000000000000000
310
00000007FFFFFFFF000000000000000000000000000000000000000000000000
310
0000000000000000000000000000000000000000000000000000FFFFFFFFFFFF
310
FFFFFFFFFFFFFFFFFFFFFFFFFFFFFFFFFF000000000000000000000000000000
310
0000000000000001FFFFFFFFC000000000000000000000000000000000000007
310
FFFFFFFF00000000000000000000000000000000000000000000000000000000
310
00000000000000000000000000000000000000000000FFFFFFFFFFFFFFFFFFFF
310
FFFFFFFFFFFFFFFFFFFFFFFFFF00000000000000000000000000000000000000
310
00000001FFFFFFFFC000000000000000000000000000000000000007FFFFFFFF
310
0000000000000000000000000000000000000000000000000000000000000000
310
000000000000000000000000000000000000FFFFFFFFFFFFFFFFFFFFFFFFFFFF
310
FFFFFFFFFFFFFFFFFF0000000000000000000000000000000000000000000001
310
FFFFFFFFC000000000000000000000000000000000000007FFFFFFFF00000000
310
0000000000000000000000000000000000000000000000000000000000000000
310
0000000000000000000000000000FFFFFFFFFFFFFFFFFFFFFFFFFFFFFFFFFFFF
310
FFFFFFFFFF0000000000000000000000000000000000000000000001FFFFFFFF
310
C000000000000000000000000000000000000007FFFFFFFF0000000000000000
310
0000000000000000000000000000000000000000000000000000000000000000
310
00000000000000000000FFFFFFFFFFFFFFFFFFFFFFFFFFFFFFFFFFFFFFFFFFFF
310
FF0000000000000000000000000000000000000000000001FFFFFFFFC0000000
310
00000000000000000000000000000007FFFFFFFF000000000000000000000000
310
0000000000000000000000000000000000000000000000000000000000000000
310
000000000000FFFFFFFFFFFFFFFFFFFFFFFFFFFFFFFFFFFFFFFFFFFFFF000000
310
0000000000000000000000000000000000000001FFFFFFFFC000000000000000
310
000000000000000000000007FFFFFFFF00000000000000000000000000000000
310
000000000000000000000000000000000000FFFFFFFFFFFFFFFFFFFFFFFFFFFF
310
FFFFFFFFFFFFFFFFFF0000000000000000000000000000000000000000000001
310
FFFFFFFFC000000000000000000000000000000000000007FFFFFFFF00000000
310
0000000000000000000000000000000000000000000000000000000000000000
310
0000000000000000000000000000FFFFFFFFFFFFFFFFFFFFFFFFFFFFFFFFFFFF
310
FFFFFFFFFF0000000000000000000000000000000000000000000001FFFFFFFF
310
C000000000000000000000000000000000000007FFFFFFFF0000000000000000
310
0000000000000000000000000000000000000000000000000000000000000000
310
00000000000000000000FFFFFFFFFFFFFFFFFFFFFFFFFFFFFFFFFFFFFFFFFFFF
310
FF0000000000000000000000000000000000000000000001FFFFFFFFC0000000
310
00000000000000000000000000000007FFFFFFFF000000000000000000000000
310
0000000000000000000000000000000000000000000000000000000000000000
310
000000000000FFFFFFFFFFFFFFFFFFFFFFFFFFFFFFFFFFFFFFFFFFFFFF000000
310
0000000000000000000000000000000000000001FFFFFFFFC000000000000000
310
000000000000000000000007FFFFFFFF00000000000000000000000000000000
310
0000000000000000000000000000000000000000000000000000000000000000
310
0000FFFFFFFFFFFFFFFFFFFFFFFFFFFFFFFFFFFFFFFFFFFFFF00000000000000
310
00000000000000000000000000000001FFFFFFFFC00000000000000000000000
310
0000000000000007FFFFFFFF0000000000000000000000000000000000000000
310
000000000000000000000000000000000000000000000000000000000000FFFF
310
FFFFFFFFFFFFFFFFFFFFFFFFFFFFFFFFFFFFFFFFFF0000000000000000000000
310
000000000000000000000001FFFFFFFFC0000000000000000000000000000000
310
00000007FFFFFFFF000000000000000000000000000000000000000000000000
310
0000000000000000000000000000000000000000000000000000FFFFFFFFFFFF
310
FFFFFFFFFFFFFFFFFFFFFFFFFFFFFFFFFF000000000000000000000000000000
310
0000000000000001FFFFFFFFC000000000000000000000000000000000000007
310
FFFFFFFF00000000000000000000000000000000000000000000000000000000
310
00000000000000000000000000000000000000000000FFFFFFFFFFFFFFFFFFFF
310
FFFFFFFFFFFFFFFFFFFFFFFFFF00000000000000000000000000000000000000
310
00000001FFFFFFFFC000000000000000000000000000000000000007FFFFFFFF
310
0000000000000000000000000000000000000000000000000000000000000000
310
0000000000000000000000000000000000000000000000000000000000000000
310
00000000F400C10000000000F400C1007D01030A60102101F014140560E32100
310
0000000000000000000000000000000000000000000000000000000000000000
310
0000000000000000000000000000000000000000000000000000000000000000
310
0000000000000000000000000000000000000000000000000000000000000000
310
0000000000000000000000000000000000000000000000000000000000000000
310
0000000000000000000000000000000000000000000000000000000000000000
310
0000000000000000000000000000000000000000000000000000000000000000
310
0000000000000000000000000000000000000000000000000000000000000000
310
0000000000000000000000000000000000000000000000000000000000000000
310
0000000000000000000000000000000000000000000000000000000000000000
310
0000000000000000000000000000000000000000000000000000000000000000
310
0000000000000000000000000000000000000000000000000000000000000000
310
0000000000000000000000000000000000000000000000000000000000000000
310
0000000000000000000000000000000000000000000000000000000000000000
310
0000000000000000000000000000000000000000000000000000000000000000
310
0000000000000000000000000000000000000000000000000000000000000000
310
0100FEFF030A0000FFFFFFFF0A00030000000000C00000000000004607000000
310
5042727573680007000000504272757368000700000050427275736800F439B2
310
7100000000000000000000000000000000000000000000000000000000000000
310
0000000000000000000000000000000000000000000000000000000000000000
310
0100000200000000000000000000000000000000000000000000000000000000
310
0000000000000000000000000000000000000000000000000000000000000000
310
0000000000000000000000000000000000000000000000000000000000000000
310
0000000000000000000000000000000000000000000000000000000000000000
310
0000000000000000000000000000000000000000000000000000000000000000
310
0000000000000000000000000000000000000000000000000000000000000000
310
0000000000000000000000000000000000000000000000000000000000000000
310
0000000000000000000000000000000000000000000000000000000000000000
310
0000000000000000000000000000000000000000000000000000000000000000
310
0000000000000000000000000000000000000000000000000000000000000000
310
0000000000000000000000000000000000000000000000000000000000000000
310
0000000000000000000000000000000000000000000000000000000000000000
  1
OLE
  0
TEXT
  5
814
330
1F
100
AcDbEntity
  8
99
  6
Continuous
 62
     7
370
    30
100
AcDbText
 10
323.2611166551067
 20
9.930001793057603
 30
0.0
 40
4.0
  1
株式会社トキナー
  7
KCADTEXTSTANDARD
100
AcDbText
1001
Sigma
1000

  0
TEXT
  5
905
330
1F
100
AcDbEntity
  8
99
  6
Continuous
 62
     7
370
    30
100
AcDbText
 10
154.2224426770057
 20
25.28202916786264
 30
0.0
 40
2.5
  1
図番登録
 41
0.7000000000000001
  7
KCADTEXTSTANDARD
100
AcDbText
1001
Sigma
1000

  0
TEXT
  5
906
330
1F
100
AcDbEntity
  8
99
  6
Continuous
 62
     7
370
    30
100
AcDbText
 10
153.765991610232
 20
20.10638021414826
 30
0.0
 40
2.0
  1
2008.5.15
 41
0.7000000000000001
  7
KCADTEXTSTANDARD
100
AcDbText
1001
Sigma
1000

  0
ENDSEC
  0
SECTION
  2
OBJECTS
  0
DICTIONARY
  5
C
330
0
100
AcDbDictionary
281
     1
  3
ACAD_COLOR
350
6C
  3
ACAD_GROUP
350
D
  3
ACAD_LAYOUT
350
1A
  3
ACAD_MATERIAL
350
6B
  3
ACAD_MLINESTYLE
350
17
  3
ACAD_PLOTSETTINGS
350
19
  3
ACAD_PLOTSTYLENAME
350
E
  3
ACAD_TABLESTYLE
350
92
  3
ACDBHEADERROUNDTRIPXREC
350
9E9
  3
AcDbVariableDictionary
350
59
  3
DWGPROPS
350
9EC
  3
KCADFRAMEINFO
350
2A7
  0
DICTIONARY
  5
6C
102
{ACAD_REACTORS
330
C
102
}
330
C
100
AcDbDictionary
281
     1
  0
DICTIONARY
  5
D
102
{ACAD_REACTORS
330
C
102
}
330
C
100
AcDbDictionary
281
     1
  3
*A1
350
3E5
  3
*A2
350
3F9
  3
*A3
350
400
  3
*A4
350
407
  3
*A5
350
40E
  3
*A6
350
415
  0
DICTIONARY
  5
1A
102
{ACAD_REACTORS
330
C
102
}
330
C
100
AcDbDictionary
281
     1
  3
Model
350
22
  3
ﾚｲｱｳﾄ1
350
22F
  0
DICTIONARY
  5
6B
102
{ACAD_REACTORS
330
C
102
}
330
C
100
AcDbDictionary
281
     1
  0
DICTIONARY
  5
17
102
{ACAD_REACTORS
330
C
102
}
330
C
100
AcDbDictionary
281
     1
  3
Standard
350
18
  0
DICTIONARY
  5
19
102
{ACAD_REACTORS
330
C
102
}
330
C
100
AcDbDictionary
281
     1
  0
ACDBDICTIONARYWDFLT
  5
E
102
{ACAD_REACTORS
330
C
102
}
330
C
100
AcDbDictionary
281
     1
  3
Normal
350
F
100
AcDbDictionaryWithDefault
340
F
  0
DICTIONARY
  5
92
102
{ACAD_REACTORS
330
C
102
}
330
C
100
AcDbDictionary
281
     1
  0
DICTIONARY
  5
9E9
102
{ACAD_REACTORS
330
C
102
}
330
C
100
AcDbDictionary
281
     1
  3
COLORDICT
350
9EA
  3
MATERIALDICT
350
9EB
  0
DICTIONARY
  5
59
102
{ACAD_REACTORS
330
C
102
}
330
C
100
AcDbDictionary
281
     1
  3
DIMASSOC
350
9E8
  0
XRECORD
  5
9EC
102
{ACAD_REACTORS
330
C
102
}
330
C
100
AcDbXrecord
280
     1
  1
DWGPROPS COOKIE
  2

  3

  4

  6

  7

  8
fottrem
  9

300
=
301
=
302
=
303
=
304
=
305
=
306
=
307
=
308
=
309
=
 40
0.0
 41
2453353.717125822
 42
2453294.128746331
  1

 90
        0
  0
XRECORD
  5
2A7
102
{ACAD_REACTORS
330
C
102
}
330
C
100
AcDbXrecord
280
     1
  1
A3
 40
420.0
 40
297.0
 90
        1
 90
        1
  0
GROUP
  5
3E5
102
{ACAD_REACTORS
330
D
102
}
330
D
100
AcDbGroup
300
line with arrowBlockRef from kcad family
 70
     1
 71
     1
340
3E7
340
3E9
  0
GROUP
  5
3F9
102
{ACAD_REACTORS
330
D
102
}
330
D
100
AcDbGroup
300
group from kcad family
 70
     1
 71
     1
340
3FA
340
3FC
340
3FE
  0
GROUP
  5
400
102
{ACAD_REACTORS
330
D
102
}
330
D
100
AcDbGroup
300
group from kcad family
 70
     1
 71
     1
340
401
340
403
340
405
  0
GROUP
  5
407
102
{ACAD_REACTORS
330
D
102
}
330
D
100
AcDbGroup
300
group from kcad family
 70
     1
 71
     1
340
408
340
40A
340
40C
  0
GROUP
  5
40E
102
{ACAD_REACTORS
330
D
102
}
330
D
100
AcDbGroup
300
group from kcad family
 70
     1
 71
     1
340
40F
340
411
340
413
  0
GROUP
  5
415
102
{ACAD_REACTORS
330
D
102
}
330
D
100
AcDbGroup
300
group from kcad family
 70
     1
 71
     1
340
416
340
418
340
41A
  0
LAYOUT
  5
22
102
{ACAD_REACTORS
330
1A
102
}
330
1A
100
AcDbPlotSettings
  1

  2
DWF ePlot.pc3
  4
ISO_A3_(297.00_x_420.00_MM)
  6

 40
5.793749809265136
 41
17.79375076293945
 42
5.79376220703125
 43
17.79376220703125
 44
297.0
 45
420.0
 46
0.0
 47
0.0
 48
0.0
 49
0.0
140
0.0
141
0.0
142
1.0
143
1.0
 70
 11952
 72
     1
 73
     1
 74
     2
  7

 75
    16
147
1.0
148
0.0
149
0.0
100
AcDbLayout
  1
Model
 70
     1
 71
     0
 10
0.0
 20
0.0
 11
420.0
 21
297.0
 12
0.0
 22
0.0
 32
0.0
 14
26.8189987163
 24
8.546619562789232
 34
0.0
 15
413.31900676123
 25
288.431941923775
 35
0.0
146
0.0
 13
0.0
 23
0.0
 33
0.0
 16
1.0
 26
0.0
 36
0.0
 17
0.0
 27
1.0
 37
0.0
 76
     0
330
1F
  0
LAYOUT
  5
22F
102
{ACAD_REACTORS
330
1A
102
}
330
1A
100
AcDbPlotSettings
  1

  2
D:\ACAD2000\plotters\HP DesignJet 700(System).pc3
  4

  6

 40
0.0
 41
0.0
 42
0.0
 43
0.0
 44
0.0
 45
0.0
 46
0.0
 47
0.0
 48
0.0
 49
0.0
140
0.0
141
0.0
142
1.0
143
1.0
 70
   688
 72
     0
 73
     0
 74
     5
  7
monochrome.ctb
 75
    16
147
1.0
148
0.0
149
0.0
100
AcDbLayout
  1
ﾚｲｱｳﾄ1
 70
     1
 71
     1
 10
0.0
 20
0.0
 11
12.0
 21
9.0
 12
0.0
 22
0.0
 32
0.0
 14
0.0
 24
0.0
 34
0.0
 15
0.0
 25
0.0
 35
0.0
146
0.0
 13
0.0
 23
0.0
 33
0.0
 16
1.0
 26
0.0
 36
0.0
 17
0.0
 27
1.0
 37
0.0
 76
     0
330
73
  0
MLINESTYLE
  5
18
102
{ACAD_REACTORS
330
17
102
}
330
17
100
AcDbMlineStyle
  2
Standard
 70
     0
  3

 62
   256
 51
90.0
 52
90.0
 71
     2
 49
0.5
 62
   256
  6
BYLAYER
 49
-0.5
 62
   256
  6
BYLAYER
  0
ACDBPLACEHOLDER
  5
F
102
{ACAD_REACTORS
330
E
102
}
330
E
  0
XRECORD
  5
9EA
102
{ACAD_REACTORS
330
9E9
102
}
330
9E9
100
AcDbXrecord
280
     1
340
6C
  0
XRECORD
  5
9EB
102
{ACAD_REACTORS
330
9E9
102
}
330
9E9
100
AcDbXrecord
280
     1
340
6B
  0
DICTIONARYVAR
  5
9E8
102
{ACAD_REACTORS
330
59
102
}
330
59
100
DictionaryVariables
280
     0
  1
1
  0
ENDSEC
  0
EOF
