  0
SECTION
  2
HEADER
  9
$ACADVER
  1
AC1015
  9
$ACADMAINTVER
 70
     6
  9
$DWGCODEPAGE
  3
ANSI_932
  9
$INSBASE
 10
0.0
 20
0.0
 30
0.0
  9
$EXTMIN
 10
32.89275634995299
 20
1.459737337600615
 30
0.0
  9
$EXTMAX
 10
807.60112888053
 20
568.00000667571
 30
0.0
  9
$LIMMIN
 10
0.0
 20
0.0
  9
$LIMMAX
 10
840.0
 20
594.0
  9
$ORTHOMODE
 70
     0
  9
$REGENMODE
 70
     1
  9
$FILLMODE
 70
     1
  9
$QTEXTMODE
 70
     0
  9
$MIRRTEXT
 70
     1
  9
$LTSCALE
 40
0.4
  9
$ATTMODE
 70
     1
  9
$TEXTSIZE
 40
6.4
  9
$TRACEWID
 40
1.0
  9
$TEXTSTYLE
  7
KCADTEXTSTANDARD
  9
$CLAYER
  8
0
  9
$CELTYPE
  6
Continuous
  9
$CECOLOR
 62
   214
  9
$CELTSCALE
 40
1.0
  9
$DISPSILH
 70
     0
  9
$DIMSCALE
 40
2.0
  9
$DIMASZ
 40
3.0
  9
$DIMEXO
 40
1.0
  9
$DIMDLI
 40
8.0
  9
$DIMRND
 40
0.0
  9
$DIMDLE
 40
0.0
  9
$DIMEXE
 40
1.0
  9
$DIMTP
 40
0.0
  9
$DIMTM
 40
0.0
  9
$DIMTXT
 40
3.2
  9
$DIMCEN
 40
2.5
  9
$DIMTSZ
 40
0.0
  9
$DIMTOL
 70
     0
  9
$DIMLIM
 70
     0
  9
$DIMTIH
 70
     0
  9
$DIMTOH
 70
     0
  9
$DIMSE1
 70
     0
  9
$DIMSE2
 70
     0
  9
$DIMTAD
 70
     1
  9
$DIMZIN
 70
     8
  9
$DIMBLK
  1

  9
$DIMASO
 70
     1
  9
$DIMSHO
 70
     1
  9
$DIMPOST
  1

  9
$DIMAPOST
  1

  9
$DIMALT
 70
     0
  9
$DIMALTD
 70
     2
  9
$DIMALTF
 40
25.4
  9
$DIMLFAC
 40
1.0
  9
$DIMTOFL
 70
     1
  9
$DIMTVP
 40
0.0
  9
$DIMTIX
 70
     0
  9
$DIMSOXD
 70
     0
  9
$DIMSAH
 70
     1
  9
$DIMBLK1
  1
KCAD_OPEN30
  9
$DIMBLK2
  1
KCAD_OPEN30
  9
$DIMSTYLE
  2
Standard
  9
$DIMCLRD
 70
     0
  9
$DIMCLRE
 70
     0
  9
$DIMCLRT
 70
     0
  9
$DIMTFAC
 40
0.667
  9
$DIMGAP
 40
0.5333000000000001
  9
$DIMJUST
 70
     0
  9
$DIMSD1
 70
     0
  9
$DIMSD2
 70
     0
  9
$DIMTOLJ
 70
     1
  9
$DIMTZIN
 70
     8
  9
$DIMALTZ
 70
     0
  9
$DIMALTTZ
 70
     0
  9
$DIMUPT
 70
     0
  9
$DIMDEC
 70
     3
  9
$DIMTDEC
 70
     3
  9
$DIMALTU
 70
     2
  9
$DIMALTTD
 70
     2
  9
$DIMTXSTY
  7
KCADDIMSTANDARD
  9
$DIMAUNIT
 70
     0
  9
$DIMADEC
 70
     3
  9
$DIMALTRND
 40
0.0
  9
$DIMAZIN
 70
     2
  9
$DIMDSEP
 70
    46
  9
$DIMATFIT
 70
     3
  9
$DIMFRAC
 70
     0
  9
$DIMLDRBLK
  1
KCAD_OPEN
  9
$DIMLUNIT
 70
     2
  9
$DIMLWD
 70
    -2
  9
$DIMLWE
 70
    -2
  9
$DIMTMOVE
 70
     0
  9
$LUNITS
 70
     2
  9
$LUPREC
 70
     4
  9
$SKETCHINC
 40
1.0
  9
$FILLETRAD
 40
5.0
  9
$AUNITS
 70
     0
  9
$AUPREC
 70
     0
  9
$MENU
  1
.
  9
$ELEVATION
 40
0.0
  9
$PELEVATION
 40
0.0
  9
$THICKNESS
 40
0.0
  9
$LIMCHECK
 70
     0
  9
$CHAMFERA
 40
5.0
  9
$CHAMFERB
 40
5.0
  9
$CHAMFERC
 40
5.0
  9
$CHAMFERD
 40
0.7853981633974483
  9
$SKPOLY
 70
     0
  9
$TDCREATE
 40
2453354.092125822
  9
$TDUCREATE
 40
2453353.717125822
  9
$TDUPDATE
 40
2453304.484453299
  9
$TDUUPDATE
 40
2453304.109453299
  9
$TDINDWG
 40
0.047668287
  9
$TDUSRTIMER
 40
0.0476567245
  9
$USRTIMER
 70
     1
  9
$ANGBASE
 50
0.0
  9
$ANGDIR
 70
     0
  9
$PDMODE
 70
     0
  9
$PDSIZE
 40
0.0
  9
$PLINEWID
 40
0.0
  9
$SPLFRAME
 70
     0
  9
$SPLINETYPE
 70
     6
  9
$SPLINESEGS
 70
     8
  9
$HANDSEED
  5
DBB
  9
$SURFTAB1
 70
     6
  9
$SURFTAB2
 70
     6
  9
$SURFTYPE
 70
     6
  9
$SURFU
 70
     6
  9
$SURFV
 70
     6
  9
$UCSBASE
  2

  9
$UCSNAME
  2

  9
$UCSORG
 10
0.0
 20
0.0
 30
0.0
  9
$UCSXDIR
 10
1.0
 20
0.0
 30
0.0
  9
$UCSYDIR
 10
0.0
 20
1.0
 30
0.0
  9
$UCSORTHOREF
  2

  9
$UCSORTHOVIEW
 70
     0
  9
$UCSORGTOP
 10
0.0
 20
0.0
 30
0.0
  9
$UCSORGBOTTOM
 10
0.0
 20
0.0
 30
0.0
  9
$UCSORGLEFT
 10
0.0
 20
0.0
 30
0.0
  9
$UCSORGRIGHT
 10
0.0
 20
0.0
 30
0.0
  9
$UCSORGFRONT
 10
0.0
 20
0.0
 30
0.0
  9
$UCSORGBACK
 10
0.0
 20
0.0
 30
0.0
  9
$PUCSBASE
  2

  9
$PUCSNAME
  2

  9
$PUCSORG
 10
0.0
 20
0.0
 30
0.0
  9
$PUCSXDIR
 10
1.0
 20
0.0
 30
0.0
  9
$PUCSYDIR
 10
0.0
 20
1.0
 30
0.0
  9
$PUCSORTHOREF
  2

  9
$PUCSORTHOVIEW
 70
     0
  9
$PUCSORGTOP
 10
0.0
 20
0.0
 30
0.0
  9
$PUCSORGBOTTOM
 10
0.0
 20
0.0
 30
0.0
  9
$PUCSORGLEFT
 10
0.0
 20
0.0
 30
0.0
  9
$PUCSORGRIGHT
 10
0.0
 20
0.0
 30
0.0
  9
$PUCSORGFRONT
 10
0.0
 20
0.0
 30
0.0
  9
$PUCSORGBACK
 10
0.0
 20
0.0
 30
0.0
  9
$USERI1
 70
     0
  9
$USERI2
 70
     0
  9
$USERI3
 70
     0
  9
$USERI4
 70
   257
  9
$USERI5
 70
     0
  9
$USERR1
 40
0.0
  9
$USERR2
 40
0.0
  9
$USERR3
 40
0.0
  9
$USERR4
 40
0.0
  9
$USERR5
 40
0.0
  9
$WORLDVIEW
 70
     1
  9
$SHADEDGE
 70
     3
  9
$SHADEDIF
 70
    70
  9
$TILEMODE
 70
     1
  9
$MAXACTVP
 70
    48
  9
$PINSBASE
 10
0.0
 20
0.0
 30
0.0
  9
$PLIMCHECK
 70
     0
  9
$PEXTMIN
 10
0.0
 20
0.0
 30
0.0
  9
$PEXTMAX
 10
0.0
 20
0.0
 30
0.0
  9
$PLIMMIN
 10
0.0
 20
0.0
  9
$PLIMMAX
 10
12.0
 20
9.0
  9
$UNITMODE
 70
     0
  9
$VISRETAIN
 70
     1
  9
$PLINEGEN
 70
     0
  9
$PSLTSCALE
 70
     1
  9
$TREEDEPTH
 70
  3020
  9
$CMLSTYLE
  2
Standard
  9
$CMLJUST
 70
     0
  9
$CMLSCALE
 40
20.0
  9
$PROXYGRAPHICS
 70
     1
  9
$MEASUREMENT
 70
     1
  9
$CELWEIGHT
370
    15
  9
$ENDCAPS
280
     0
  9
$JOINSTYLE
280
     0
  9
$LWDISPLAY
290
     0
  9
$INSUNITS
 70
     0
  9
$HYPERLINKBASE
  1

  9
$STYLESHEET
  1

  9
$XEDIT
290
     0
  9
$CEPSNTYPE
380
     0
  9
$PSTYLEMODE
290
     1
  9
$FINGERPRINTGUID
  2
{1989D620-E742-11D2-9219-00105A146177}
  9
$VERSIONGUID
  2
{E7CDD38F-F137-40D6-8DFB-62C62704B15E}
  9
$EXTNAMES
290
     1
  9
$PSVPSCALE
 40
0.0
  9
$OLESTARTUP
290
     0
  0
ENDSEC
  0
SECTION
  2
CLASSES
  0
CLASS
  1
ACDBDICTIONARYWDFLT
  2
AcDbDictionaryWithDefault
  3
ObjectDBX Classes
 90
        0
280
     0
281
     0
  0
CLASS
  1
ACDBPLACEHOLDER
  2
AcDbPlaceHolder
  3
ObjectDBX Classes
 90
        0
280
     0
281
     0
  0
CLASS
  1
LAYOUT
  2
AcDbLayout
  3
ObjectDBX Classes
 90
        0
280
     0
281
     0
  0
CLASS
  1
DICTIONARYVAR
  2
AcDbDictionaryVar
  3
ObjectDBX Classes
 90
        0
280
     0
281
     0
  0
CLASS
  1
TABLESTYLE
  2
AcDbTableStyle
  3
ObjectDBX Classes
 90
     2047
280
     0
281
     0
  0
ENDSEC
  0
SECTION
  2
TABLES
  0
TABLE
  2
VPORT
  5
8
330
0
100
AcDbSymbolTable
 70
     2
  0
VPORT
  5
97
330
8
100
AcDbSymbolTableRecord
100
AcDbViewportTableRecord
  2
*Active
 70
     0
 10
0.0
 20
0.0
 11
1.0
 21
1.0
 12
420.2469426152415
 22
284.7298720066553
 13
0.0
 23
0.0
 14
10.0
 24
10.0
 15
10.0
 25
10.0
 16
0.0
 26
0.0
 36
1.0
 17
0.0
 27
0.0
 37
0.0
 40
577.8710747248716
 41
2.135273972602739
 42
50.0
 43
0.0
 44
0.0
 50
0.0
 51
0.0
 71
    16
 72
 20000
 73
     1
 74
     1
 75
     0
 76
     0
 77
     0
 78
     0
281
     0
 65
     0
110
0.0
120
0.0
130
0.0
111
1.0
121
0.0
131
0.0
112
0.0
122
1.0
132
0.0
 79
     0
146
0.0
  0
ENDTAB
  0
TABLE
  2
LTYPE
  5
5
330
0
100
AcDbSymbolTable
 70
     6
  0
LTYPE
  5
14
330
5
100
AcDbSymbolTableRecord
100
AcDbLinetypeTableRecord
  2
ByBlock
 70
     0
  3

 72
    65
 73
     0
 40
0.0
  0
LTYPE
  5
15
330
5
100
AcDbSymbolTableRecord
100
AcDbLinetypeTableRecord
  2
ByLayer
 70
     0
  3

 72
    65
 73
     0
 40
0.0
  0
LTYPE
  5
16
330
5
100
AcDbSymbolTableRecord
100
AcDbLinetypeTableRecord
  2
Continuous
 70
     0
  3
Solid line
 72
    65
 73
     0
 40
0.0
  0
LTYPE
  5
D29
330
5
100
AcDbSymbolTableRecord
100
AcDbLinetypeTableRecord
  2
CENTER
 70
     0
  3
Center ____ _ ____ _ ____ _ ____ _ ____ _ ____
 72
    65
 73
     4
 40
50.8
 49
31.75
 74
     4
 75
     0
340
0
 46
1.0
 50
0.0
 44
0.0
 45
0.0
 49
-6.349999999999999
 74
     4
 75
     0
340
0
 46
1.0
 50
0.0
 44
0.0
 45
0.0
 49
6.349999999999999
 74
     4
 75
     0
340
0
 46
1.0
 50
0.0
 44
0.0
 45
0.0
 49
-6.349999999999999
 74
     4
 75
     0
340
0
 46
1.0
 50
0.0
 44
0.0
 45
0.0
  0
LTYPE
  5
D2A
330
5
100
AcDbSymbolTableRecord
100
AcDbLinetypeTableRecord
  2
DASHED
 70
     0
  3
Dashed __ __ __ __ __ __ __ __ __ __ __ __ __ _
 72
    65
 73
     2
 40
19.05
 49
12.7
 74
     4
 75
     0
340
0
 46
1.0
 50
0.0
 44
0.0
 45
0.0
 49
-6.349999999999999
 74
     4
 75
     0
340
0
 46
1.0
 50
0.0
 44
0.0
 45
0.0
  0
LTYPE
  5
D2B
330
5
100
AcDbSymbolTableRecord
100
AcDbLinetypeTableRecord
  2
HIDDEN
 70
     0
  3
Hidden __ __ __ __ __ __ __ __ __ __ __ __ __ _
 72
    65
 73
     2
 40
9.524999999999999
 49
6.349999999999999
 74
     4
 75
     0
340
0
 46
1.0
 50
0.0
 44
0.0
 45
0.0
 49
-3.174999999999999
 74
     4
 75
     0
340
0
 46
1.0
 50
0.0
 44
0.0
 45
0.0
  0
LTYPE
  5
D2C
330
5
100
AcDbSymbolTableRecord
100
AcDbLinetypeTableRecord
  2
PHANTOM
 70
     0
  3
Phantom ______  __  __  ______  __  __  ______
 72
    65
 73
     6
 40
63.50000000000001
 49
31.75
 74
     4
 75
     0
340
0
 46
1.0
 50
0.0
 44
0.0
 45
0.0
 49
-6.349999999999999
 74
     4
 75
     0
340
0
 46
1.0
 50
0.0
 44
0.0
 45
0.0
 49
6.349999999999999
 74
     4
 75
     0
340
0
 46
1.0
 50
0.0
 44
0.0
 45
0.0
 49
-6.349999999999999
 74
     4
 75
     0
340
0
 46
1.0
 50
0.0
 44
0.0
 45
0.0
 49
6.349999999999999
 74
     4
 75
     0
340
0
 46
1.0
 50
0.0
 44
0.0
 45
0.0
 49
-6.349999999999999
 74
     4
 75
     0
340
0
 46
1.0
 50
0.0
 44
0.0
 45
0.0
  0
LTYPE
  5
D2D
330
5
100
AcDbSymbolTableRecord
100
AcDbLinetypeTableRecord
  2
RUPTURE
 70
     0
  3
Rupture line
 72
    65
 73
     4
 40
45.72
 49
25.4
 74
     4
 75
     0
340
0
 46
1.0
 50
0.0
 44
0.0
 45
0.0
 49
-5.08
 74
     4
 75
   131
340
11
 46
5.08
 50
0.0
 44
-5.08
 45
0.0
 49
-10.16
 74
     4
 75
   131
340
11
 46
5.08
 50
180.0
 44
5.08
 45
0.0
 49
-5.08
 74
     4
 75
     0
340
0
 46
1.0
 50
0.0
 44
0.0
 45
0.0
  0
ENDTAB
  0
TABLE
  2
LAYER
  5
2
330
0
100
AcDbSymbolTable
 70
    14
  0
LAYER
  5
10
330
2
100
AcDbSymbolTableRecord
100
AcDbLayerTableRecord
  2
0
 70
     0
 62
     7
  6
Continuous
370
    -3
390
F
  0
LAYER
  5
AA4
330
2
100
AcDbSymbolTableRecord
100
AcDbLayerTableRecord
  2
KCAD_DIMS
 70
     0
 62
   134
  6
Continuous
370
    15
390
F
  0
LAYER
  5
4F
330
2
100
AcDbSymbolTableRecord
100
AcDbLayerTableRecord
  2
DEFPOINTS
 70
     0
 62
     7
  6
Continuous
290
     0
370
    -3
390
F
  0
LAYER
  5
20B
330
2
100
AcDbSymbolTableRecord
100
AcDbLayerTableRecord
  2
KCAD_ASST
 70
     0
 62
   134
  6
Continuous
370
    15
390
F
  0
LAYER
  5
20C
330
2
100
AcDbSymbolTableRecord
100
AcDbLayerTableRecord
  2
KCAD_RASTER
 70
     0
 62
     7
  6
Continuous
370
    30
390
F
  0
LAYER
  5
20D
330
2
100
AcDbSymbolTableRecord
100
AcDbLayerTableRecord
  2
SYBCENTER
 70
     0
 62
   134
  6
CENTER
370
    15
390
F
  0
LAYER
  5
20E
330
2
100
AcDbSymbolTableRecord
100
AcDbLayerTableRecord
  2
SYBHIDE
 70
     0
 62
   134
  6
HIDDEN
370
    15
390
F
  0
LAYER
  5
20F
330
2
100
AcDbSymbolTableRecord
100
AcDbLayerTableRecord
  2
SYBOUTLINE
 70
     0
 62
     7
  6
Continuous
370
    30
390
F
  0
LAYER
  5
210
330
2
100
AcDbSymbolTableRecord
100
AcDbLayerTableRecord
  2
SYBTHREAD
 70
     0
 62
   134
  6
Continuous
370
    15
390
F
  0
LAYER
  5
211
330
2
100
AcDbSymbolTableRecord
100
AcDbLayerTableRecord
  2
SYBTHRHID
 70
     0
 62
   134
  6
HIDDEN
370
    15
390
F
  0
LAYER
  5
282
330
2
100
AcDbSymbolTableRecord
100
AcDbLayerTableRecord
  2
KCAD_UIR_TMP_LAYER_
 70
     0
 62
     7
  6
Continuous
370
    -3
390
F
  0
LAYER
  5
2A8
330
2
100
AcDbSymbolTableRecord
100
AcDbLayerTableRecord
  2
KCAD_CPM_MAX_LAYER
 70
     3
 62
     7
  6
Continuous
370
    -3
390
F
  0
LAYER
  5
2EF
330
2
100
AcDbSymbolTableRecord
100
AcDbLayerTableRecord
  2
99
 70
     0
 62
     7
  6
Continuous
370
    -3
390
F
  0
LAYER
  5
3C8
330
2
100
AcDbSymbolTableRecord
100
AcDbLayerTableRecord
  2
1
 70
     0
 62
     7
  6
Continuous
370
    -3
390
F
  0
ENDTAB
  0
TABLE
  2
STYLE
  5
3
330
0
100
AcDbSymbolTable
 70
     5
  0
STYLE
  5
11
330
3
100
AcDbSymbolTableRecord
100
AcDbTextStyleTableRecord
  2
Standard
 70
     0
 40
0.0
 41
1.0
 50
0.0
 71
     0
 42
3.2
  3
txt.shx
  4
bigfont.shx
  0
STYLE
  5
17F
330
3
100
AcDbSymbolTableRecord
100
AcDbTextStyleTableRecord
  2

 70
     1
 40
0.0
 41
1.0
 50
0.0
 71
     0
 42
3.2
  3
ltypeshp.shx
  4

  0
STYLE
  5
189
330
3
100
AcDbSymbolTableRecord
100
AcDbTextStyleTableRecord
  2
KCADDIMSTANDARD
 70
     0
 40
0.0
 41
1.0
 50
0.0
 71
     0
 42
3.2
  3
txt.shx
  4
bigfont.shx
  0
STYLE
  5
18A
330
3
100
AcDbSymbolTableRecord
100
AcDbTextStyleTableRecord
  2
KCADTEXTSTANDARD
 70
     0
 40
0.0
 41
1.0
 50
0.0
 71
     0
 42
6.4
  3
txt.shx
  4
bigfont.shx
  0
STYLE
  5
1AD
330
3
100
AcDbSymbolTableRecord
100
AcDbTextStyleTableRecord
  2
KCADTEXT2
 70
     0
 40
0.0
 41
1.0
 50
0.0
 71
     0
 42
3.2
  3
txt.shx
  4
extfont.shx
  0
ENDTAB
  0
TABLE
  2
VIEW
  5
6
330
0
100
AcDbSymbolTable
 70
     0
  0
ENDTAB
  0
TABLE
  2
UCS
  5
7
330
0
100
AcDbSymbolTable
 70
     0
  0
ENDTAB
  0
TABLE
  2
APPID
  5
9
330
0
100
AcDbSymbolTable
 70
     3
  0
APPID
  5
12
330
9
100
AcDbSymbolTableRecord
100
AcDbRegAppTableRecord
  2
ACAD
 70
     0
  0
APPID
  5
D27
330
9
100
AcDbSymbolTableRecord
100
AcDbRegAppTableRecord
  2
Sigma
 70
     0
  0
APPID
  5
D28
330
9
100
AcDbSymbolTableRecord
100
AcDbRegAppTableRecord
  2
KCAD_DIM_EXT
 70
     0
  0
ENDTAB
  0
TABLE
  2
DIMSTYLE
  5
A
330
0
100
AcDbSymbolTable
 70
     1
100
AcDbDimStyleTable
  0
DIMSTYLE
105
27
102
{ACAD_REACTORS
330
5BF
330
5FB
330
637
330
673
330
6AF
330
6F1
330
72D
330
76F
330
7AB
330
7F3
330
831
330
86D
330
8A9
330
8E5
330
91B
330
957
330
999
330
9DD
330
A19
330
A55
102
}
330
A
100
AcDbSymbolTableRecord
100
AcDbDimStyleTableRecord
  2
Standard
 70
     0
340
11
  0
ENDTAB
  0
TABLE
  2
BLOCK_RECORD
  5
1
330
0
100
AcDbSymbolTable
 70
    67
  0
BLOCK_RECORD
  5
1F
330
1
100
AcDbSymbolTableRecord
100
AcDbBlockTableRecord
  2
*Model_Space
340
22
  0
BLOCK_RECORD
  5
73
330
1
100
AcDbSymbolTableRecord
100
AcDbBlockTableRecord
  2
*Paper_Space
340
22F
  0
BLOCK_RECORD
  5
AA5
330
1
100
AcDbSymbolTableRecord
100
AcDbBlockTableRecord
  2
KCAD_OPEN
340
0
  0
BLOCK_RECORD
  5
3C
330
1
100
AcDbSymbolTableRecord
100
AcDbBlockTableRecord
  2
KCAD_DOTSMALL
340
0
  0
BLOCK_RECORD
  5
44
330
1
100
AcDbSymbolTableRecord
100
AcDbBlockTableRecord
  2
KCAD_NONE
340
0
  0
BLOCK_RECORD
  5
FC
330
1
100
AcDbSymbolTableRecord
100
AcDbBlockTableRecord
  2
_CLOSED
340
0
  0
BLOCK_RECORD
  5
103
330
1
100
AcDbSymbolTableRecord
100
AcDbBlockTableRecord
  2
_DOT
340
0
  0
BLOCK_RECORD
  5
10B
330
1
100
AcDbSymbolTableRecord
100
AcDbBlockTableRecord
  2
_CLOSEDBLANK
340
0
  0
BLOCK_RECORD
  5
111
330
1
100
AcDbSymbolTableRecord
100
AcDbBlockTableRecord
  2
_OBLIQUE
340
0
  0
BLOCK_RECORD
  5
115
330
1
100
AcDbSymbolTableRecord
100
AcDbBlockTableRecord
  2
_ARCHTICK
340
0
  0
BLOCK_RECORD
  5
11C
330
1
100
AcDbSymbolTableRecord
100
AcDbBlockTableRecord
  2
_OPEN
340
0
  0
BLOCK_RECORD
  5
122
330
1
100
AcDbSymbolTableRecord
100
AcDbBlockTableRecord
  2
_ORIGIN
340
0
  0
BLOCK_RECORD
  5
127
330
1
100
AcDbSymbolTableRecord
100
AcDbBlockTableRecord
  2
_OPEN90
340
0
  0
BLOCK_RECORD
  5
12D
330
1
100
AcDbSymbolTableRecord
100
AcDbBlockTableRecord
  2
_OPEN30
340
0
102
{BLKREFS
331
5F4
331
5F5
331
630
331
631
331
66C
331
66D
331
6A8
331
6A9
331
6EA
331
6EB
331
726
331
727
331
766
331
767
331
7A4
331
7A5
331
7EA
331
7EB
331
828
331
829
331
866
331
867
331
8A2
331
8A3
331
8DE
331
8DF
331
914
331
915
331
950
331
951
331
990
331
991
331
9D4
331
9D5
331
A12
331
A13
331
A4E
331
A4F
331
A8A
331
A8B
102
}
  0
BLOCK_RECORD
  5
133
330
1
100
AcDbSymbolTableRecord
100
AcDbBlockTableRecord
  2
_DOTBLANK
340
0
  0
BLOCK_RECORD
  5
138
330
1
100
AcDbSymbolTableRecord
100
AcDbBlockTableRecord
  2
_DOTSMALL
340
0
  0
BLOCK_RECORD
  5
13F
330
1
100
AcDbSymbolTableRecord
100
AcDbBlockTableRecord
  2
_BOXFILLED
340
0
  0
BLOCK_RECORD
  5
144
330
1
100
AcDbSymbolTableRecord
100
AcDbBlockTableRecord
  2
_BOXBLANK
340
0
  0
BLOCK_RECORD
  5
14C
330
1
100
AcDbSymbolTableRecord
100
AcDbBlockTableRecord
  2
_DATUMFILLED
340
0
  0
BLOCK_RECORD
  5
150
330
1
100
AcDbSymbolTableRecord
100
AcDbBlockTableRecord
  2
_DATUMBLANK
340
0
  0
BLOCK_RECORD
  5
156
330
1
100
AcDbSymbolTableRecord
100
AcDbBlockTableRecord
  2
_INTEGRAL
340
0
  0
BLOCK_RECORD
  5
1F1
330
1
100
AcDbSymbolTableRecord
100
AcDbBlockTableRecord
  2
_Origin2
340
0
  0
BLOCK_RECORD
  5
1F7
330
1
100
AcDbSymbolTableRecord
100
AcDbBlockTableRecord
  2
KCAD_OPEN30
340
0
  0
BLOCK_RECORD
  5
222
330
1
100
AcDbSymbolTableRecord
100
AcDbBlockTableRecord
  2
_None
340
0
  0
BLOCK_RECORD
  5
283
330
1
100
AcDbSymbolTableRecord
100
AcDbBlockTableRecord
  2
_Small
340
0
  0
BLOCK_RECORD
  5
287
330
1
100
AcDbSymbolTableRecord
100
AcDbBlockTableRecord
  2
KCAD_OPEN_2
340
0
  0
BLOCK_RECORD
  5
28E
330
1
100
AcDbSymbolTableRecord
100
AcDbBlockTableRecord
  2
KCAD_OPEN30_2
340
0
  0
BLOCK_RECORD
  5
2AD
330
1
100
AcDbSymbolTableRecord
100
AcDbBlockTableRecord
  2
KCAD_OPEN30ANG
340
0
  0
BLOCK_RECORD
  5
2B6
330
1
100
AcDbSymbolTableRecord
100
AcDbBlockTableRecord
  2
KCAD_DOTANG
340
0
  0
BLOCK_RECORD
  5
5C0
330
1
100
AcDbSymbolTableRecord
100
AcDbBlockTableRecord
  2
*D27
340
0
  0
BLOCK_RECORD
  5
5FC
330
1
100
AcDbSymbolTableRecord
100
AcDbBlockTableRecord
  2
*D28
340
0
  0
BLOCK_RECORD
  5
638
330
1
100
AcDbSymbolTableRecord
100
AcDbBlockTableRecord
  2
*D29
340
0
  0
BLOCK_RECORD
  5
674
330
1
100
AcDbSymbolTableRecord
100
AcDbBlockTableRecord
  2
*D30
340
0
  0
BLOCK_RECORD
  5
6B0
330
1
100
AcDbSymbolTableRecord
100
AcDbBlockTableRecord
  2
*D31
340
0
  0
BLOCK_RECORD
  5
6F2
330
1
100
AcDbSymbolTableRecord
100
AcDbBlockTableRecord
  2
*D32
340
0
  0
BLOCK_RECORD
  5
72E
330
1
100
AcDbSymbolTableRecord
100
AcDbBlockTableRecord
  2
*D33
340
0
  0
BLOCK_RECORD
  5
770
330
1
100
AcDbSymbolTableRecord
100
AcDbBlockTableRecord
  2
*D34
340
0
  0
BLOCK_RECORD
  5
7AC
330
1
100
AcDbSymbolTableRecord
100
AcDbBlockTableRecord
  2
*D35
340
0
  0
BLOCK_RECORD
  5
7F4
330
1
100
AcDbSymbolTableRecord
100
AcDbBlockTableRecord
  2
*D36
340
0
  0
BLOCK_RECORD
  5
832
330
1
100
AcDbSymbolTableRecord
100
AcDbBlockTableRecord
  2
*D37
340
0
  0
BLOCK_RECORD
  5
86E
330
1
100
AcDbSymbolTableRecord
100
AcDbBlockTableRecord
  2
*D38
340
0
  0
BLOCK_RECORD
  5
8AA
330
1
100
AcDbSymbolTableRecord
100
AcDbBlockTableRecord
  2
*D39
340
0
  0
BLOCK_RECORD
  5
8E6
330
1
100
AcDbSymbolTableRecord
100
AcDbBlockTableRecord
  2
*D40
340
0
  0
BLOCK_RECORD
  5
91C
330
1
100
AcDbSymbolTableRecord
100
AcDbBlockTableRecord
  2
*D41
340
0
  0
BLOCK_RECORD
  5
958
330
1
100
AcDbSymbolTableRecord
100
AcDbBlockTableRecord
  2
*D42
340
0
  0
BLOCK_RECORD
  5
99A
330
1
100
AcDbSymbolTableRecord
100
AcDbBlockTableRecord
  2
*D43
340
0
  0
BLOCK_RECORD
  5
9DE
330
1
100
AcDbSymbolTableRecord
100
AcDbBlockTableRecord
  2
*D44
340
0
  0
BLOCK_RECORD
  5
A1A
330
1
100
AcDbSymbolTableRecord
100
AcDbBlockTableRecord
  2
*D45
340
0
  0
BLOCK_RECORD
  5
A56
330
1
100
AcDbSymbolTableRecord
100
AcDbBlockTableRecord
  2
*D46
340
0
  0
BLOCK_RECORD
  5
B15
330
1
100
AcDbSymbolTableRecord
100
AcDbBlockTableRecord
  2
*D47
340
0
  0
BLOCK_RECORD
  5
B21
330
1
100
AcDbSymbolTableRecord
100
AcDbBlockTableRecord
  2
*D48
340
0
  0
BLOCK_RECORD
  5
B2D
330
1
100
AcDbSymbolTableRecord
100
AcDbBlockTableRecord
  2
*D49
340
0
  0
BLOCK_RECORD
  5
B39
330
1
100
AcDbSymbolTableRecord
100
AcDbBlockTableRecord
  2
*D50
340
0
  0
BLOCK_RECORD
  5
B46
330
1
100
AcDbSymbolTableRecord
100
AcDbBlockTableRecord
  2
*D51
340
0
  0
BLOCK_RECORD
  5
B52
330
1
100
AcDbSymbolTableRecord
100
AcDbBlockTableRecord
  2
*D52
340
0
  0
BLOCK_RECORD
  5
B5E
330
1
100
AcDbSymbolTableRecord
100
AcDbBlockTableRecord
  2
*D53
340
0
  0
BLOCK_RECORD
  5
B6A
330
1
100
AcDbSymbolTableRecord
100
AcDbBlockTableRecord
  2
*D54
340
0
  0
BLOCK_RECORD
  5
B77
330
1
100
AcDbSymbolTableRecord
100
AcDbBlockTableRecord
  2
*D55
340
0
  0
BLOCK_RECORD
  5
B83
330
1
100
AcDbSymbolTableRecord
100
AcDbBlockTableRecord
  2
*D56
340
0
  0
BLOCK_RECORD
  5
B8F
330
1
100
AcDbSymbolTableRecord
100
AcDbBlockTableRecord
  2
*D57
340
0
  0
BLOCK_RECORD
  5
B9B
330
1
100
AcDbSymbolTableRecord
100
AcDbBlockTableRecord
  2
*D58
340
0
  0
BLOCK_RECORD
  5
BA7
330
1
100
AcDbSymbolTableRecord
100
AcDbBlockTableRecord
  2
*D59
340
0
  0
BLOCK_RECORD
  5
BB2
330
1
100
AcDbSymbolTableRecord
100
AcDbBlockTableRecord
  2
*D60
340
0
  0
BLOCK_RECORD
  5
BBE
330
1
100
AcDbSymbolTableRecord
100
AcDbBlockTableRecord
  2
*D61
340
0
  0
BLOCK_RECORD
  5
BCA
330
1
100
AcDbSymbolTableRecord
100
AcDbBlockTableRecord
  2
*D62
340
0
  0
BLOCK_RECORD
  5
BD7
330
1
100
AcDbSymbolTableRecord
100
AcDbBlockTableRecord
  2
*D63
340
0
  0
BLOCK_RECORD
  5
BE3
330
1
100
AcDbSymbolTableRecord
100
AcDbBlockTableRecord
  2
*D64
340
0
  0
BLOCK_RECORD
  5
BEF
330
1
100
AcDbSymbolTableRecord
100
AcDbBlockTableRecord
  2
*D65
340
0
  0
BLOCK_RECORD
  5
BFB
330
1
100
AcDbSymbolTableRecord
100
AcDbBlockTableRecord
  2
*D66
340
0
  0
ENDTAB
  0
ENDSEC
  0
SECTION
  2
BLOCKS
  0
BLOCK
  5
20
330
1F
100
AcDbEntity
  8
0
100
AcDbBlockBegin
  2
*Model_Space
 70
     0
 71
     0
 10
0.0
 20
0.0
 30
0.0
  3
*Model_Space
  1

  0
ENDBLK
  5
21
330
1F
100
AcDbEntity
  8
0
100
AcDbBlockEnd
  0
BLOCK
  5
75
330
73
100
AcDbEntity
 67
     1
  8
0
100
AcDbBlockBegin
  2
*Paper_Space
 70
     0
 71
     0
 10
0.0
 20
0.0
 30
0.0
  3
*Paper_Space
  1

  0
ENDBLK
  5
76
330
73
100
AcDbEntity
 67
     1
  8
0
100
AcDbBlockEnd
  0
BLOCK
  5
D30
330
AA5
100
AcDbEntity
  8
KCAD_DIMS
100
AcDbBlockBegin
  2
KCAD_OPEN
 70
     0
 71
     0
 10
0.0
 20
0.0
 30
0.0
  3
KCAD_OPEN
  1

  0
LINE
  5
B04
330
AA5
100
AcDbEntity
  8
0
  6
Continuous
 62
     0
370
    -2
100
AcDbLine
 10
0.0
 20
0.0
 30
0.0
 11
-1.0
 21
0.0
 31
0.0
  0
LINE
  5
23
330
AA5
100
AcDbEntity
  8
0
  6
Continuous
 62
     0
370
    -2
100
AcDbLine
 10
0.0
 20
0.0
 30
0.0
 11
-1.0
 21
0.158384
 31
0.0
  0
LINE
  5
24
330
AA5
100
AcDbEntity
  8
0
  6
Continuous
 62
     0
370
    -2
100
AcDbLine
 10
0.0
 20
0.0
 30
0.0
 11
-1.0
 21
-0.158384
 31
0.0
  0
ENDBLK
  5
D31
330
AA5
100
AcDbEntity
  8
KCAD_DIMS
100
AcDbBlockEnd
  0
BLOCK
  5
D32
330
3C
100
AcDbEntity
  8
KCAD_DIMS
100
AcDbBlockBegin
  2
KCAD_DOTSMALL
 70
     0
 71
     0
 10
0.0
 20
0.0
 30
0.0
  3
KCAD_DOTSMALL
  1

  0
LWPOLYLINE
  5
3D
330
3C
100
AcDbEntity
  8
KCAD_DIMS
 62
     0
100
AcDbPolyline
 90
        2
 70
     1
 43
0.5
 10
0.06252
 20
0.0
 42
1.0
 10
-0.06262
 20
0.0
 42
1.0
  0
LINE
  5
41
330
3C
100
AcDbEntity
  8
0
  6
Continuous
 62
     0
370
    -2
100
AcDbLine
 10
0.0
 20
0.0
 30
0.0
 11
-1.0
 21
0.0
 31
0.0
  0
ENDBLK
  5
D33
330
3C
100
AcDbEntity
  8
0
100
AcDbBlockEnd
  0
BLOCK
  5
D34
330
44
100
AcDbEntity
  8
KCAD_DIMS
100
AcDbBlockBegin
  2
KCAD_NONE
 70
     0
 71
     0
 10
0.0
 20
0.0
 30
0.0
  3
KCAD_NONE
  1

  0
LINE
  5
45
330
44
100
AcDbEntity
  8
0
  6
Continuous
 62
     0
370
    -2
100
AcDbLine
 10
0.0
 20
0.0
 30
0.0
 11
-1.0
 21
0.0
 31
0.0
  0
ENDBLK
  5
D35
330
44
100
AcDbEntity
  8
0
100
AcDbBlockEnd
  0
BLOCK
  5
D36
330
FC
100
AcDbEntity
  8
0
100
AcDbBlockBegin
  2
_CLOSED
 70
     0
 71
     0
 10
0.0
 20
0.0
 30
0.0
  3
_CLOSED
  1

  0
LINE
  5
FE
330
FC
100
AcDbEntity
  8
0
  6
Continuous
 62
     0
370
    -2
100
AcDbLine
 10
-1.0
 20
0.166667
 30
0.0
 11
0.0
 21
0.0
 31
0.0
  0
LINE
  5
FF
330
FC
100
AcDbEntity
  8
0
  6
Continuous
 62
     0
370
    -2
100
AcDbLine
 10
0.0
 20
0.0
 30
0.0
 11
-1.0
 21
-0.166667
 31
0.0
  0
LINE
  5
100
330
FC
100
AcDbEntity
  8
0
  6
Continuous
 62
     0
370
    -2
100
AcDbLine
 10
-1.0
 20
0.166667
 30
0.0
 11
-1.0
 21
-0.166667
 31
0.0
  0
LINE
  5
101
330
FC
100
AcDbEntity
  8
0
  6
Continuous
 62
     0
370
    -2
100
AcDbLine
 10
0.0
 20
0.0
 30
0.0
 11
-1.0
 21
0.0
 31
0.0
  0
ENDBLK
  5
D37
330
FC
100
AcDbEntity
  8
0
100
AcDbBlockEnd
  0
BLOCK
  5
D38
330
103
100
AcDbEntity
  8
0
100
AcDbBlockBegin
  2
_DOT
 70
     0
 71
     0
 10
0.0
 20
0.0
 30
0.0
  3
_DOT
  1

  0
LWPOLYLINE
  5
105
330
103
100
AcDbEntity
  8
0
  6
ByBlock
 62
     0
100
AcDbPolyline
 90
        2
 70
     1
 43
0.5
 10
-0.25
 20
0.0
 42
1.0
 10
0.25
 20
0.0
 42
1.0
  0
LINE
  5
109
330
103
100
AcDbEntity
  8
0
  6
Continuous
 62
     0
370
    -2
100
AcDbLine
 10
-0.5
 20
0.0
 30
0.0
 11
-1.0
 21
0.0
 31
0.0
  0
ENDBLK
  5
D39
330
103
100
AcDbEntity
  8
0
100
AcDbBlockEnd
  0
BLOCK
  5
D3A
330
10B
100
AcDbEntity
  8
0
100
AcDbBlockBegin
  2
_CLOSEDBLANK
 70
     0
 71
     0
 10
0.0
 20
0.0
 30
0.0
  3
_CLOSEDBLANK
  1

  0
LINE
  5
10D
330
10B
100
AcDbEntity
  8
0
  6
Continuous
 62
     0
370
    -2
100
AcDbLine
 10
-1.0
 20
0.166667
 30
0.0
 11
0.0
 21
0.0
 31
0.0
  0
LINE
  5
10E
330
10B
100
AcDbEntity
  8
0
  6
Continuous
 62
     0
370
    -2
100
AcDbLine
 10
0.0
 20
0.0
 30
0.0
 11
-1.0
 21
-0.166667
 31
0.0
  0
LINE
  5
10F
330
10B
100
AcDbEntity
  8
0
  6
Continuous
 62
     0
370
    -2
100
AcDbLine
 10
-1.0
 20
0.166667
 30
0.0
 11
-1.0
 21
-0.166667
 31
0.0
  0
ENDBLK
  5
D3B
330
10B
100
AcDbEntity
  8
0
100
AcDbBlockEnd
  0
BLOCK
  5
D3C
330
111
100
AcDbEntity
  8
0
100
AcDbBlockBegin
  2
_OBLIQUE
 70
     0
 71
     0
 10
0.0
 20
0.0
 30
0.0
  3
_OBLIQUE
  1

  0
LINE
  5
113
330
111
100
AcDbEntity
  8
0
  6
Continuous
 62
     0
370
    -2
100
AcDbLine
 10
-0.5
 20
-0.5
 30
0.0
 11
0.5
 21
0.5
 31
0.0
  0
ENDBLK
  5
D3D
330
111
100
AcDbEntity
  8
0
100
AcDbBlockEnd
  0
BLOCK
  5
D3E
330
115
100
AcDbEntity
  8
0
100
AcDbBlockBegin
  2
_ARCHTICK
 70
     0
 71
     0
 10
0.0
 20
0.0
 30
0.0
  3
_ARCHTICK
  1

  0
LWPOLYLINE
  5
117
330
115
100
AcDbEntity
  8
0
  6
ByBlock
 62
     0
100
AcDbPolyline
 90
        2
 70
     0
 43
0.15
 10
-0.5
 20
-0.5
 10
0.5
 20
0.5
  0
ENDBLK
  5
D3F
330
115
100
AcDbEntity
  8
0
100
AcDbBlockEnd
  0
BLOCK
  5
D40
330
11C
100
AcDbEntity
  8
0
100
AcDbBlockBegin
  2
_OPEN
 70
     0
 71
     0
 10
0.0
 20
0.0
 30
0.0
  3
_OPEN
  1

  0
LINE
  5
11E
330
11C
100
AcDbEntity
  8
0
  6
Continuous
 62
     0
370
    -2
100
AcDbLine
 10
-1.0
 20
0.166667
 30
0.0
 11
0.0
 21
0.0
 31
0.0
  0
LINE
  5
11F
330
11C
100
AcDbEntity
  8
0
  6
Continuous
 62
     0
370
    -2
100
AcDbLine
 10
0.0
 20
0.0
 30
0.0
 11
-1.0
 21
-0.166667
 31
0.0
  0
LINE
  5
120
330
11C
100
AcDbEntity
  8
0
  6
Continuous
 62
     0
370
    -2
100
AcDbLine
 10
0.0
 20
0.0
 30
0.0
 11
-1.0
 21
0.0
 31
0.0
  0
ENDBLK
  5
D41
330
11C
100
AcDbEntity
  8
0
100
AcDbBlockEnd
  0
BLOCK
  5
D42
330
122
100
AcDbEntity
  8
0
100
AcDbBlockBegin
  2
_ORIGIN
 70
     0
 71
     0
 10
0.0
 20
0.0
 30
0.0
  3
_ORIGIN
  1

  0
CIRCLE
  5
124
330
122
100
AcDbEntity
  8
0
  6
ByBlock
 62
     0
100
AcDbCircle
 10
0.0
 20
0.0
 30
0.0
 40
0.5
  0
LINE
  5
125
330
122
100
AcDbEntity
  8
0
  6
Continuous
 62
     0
370
    -2
100
AcDbLine
 10
0.0
 20
0.0
 30
0.0
 11
-1.0
 21
0.0
 31
0.0
  0
ENDBLK
  5
D43
330
122
100
AcDbEntity
  8
0
100
AcDbBlockEnd
  0
BLOCK
  5
D44
330
127
100
AcDbEntity
  8
0
100
AcDbBlockBegin
  2
_OPEN90
 70
     0
 71
     0
 10
0.0
 20
0.0
 30
0.0
  3
_OPEN90
  1

  0
LINE
  5
129
330
127
100
AcDbEntity
  8
0
  6
Continuous
 62
     0
370
    -2
100
AcDbLine
 10
-0.5
 20
0.5
 30
0.0
 11
0.0
 21
0.0
 31
0.0
  0
LINE
  5
12A
330
127
100
AcDbEntity
  8
0
  6
Continuous
 62
     0
370
    -2
100
AcDbLine
 10
0.0
 20
0.0
 30
0.0
 11
-0.5
 21
-0.5
 31
0.0
  0
LINE
  5
12B
330
127
100
AcDbEntity
  8
0
  6
Continuous
 62
     0
370
    -2
100
AcDbLine
 10
0.0
 20
0.0
 30
0.0
 11
-1.0
 21
0.0
 31
0.0
  0
ENDBLK
  5
D45
330
127
100
AcDbEntity
  8
0
100
AcDbBlockEnd
  0
BLOCK
  5
D46
330
12D
100
AcDbEntity
  8
0
100
AcDbBlockBegin
  2
_OPEN30
 70
     0
 71
     0
 10
0.0
 20
0.0
 30
0.0
  3
_OPEN30
  1

  0
LINE
  5
12F
330
12D
100
AcDbEntity
  8
0
  6
Continuous
 62
     0
370
    -2
100
AcDbLine
 10
-1.0
 20
0.267949
 30
0.0
 11
0.0
 21
0.0
 31
0.0
  0
LINE
  5
130
330
12D
100
AcDbEntity
  8
0
  6
Continuous
 62
     0
370
    -2
100
AcDbLine
 10
0.0
 20
0.0
 30
0.0
 11
-1.0
 21
-0.267949
 31
0.0
  0
LINE
  5
131
330
12D
100
AcDbEntity
  8
0
  6
Continuous
 62
     0
370
    -2
100
AcDbLine
 10
0.0
 20
0.0
 30
0.0
 11
-1.0
 21
0.0
 31
0.0
  0
ENDBLK
  5
D47
330
12D
100
AcDbEntity
  8
0
100
AcDbBlockEnd
  0
BLOCK
  5
D48
330
133
100
AcDbEntity
  8
0
100
AcDbBlockBegin
  2
_DOTBLANK
 70
     0
 71
     0
 10
0.0
 20
0.0
 30
0.0
  3
_DOTBLANK
  1

  0
CIRCLE
  5
135
330
133
100
AcDbEntity
  8
0
  6
ByBlock
 62
     0
100
AcDbCircle
 10
0.0
 20
0.0
 30
0.0
 40
0.5
  0
LINE
  5
136
330
133
100
AcDbEntity
  8
0
  6
Continuous
 62
     0
370
    -2
100
AcDbLine
 10
-0.5
 20
0.0
 30
0.0
 11
-1.0
 21
0.0
 31
0.0
  0
ENDBLK
  5
D49
330
133
100
AcDbEntity
  8
0
100
AcDbBlockEnd
  0
BLOCK
  5
D4A
330
138
100
AcDbEntity
  8
0
100
AcDbBlockBegin
  2
_DOTSMALL
 70
     0
 71
     0
 10
0.0
 20
0.0
 30
0.0
  3
_DOTSMALL
  1

  0
LWPOLYLINE
  5
13A
330
138
100
AcDbEntity
  8
0
  6
ByBlock
 62
     0
100
AcDbPolyline
 90
        2
 70
     1
 43
0.5
 10
-0.0625
 20
0.0
 42
1.0
 10
0.0625
 20
0.0
 42
1.0
  0
ENDBLK
  5
D4B
330
138
100
AcDbEntity
  8
0
100
AcDbBlockEnd
  0
BLOCK
  5
D4C
330
13F
100
AcDbEntity
  8
0
100
AcDbBlockBegin
  2
_BOXFILLED
 70
     0
 71
     0
 10
0.0
 20
0.0
 30
0.0
  3
_BOXFILLED
  1

  0
SOLID
  5
141
330
13F
100
AcDbEntity
  8
0
  6
ByBlock
 62
     0
100
AcDbTrace
 10
-0.5
 20
0.5
 30
0.0
 11
0.5
 21
0.5
 31
0.0
 12
-0.5
 22
-0.5
 32
0.0
 13
0.5
 23
-0.5
 33
0.0
  0
LINE
  5
142
330
13F
100
AcDbEntity
  8
0
  6
Continuous
 62
     0
370
    -2
100
AcDbLine
 10
-0.5
 20
0.0
 30
0.0
 11
-1.0
 21
0.0
 31
0.0
  0
ENDBLK
  5
D4D
330
13F
100
AcDbEntity
  8
0
100
AcDbBlockEnd
  0
BLOCK
  5
D4E
330
144
100
AcDbEntity
  8
0
100
AcDbBlockBegin
  2
_BOXBLANK
 70
     0
 71
     0
 10
0.0
 20
0.0
 30
0.0
  3
_BOXBLANK
  1

  0
LINE
  5
146
330
144
100
AcDbEntity
  8
0
  6
Continuous
 62
     0
370
    -2
100
AcDbLine
 10
-0.5
 20
-0.5
 30
0.0
 11
0.5
 21
-0.5
 31
0.0
  0
LINE
  5
147
330
144
100
AcDbEntity
  8
0
  6
Continuous
 62
     0
370
    -2
100
AcDbLine
 10
0.5
 20
-0.5
 30
0.0
 11
0.5
 21
0.5
 31
0.0
  0
LINE
  5
148
330
144
100
AcDbEntity
  8
0
  6
Continuous
 62
     0
370
    -2
100
AcDbLine
 10
0.5
 20
0.5
 30
0.0
 11
-0.5
 21
0.5
 31
0.0
  0
LINE
  5
149
330
144
100
AcDbEntity
  8
0
  6
Continuous
 62
     0
370
    -2
100
AcDbLine
 10
-0.5
 20
0.5
 30
0.0
 11
-0.5
 21
-0.5
 31
0.0
  0
LINE
  5
14A
330
144
100
AcDbEntity
  8
0
  6
Continuous
 62
     0
370
    -2
100
AcDbLine
 10
-0.5
 20
0.0
 30
0.0
 11
-1.0
 21
0.0
 31
0.0
  0
ENDBLK
  5
D4F
330
144
100
AcDbEntity
  8
0
100
AcDbBlockEnd
  0
BLOCK
  5
D50
330
14C
100
AcDbEntity
  8
0
100
AcDbBlockBegin
  2
_DATUMFILLED
 70
     0
 71
     0
 10
0.0
 20
0.0
 30
0.0
  3
_DATUMFILLED
  1

  0
SOLID
  5
14E
330
14C
100
AcDbEntity
  8
0
  6
ByBlock
 62
     0
100
AcDbTrace
 10
0.0
 20
0.5773500000000001
 30
0.0
 11
-1.0
 21
0.0
 31
0.0
 12
0.0
 22
-0.5773500000000001
 32
0.0
 13
0.0
 23
-0.5773500000000001
 33
0.0
  0
ENDBLK
  5
D51
330
14C
100
AcDbEntity
  8
0
100
AcDbBlockEnd
  0
BLOCK
  5
D52
330
150
100
AcDbEntity
  8
0
100
AcDbBlockBegin
  2
_DATUMBLANK
 70
     0
 71
     0
 10
0.0
 20
0.0
 30
0.0
  3
_DATUMBLANK
  1

  0
LINE
  5
152
330
150
100
AcDbEntity
  8
0
  6
Continuous
 62
     0
370
    -2
100
AcDbLine
 10
0.0
 20
0.5773500000000001
 30
0.0
 11
-1.0
 21
0.0
 31
0.0
  0
LINE
  5
153
330
150
100
AcDbEntity
  8
0
  6
Continuous
 62
     0
370
    -2
100
AcDbLine
 10
-1.0
 20
0.0
 30
0.0
 11
0.0
 21
-0.5773500000000001
 31
0.0
  0
LINE
  5
154
330
150
100
AcDbEntity
  8
0
  6
Continuous
 62
     0
370
    -2
100
AcDbLine
 10
0.0
 20
-0.5773500000000001
 30
0.0
 11
0.0
 21
0.5773500000000001
 31
0.0
  0
ENDBLK
  5
D53
330
150
100
AcDbEntity
  8
0
100
AcDbBlockEnd
  0
BLOCK
  5
D54
330
156
100
AcDbEntity
  8
0
100
AcDbBlockBegin
  2
_INTEGRAL
 70
     0
 71
     0
 10
0.0
 20
0.0
 30
0.0
  3
_INTEGRAL
  1

  0
ARC
  5
158
330
156
100
AcDbEntity
  8
0
  6
ByBlock
 62
     0
100
AcDbCircle
 10
0.444888
 20
-0.091335
 30
0.0
 40
0.454167
100
AcDbArc
 50
102.0
 51
168.0
  0
ARC
  5
159
330
156
100
AcDbEntity
  8
0
  6
ByBlock
 62
     0
100
AcDbCircle
 10
-0.444888
 20
0.091335
 30
0.0
 40
0.454167
100
AcDbArc
 50
282.0
 51
348.0
  0
ENDBLK
  5
D55
330
156
100
AcDbEntity
  8
0
100
AcDbBlockEnd
  0
BLOCK
  5
D56
330
1F1
100
AcDbEntity
  8
0
100
AcDbBlockBegin
  2
_Origin2
 70
     0
 71
     0
 10
0.0
 20
0.0
 30
0.0
  3
_Origin2
  1

  0
CIRCLE
  5
1F2
330
1F1
100
AcDbEntity
  8
0
  6
Continuous
 62
     0
370
    -2
100
AcDbCircle
 10
0.0
 20
0.0
 30
0.0
 40
0.5
  0
CIRCLE
  5
1F3
330
1F1
100
AcDbEntity
  8
0
  6
Continuous
 62
     0
370
    -2
100
AcDbCircle
 10
0.0
 20
0.0
 30
0.0
 40
0.25
  0
LINE
  5
1F4
330
1F1
100
AcDbEntity
  8
0
  6
Continuous
 62
     0
370
    -2
100
AcDbLine
 10
-0.5
 20
0.0
 30
0.0
 11
-1.0
 21
0.0
 31
0.0
  0
ENDBLK
  5
D57
330
1F1
100
AcDbEntity
  8
0
100
AcDbBlockEnd
  0
BLOCK
  5
D58
330
1F7
100
AcDbEntity
  8
0
100
AcDbBlockBegin
  2
KCAD_OPEN30
 70
     0
 71
     0
 10
0.0
 20
0.0
 30
0.0
  3
KCAD_OPEN30
  1

  0
LINE
  5
1F8
330
1F7
100
AcDbEntity
  8
0
  6
Continuous
 62
     0
370
    -2
100
AcDbLine
 10
0.0
 20
0.0
 30
0.0
 11
-1.0
 21
0.0
 31
0.0
  0
LINE
  5
1F9
330
1F7
100
AcDbEntity
  8
0
  6
Continuous
 62
     0
370
    -2
100
AcDbLine
 10
0.0
 20
0.0
 30
0.0
 11
-1.0
 21
0.2679491924311227
 31
0.0
  0
LINE
  5
1FA
330
1F7
100
AcDbEntity
  8
0
  6
Continuous
 62
     0
370
    -2
100
AcDbLine
 10
0.0
 20
0.0
 30
0.0
 11
-1.0
 21
-0.2679491924311227
 31
0.0
  0
ENDBLK
  5
D59
330
1F7
100
AcDbEntity
  8
0
100
AcDbBlockEnd
  0
BLOCK
  5
D5A
330
222
100
AcDbEntity
  8
0
100
AcDbBlockBegin
  2
_None
 70
     0
 71
     0
 10
0.0
 20
0.0
 30
0.0
  3
_None
  1

  0
ENDBLK
  5
D5B
330
222
100
AcDbEntity
  8
0
100
AcDbBlockEnd
  0
BLOCK
  5
D5C
330
283
100
AcDbEntity
  8
0
100
AcDbBlockBegin
  2
_Small
 70
     0
 71
     0
 10
0.0
 20
0.0
 30
0.0
  3
_Small
  1

  0
CIRCLE
  5
284
330
283
100
AcDbEntity
  8
0
  6
ByBlock
 62
     0
370
    -2
100
AcDbCircle
 10
0.0
 20
0.0
 30
0.0
 40
0.25
  0
ENDBLK
  5
D5D
330
283
100
AcDbEntity
  8
0
100
AcDbBlockEnd
  0
BLOCK
  5
D5E
330
287
100
AcDbEntity
  8
0
100
AcDbBlockBegin
  2
KCAD_OPEN_2
 70
     0
 71
     0
 10
0.0
 20
0.0
 30
0.0
  3
KCAD_OPEN_2
  1

  0
LINE
  5
288
330
287
100
AcDbEntity
  8
0
  6
Continuous
 62
     0
370
    -2
100
AcDbLine
 10
0.0
 20
0.0
 30
0.0
 11
-2.0
 21
0.0
 31
0.0
  0
LINE
  5
289
330
287
100
AcDbEntity
  8
0
  6
Continuous
 62
     0
370
    -2
100
AcDbLine
 10
0.0
 20
0.0
 30
0.0
 11
-2.0
 21
0.3167688806490725
 31
0.0
  0
LINE
  5
28A
330
287
100
AcDbEntity
  8
0
  6
Continuous
 62
     0
370
    -2
100
AcDbLine
 10
0.0
 20
0.0
 30
0.0
 11
-2.0
 21
-0.3167688806490725
 31
0.0
  0
LINE
  5
28B
330
287
100
AcDbEntity
  8
0
  6
Continuous
 62
     0
370
    -2
100
AcDbLine
 10
-2.0
 20
0.0
 30
0.0
 11
-4.0
 21
0.0
 31
0.0
  0
ENDBLK
  5
D5F
330
287
100
AcDbEntity
  8
0
100
AcDbBlockEnd
  0
BLOCK
  5
D60
330
28E
100
AcDbEntity
  8
0
100
AcDbBlockBegin
  2
KCAD_OPEN30_2
 70
     0
 71
     0
 10
0.0
 20
0.0
 30
0.0
  3
KCAD_OPEN30_2
  1

  0
LINE
  5
28F
330
28E
100
AcDbEntity
  8
0
  6
Continuous
 62
     0
370
    -2
100
AcDbLine
 10
0.0
 20
0.0
 30
0.0
 11
-2.0
 21
0.0
 31
0.0
  0
LINE
  5
290
330
28E
100
AcDbEntity
  8
0
  6
Continuous
 62
     0
370
    -2
100
AcDbLine
 10
0.0
 20
0.0
 30
0.0
 11
-2.0
 21
0.5358983848622455
 31
0.0
  0
LINE
  5
291
330
28E
100
AcDbEntity
  8
0
  6
Continuous
 62
     0
370
    -2
100
AcDbLine
 10
0.0
 20
0.0
 30
0.0
 11
-2.0
 21
-0.5358983848622455
 31
0.0
  0
LINE
  5
292
330
28E
100
AcDbEntity
  8
0
  6
Continuous
 62
     0
370
    -2
100
AcDbLine
 10
-2.0
 20
0.0
 30
0.0
 11
-4.0
 21
0.0
 31
0.0
  0
ENDBLK
  5
D61
330
28E
100
AcDbEntity
  8
0
100
AcDbBlockEnd
  0
BLOCK
  5
D62
330
2AD
100
AcDbEntity
  8
0
100
AcDbBlockBegin
  2
KCAD_OPEN30ANG
 70
     0
 71
     0
 10
0.0
 20
0.0
 30
0.0
  3
KCAD_OPEN30ANG
  1

  0
LINE
  5
2D7
330
2AD
100
AcDbEntity
  8
0
  6
Continuous
 62
     0
370
    -2
100
AcDbLine
 10
0.0
 20
0.0
 30
0.0
 11
-1.0
 21
-0.267949
 31
0.0
  0
LINE
  5
2D8
330
2AD
100
AcDbEntity
  8
0
  6
Continuous
 62
     0
370
    -2
100
AcDbLine
 10
-1.0
 20
0.267949
 30
0.0
 11
0.0
 21
0.0
 31
0.0
  0
ENDBLK
  5
D63
330
2AD
100
AcDbEntity
  8
0
100
AcDbBlockEnd
  0
BLOCK
  5
D64
330
2B6
100
AcDbEntity
  8
0
100
AcDbBlockBegin
  2
KCAD_DOTANG
 70
     0
 71
     0
 10
0.0
 20
0.0
 30
0.0
  3
KCAD_DOTANG
  1

  0
LWPOLYLINE
  5
2DD
330
2B6
100
AcDbEntity
  8
0
  6
ByBlock
 62
     0
100
AcDbPolyline
 90
        2
 70
     1
 43
0.5
 10
-0.25
 20
0.0
 42
1.0
 10
0.25
 20
0.0
 42
1.0
  0
ENDBLK
  5
D65
330
2B6
100
AcDbEntity
  8
0
100
AcDbBlockEnd
  0
BLOCK
  5
D66
330
5C0
100
AcDbEntity
  8
0
100
AcDbBlockBegin
  2
*D27
 70
     1
 71
     0
 10
0.0
 20
0.0
 30
0.0
  3
*D27
  1

  0
LINE
  5
5F2
330
5C0
100
AcDbEntity
  8
KCAD_DIMS
 62
     0
370
    -2
100
AcDbLine
 10
153.00564440263
 20
377.39511670511
 30
0.0
 11
175.72927477363
 21
377.39511670511
 31
0.0
  0
LINE
  5
5F3
330
5C0
100
AcDbEntity
  8
KCAD_DIMS
 62
     0
370
    -2
100
AcDbLine
 10
153.00564440263
 20
243.39511670511
 30
0.0
 11
175.72927477363
 21
243.39511670511
 31
0.0
  0
INSERT
  5
5F4
330
5C0
100
AcDbEntity
  8
KCAD_DIMS
 62
     0
370
    -2
100
AcDbBlockReference
  2
_OPEN30
 10
153.00564440263
 20
377.39511670511
 30
0.0
 41
5.0
 42
5.0
 43
5.0
 50
90.0
  0
INSERT
  5
5F5
330
5C0
100
AcDbEntity
  8
KCAD_DIMS
 62
     0
370
    -2
100
AcDbBlockReference
  2
_OPEN30
 10
153.00564440263
 20
243.39511670511
 30
0.0
 41
5.0
 42
5.0
 43
5.0
 50
270.0
  0
LINE
  5
5F6
330
5C0
100
AcDbEntity
  8
KCAD_DIMS
 62
     0
370
    -2
100
AcDbLine
 10
153.00564440263
 20
372.39511670511
 30
0.0
 11
153.00564440263
 21
248.39511670511
 31
0.0
  0
POINT
  5
5F7
330
5C0
100
AcDbEntity
  8
DEFPOINTS
 62
     0
370
    15
100
AcDbPoint
 10
175.72927477363
 20
377.39511670511
 30
0.0
  0
POINT
  5
5F8
330
5C0
100
AcDbEntity
  8
DEFPOINTS
 62
     0
370
    15
100
AcDbPoint
 10
175.72927477363
 20
243.39511670511
 30
0.0
  0
POINT
  5
5F9
330
5C0
100
AcDbEntity
  8
DEFPOINTS
 62
     0
370
    15
100
AcDbPoint
 10
153.00564440263
 20
243.39511670511
 30
0.0
  0
MTEXT
  5
5FA
330
5C0
100
AcDbEntity
  8
KCAD_DIMS
 62
     0
100
AcDbMText
 10
148.73897840263
 20
310.39511670511
 30
0.0
 40
6.4
 41
0.0
 71
     5
 72
     1
  1
\A1;φ134
  7
KCADDIMSTANDARD
 11
1.000000000000000E-16
 21
1.0
 31
0.0
 73
     1
 44
1.0
  0
ENDBLK
  5
D67
330
5C0
100
AcDbEntity
  8
0
100
AcDbBlockEnd
  0
BLOCK
  5
D68
330
5FC
100
AcDbEntity
  8
0
100
AcDbBlockBegin
  2
*D28
 70
     1
 71
     0
 10
0.0
 20
0.0
 30
0.0
  3
*D28
  1

  0
LINE
  5
62E
330
5FC
100
AcDbEntity
  8
KCAD_DIMS
 62
     0
370
    -2
100
AcDbLine
 10
175.22927477363
 20
403.01813390822
 30
0.0
 11
175.22927477363
 21
376.89511670511
 31
0.0
  0
LINE
  5
62F
330
5FC
100
AcDbEntity
  8
KCAD_DIMS
 62
     0
370
    -2
100
AcDbLine
 10
385.2292747736299
 20
403.01813390822
 30
0.0
 11
385.2292747736299
 21
377.39511670511
 31
0.0
  0
INSERT
  5
630
330
5FC
100
AcDbEntity
  8
KCAD_DIMS
 62
     0
370
    -2
100
AcDbBlockReference
  2
_OPEN30
 10
175.22927477363
 20
403.01813390822
 30
0.0
 41
5.0
 42
5.0
 43
5.0
 50
180.0
  0
INSERT
  5
631
330
5FC
100
AcDbEntity
  8
KCAD_DIMS
 62
     0
370
    -2
100
AcDbBlockReference
  2
_OPEN30
 10
385.2292747736299
 20
403.01813390822
 30
0.0
 41
5.0
 42
5.0
 43
5.0
  0
LINE
  5
632
330
5FC
100
AcDbEntity
  8
KCAD_DIMS
 62
     0
370
    -2
100
AcDbLine
 10
180.22927477363
 20
403.01813390822
 30
0.0
 11
380.2292747736299
 21
403.01813390822
 31
0.0
  0
POINT
  5
633
330
5FC
100
AcDbEntity
  8
DEFPOINTS
 62
     0
370
    15
100
AcDbPoint
 10
175.22927477363
 20
376.89511670511
 30
0.0
  0
POINT
  5
634
330
5FC
100
AcDbEntity
  8
DEFPOINTS
 62
     0
370
    15
100
AcDbPoint
 10
385.2292747736299
 20
377.39511670511
 30
0.0
  0
POINT
  5
635
330
5FC
100
AcDbEntity
  8
DEFPOINTS
 62
     0
370
    15
100
AcDbPoint
 10
385.2292747736299
 20
403.01813390822
 30
0.0
  0
MTEXT
  5
636
330
5FC
100
AcDbEntity
  8
KCAD_DIMS
 62
     0
100
AcDbMText
 10
280.2292747736299
 20
407.28479990822
 30
0.0
 40
6.4
 41
0.0
 71
     5
 72
     1
  1
\A1;210
  7
KCADDIMSTANDARD
 73
     1
 44
1.0
  0
ENDBLK
  5
D69
330
5FC
100
AcDbEntity
  8
0
100
AcDbBlockEnd
  0
BLOCK
  5
D6A
330
638
100
AcDbEntity
  8
0
100
AcDbBlockBegin
  2
*D29
 70
     1
 71
     0
 10
0.0
 20
0.0
 30
0.0
  3
*D29
  1

  0
LINE
  5
66A
330
638
100
AcDbEntity
  8
KCAD_DIMS
 62
     0
370
    -2
100
AcDbLine
 10
385.2292747736299
 20
403.01813390822
 30
0.0
 11
385.2292747736299
 21
377.39511670511
 31
0.0
  0
LINE
  5
66B
330
638
100
AcDbEntity
  8
KCAD_DIMS
 62
     0
370
    -2
100
AcDbLine
 10
555.2292747736299
 20
403.01813390822
 30
0.0
 11
555.2292747736299
 21
332.39511670511
 31
0.0
  0
INSERT
  5
66C
330
638
100
AcDbEntity
  8
KCAD_DIMS
 62
     0
370
    -2
100
AcDbBlockReference
  2
_OPEN30
 10
385.2292747736299
 20
403.01813390822
 30
0.0
 41
5.0
 42
5.0
 43
5.0
 50
180.0
  0
INSERT
  5
66D
330
638
100
AcDbEntity
  8
KCAD_DIMS
 62
     0
370
    -2
100
AcDbBlockReference
  2
_OPEN30
 10
555.2292747736299
 20
403.01813390822
 30
0.0
 41
5.0
 42
5.0
 43
5.0
  0
LINE
  5
66E
330
638
100
AcDbEntity
  8
KCAD_DIMS
 62
     0
370
    -2
100
AcDbLine
 10
390.22927477363
 20
403.01813390822
 30
0.0
 11
550.22927477363
 21
403.01813390822
 31
0.0
  0
POINT
  5
66F
330
638
100
AcDbEntity
  8
DEFPOINTS
 62
     0
370
    15
100
AcDbPoint
 10
385.2292747736299
 20
377.39511670511
 30
0.0
  0
POINT
  5
670
330
638
100
AcDbEntity
  8
DEFPOINTS
 62
     0
370
    15
100
AcDbPoint
 10
555.2292747736299
 20
332.39511670511
 30
0.0
  0
POINT
  5
671
330
638
100
AcDbEntity
  8
DEFPOINTS
 62
     0
370
    15
100
AcDbPoint
 10
555.2292747736299
 20
403.01813390822
 30
0.0
  0
MTEXT
  5
672
330
638
100
AcDbEntity
  8
KCAD_DIMS
 62
     0
100
AcDbMText
 10
470.22927477363
 20
407.28479990822
 30
0.0
 40
6.4
 41
0.0
 71
     5
 72
     1
  1
\A1;170
  7
KCADDIMSTANDARD
 73
     1
 44
1.0
  0
ENDBLK
  5
D6B
330
638
100
AcDbEntity
  8
0
100
AcDbBlockEnd
  0
BLOCK
  5
D6C
330
674
100
AcDbEntity
  8
0
100
AcDbBlockBegin
  2
*D30
 70
     1
 71
     0
 10
0.0
 20
0.0
 30
0.0
  3
*D30
  1

  0
LINE
  5
6A6
330
674
100
AcDbEntity
  8
KCAD_DIMS
 62
     0
370
    -2
100
AcDbLine
 10
555.2292747736299
 20
403.01813390822
 30
0.0
 11
555.2292747736299
 21
332.39511670511
 31
0.0
  0
LINE
  5
6A7
330
674
100
AcDbEntity
  8
KCAD_DIMS
 62
     0
370
    -2
100
AcDbLine
 10
624.22927477363
 20
403.01813390822
 30
0.0
 11
624.22927477363
 21
326.89511670511
 31
0.0
  0
INSERT
  5
6A8
330
674
100
AcDbEntity
  8
KCAD_DIMS
 62
     0
370
    -2
100
AcDbBlockReference
  2
_OPEN30
 10
555.2292747736299
 20
403.01813390822
 30
0.0
 41
5.0
 42
5.0
 43
5.0
 50
180.0
  0
INSERT
  5
6A9
330
674
100
AcDbEntity
  8
KCAD_DIMS
 62
     0
370
    -2
100
AcDbBlockReference
  2
_OPEN30
 10
624.22927477363
 20
403.01813390822
 30
0.0
 41
5.0
 42
5.0
 43
5.0
  0
LINE
  5
6AA
330
674
100
AcDbEntity
  8
KCAD_DIMS
 62
     0
370
    -2
100
AcDbLine
 10
560.2292747736299
 20
403.01813390822
 30
0.0
 11
619.2292747736299
 21
403.01813390822
 31
0.0
  0
POINT
  5
6AB
330
674
100
AcDbEntity
  8
DEFPOINTS
 62
     0
370
    15
100
AcDbPoint
 10
555.2292747736299
 20
332.39511670511
 30
0.0
  0
POINT
  5
6AC
330
674
100
AcDbEntity
  8
DEFPOINTS
 62
     0
370
    15
100
AcDbPoint
 10
624.22927477363
 20
326.89511670511
 30
0.0
  0
POINT
  5
6AD
330
674
100
AcDbEntity
  8
DEFPOINTS
 62
     0
370
    15
100
AcDbPoint
 10
624.22927477363
 20
403.01813390822
 30
0.0
  0
MTEXT
  5
6AE
330
674
100
AcDbEntity
  8
KCAD_DIMS
 62
     0
100
AcDbMText
 10
589.7292747736299
 20
407.28479990822
 30
0.0
 40
6.4
 41
0.0
 71
     5
 72
     1
  1
\A1;69
  7
KCADDIMSTANDARD
 73
     1
 44
1.0
  0
ENDBLK
  5
D6D
330
674
100
AcDbEntity
  8
0
100
AcDbBlockEnd
  0
BLOCK
  5
D6E
330
6B0
100
AcDbEntity
  8
0
100
AcDbBlockBegin
  2
*D31
 70
     1
 71
     0
 10
0.0
 20
0.0
 30
0.0
  3
*D31
  1

  0
LINE
  5
6E8
330
6B0
100
AcDbEntity
  8
KCAD_DIMS
 62
     0
370
    -2
100
AcDbLine
 10
624.22927477363
 20
403.01813390822
 30
0.0
 11
624.22927477363
 21
326.5951167051099
 31
0.0
  0
LINE
  5
6E9
330
6B0
100
AcDbEntity
  8
KCAD_DIMS
 62
     0
370
    -2
100
AcDbLine
 10
636.2292747736299
 20
403.01813390822
 30
0.0
 11
636.2292747736299
 21
326.89511670511
 31
0.0
  0
INSERT
  5
6EA
330
6B0
100
AcDbEntity
  8
KCAD_DIMS
 62
     0
370
    -2
100
AcDbBlockReference
  2
_OPEN30
 10
624.22927477363
 20
403.01813390822
 30
0.0
 41
5.0
 42
5.0
 43
5.0
 50
180.0
  0
INSERT
  5
6EB
330
6B0
100
AcDbEntity
  8
KCAD_DIMS
 62
     0
370
    -2
100
AcDbBlockReference
  2
_OPEN30
 10
636.2292747736299
 20
403.01813390822
 30
0.0
 41
5.0
 42
5.0
 43
5.0
  0
LINE
  5
6EC
330
6B0
100
AcDbEntity
  8
KCAD_DIMS
 62
     0
370
    -2
100
AcDbLine
 10
629.22927477363
 20
403.01813390822
 30
0.0
 11
631.2292747736299
 21
403.01813390822
 31
0.0
  0
POINT
  5
6ED
330
6B0
100
AcDbEntity
  8
DEFPOINTS
 62
     0
370
    15
100
AcDbPoint
 10
624.22927477363
 20
326.5951167051099
 30
0.0
  0
POINT
  5
6EE
330
6B0
100
AcDbEntity
  8
DEFPOINTS
 62
     0
370
    15
100
AcDbPoint
 10
636.2292747736299
 20
326.89511670511
 30
0.0
  0
POINT
  5
6EF
330
6B0
100
AcDbEntity
  8
DEFPOINTS
 62
     0
370
    15
100
AcDbPoint
 10
636.2292747736299
 20
403.01813390822
 30
0.0
  0
MTEXT
  5
6F0
330
6B0
100
AcDbEntity
  8
KCAD_DIMS
 62
     0
100
AcDbMText
 10
630.2292747736299
 20
407.28479990822
 30
0.0
 40
6.4
 41
0.0
 71
     5
 72
     1
  1
\A1;12
  7
KCADDIMSTANDARD
 73
     1
 44
1.0
  0
ENDBLK
  5
D6F
330
6B0
100
AcDbEntity
  8
0
100
AcDbBlockEnd
  0
BLOCK
  5
D70
330
6F2
100
AcDbEntity
  8
0
100
AcDbBlockBegin
  2
*D32
 70
     1
 71
     0
 10
0.0
 20
0.0
 30
0.0
  3
*D32
  1

  0
LINE
  5
724
330
6F2
100
AcDbEntity
  8
KCAD_DIMS
 62
     0
370
    -2
100
AcDbLine
 10
567.22927477363
 20
388.9619434829299
 30
0.0
 11
567.22927477363
 21
335.39511670511
 31
0.0
  0
LINE
  5
725
330
6F2
100
AcDbEntity
  8
KCAD_DIMS
 62
     0
370
    -2
100
AcDbLine
 10
611.2292747736299
 20
388.9619434829299
 30
0.0
 11
611.2292747736299
 21
335.39511670511
 31
0.0
  0
INSERT
  5
726
330
6F2
100
AcDbEntity
  8
KCAD_DIMS
 62
     0
370
    -2
100
AcDbBlockReference
  2
_OPEN30
 10
567.22927477363
 20
388.9619434829299
 30
0.0
 41
5.0
 42
5.0
 43
5.0
 50
180.0
  0
INSERT
  5
727
330
6F2
100
AcDbEntity
  8
KCAD_DIMS
 62
     0
370
    -2
100
AcDbBlockReference
  2
_OPEN30
 10
611.2292747736299
 20
388.9619434829299
 30
0.0
 41
5.0
 42
5.0
 43
5.0
  0
LINE
  5
728
330
6F2
100
AcDbEntity
  8
KCAD_DIMS
 62
     0
370
    -2
100
AcDbLine
 10
572.2292747736299
 20
388.9619434829299
 30
0.0
 11
606.2292747736299
 21
388.9619434829299
 31
0.0
  0
POINT
  5
729
330
6F2
100
AcDbEntity
  8
DEFPOINTS
 62
     0
370
    15
100
AcDbPoint
 10
567.22927477363
 20
335.39511670511
 30
0.0
  0
POINT
  5
72A
330
6F2
100
AcDbEntity
  8
DEFPOINTS
 62
     0
370
    15
100
AcDbPoint
 10
611.2292747736299
 20
335.39511670511
 30
0.0
  0
POINT
  5
72B
330
6F2
100
AcDbEntity
  8
DEFPOINTS
 62
     0
370
    15
100
AcDbPoint
 10
611.2292747736299
 20
388.9619434829299
 30
0.0
  0
MTEXT
  5
72C
330
6F2
100
AcDbEntity
  8
KCAD_DIMS
 62
     0
100
AcDbMText
 10
589.2292747736299
 20
393.2286094829299
 30
0.0
 40
6.4
 41
0.0
 71
     5
 72
     1
  1
\A1;44
  7
KCADDIMSTANDARD
 73
     1
 44
1.0
  0
ENDBLK
  5
D71
330
6F2
100
AcDbEntity
  8
0
100
AcDbBlockEnd
  0
BLOCK
  5
D72
330
72E
100
AcDbEntity
  8
0
100
AcDbBlockBegin
  2
*D33
 70
     1
 71
     0
 10
0.0
 20
0.0
 30
0.0
  3
*D33
  1

  0
LINE
  5
764
330
72E
100
AcDbEntity
  8
KCAD_DIMS
 62
     0
370
    -2
100
AcDbLine
 10
611.2292747736299
 20
388.9619434829299
 30
0.0
 11
611.2292747736299
 21
334.39511670511
 31
0.0
  0
LINE
  5
765
330
72E
100
AcDbEntity
  8
KCAD_DIMS
 62
     0
370
    -2
100
AcDbLine
 10
624.22927477363
 20
388.9619434829299
 30
0.0
 11
624.22927477363
 21
326.5951167051099
 31
0.0
  0
INSERT
  5
766
330
72E
100
AcDbEntity
  8
KCAD_DIMS
 62
     0
370
    -2
100
AcDbBlockReference
  2
_OPEN30
 10
611.2292747736299
 20
388.9619434829299
 30
0.0
 41
5.0
 42
5.0
 43
5.0
  0
INSERT
  5
767
330
72E
100
AcDbEntity
  8
KCAD_DIMS
 62
     0
370
    -2
100
AcDbBlockReference
  2
_OPEN30
 10
624.22927477363
 20
388.9619434829299
 30
0.0
 41
5.0
 42
5.0
 43
5.0
 50
180.0
  0
LINE
  5
768
330
72E
100
AcDbEntity
  8
KCAD_DIMS
 62
     0
370
    -2
100
AcDbLine
 10
611.2292747736299
 20
388.9619434829299
 30
0.0
 11
624.22927477363
 21
388.9619434829299
 31
0.0
  0
LINE
  5
769
330
72E
100
AcDbEntity
  8
KCAD_DIMS
 62
     0
370
    -2
100
AcDbLine
 10
606.2292747736299
 20
388.9619434829299
 30
0.0
 11
601.2292747736299
 21
388.9619434829299
 31
0.0
  0
LINE
  5
76A
330
72E
100
AcDbEntity
  8
KCAD_DIMS
 62
     0
370
    -2
100
AcDbLine
 10
629.22927477363
 20
388.9619434829299
 30
0.0
 11
634.22927477363
 21
388.9619434829299
 31
0.0
  0
POINT
  5
76B
330
72E
100
AcDbEntity
  8
DEFPOINTS
 62
     0
370
    15
100
AcDbPoint
 10
611.2292747736299
 20
334.39511670511
 30
0.0
  0
POINT
  5
76C
330
72E
100
AcDbEntity
  8
DEFPOINTS
 62
     0
370
    15
100
AcDbPoint
 10
624.22927477363
 20
326.5951167051099
 30
0.0
  0
POINT
  5
76D
330
72E
100
AcDbEntity
  8
DEFPOINTS
 62
     0
370
    15
100
AcDbPoint
 10
624.22927477363
 20
388.9619434829299
 30
0.0
  0
MTEXT
  5
76E
330
72E
100
AcDbEntity
  8
KCAD_DIMS
 62
     0
100
AcDbMText
 10
617.7292747736299
 20
393.2286094829299
 30
0.0
 40
6.4
 41
0.0
 71
     5
 72
     1
  1
\A1;13
  7
KCADDIMSTANDARD
 73
     1
 44
1.0
  0
ENDBLK
  5
D73
330
72E
100
AcDbEntity
  8
0
100
AcDbBlockEnd
  0
BLOCK
  5
D74
330
770
100
AcDbEntity
  8
0
100
AcDbBlockBegin
  2
*D34
 70
     1
 71
     0
 10
0.0
 20
0.0
 30
0.0
  3
*D34
  1

  0
LINE
  5
7A2
330
770
100
AcDbEntity
  8
KCAD_DIMS
 62
     0
370
    -2
100
AcDbLine
 10
636.2292747736299
 20
403.01813390822
 30
0.0
 11
636.2292747736299
 21
326.39511670511
 31
0.0
  0
LINE
  5
7A3
330
770
100
AcDbEntity
  8
KCAD_DIMS
 62
     0
370
    -2
100
AcDbLine
 10
738.16927477363
 20
403.01813390822
 30
0.0
 11
738.16927477363
 21
326.39511670511
 31
0.0
  0
INSERT
  5
7A4
330
770
100
AcDbEntity
  8
KCAD_DIMS
 62
     0
370
    -2
100
AcDbBlockReference
  2
_OPEN30
 10
636.2292747736299
 20
403.01813390822
 30
0.0
 41
5.0
 42
5.0
 43
5.0
 50
180.0
  0
INSERT
  5
7A5
330
770
100
AcDbEntity
  8
KCAD_DIMS
 62
     0
370
    -2
100
AcDbBlockReference
  2
_OPEN30
 10
738.16927477363
 20
403.01813390822
 30
0.0
 41
5.0
 42
5.0
 43
5.0
  0
LINE
  5
7A6
330
770
100
AcDbEntity
  8
KCAD_DIMS
 62
     0
370
    -2
100
AcDbLine
 10
641.22927477363
 20
403.01813390822
 30
0.0
 11
733.16927477363
 21
403.01813390822
 31
0.0
  0
POINT
  5
7A7
330
770
100
AcDbEntity
  8
DEFPOINTS
 62
     0
370
    15
100
AcDbPoint
 10
636.2292747736299
 20
326.39511670511
 30
0.0
  0
POINT
  5
7A8
330
770
100
AcDbEntity
  8
DEFPOINTS
 62
     0
370
    15
100
AcDbPoint
 10
738.16927477363
 20
326.39511670511
 30
0.0
  0
POINT
  5
7A9
330
770
100
AcDbEntity
  8
DEFPOINTS
 62
     0
370
    15
100
AcDbPoint
 10
738.16927477363
 20
403.01813390822
 30
0.0
  0
MTEXT
  5
7AA
330
770
100
AcDbEntity
  8
KCAD_DIMS
 62
     0
100
AcDbMText
 10
687.19927477363
 20
407.28479990822
 30
0.0
 40
6.4
 41
0.0
 71
     5
 72
     1
  1
\A1;101.94
  7
KCADDIMSTANDARD
 73
     1
 44
1.0
  0
ENDBLK
  5
D75
330
770
100
AcDbEntity
  8
0
100
AcDbBlockEnd
  0
BLOCK
  5
D76
330
7AC
100
AcDbEntity
  8
0
100
AcDbBlockBegin
  2
*D35
 70
     1
 71
     0
 10
0.0
 20
0.0
 30
0.0
  3
*D35
  1

  0
LINE
  5
7E8
330
7AC
100
AcDbEntity
  8
KCAD_DIMS
 62
     0
370
    -2
100
AcDbLine
 10
738.16927477363
 20
403.01813390822
 30
0.0
 11
738.16927477363
 21
326.39511670511
 31
0.0
  0
LINE
  5
7E9
330
7AC
100
AcDbEntity
  8
KCAD_DIMS
 62
     0
370
    -2
100
AcDbLine
 10
742.16927477363
 20
403.01813390822
 30
0.0
 11
742.16927477363
 21
322.69511670511
 31
0.0
  0
INSERT
  5
7EA
330
7AC
100
AcDbEntity
  8
KCAD_DIMS
 62
     0
370
    -2
100
AcDbBlockReference
  2
_OPEN30
 10
738.16927477363
 20
403.01813390822
 30
0.0
 41
5.0
 42
5.0
 43
5.0
  0
INSERT
  5
7EB
330
7AC
100
AcDbEntity
  8
KCAD_DIMS
 62
     0
370
    -2
100
AcDbBlockReference
  2
_OPEN30
 10
742.16927477363
 20
403.01813390822
 30
0.0
 41
5.0
 42
5.0
 43
5.0
 50
180.0
  0
LINE
  5
7EC
330
7AC
100
AcDbEntity
  8
KCAD_DIMS
 62
     0
370
    -2
100
AcDbLine
 10
738.16927477363
 20
403.01813390822
 30
0.0
 11
742.16927477363
 21
403.01813390822
 31
0.0
  0
LINE
  5
7ED
330
7AC
100
AcDbEntity
  8
KCAD_DIMS
 62
     0
370
    -2
100
AcDbLine
 10
733.16927477363
 20
403.01813390822
 30
0.0
 11
728.16927477363
 21
403.01813390822
 31
0.0
  0
LINE
  5
7EE
330
7AC
100
AcDbEntity
  8
KCAD_DIMS
 62
     0
370
    -2
100
AcDbLine
 10
747.16927477363
 20
403.01813390822
 30
0.0
 11
752.7055239608269
 21
403.01813390822
 31
0.0
  0
POINT
  5
7EF
330
7AC
100
AcDbEntity
  8
DEFPOINTS
 62
     0
370
    15
100
AcDbPoint
 10
738.16927477363
 20
326.39511670511
 30
0.0
  0
POINT
  5
7F0
330
7AC
100
AcDbEntity
  8
DEFPOINTS
 62
     0
370
    15
100
AcDbPoint
 10
742.16927477363
 20
322.69511670511
 30
0.0
  0
POINT
  5
7F1
330
7AC
100
AcDbEntity
  8
DEFPOINTS
 62
     0
370
    15
100
AcDbPoint
 10
742.16927477363
 20
403.01813390822
 30
0.0
  0
MTEXT
  5
7F2
330
7AC
100
AcDbEntity
  8
KCAD_DIMS
 62
     0
100
AcDbMText
 10
750.06349952963
 20
407.28479990822
 30
0.0
 40
6.4
 41
0.0
 71
     5
 72
     1
  1
\A1;4
  7
KCADDIMSTANDARD
 73
     1
 44
1.0
  0
ENDBLK
  5
D77
330
7AC
100
AcDbEntity
  8
0
100
AcDbBlockEnd
  0
BLOCK
  5
D78
330
7F4
100
AcDbEntity
  8
0
100
AcDbBlockBegin
  2
*D36
 70
     1
 71
     0
 10
0.0
 20
0.0
 30
0.0
  3
*D36
  1

  0
LINE
  5
826
330
7F4
100
AcDbEntity
  8
KCAD_DIMS
 62
     0
370
    -2
100
AcDbLine
 10
738.16927477363
 20
422.6673255138999
 30
0.0
 11
738.16927477363
 21
326.39511670511
 31
0.0
  0
LINE
  5
827
330
7F4
100
AcDbEntity
  8
KCAD_DIMS
 62
     0
370
    -2
100
AcDbLine
 10
755.69527477363
 20
422.6673255138999
 30
0.0
 11
755.69527477363
 21
314.16612794073
 31
0.0
  0
INSERT
  5
828
330
7F4
100
AcDbEntity
  8
KCAD_DIMS
 62
     0
370
    -2
100
AcDbBlockReference
  2
_OPEN30
 10
738.16927477363
 20
422.6673255138999
 30
0.0
 41
5.0
 42
5.0
 43
5.0
  0
INSERT
  5
829
330
7F4
100
AcDbEntity
  8
KCAD_DIMS
 62
     0
370
    -2
100
AcDbBlockReference
  2
_OPEN30
 10
755.69527477363
 20
422.6673255138999
 30
0.0
 41
5.0
 42
5.0
 43
5.0
 50
180.0
  0
LINE
  5
82A
330
7F4
100
AcDbEntity
  8
KCAD_DIMS
 62
     0
370
    -2
100
AcDbLine
 10
738.16927477363
 20
422.6673255138999
 30
0.0
 11
755.69527477363
 21
422.6673255138999
 31
0.0
  0
LINE
  5
82B
330
7F4
100
AcDbEntity
  8
KCAD_DIMS
 62
     0
370
    -2
100
AcDbLine
 10
733.16927477363
 20
422.6673255138999
 30
0.0
 11
728.16927477363
 21
422.6673255138999
 31
0.0
  0
LINE
  5
82C
330
7F4
100
AcDbEntity
  8
KCAD_DIMS
 62
     0
370
    -2
100
AcDbLine
 10
760.69527477363
 20
422.6673255138999
 30
0.0
 11
779.33722678814
 21
422.6673255138999
 31
0.0
  0
POINT
  5
82D
330
7F4
100
AcDbEntity
  8
DEFPOINTS
 62
     0
370
    15
100
AcDbPoint
 10
738.16927477363
 20
326.39511670511
 30
0.0
  0
POINT
  5
82E
330
7F4
100
AcDbEntity
  8
DEFPOINTS
 62
     0
370
    15
100
AcDbPoint
 10
755.69527477363
 20
314.16612794073
 30
0.0
  0
POINT
  5
82F
330
7F4
100
AcDbEntity
  8
DEFPOINTS
 62
     0
370
    15
100
AcDbPoint
 10
755.69527477363
 20
422.6673255138999
 30
0.0
  0
MTEXT
  5
830
330
7F4
100
AcDbEntity
  8
KCAD_DIMS
 62
     0
100
AcDbMText
 10
767.69520225776
 20
426.9339915138999
 30
0.0
 40
6.4
 41
0.0
 71
     5
 72
     1
  1
\A1;17.53
  7
KCADDIMSTANDARD
 73
     1
 44
1.0
  0
ENDBLK
  5
D79
330
7F4
100
AcDbEntity
  8
0
100
AcDbBlockEnd
  0
BLOCK
  5
D7A
330
832
100
AcDbEntity
  8
0
100
AcDbBlockBegin
  2
*D37
 70
     1
 71
     0
 10
0.0
 20
0.0
 30
0.0
  3
*D37
  1

  0
LINE
  5
864
330
832
100
AcDbEntity
  8
KCAD_DIMS
 62
     0
370
    -2
100
AcDbLine
 10
175.22927477363
 20
422.6673255138999
 30
0.0
 11
175.22927477363
 21
376.89511670511
 31
0.0
  0
LINE
  5
865
330
832
100
AcDbEntity
  8
KCAD_DIMS
 62
     0
370
    -2
100
AcDbLine
 10
738.16927477363
 20
422.6673255138999
 30
0.0
 11
738.16927477363
 21
326.39511670511
 31
0.0
  0
INSERT
  5
866
330
832
100
AcDbEntity
  8
KCAD_DIMS
 62
     0
370
    -2
100
AcDbBlockReference
  2
_OPEN30
 10
175.22927477363
 20
422.6673255138999
 30
0.0
 41
5.0
 42
5.0
 43
5.0
 50
180.0
  0
INSERT
  5
867
330
832
100
AcDbEntity
  8
KCAD_DIMS
 62
     0
370
    -2
100
AcDbBlockReference
  2
_OPEN30
 10
738.16927477363
 20
422.6673255138999
 30
0.0
 41
5.0
 42
5.0
 43
5.0
  0
LINE
  5
868
330
832
100
AcDbEntity
  8
KCAD_DIMS
 62
     0
370
    -2
100
AcDbLine
 10
180.22927477363
 20
422.6673255138999
 30
0.0
 11
733.16927477363
 21
422.6673255138999
 31
0.0
  0
POINT
  5
869
330
832
100
AcDbEntity
  8
DEFPOINTS
 62
     0
370
    15
100
AcDbPoint
 10
175.22927477363
 20
376.89511670511
 30
0.0
  0
POINT
  5
86A
330
832
100
AcDbEntity
  8
DEFPOINTS
 62
     0
370
    15
100
AcDbPoint
 10
738.16927477363
 20
326.39511670511
 30
0.0
  0
POINT
  5
86B
330
832
100
AcDbEntity
  8
DEFPOINTS
 62
     0
370
    15
100
AcDbPoint
 10
738.16927477363
 20
422.6673255138999
 30
0.0
  0
MTEXT
  5
86C
330
832
100
AcDbEntity
  8
KCAD_DIMS
 62
     0
100
AcDbMText
 10
456.69927477363
 20
426.9339915138999
 30
0.0
 40
6.4
 41
0.0
 71
     5
 72
     1
  1
\A1;562.94
  7
KCADDIMSTANDARD
 73
     1
 44
1.0
  0
ENDBLK
  5
D7B
330
832
100
AcDbEntity
  8
0
100
AcDbBlockEnd
  0
BLOCK
  5
D7C
330
86E
100
AcDbEntity
  8
0
100
AcDbBlockBegin
  2
*D38
 70
     1
 71
     0
 10
0.0
 20
0.0
 30
0.0
  3
*D38
  1

  0
LINE
  5
8A0
330
86E
100
AcDbEntity
  8
KCAD_DIMS
 62
     0
370
    -2
100
AcDbLine
 10
49.534744005546
 20
422.6673255138999
 30
0.0
 11
49.534744005546
 21
310.39511670511
 31
0.0
  0
LINE
  5
8A1
330
86E
100
AcDbEntity
  8
KCAD_DIMS
 62
     0
370
    -2
100
AcDbLine
 10
175.22927477363
 20
422.6673255138999
 30
0.0
 11
175.22927477363
 21
376.89511670511
 31
0.0
  0
INSERT
  5
8A2
330
86E
100
AcDbEntity
  8
KCAD_DIMS
 62
     0
370
    -2
100
AcDbBlockReference
  2
_OPEN30
 10
49.534744005546
 20
422.6673255138999
 30
0.0
 41
5.0
 42
5.0
 43
5.0
 50
180.0
  0
INSERT
  5
8A3
330
86E
100
AcDbEntity
  8
KCAD_DIMS
 62
     0
370
    -2
100
AcDbBlockReference
  2
_OPEN30
 10
175.22927477363
 20
422.6673255138999
 30
0.0
 41
5.0
 42
5.0
 43
5.0
  0
LINE
  5
8A4
330
86E
100
AcDbEntity
  8
KCAD_DIMS
 62
     0
370
    -2
100
AcDbLine
 10
54.534744005546
 20
422.6673255138999
 30
0.0
 11
170.22927477363
 21
422.6673255138999
 31
0.0
  0
POINT
  5
8A5
330
86E
100
AcDbEntity
  8
DEFPOINTS
 62
     0
370
    15
100
AcDbPoint
 10
49.534744005546
 20
310.39511670511
 30
0.0
  0
POINT
  5
8A6
330
86E
100
AcDbEntity
  8
DEFPOINTS
 62
     0
370
    15
100
AcDbPoint
 10
175.22927477363
 20
376.89511670511
 30
0.0
  0
POINT
  5
8A7
330
86E
100
AcDbEntity
  8
DEFPOINTS
 62
     0
370
    15
100
AcDbPoint
 10
175.22927477363
 20
422.6673255138999
 30
0.0
  0
MTEXT
  5
8A8
330
86E
100
AcDbEntity
  8
KCAD_DIMS
 62
     0
100
AcDbMText
 10
112.3820093895899
 20
426.9339915138999
 30
0.0
 40
6.4
 41
0.0
 71
     5
 72
     1
  1
\A1;\A1;WD=342.1
  7
KCADDIMSTANDARD
 73
     1
 44
1.0
  0
ENDBLK
  5
D7D
330
86E
100
AcDbEntity
  8
0
100
AcDbBlockEnd
  0
BLOCK
  5
D7E
330
8AA
100
AcDbEntity
  8
0
100
AcDbBlockBegin
  2
*D39
 70
     1
 71
     0
 10
0.0
 20
0.0
 30
0.0
  3
*D39
  1

  0
LINE
  5
8DC
330
8AA
100
AcDbEntity
  8
KCAD_DIMS
 62
     0
370
    -2
100
AcDbLine
 10
49.534744005546
 20
443.12224284942
 30
0.0
 11
49.534744005546
 21
310.39511670511
 31
0.0
  0
LINE
  5
8DD
330
8AA
100
AcDbEntity
  8
KCAD_DIMS
 62
     0
370
    -2
100
AcDbLine
 10
755.69527477363
 20
443.12224284942
 30
0.0
 11
755.69527477363
 21
314.16612794073
 31
0.0
  0
INSERT
  5
8DE
330
8AA
100
AcDbEntity
  8
KCAD_DIMS
 62
     0
370
    -2
100
AcDbBlockReference
  2
_OPEN30
 10
49.534744005546
 20
443.12224284942
 30
0.0
 41
5.0
 42
5.0
 43
5.0
 50
180.0
  0
INSERT
  5
8DF
330
8AA
100
AcDbEntity
  8
KCAD_DIMS
 62
     0
370
    -2
100
AcDbBlockReference
  2
_OPEN30
 10
755.69527477363
 20
443.12224284942
 30
0.0
 41
5.0
 42
5.0
 43
5.0
  0
LINE
  5
8E0
330
8AA
100
AcDbEntity
  8
KCAD_DIMS
 62
     0
370
    -2
100
AcDbLine
 10
54.534744005546
 20
443.12224284942
 30
0.0
 11
750.6952747736299
 21
443.12224284942
 31
0.0
  0
POINT
  5
8E1
330
8AA
100
AcDbEntity
  8
DEFPOINTS
 62
     0
370
    15
100
AcDbPoint
 10
49.534744005546
 20
310.39511670511
 30
0.0
  0
POINT
  5
8E2
330
8AA
100
AcDbEntity
  8
DEFPOINTS
 62
     0
370
    15
100
AcDbPoint
 10
755.69527477363
 20
314.16612794073
 30
0.0
  0
POINT
  5
8E3
330
8AA
100
AcDbEntity
  8
DEFPOINTS
 62
     0
370
    15
100
AcDbPoint
 10
755.69527477363
 20
443.12224284942
 30
0.0
  0
MTEXT
  5
8E4
330
8AA
100
AcDbEntity
  8
KCAD_DIMS
 62
     0
100
AcDbMText
 10
402.61500938959
 20
447.38890884942
 30
0.0
 40
6.4
 41
0.0
 71
     5
 72
     1
  1
\A1;\A1;922.57
  7
KCADDIMSTANDARD
 73
     1
 44
1.0
  0
ENDBLK
  5
D7F
330
8AA
100
AcDbEntity
  8
0
100
AcDbBlockEnd
  0
BLOCK
  5
D80
330
8E6
100
AcDbEntity
  8
0
100
AcDbBlockBegin
  2
*D40
 70
     1
 71
     0
 10
0.0
 20
0.0
 30
0.0
  3
*D40
  1

  0
LINE
  5
913
330
8E6
100
AcDbEntity
  8
KCAD_DIMS
 62
     0
370
    -2
100
AcDbLine
 10
543.90505609641
 20
260.3951167051099
 30
0.0
 11
582.2292747736299
 21
260.3951167051099
 31
0.0
  0
INSERT
  5
914
330
8E6
100
AcDbEntity
  8
KCAD_DIMS
 62
     0
370
    -2
100
AcDbBlockReference
  2
_OPEN30
 10
543.90505609641
 20
310.39511670511
 30
0.0
 41
5.0
 42
5.0
 43
5.0
 50
90.0
  0
INSERT
  5
915
330
8E6
100
AcDbEntity
  8
KCAD_DIMS
 62
     0
370
    -2
100
AcDbBlockReference
  2
_OPEN30
 10
543.90505609641
 20
260.3951167051099
 30
0.0
 41
5.0
 42
5.0
 43
5.0
 50
270.0
  0
LINE
  5
916
330
8E6
100
AcDbEntity
  8
KCAD_DIMS
 62
     0
370
    -2
100
AcDbLine
 10
543.90505609641
 20
305.39511670511
 30
0.0
 11
543.90505609641
 21
265.39511670511
 31
0.0
  0
POINT
  5
917
330
8E6
100
AcDbEntity
  8
DEFPOINTS
 62
     0
370
    15
100
AcDbPoint
 10
543.90505609641
 20
310.39511670511
 30
0.0
  0
POINT
  5
918
330
8E6
100
AcDbEntity
  8
DEFPOINTS
 62
     0
370
    15
100
AcDbPoint
 10
582.2292747736299
 20
260.3951167051099
 30
0.0
  0
POINT
  5
919
330
8E6
100
AcDbEntity
  8
DEFPOINTS
 62
     0
370
    15
100
AcDbPoint
 10
543.90505609641
 20
260.3951167051099
 30
0.0
  0
MTEXT
  5
91A
330
8E6
100
AcDbEntity
  8
KCAD_DIMS
 62
     0
100
AcDbMText
 10
539.63839009641
 20
274.08888933368
 30
0.0
 40
6.4
 41
0.0
 71
     5
 72
     1
  1
\A1;50
  7
KCADDIMSTANDARD
 11
1.000000000000000E-16
 21
1.0
 31
0.0
 73
     1
 44
1.0
  0
ENDBLK
  5
D81
330
8E6
100
AcDbEntity
  8
0
100
AcDbBlockEnd
  0
BLOCK
  5
D82
330
91C
100
AcDbEntity
  8
0
100
AcDbBlockBegin
  2
*D41
 70
     1
 71
     0
 10
0.0
 20
0.0
 30
0.0
  3
*D41
  1

  0
LINE
  5
94E
330
91C
100
AcDbEntity
  8
KCAD_DIMS
 62
     0
370
    -2
100
AcDbLine
 10
175.22927477363
 20
200.1336067132399
 30
0.0
 11
175.22927477363
 21
243.39511670511
 31
0.0
  0
LINE
  5
94F
330
91C
100
AcDbEntity
  8
KCAD_DIMS
 62
     0
370
    -2
100
AcDbLine
 10
589.2292747736299
 20
200.1336067132399
 30
0.0
 11
589.2292747736299
 21
254.77268781622
 31
0.0
  0
INSERT
  5
950
330
91C
100
AcDbEntity
  8
KCAD_DIMS
 62
     0
370
    -2
100
AcDbBlockReference
  2
_OPEN30
 10
175.22927477363
 20
200.1336067132399
 30
0.0
 41
5.0
 42
5.0
 43
5.0
 50
180.0
  0
INSERT
  5
951
330
91C
100
AcDbEntity
  8
KCAD_DIMS
 62
     0
370
    -2
100
AcDbBlockReference
  2
_OPEN30
 10
589.2292747736299
 20
200.1336067132399
 30
0.0
 41
5.0
 42
5.0
 43
5.0
  0
LINE
  5
952
330
91C
100
AcDbEntity
  8
KCAD_DIMS
 62
     0
370
    -2
100
AcDbLine
 10
180.22927477363
 20
200.1336067132399
 30
0.0
 11
584.22927477363
 21
200.1336067132399
 31
0.0
  0
POINT
  5
953
330
91C
100
AcDbEntity
  8
DEFPOINTS
 62
     0
370
    15
100
AcDbPoint
 10
175.22927477363
 20
243.39511670511
 30
0.0
  0
POINT
  5
954
330
91C
100
AcDbEntity
  8
DEFPOINTS
 62
     0
370
    15
100
AcDbPoint
 10
589.2292747736299
 20
254.77268781622
 30
0.0
  0
POINT
  5
955
330
91C
100
AcDbEntity
  8
DEFPOINTS
 62
     0
370
    15
100
AcDbPoint
 10
589.2292747736299
 20
200.1336067132399
 30
0.0
  0
MTEXT
  5
956
330
91C
100
AcDbEntity
  8
KCAD_DIMS
 62
     0
100
AcDbMText
 10
382.22927477363
 20
204.4002727132399
 30
0.0
 40
6.4
 41
0.0
 71
     5
 72
     1
  1
\A1;414
  7
KCADDIMSTANDARD
 73
     1
 44
1.0
  0
ENDBLK
  5
D83
330
91C
100
AcDbEntity
  8
0
100
AcDbBlockEnd
  0
BLOCK
  5
D84
330
958
100
AcDbEntity
  8
0
100
AcDbBlockBegin
  2
*D42
 70
     1
 71
     0
 10
0.0
 20
0.0
 30
0.0
  3
*D42
  1

  0
LINE
  5
98E
330
958
100
AcDbEntity
  8
KCAD_DIMS
 62
     0
370
    -2
100
AcDbLine
 10
582.2292747736299
 20
230.92293903849
 30
0.0
 11
582.2292747736299
 21
260.89511670511
 31
0.0
  0
LINE
  5
98F
330
958
100
AcDbEntity
  8
KCAD_DIMS
 62
     0
370
    -2
100
AcDbLine
 10
596.22927477363
 20
230.92293903849
 30
0.0
 11
596.22927477363
 21
260.89511670511
 31
0.0
  0
INSERT
  5
990
330
958
100
AcDbEntity
  8
KCAD_DIMS
 62
     0
370
    -2
100
AcDbBlockReference
  2
_OPEN30
 10
582.2292747736299
 20
230.92293903849
 30
0.0
 41
5.0
 42
5.0
 43
5.0
  0
INSERT
  5
991
330
958
100
AcDbEntity
  8
KCAD_DIMS
 62
     0
370
    -2
100
AcDbBlockReference
  2
_OPEN30
 10
596.22927477363
 20
230.92293903849
 30
0.0
 41
5.0
 42
5.0
 43
5.0
 50
180.0
  0
LINE
  5
992
330
958
100
AcDbEntity
  8
KCAD_DIMS
 62
     0
370
    -2
100
AcDbLine
 10
582.2292747736299
 20
230.92293903849
 30
0.0
 11
596.22927477363
 21
230.92293903849
 31
0.0
  0
LINE
  5
993
330
958
100
AcDbEntity
  8
KCAD_DIMS
 62
     0
370
    -2
100
AcDbLine
 10
577.2292747736299
 20
230.92293903849
 30
0.0
 11
572.2292747736299
 21
230.92293903849
 31
0.0
  0
LINE
  5
994
330
958
100
AcDbEntity
  8
KCAD_DIMS
 62
     0
370
    -2
100
AcDbLine
 10
601.2292747736299
 20
230.92293903849
 30
0.0
 11
615.954348093204
 21
230.92293903849
 31
0.0
  0
POINT
  5
995
330
958
100
AcDbEntity
  8
DEFPOINTS
 62
     0
370
    15
100
AcDbPoint
 10
582.2292747736299
 20
260.89511670511
 30
0.0
  0
POINT
  5
996
330
958
100
AcDbEntity
  8
DEFPOINTS
 62
     0
370
    15
100
AcDbPoint
 10
596.22927477363
 20
260.89511670511
 30
0.0
  0
POINT
  5
997
330
958
100
AcDbEntity
  8
DEFPOINTS
 62
     0
370
    15
100
AcDbPoint
 10
596.22927477363
 20
230.92293903849
 30
0.0
  0
MTEXT
  5
998
330
958
100
AcDbEntity
  8
KCAD_DIMS
 62
     0
100
AcDbMText
 10
608.8123236124198
 20
235.1896050384899
 30
0.0
 40
6.4
 41
0.0
 71
     5
 72
     1
  1
\A1;φ14
  7
KCADDIMSTANDARD
 73
     1
 44
1.0
  0
ENDBLK
  5
D85
330
958
100
AcDbEntity
  8
0
100
AcDbBlockEnd
  0
BLOCK
  5
D86
330
99A
100
AcDbEntity
  8
0
100
AcDbBlockBegin
  2
*D43
 70
     1
 71
     0
 10
0.0
 20
0.0
 30
0.0
  3
*D43
  1

  0
LINE
  5
9D2
330
99A
100
AcDbEntity
  8
KCAD_DIMS
 62
     0
370
    -2
100
AcDbLine
 10
585.2292747736299
 20
242.3440108284499
 30
0.0
 11
585.2292747736299
 21
260.89511670511
 31
0.0
  0
LINE
  5
9D3
330
99A
100
AcDbEntity
  8
KCAD_DIMS
 62
     0
370
    -2
100
AcDbLine
 10
593.2292747736299
 20
242.3440108284499
 30
0.0
 11
593.2292747736299
 21
260.69511670511
 31
0.0
  0
INSERT
  5
9D4
330
99A
100
AcDbEntity
  8
KCAD_DIMS
 62
     0
370
    -2
100
AcDbBlockReference
  2
_OPEN30
 10
585.2292747736299
 20
242.3440108284499
 30
0.0
 41
5.0
 42
5.0
 43
5.0
  0
INSERT
  5
9D5
330
99A
100
AcDbEntity
  8
KCAD_DIMS
 62
     0
370
    -2
100
AcDbBlockReference
  2
_OPEN30
 10
593.2292747736299
 20
242.3440108284499
 30
0.0
 41
5.0
 42
5.0
 43
5.0
 50
180.0
  0
LINE
  5
9D6
330
99A
100
AcDbEntity
  8
KCAD_DIMS
 62
     0
370
    -2
100
AcDbLine
 10
585.2292747736299
 20
242.3440108284499
 30
0.0
 11
593.2292747736299
 21
242.3440108284499
 31
0.0
  0
LINE
  5
9D7
330
99A
100
AcDbEntity
  8
KCAD_DIMS
 62
     0
370
    -2
100
AcDbLine
 10
580.2292747736299
 20
242.3440108284499
 30
0.0
 11
575.22927477363
 21
242.3440108284499
 31
0.0
  0
LINE
  5
9D8
330
99A
100
AcDbEntity
  8
KCAD_DIMS
 62
     0
370
    -2
100
AcDbLine
 10
598.2292747736299
 20
242.3440108284499
 30
0.0
 11
610.839813731625
 21
242.3440108284499
 31
0.0
  0
POINT
  5
9D9
330
99A
100
AcDbEntity
  8
DEFPOINTS
 62
     0
370
    15
100
AcDbPoint
 10
585.2292747736299
 20
260.89511670511
 30
0.0
  0
POINT
  5
9DA
330
99A
100
AcDbEntity
  8
DEFPOINTS
 62
     0
370
    15
100
AcDbPoint
 10
593.2292747736299
 20
260.69511670511
 30
0.0
  0
POINT
  5
9DB
330
99A
100
AcDbEntity
  8
DEFPOINTS
 62
     0
370
    15
100
AcDbPoint
 10
593.2292747736299
 20
242.3440108284499
 30
0.0
  0
MTEXT
  5
9DC
330
99A
100
AcDbEntity
  8
KCAD_DIMS
 62
     0
100
AcDbMText
 10
605.94778927564
 20
246.6106768284499
 30
0.0
 40
6.4
 41
0.0
 71
     5
 72
     1
  1
\A1;φ8
  7
KCADDIMSTANDARD
 73
     1
 44
1.0
  0
ENDBLK
  5
D87
330
99A
100
AcDbEntity
  8
0
100
AcDbBlockEnd
  0
BLOCK
  5
D88
330
9DE
100
AcDbEntity
  8
0
100
AcDbBlockBegin
  2
*D44
 70
     1
 71
     0
 10
0.0
 20
0.0
 30
0.0
  3
*D44
  1

  0
LINE
  5
A10
330
9DE
100
AcDbEntity
  8
KCAD_DIMS
 62
     0
370
    -2
100
AcDbLine
 10
773.1773283160899
 20
323.09511670511
 30
0.0
 11
741.76927477363
 21
323.09511670511
 31
0.0
  0
LINE
  5
A11
330
9DE
100
AcDbEntity
  8
KCAD_DIMS
 62
     0
370
    -2
100
AcDbLine
 10
773.1773283160899
 20
297.69511670511
 30
0.0
 11
741.76927477363
 21
297.69511670511
 31
0.0
  0
INSERT
  5
A12
330
9DE
100
AcDbEntity
  8
KCAD_DIMS
 62
     0
370
    -2
100
AcDbBlockReference
  2
_OPEN30
 10
773.1773283160899
 20
323.09511670511
 30
0.0
 41
5.0
 42
5.0
 43
5.0
 50
90.0
  0
INSERT
  5
A13
330
9DE
100
AcDbEntity
  8
KCAD_DIMS
 62
     0
370
    -2
100
AcDbBlockReference
  2
_OPEN30
 10
773.1773283160899
 20
297.69511670511
 30
0.0
 41
5.0
 42
5.0
 43
5.0
 50
270.0
  0
LINE
  5
A14
330
9DE
100
AcDbEntity
  8
KCAD_DIMS
 62
     0
370
    -2
100
AcDbLine
 10
773.1773283160899
 20
318.0951167051099
 30
0.0
 11
773.1773283160899
 21
302.69511670511
 31
0.0
  0
POINT
  5
A15
330
9DE
100
AcDbEntity
  8
DEFPOINTS
 62
     0
370
    15
100
AcDbPoint
 10
741.76927477363
 20
323.09511670511
 30
0.0
  0
POINT
  5
A16
330
9DE
100
AcDbEntity
  8
DEFPOINTS
 62
     0
370
    15
100
AcDbPoint
 10
741.76927477363
 20
297.69511670511
 30
0.0
  0
POINT
  5
A17
330
9DE
100
AcDbEntity
  8
DEFPOINTS
 62
     0
370
    15
100
AcDbPoint
 10
773.1773283160899
 20
297.69511670511
 30
0.0
  0
MTEXT
  5
A18
330
9DE
100
AcDbEntity
  8
KCAD_DIMS
 62
     0
100
AcDbMText
 10
768.91066231609
 20
310.39511670511
 30
0.0
 40
6.4
 41
0.0
 71
     5
 72
     1
  1
\A1;\A1;Ｃマウント
  7
KCADDIMSTANDARD
 11
1.000000000000000E-16
 21
1.0
 31
0.0
 73
     1
 44
1.0
  0
ENDBLK
  5
D89
330
9DE
100
AcDbEntity
  8
0
100
AcDbBlockEnd
  0
BLOCK
  5
D8A
330
A1A
100
AcDbEntity
  8
0
100
AcDbBlockBegin
  2
*D45
 70
     1
 71
     0
 10
0.0
 20
0.0
 30
0.0
  3
*D45
  1

  0
LINE
  5
A4C
330
A1A
100
AcDbEntity
  8
KCAD_DIMS
 62
     0
370
    -2
100
AcDbLine
 10
785.91956726246
 20
326.89511670511
 30
0.0
 11
737.66927477363
 21
326.89511670511
 31
0.0
  0
LINE
  5
A4D
330
A1A
100
AcDbEntity
  8
KCAD_DIMS
 62
     0
370
    -2
100
AcDbLine
 10
785.91956726246
 20
293.89511670511
 30
0.0
 11
737.66927477363
 21
293.89511670511
 31
0.0
  0
INSERT
  5
A4E
330
A1A
100
AcDbEntity
  8
KCAD_DIMS
 62
     0
370
    -2
100
AcDbBlockReference
  2
_OPEN30
 10
785.91956726246
 20
326.89511670511
 30
0.0
 41
5.0
 42
5.0
 43
5.0
 50
90.0
  0
INSERT
  5
A4F
330
A1A
100
AcDbEntity
  8
KCAD_DIMS
 62
     0
370
    -2
100
AcDbBlockReference
  2
_OPEN30
 10
785.91956726246
 20
293.89511670511
 30
0.0
 41
5.0
 42
5.0
 43
5.0
 50
270.0
  0
LINE
  5
A50
330
A1A
100
AcDbEntity
  8
KCAD_DIMS
 62
     0
370
    -2
100
AcDbLine
 10
785.91956726246
 20
321.89511670511
 30
0.0
 11
785.91956726246
 21
298.89511670511
 31
0.0
  0
POINT
  5
A51
330
A1A
100
AcDbEntity
  8
DEFPOINTS
 62
     0
370
    15
100
AcDbPoint
 10
737.66927477363
 20
326.89511670511
 30
0.0
  0
POINT
  5
A52
330
A1A
100
AcDbEntity
  8
DEFPOINTS
 62
     0
370
    15
100
AcDbPoint
 10
737.66927477363
 20
293.89511670511
 30
0.0
  0
POINT
  5
A53
330
A1A
100
AcDbEntity
  8
DEFPOINTS
 62
     0
370
    15
100
AcDbPoint
 10
785.91956726246
 20
293.89511670511
 30
0.0
  0
MTEXT
  5
A54
330
A1A
100
AcDbEntity
  8
KCAD_DIMS
 62
     0
100
AcDbMText
 10
781.65290126246
 20
310.39511670511
 30
0.0
 40
6.4
 41
0.0
 71
     5
 72
     1
  1
\A1;φ33
  7
KCADDIMSTANDARD
 11
1.000000000000000E-16
 21
1.0
 31
0.0
 73
     1
 44
1.0
  0
ENDBLK
  5
D8B
330
A1A
100
AcDbEntity
  8
0
100
AcDbBlockEnd
  0
BLOCK
  5
D8C
330
A56
100
AcDbEntity
  8
0
100
AcDbBlockBegin
  2
*D46
 70
     1
 71
     0
 10
0.0
 20
0.0
 30
0.0
  3
*D46
  1

  0
LINE
  5
A88
330
A56
100
AcDbEntity
  8
KCAD_DIMS
 62
     0
370
    -2
100
AcDbLine
 10
797.1307619943599
 20
335.39511670511
 30
0.0
 11
611.2292747736299
 21
335.39511670511
 31
0.0
  0
LINE
  5
A89
330
A56
100
AcDbEntity
  8
KCAD_DIMS
 62
     0
370
    -2
100
AcDbLine
 10
797.1307619943599
 20
285.39511670511
 30
0.0
 11
611.2292747736299
 21
285.39511670511
 31
0.0
  0
INSERT
  5
A8A
330
A56
100
AcDbEntity
  8
KCAD_DIMS
 62
     0
370
    -2
100
AcDbBlockReference
  2
_OPEN30
 10
797.1307619943599
 20
335.39511670511
 30
0.0
 41
5.0
 42
5.0
 43
5.0
 50
90.0
  0
INSERT
  5
A8B
330
A56
100
AcDbEntity
  8
KCAD_DIMS
 62
     0
370
    -2
100
AcDbBlockReference
  2
_OPEN30
 10
797.1307619943599
 20
285.39511670511
 30
0.0
 41
5.0
 42
5.0
 43
5.0
 50
270.0
  0
LINE
  5
A8C
330
A56
100
AcDbEntity
  8
KCAD_DIMS
 62
     0
370
    -2
100
AcDbLine
 10
797.1307619943599
 20
330.39511670511
 30
0.0
 11
797.1307619943599
 21
290.39511670511
 31
0.0
  0
POINT
  5
A8D
330
A56
100
AcDbEntity
  8
DEFPOINTS
 62
     0
370
    15
100
AcDbPoint
 10
611.2292747736299
 20
335.39511670511
 30
0.0
  0
POINT
  5
A8E
330
A56
100
AcDbEntity
  8
DEFPOINTS
 62
     0
370
    15
100
AcDbPoint
 10
611.2292747736299
 20
285.39511670511
 30
0.0
  0
POINT
  5
A8F
330
A56
100
AcDbEntity
  8
DEFPOINTS
 62
     0
370
    15
100
AcDbPoint
 10
797.1307619943599
 20
285.3951167051099
 30
0.0
  0
MTEXT
  5
A90
330
A56
100
AcDbEntity
  8
KCAD_DIMS
 62
     0
100
AcDbMText
 10
792.86409599436
 20
310.39511670511
 30
0.0
 40
6.4
 41
0.0
 71
     5
 72
     1
  1
\A1;□50
  7
KCADDIMSTANDARD
 11
1.000000000000000E-16
 21
1.0
 31
0.0
 73
     1
 44
1.0
  0
ENDBLK
  5
D8D
330
A56
100
AcDbEntity
  8
0
100
AcDbBlockEnd
  0
BLOCK
  5
D8E
330
B15
100
AcDbEntity
  8
0
100
AcDbBlockBegin
  2
*D47
 70
     1
 71
     0
 10
0.0
 20
0.0
 30
0.0
  3
*D47
  1

  0
POINT
  5
B0B
330
B15
100
AcDbEntity
  8
DEFPOINTS
  6
ByBlock
 62
     0
370
    15
100
AcDbPoint
 10
175.72927477363
 20
377.39511670511
 30
0.0
  0
POINT
  5
B0C
330
B15
100
AcDbEntity
  8
DEFPOINTS
  6
ByBlock
 62
     0
370
    15
100
AcDbPoint
 10
175.72927477363
 20
243.39511670511
 30
0.0
  0
LINE
  5
B0D
330
B15
100
AcDbEntity
  8
0
  6
ByBlock
 62
     0
370
    -2
100
AcDbLine
 10
175.72927477363
 20
377.39511670511
 30
0.0
 11
153.00564440263
 21
377.39511670511
 31
0.0
  0
LINE
  5
B0E
330
B15
100
AcDbEntity
  8
0
  6
ByBlock
 62
     0
370
    -2
100
AcDbLine
 10
175.72927477363
 20
243.39511670511
 30
0.0
 11
153.00564440263
 21
243.39511670511
 31
0.0
  0
LINE
  5
B0F
330
B15
100
AcDbEntity
  8
0
  6
ByBlock
 62
     0
370
    -2
100
AcDbLine
 10
153.00564440263
 20
377.39511670511
 30
0.0
 11
153.00564440263
 21
243.39511670511
 31
0.0
  0
SOLID
  5
B10
330
B15
100
AcDbEntity
  8
0
  6
ByBlock
 62
     0
370
    15
100
AcDbTrace
 10
153.00564440263
 20
377.39511670511
 30
0.0
 11
152.1723110692965
 21
372.39511670511
 31
0.0
 12
153.8389777359635
 22
372.39511670511
 32
0.0
 13
153.8389777359635
 23
372.39511670511
 33
0.0
  0
SOLID
  5
B11
330
B15
100
AcDbEntity
  8
0
  6
ByBlock
 62
     0
370
    15
100
AcDbTrace
 10
153.00564440263
 20
243.39511670511
 30
0.0
 11
152.1723110692965
 21
248.39511670511
 31
0.0
 12
153.8389777359635
 22
248.39511670511
 32
0.0
 13
153.8389777359635
 23
248.39511670511
 33
0.0
  0
LINE
  5
B12
330
B15
100
AcDbEntity
  8
0
  6
ByBlock
 62
     0
370
    -2
100
AcDbLine
 10
175.72927477363
 20
377.39511670511
 30
0.0
 11
175.72927477363
 21
377.39511670511
 31
0.0
  0
MTEXT
  5
B13
330
B15
100
AcDbEntity
  8
0
  6
ByBlock
 62
     0
100
AcDbMText
 10
148.73897840263
 20
310.39511670511
 30
0.0
 40
6.4
 41
0.0
 71
     5
 72
     1
  1
\A1;φ134
  7
KCADDIMSTANDARD
 11
6.123031769111886E-17
 21
1.0
 31
0.0
 73
     1
 44
1.0
  0
ENDBLK
  5
D8F
330
B15
100
AcDbEntity
  8
0
100
AcDbBlockEnd
  0
BLOCK
  5
D90
330
B21
100
AcDbEntity
  8
0
100
AcDbBlockBegin
  2
*D48
 70
     1
 71
     0
 10
0.0
 20
0.0
 30
0.0
  3
*D48
  1

  0
POINT
  5
B17
330
B21
100
AcDbEntity
  8
DEFPOINTS
  6
ByBlock
 62
     0
370
    15
100
AcDbPoint
 10
175.22927477363
 20
376.89511670511
 30
0.0
  0
POINT
  5
B18
330
B21
100
AcDbEntity
  8
DEFPOINTS
  6
ByBlock
 62
     0
370
    15
100
AcDbPoint
 10
385.2292747736299
 20
377.39511670511
 30
0.0
  0
LINE
  5
B19
330
B21
100
AcDbEntity
  8
0
  6
ByBlock
 62
     0
370
    -2
100
AcDbLine
 10
175.22927477363
 20
376.89511670511
 30
0.0
 11
175.22927477363
 21
403.01813390822
 31
0.0
  0
LINE
  5
B1A
330
B21
100
AcDbEntity
  8
0
  6
ByBlock
 62
     0
370
    -2
100
AcDbLine
 10
385.2292747736299
 20
377.39511670511
 30
0.0
 11
385.2292747736299
 21
403.01813390822
 31
0.0
  0
LINE
  5
B1B
330
B21
100
AcDbEntity
  8
0
  6
ByBlock
 62
     0
370
    -2
100
AcDbLine
 10
175.22927477363
 20
403.01813390822
 30
0.0
 11
385.2292747736299
 21
403.01813390822
 31
0.0
  0
SOLID
  5
B1C
330
B21
100
AcDbEntity
  8
0
  6
ByBlock
 62
     0
370
    15
100
AcDbTrace
 10
175.22927477363
 20
403.01813390822
 30
0.0
 11
180.22927477363
 21
402.1848005748865
 31
0.0
 12
180.22927477363
 22
403.8514672415535
 32
0.0
 13
180.22927477363
 23
403.8514672415535
 33
0.0
  0
SOLID
  5
B1D
330
B21
100
AcDbEntity
  8
0
  6
ByBlock
 62
     0
370
    15
100
AcDbTrace
 10
385.2292747736299
 20
403.01813390822
 30
0.0
 11
380.2292747736299
 21
402.1848005748865
 31
0.0
 12
380.2292747736299
 22
403.8514672415535
 32
0.0
 13
380.2292747736299
 23
403.8514672415535
 33
0.0
  0
LINE
  5
B1E
330
B21
100
AcDbEntity
  8
0
  6
ByBlock
 62
     0
370
    -2
100
AcDbLine
 10
175.22927477363
 20
376.89511670511
 30
0.0
 11
175.22927477363
 21
376.89511670511
 31
0.0
  0
MTEXT
  5
B1F
330
B21
100
AcDbEntity
  8
0
  6
ByBlock
 62
     0
100
AcDbMText
 10
280.2292747736299
 20
407.28479990822
 30
0.0
 40
6.4
 41
0.0
 71
     5
 72
     1
  1
210
  7
KCADDIMSTANDARD
 73
     1
 44
1.0
  0
ENDBLK
  5
D91
330
B21
100
AcDbEntity
  8
0
100
AcDbBlockEnd
  0
BLOCK
  5
D92
330
B2D
100
AcDbEntity
  8
0
100
AcDbBlockBegin
  2
*D49
 70
     1
 71
     0
 10
0.0
 20
0.0
 30
0.0
  3
*D49
  1

  0
POINT
  5
B23
330
B2D
100
AcDbEntity
  8
DEFPOINTS
  6
ByBlock
 62
     0
370
    15
100
AcDbPoint
 10
385.2292747736299
 20
377.39511670511
 30
0.0
  0
POINT
  5
B24
330
B2D
100
AcDbEntity
  8
DEFPOINTS
  6
ByBlock
 62
     0
370
    15
100
AcDbPoint
 10
555.2292747736299
 20
332.39511670511
 30
0.0
  0
LINE
  5
B25
330
B2D
100
AcDbEntity
  8
0
  6
ByBlock
 62
     0
370
    -2
100
AcDbLine
 10
385.2292747736299
 20
377.39511670511
 30
0.0
 11
385.2292747736299
 21
403.01813390822
 31
0.0
  0
LINE
  5
B26
330
B2D
100
AcDbEntity
  8
0
  6
ByBlock
 62
     0
370
    -2
100
AcDbLine
 10
555.2292747736299
 20
332.39511670511
 30
0.0
 11
555.2292747736299
 21
403.01813390822
 31
0.0
  0
LINE
  5
B27
330
B2D
100
AcDbEntity
  8
0
  6
ByBlock
 62
     0
370
    -2
100
AcDbLine
 10
385.2292747736299
 20
403.01813390822
 30
0.0
 11
555.2292747736299
 21
403.01813390822
 31
0.0
  0
SOLID
  5
B28
330
B2D
100
AcDbEntity
  8
0
  6
ByBlock
 62
     0
370
    15
100
AcDbTrace
 10
385.2292747736299
 20
403.01813390822
 30
0.0
 11
390.2292747736299
 21
402.1848005748865
 31
0.0
 12
390.2292747736299
 22
403.8514672415535
 32
0.0
 13
390.2292747736299
 23
403.8514672415535
 33
0.0
  0
SOLID
  5
B29
330
B2D
100
AcDbEntity
  8
0
  6
ByBlock
 62
     0
370
    15
100
AcDbTrace
 10
555.2292747736299
 20
403.01813390822
 30
0.0
 11
550.2292747736299
 21
402.1848005748865
 31
0.0
 12
550.2292747736299
 22
403.8514672415535
 32
0.0
 13
550.2292747736299
 23
403.8514672415535
 33
0.0
  0
LINE
  5
B2A
330
B2D
100
AcDbEntity
  8
0
  6
ByBlock
 62
     0
370
    -2
100
AcDbLine
 10
385.2292747736299
 20
377.39511670511
 30
0.0
 11
385.2292747736299
 21
377.39511670511
 31
0.0
  0
MTEXT
  5
B2B
330
B2D
100
AcDbEntity
  8
0
  6
ByBlock
 62
     0
100
AcDbMText
 10
470.22927477363
 20
407.28479990822
 30
0.0
 40
6.4
 41
0.0
 71
     5
 72
     1
  1
170
  7
KCADDIMSTANDARD
 73
     1
 44
1.0
  0
ENDBLK
  5
D93
330
B2D
100
AcDbEntity
  8
0
100
AcDbBlockEnd
  0
BLOCK
  5
D94
330
B39
100
AcDbEntity
  8
0
100
AcDbBlockBegin
  2
*D50
 70
     1
 71
     0
 10
0.0
 20
0.0
 30
0.0
  3
*D50
  1

  0
POINT
  5
B2F
330
B39
100
AcDbEntity
  8
DEFPOINTS
  6
ByBlock
 62
     0
370
    15
100
AcDbPoint
 10
555.2292747736299
 20
332.39511670511
 30
0.0
  0
POINT
  5
B30
330
B39
100
AcDbEntity
  8
DEFPOINTS
  6
ByBlock
 62
     0
370
    15
100
AcDbPoint
 10
624.22927477363
 20
326.89511670511
 30
0.0
  0
LINE
  5
B31
330
B39
100
AcDbEntity
  8
0
  6
ByBlock
 62
     0
370
    -2
100
AcDbLine
 10
555.2292747736299
 20
332.39511670511
 30
0.0
 11
555.2292747736299
 21
403.01813390822
 31
0.0
  0
LINE
  5
B32
330
B39
100
AcDbEntity
  8
0
  6
ByBlock
 62
     0
370
    -2
100
AcDbLine
 10
624.22927477363
 20
326.89511670511
 30
0.0
 11
624.22927477363
 21
403.01813390822
 31
0.0
  0
LINE
  5
B33
330
B39
100
AcDbEntity
  8
0
  6
ByBlock
 62
     0
370
    -2
100
AcDbLine
 10
555.2292747736299
 20
403.01813390822
 30
0.0
 11
624.22927477363
 21
403.01813390822
 31
0.0
  0
SOLID
  5
B34
330
B39
100
AcDbEntity
  8
0
  6
ByBlock
 62
     0
370
    15
100
AcDbTrace
 10
555.2292747736299
 20
403.01813390822
 30
0.0
 11
560.2292747736299
 21
402.1848005748865
 31
0.0
 12
560.2292747736299
 22
403.8514672415535
 32
0.0
 13
560.2292747736299
 23
403.8514672415535
 33
0.0
  0
SOLID
  5
B35
330
B39
100
AcDbEntity
  8
0
  6
ByBlock
 62
     0
370
    15
100
AcDbTrace
 10
624.22927477363
 20
403.01813390822
 30
0.0
 11
619.22927477363
 21
402.1848005748865
 31
0.0
 12
619.22927477363
 22
403.8514672415535
 32
0.0
 13
619.22927477363
 23
403.8514672415535
 33
0.0
  0
LINE
  5
B36
330
B39
100
AcDbEntity
  8
0
  6
ByBlock
 62
     0
370
    -2
100
AcDbLine
 10
555.2292747736299
 20
332.39511670511
 30
0.0
 11
555.2292747736299
 21
332.39511670511
 31
0.0
  0
MTEXT
  5
B37
330
B39
100
AcDbEntity
  8
0
  6
ByBlock
 62
     0
100
AcDbMText
 10
589.7292747736299
 20
407.28479990822
 30
0.0
 40
6.4
 41
0.0
 71
     5
 72
     1
  1
69
  7
KCADDIMSTANDARD
 73
     1
 44
1.0
  0
ENDBLK
  5
D95
330
B39
100
AcDbEntity
  8
0
100
AcDbBlockEnd
  0
BLOCK
  5
D96
330
B46
100
AcDbEntity
  8
0
100
AcDbBlockBegin
  2
*D51
 70
     1
 71
     0
 10
0.0
 20
0.0
 30
0.0
  3
*D51
  1

  0
POINT
  5
B3B
330
B46
100
AcDbEntity
  8
DEFPOINTS
  6
ByBlock
 62
     0
370
    15
100
AcDbPoint
 10
624.22927477363
 20
326.5951167051099
 30
0.0
  0
POINT
  5
B3C
330
B46
100
AcDbEntity
  8
DEFPOINTS
  6
ByBlock
 62
     0
370
    15
100
AcDbPoint
 10
636.2292747736299
 20
326.89511670511
 30
0.0
  0
LINE
  5
B3D
330
B46
100
AcDbEntity
  8
0
  6
ByBlock
 62
     0
370
    -2
100
AcDbLine
 10
624.22927477363
 20
326.5951167051099
 30
0.0
 11
624.22927477363
 21
403.01813390822
 31
0.0
  0
LINE
  5
B3E
330
B46
100
AcDbEntity
  8
0
  6
ByBlock
 62
     0
370
    -2
100
AcDbLine
 10
636.2292747736299
 20
326.89511670511
 30
0.0
 11
636.2292747736299
 21
403.01813390822
 31
0.0
  0
LINE
  5
B3F
330
B46
100
AcDbEntity
  8
0
  6
ByBlock
 62
     0
370
    -2
100
AcDbLine
 10
619.22927477363
 20
403.01813390822
 30
0.0
 11
614.22927477363
 21
403.01813390822
 31
0.0
  0
SOLID
  5
B40
330
B46
100
AcDbEntity
  8
0
  6
ByBlock
 62
     0
370
    15
100
AcDbTrace
 10
624.22927477363
 20
403.01813390822
 30
0.0
 11
619.22927477363
 21
402.1848005748865
 31
0.0
 12
619.22927477363
 22
403.8514672415535
 32
0.0
 13
619.22927477363
 23
403.8514672415535
 33
0.0
  0
LINE
  5
B41
330
B46
100
AcDbEntity
  8
0
  6
ByBlock
 62
     0
370
    -2
100
AcDbLine
 10
641.2292747736299
 20
403.01813390822
 30
0.0
 11
646.2292747736299
 21
403.01813390822
 31
0.0
  0
SOLID
  5
B42
330
B46
100
AcDbEntity
  8
0
  6
ByBlock
 62
     0
370
    15
100
AcDbTrace
 10
636.2292747736299
 20
403.01813390822
 30
0.0
 11
641.2292747736299
 21
402.1848005748865
 31
0.0
 12
641.2292747736299
 22
403.8514672415535
 32
0.0
 13
641.2292747736299
 23
403.8514672415535
 33
0.0
  0
LINE
  5
B43
330
B46
100
AcDbEntity
  8
0
  6
ByBlock
 62
     0
370
    -2
100
AcDbLine
 10
624.22927477363
 20
403.01813390822
 30
0.0
 11
636.2292747736299
 21
403.01813390822
 31
0.0
  0
MTEXT
  5
B44
330
B46
100
AcDbEntity
  8
0
  6
ByBlock
 62
     0
100
AcDbMText
 10
630.2292747736299
 20
407.28479990822
 30
0.0
 40
6.4
 41
0.0
 71
     5
 72
     1
  1
12
  7
KCADDIMSTANDARD
 73
     1
 44
1.0
  0
ENDBLK
  5
D97
330
B46
100
AcDbEntity
  8
0
100
AcDbBlockEnd
  0
BLOCK
  5
D98
330
B52
100
AcDbEntity
  8
0
100
AcDbBlockBegin
  2
*D52
 70
     1
 71
     0
 10
0.0
 20
0.0
 30
0.0
  3
*D52
  1

  0
POINT
  5
B48
330
B52
100
AcDbEntity
  8
DEFPOINTS
  6
ByBlock
 62
     0
370
    15
100
AcDbPoint
 10
567.22927477363
 20
335.39511670511
 30
0.0
  0
POINT
  5
B49
330
B52
100
AcDbEntity
  8
DEFPOINTS
  6
ByBlock
 62
     0
370
    15
100
AcDbPoint
 10
611.2292747736299
 20
335.39511670511
 30
0.0
  0
LINE
  5
B4A
330
B52
100
AcDbEntity
  8
0
  6
ByBlock
 62
     0
370
    -2
100
AcDbLine
 10
567.22927477363
 20
335.39511670511
 30
0.0
 11
567.22927477363
 21
388.9619434829299
 31
0.0
  0
LINE
  5
B4B
330
B52
100
AcDbEntity
  8
0
  6
ByBlock
 62
     0
370
    -2
100
AcDbLine
 10
611.2292747736299
 20
335.39511670511
 30
0.0
 11
611.2292747736299
 21
388.9619434829299
 31
0.0
  0
LINE
  5
B4C
330
B52
100
AcDbEntity
  8
0
  6
ByBlock
 62
     0
370
    -2
100
AcDbLine
 10
567.22927477363
 20
388.9619434829299
 30
0.0
 11
611.2292747736299
 21
388.9619434829299
 31
0.0
  0
SOLID
  5
B4D
330
B52
100
AcDbEntity
  8
0
  6
ByBlock
 62
     0
370
    15
100
AcDbTrace
 10
567.22927477363
 20
388.9619434829299
 30
0.0
 11
572.22927477363
 21
388.1286101495964
 31
0.0
 12
572.22927477363
 22
389.7952768162634
 32
0.0
 13
572.22927477363
 23
389.7952768162634
 33
0.0
  0
SOLID
  5
B4E
330
B52
100
AcDbEntity
  8
0
  6
ByBlock
 62
     0
370
    15
100
AcDbTrace
 10
611.2292747736299
 20
388.9619434829299
 30
0.0
 11
606.2292747736299
 21
388.1286101495964
 31
0.0
 12
606.2292747736299
 22
389.7952768162634
 32
0.0
 13
606.2292747736299
 23
389.7952768162634
 33
0.0
  0
LINE
  5
B4F
330
B52
100
AcDbEntity
  8
0
  6
ByBlock
 62
     0
370
    -2
100
AcDbLine
 10
567.22927477363
 20
335.39511670511
 30
0.0
 11
567.22927477363
 21
335.39511670511
 31
0.0
  0
MTEXT
  5
B50
330
B52
100
AcDbEntity
  8
0
  6
ByBlock
 62
     0
100
AcDbMText
 10
589.2292747736299
 20
393.2286094829299
 30
0.0
 40
6.4
 41
0.0
 71
     5
 72
     1
  1
44
  7
KCADDIMSTANDARD
 73
     1
 44
1.0
  0
ENDBLK
  5
D99
330
B52
100
AcDbEntity
  8
0
100
AcDbBlockEnd
  0
BLOCK
  5
D9A
330
B5E
100
AcDbEntity
  8
0
100
AcDbBlockBegin
  2
*D53
 70
     1
 71
     0
 10
0.0
 20
0.0
 30
0.0
  3
*D53
  1

  0
POINT
  5
B54
330
B5E
100
AcDbEntity
  8
DEFPOINTS
  6
ByBlock
 62
     0
370
    15
100
AcDbPoint
 10
611.2292747736299
 20
334.39511670511
 30
0.0
  0
POINT
  5
B55
330
B5E
100
AcDbEntity
  8
DEFPOINTS
  6
ByBlock
 62
     0
370
    15
100
AcDbPoint
 10
624.22927477363
 20
326.5951167051099
 30
0.0
  0
LINE
  5
B56
330
B5E
100
AcDbEntity
  8
0
  6
ByBlock
 62
     0
370
    -2
100
AcDbLine
 10
611.2292747736299
 20
334.39511670511
 30
0.0
 11
611.2292747736299
 21
388.9619434829299
 31
0.0
  0
LINE
  5
B57
330
B5E
100
AcDbEntity
  8
0
  6
ByBlock
 62
     0
370
    -2
100
AcDbLine
 10
624.22927477363
 20
326.5951167051099
 30
0.0
 11
624.22927477363
 21
388.9619434829299
 31
0.0
  0
LINE
  5
B58
330
B5E
100
AcDbEntity
  8
0
  6
ByBlock
 62
     0
370
    -2
100
AcDbLine
 10
611.2292747736299
 20
388.9619434829299
 30
0.0
 11
624.22927477363
 21
388.9619434829299
 31
0.0
  0
SOLID
  5
B59
330
B5E
100
AcDbEntity
  8
0
  6
ByBlock
 62
     0
370
    15
100
AcDbTrace
 10
611.2292747736299
 20
388.9619434829299
 30
0.0
 11
616.2292747736299
 21
388.1286101495964
 31
0.0
 12
616.2292747736299
 22
389.7952768162634
 32
0.0
 13
616.2292747736299
 23
389.7952768162634
 33
0.0
  0
SOLID
  5
B5A
330
B5E
100
AcDbEntity
  8
0
  6
ByBlock
 62
     0
370
    15
100
AcDbTrace
 10
624.22927477363
 20
388.9619434829299
 30
0.0
 11
619.22927477363
 21
388.1286101495964
 31
0.0
 12
619.22927477363
 22
389.7952768162634
 32
0.0
 13
619.22927477363
 23
389.7952768162634
 33
0.0
  0
LINE
  5
B5B
330
B5E
100
AcDbEntity
  8
0
  6
ByBlock
 62
     0
370
    -2
100
AcDbLine
 10
611.2292747736299
 20
334.39511670511
 30
0.0
 11
611.2292747736299
 21
334.39511670511
 31
0.0
  0
MTEXT
  5
B5C
330
B5E
100
AcDbEntity
  8
0
  6
ByBlock
 62
     0
100
AcDbMText
 10
617.7292747736299
 20
393.2286094829299
 30
0.0
 40
6.4
 41
0.0
 71
     5
 72
     1
  1
13
  7
KCADDIMSTANDARD
 73
     1
 44
1.0
  0
ENDBLK
  5
D9B
330
B5E
100
AcDbEntity
  8
0
100
AcDbBlockEnd
  0
BLOCK
  5
D9C
330
B6A
100
AcDbEntity
  8
0
100
AcDbBlockBegin
  2
*D54
 70
     1
 71
     0
 10
0.0
 20
0.0
 30
0.0
  3
*D54
  1

  0
POINT
  5
B60
330
B6A
100
AcDbEntity
  8
DEFPOINTS
  6
ByBlock
 62
     0
370
    15
100
AcDbPoint
 10
636.2292747736299
 20
326.39511670511
 30
0.0
  0
POINT
  5
B61
330
B6A
100
AcDbEntity
  8
DEFPOINTS
  6
ByBlock
 62
     0
370
    15
100
AcDbPoint
 10
738.16927477363
 20
326.39511670511
 30
0.0
  0
LINE
  5
B62
330
B6A
100
AcDbEntity
  8
0
  6
ByBlock
 62
     0
370
    -2
100
AcDbLine
 10
636.2292747736299
 20
326.39511670511
 30
0.0
 11
636.2292747736299
 21
403.01813390822
 31
0.0
  0
LINE
  5
B63
330
B6A
100
AcDbEntity
  8
0
  6
ByBlock
 62
     0
370
    -2
100
AcDbLine
 10
738.16927477363
 20
326.39511670511
 30
0.0
 11
738.16927477363
 21
403.01813390822
 31
0.0
  0
LINE
  5
B64
330
B6A
100
AcDbEntity
  8
0
  6
ByBlock
 62
     0
370
    -2
100
AcDbLine
 10
636.2292747736299
 20
403.01813390822
 30
0.0
 11
738.16927477363
 21
403.01813390822
 31
0.0
  0
SOLID
  5
B65
330
B6A
100
AcDbEntity
  8
0
  6
ByBlock
 62
     0
370
    15
100
AcDbTrace
 10
636.2292747736299
 20
403.01813390822
 30
0.0
 11
641.2292747736299
 21
402.1848005748865
 31
0.0
 12
641.2292747736299
 22
403.8514672415535
 32
0.0
 13
641.2292747736299
 23
403.8514672415535
 33
0.0
  0
SOLID
  5
B66
330
B6A
100
AcDbEntity
  8
0
  6
ByBlock
 62
     0
370
    15
100
AcDbTrace
 10
738.16927477363
 20
403.01813390822
 30
0.0
 11
733.16927477363
 21
402.1848005748865
 31
0.0
 12
733.16927477363
 22
403.8514672415535
 32
0.0
 13
733.16927477363
 23
403.8514672415535
 33
0.0
  0
LINE
  5
B67
330
B6A
100
AcDbEntity
  8
0
  6
ByBlock
 62
     0
370
    -2
100
AcDbLine
 10
636.2292747736299
 20
326.39511670511
 30
0.0
 11
636.2292747736299
 21
326.39511670511
 31
0.0
  0
MTEXT
  5
B68
330
B6A
100
AcDbEntity
  8
0
  6
ByBlock
 62
     0
100
AcDbMText
 10
687.19927477363
 20
407.28479990822
 30
0.0
 40
6.4
 41
0.0
 71
     5
 72
     1
  1
101.94
  7
KCADDIMSTANDARD
 73
     1
 44
1.0
  0
ENDBLK
  5
D9D
330
B6A
100
AcDbEntity
  8
0
100
AcDbBlockEnd
  0
BLOCK
  5
D9E
330
B77
100
AcDbEntity
  8
0
100
AcDbBlockBegin
  2
*D55
 70
     1
 71
     0
 10
0.0
 20
0.0
 30
0.0
  3
*D55
  1

  0
POINT
  5
B6C
330
B77
100
AcDbEntity
  8
DEFPOINTS
  6
ByBlock
 62
     0
370
    15
100
AcDbPoint
 10
738.16927477363
 20
326.39511670511
 30
0.0
  0
POINT
  5
B6D
330
B77
100
AcDbEntity
  8
DEFPOINTS
  6
ByBlock
 62
     0
370
    15
100
AcDbPoint
 10
742.16927477363
 20
322.69511670511
 30
0.0
  0
LINE
  5
B6E
330
B77
100
AcDbEntity
  8
0
  6
ByBlock
 62
     0
370
    -2
100
AcDbLine
 10
738.16927477363
 20
326.39511670511
 30
0.0
 11
738.16927477363
 21
403.01813390822
 31
0.0
  0
LINE
  5
B6F
330
B77
100
AcDbEntity
  8
0
  6
ByBlock
 62
     0
370
    -2
100
AcDbLine
 10
742.16927477363
 20
322.69511670511
 30
0.0
 11
742.16927477363
 21
403.01813390822
 31
0.0
  0
LINE
  5
B70
330
B77
100
AcDbEntity
  8
0
  6
ByBlock
 62
     0
370
    -2
100
AcDbLine
 10
733.16927477363
 20
403.01813390822
 30
0.0
 11
728.16927477363
 21
403.01813390822
 31
0.0
  0
SOLID
  5
B71
330
B77
100
AcDbEntity
  8
0
  6
ByBlock
 62
     0
370
    15
100
AcDbTrace
 10
738.16927477363
 20
403.01813390822
 30
0.0
 11
733.16927477363
 21
402.1848005748865
 31
0.0
 12
733.16927477363
 22
403.8514672415535
 32
0.0
 13
733.16927477363
 23
403.8514672415535
 33
0.0
  0
LINE
  5
B72
330
B77
100
AcDbEntity
  8
0
  6
ByBlock
 62
     0
370
    -2
100
AcDbLine
 10
747.16927477363
 20
403.01813390822
 30
0.0
 11
752.16927477363
 21
403.01813390822
 31
0.0
  0
SOLID
  5
B73
330
B77
100
AcDbEntity
  8
0
  6
ByBlock
 62
     0
370
    15
100
AcDbTrace
 10
742.16927477363
 20
403.01813390822
 30
0.0
 11
747.16927477363
 21
402.1848005748865
 31
0.0
 12
747.16927477363
 22
403.8514672415535
 32
0.0
 13
747.16927477363
 23
403.8514672415535
 33
0.0
  0
LINE
  5
B74
330
B77
100
AcDbEntity
  8
0
  6
ByBlock
 62
     0
370
    -2
100
AcDbLine
 10
738.16927477363
 20
403.01813390822
 30
0.0
 11
742.16927477363
 21
403.01813390822
 31
0.0
  0
MTEXT
  5
B75
330
B77
100
AcDbEntity
  8
0
  6
ByBlock
 62
     0
100
AcDbMText
 10
750.06349952963
 20
407.28479990822
 30
0.0
 40
6.4
 41
0.0
 71
     5
 72
     1
  1
4
  7
KCADDIMSTANDARD
 73
     1
 44
1.0
  0
ENDBLK
  5
D9F
330
B77
100
AcDbEntity
  8
0
100
AcDbBlockEnd
  0
BLOCK
  5
DA0
330
B83
100
AcDbEntity
  8
0
100
AcDbBlockBegin
  2
*D56
 70
     1
 71
     0
 10
0.0
 20
0.0
 30
0.0
  3
*D56
  1

  0
POINT
  5
B79
330
B83
100
AcDbEntity
  8
DEFPOINTS
  6
ByBlock
 62
     0
370
    15
100
AcDbPoint
 10
738.16927477363
 20
326.39511670511
 30
0.0
  0
POINT
  5
B7A
330
B83
100
AcDbEntity
  8
DEFPOINTS
  6
ByBlock
 62
     0
370
    15
100
AcDbPoint
 10
755.69527477363
 20
314.16612794073
 30
0.0
  0
LINE
  5
B7B
330
B83
100
AcDbEntity
  8
0
  6
ByBlock
 62
     0
370
    -2
100
AcDbLine
 10
738.16927477363
 20
326.39511670511
 30
0.0
 11
738.16927477363
 21
422.6673255138999
 31
0.0
  0
LINE
  5
B7C
330
B83
100
AcDbEntity
  8
0
  6
ByBlock
 62
     0
370
    -2
100
AcDbLine
 10
755.69527477363
 20
314.16612794073
 30
0.0
 11
755.69527477363
 21
422.6673255138999
 31
0.0
  0
LINE
  5
B7D
330
B83
100
AcDbEntity
  8
0
  6
ByBlock
 62
     0
370
    -2
100
AcDbLine
 10
738.16927477363
 20
422.6673255138999
 30
0.0
 11
755.69527477363
 21
422.6673255138999
 31
0.0
  0
SOLID
  5
B7E
330
B83
100
AcDbEntity
  8
0
  6
ByBlock
 62
     0
370
    15
100
AcDbTrace
 10
738.16927477363
 20
422.6673255138999
 30
0.0
 11
743.16927477363
 21
421.8339921805664
 31
0.0
 12
743.16927477363
 22
423.5006588472334
 32
0.0
 13
743.16927477363
 23
423.5006588472334
 33
0.0
  0
SOLID
  5
B7F
330
B83
100
AcDbEntity
  8
0
  6
ByBlock
 62
     0
370
    15
100
AcDbTrace
 10
755.69527477363
 20
422.6673255138999
 30
0.0
 11
750.69527477363
 21
421.8339921805664
 31
0.0
 12
750.69527477363
 22
423.5006588472334
 32
0.0
 13
750.69527477363
 23
423.5006588472334
 33
0.0
  0
LINE
  5
B80
330
B83
100
AcDbEntity
  8
0
  6
ByBlock
 62
     0
370
    -2
100
AcDbLine
 10
738.16927477363
 20
326.39511670511
 30
0.0
 11
738.16927477363
 21
326.39511670511
 31
0.0
  0
MTEXT
  5
B81
330
B83
100
AcDbEntity
  8
0
  6
ByBlock
 62
     0
100
AcDbMText
 10
767.69520225776
 20
426.9339915138999
 30
0.0
 40
6.4
 41
0.0
 71
     5
 72
     1
  1
17.53
  7
KCADDIMSTANDARD
 73
     1
 44
1.0
  0
ENDBLK
  5
DA1
330
B83
100
AcDbEntity
  8
0
100
AcDbBlockEnd
  0
BLOCK
  5
DA2
330
B8F
100
AcDbEntity
  8
0
100
AcDbBlockBegin
  2
*D57
 70
     1
 71
     0
 10
0.0
 20
0.0
 30
0.0
  3
*D57
  1

  0
POINT
  5
B85
330
B8F
100
AcDbEntity
  8
DEFPOINTS
  6
ByBlock
 62
     0
370
    15
100
AcDbPoint
 10
175.22927477363
 20
376.89511670511
 30
0.0
  0
POINT
  5
B86
330
B8F
100
AcDbEntity
  8
DEFPOINTS
  6
ByBlock
 62
     0
370
    15
100
AcDbPoint
 10
738.16927477363
 20
326.39511670511
 30
0.0
  0
LINE
  5
B87
330
B8F
100
AcDbEntity
  8
0
  6
ByBlock
 62
     0
370
    -2
100
AcDbLine
 10
175.22927477363
 20
376.89511670511
 30
0.0
 11
175.22927477363
 21
422.6673255138999
 31
0.0
  0
LINE
  5
B88
330
B8F
100
AcDbEntity
  8
0
  6
ByBlock
 62
     0
370
    -2
100
AcDbLine
 10
738.16927477363
 20
326.39511670511
 30
0.0
 11
738.16927477363
 21
422.6673255138999
 31
0.0
  0
LINE
  5
B89
330
B8F
100
AcDbEntity
  8
0
  6
ByBlock
 62
     0
370
    -2
100
AcDbLine
 10
175.22927477363
 20
422.6673255138999
 30
0.0
 11
738.16927477363
 21
422.6673255138999
 31
0.0
  0
SOLID
  5
B8A
330
B8F
100
AcDbEntity
  8
0
  6
ByBlock
 62
     0
370
    15
100
AcDbTrace
 10
175.22927477363
 20
422.6673255138999
 30
0.0
 11
180.22927477363
 21
421.8339921805664
 31
0.0
 12
180.22927477363
 22
423.5006588472334
 32
0.0
 13
180.22927477363
 23
423.5006588472334
 33
0.0
  0
SOLID
  5
B8B
330
B8F
100
AcDbEntity
  8
0
  6
ByBlock
 62
     0
370
    15
100
AcDbTrace
 10
738.16927477363
 20
422.6673255138999
 30
0.0
 11
733.16927477363
 21
421.8339921805664
 31
0.0
 12
733.16927477363
 22
423.5006588472334
 32
0.0
 13
733.16927477363
 23
423.5006588472334
 33
0.0
  0
LINE
  5
B8C
330
B8F
100
AcDbEntity
  8
0
  6
ByBlock
 62
     0
370
    -2
100
AcDbLine
 10
175.22927477363
 20
376.89511670511
 30
0.0
 11
175.22927477363
 21
376.89511670511
 31
0.0
  0
MTEXT
  5
B8D
330
B8F
100
AcDbEntity
  8
0
  6
ByBlock
 62
     0
100
AcDbMText
 10
456.69927477363
 20
426.9339915138999
 30
0.0
 40
6.4
 41
0.0
 71
     5
 72
     1
  1
562.94
  7
KCADDIMSTANDARD
 73
     1
 44
1.0
  0
ENDBLK
  5
DA3
330
B8F
100
AcDbEntity
  8
0
100
AcDbBlockEnd
  0
BLOCK
  5
DA4
330
B9B
100
AcDbEntity
  8
0
100
AcDbBlockBegin
  2
*D58
 70
     1
 71
     0
 10
0.0
 20
0.0
 30
0.0
  3
*D58
  1

  0
POINT
  5
B91
330
B9B
100
AcDbEntity
  8
DEFPOINTS
  6
ByBlock
 62
     0
370
    15
100
AcDbPoint
 10
49.534744005546
 20
310.39511670511
 30
0.0
  0
POINT
  5
B92
330
B9B
100
AcDbEntity
  8
DEFPOINTS
  6
ByBlock
 62
     0
370
    15
100
AcDbPoint
 10
175.22927477363
 20
376.89511670511
 30
0.0
  0
LINE
  5
B93
330
B9B
100
AcDbEntity
  8
0
  6
ByBlock
 62
     0
370
    -2
100
AcDbLine
 10
49.534744005546
 20
310.39511670511
 30
0.0
 11
49.534744005546
 21
422.6673255138999
 31
0.0
  0
LINE
  5
B94
330
B9B
100
AcDbEntity
  8
0
  6
ByBlock
 62
     0
370
    -2
100
AcDbLine
 10
175.22927477363
 20
376.89511670511
 30
0.0
 11
175.22927477363
 21
422.6673255138999
 31
0.0
  0
LINE
  5
B95
330
B9B
100
AcDbEntity
  8
0
  6
ByBlock
 62
     0
370
    -2
100
AcDbLine
 10
49.534744005546
 20
422.6673255138999
 30
0.0
 11
175.22927477363
 21
422.6673255138999
 31
0.0
  0
SOLID
  5
B96
330
B9B
100
AcDbEntity
  8
0
  6
ByBlock
 62
     0
370
    15
100
AcDbTrace
 10
49.534744005546
 20
422.6673255138999
 30
0.0
 11
54.534744005546
 21
421.8339921805664
 31
0.0
 12
54.534744005546
 22
423.5006588472334
 32
0.0
 13
54.534744005546
 23
423.5006588472334
 33
0.0
  0
SOLID
  5
B97
330
B9B
100
AcDbEntity
  8
0
  6
ByBlock
 62
     0
370
    15
100
AcDbTrace
 10
175.22927477363
 20
422.6673255138999
 30
0.0
 11
170.22927477363
 21
421.8339921805664
 31
0.0
 12
170.22927477363
 22
423.5006588472334
 32
0.0
 13
170.22927477363
 23
423.5006588472334
 33
0.0
  0
LINE
  5
B98
330
B9B
100
AcDbEntity
  8
0
  6
ByBlock
 62
     0
370
    -2
100
AcDbLine
 10
49.534744005546
 20
310.39511670511
 30
0.0
 11
49.534744005546
 21
310.39511670511
 31
0.0
  0
MTEXT
  5
B99
330
B9B
100
AcDbEntity
  8
0
  6
ByBlock
 62
     0
100
AcDbMText
 10
112.3820093895899
 20
426.9339915138999
 30
0.0
 40
6.4
 41
0.0
 71
     5
 72
     1
  1
\A1;WD=342.1
  7
KCADDIMSTANDARD
 73
     1
 44
1.0
  0
ENDBLK
  5
DA5
330
B9B
100
AcDbEntity
  8
0
100
AcDbBlockEnd
  0
BLOCK
  5
DA6
330
BA7
100
AcDbEntity
  8
0
100
AcDbBlockBegin
  2
*D59
 70
     1
 71
     0
 10
0.0
 20
0.0
 30
0.0
  3
*D59
  1

  0
POINT
  5
B9D
330
BA7
100
AcDbEntity
  8
DEFPOINTS
  6
ByBlock
 62
     0
370
    15
100
AcDbPoint
 10
49.534744005546
 20
310.39511670511
 30
0.0
  0
POINT
  5
B9E
330
BA7
100
AcDbEntity
  8
DEFPOINTS
  6
ByBlock
 62
     0
370
    15
100
AcDbPoint
 10
755.69527477363
 20
314.16612794073
 30
0.0
  0
LINE
  5
B9F
330
BA7
100
AcDbEntity
  8
0
  6
ByBlock
 62
     0
370
    -2
100
AcDbLine
 10
49.534744005546
 20
310.39511670511
 30
0.0
 11
49.534744005546
 21
443.12224284942
 31
0.0
  0
LINE
  5
BA0
330
BA7
100
AcDbEntity
  8
0
  6
ByBlock
 62
     0
370
    -2
100
AcDbLine
 10
755.69527477363
 20
314.16612794073
 30
0.0
 11
755.69527477363
 21
443.12224284942
 31
0.0
  0
LINE
  5
BA1
330
BA7
100
AcDbEntity
  8
0
  6
ByBlock
 62
     0
370
    -2
100
AcDbLine
 10
49.534744005546
 20
443.12224284942
 30
0.0
 11
755.69527477363
 21
443.12224284942
 31
0.0
  0
SOLID
  5
BA2
330
BA7
100
AcDbEntity
  8
0
  6
ByBlock
 62
     0
370
    15
100
AcDbTrace
 10
49.534744005546
 20
443.12224284942
 30
0.0
 11
54.534744005546
 21
442.2889095160865
 31
0.0
 12
54.534744005546
 22
443.9555761827535
 32
0.0
 13
54.534744005546
 23
443.9555761827535
 33
0.0
  0
SOLID
  5
BA3
330
BA7
100
AcDbEntity
  8
0
  6
ByBlock
 62
     0
370
    15
100
AcDbTrace
 10
755.69527477363
 20
443.12224284942
 30
0.0
 11
750.69527477363
 21
442.2889095160865
 31
0.0
 12
750.69527477363
 22
443.9555761827535
 32
0.0
 13
750.69527477363
 23
443.9555761827535
 33
0.0
  0
LINE
  5
BA4
330
BA7
100
AcDbEntity
  8
0
  6
ByBlock
 62
     0
370
    -2
100
AcDbLine
 10
49.534744005546
 20
310.39511670511
 30
0.0
 11
49.534744005546
 21
310.39511670511
 31
0.0
  0
MTEXT
  5
BA5
330
BA7
100
AcDbEntity
  8
0
  6
ByBlock
 62
     0
100
AcDbMText
 10
402.61500938959
 20
447.38890884942
 30
0.0
 40
6.4
 41
0.0
 71
     5
 72
     1
  1
\A1;922.57
  7
KCADDIMSTANDARD
 73
     1
 44
1.0
  0
ENDBLK
  5
DA7
330
BA7
100
AcDbEntity
  8
0
100
AcDbBlockEnd
  0
BLOCK
  5
DA8
330
BB2
100
AcDbEntity
  8
0
100
AcDbBlockBegin
  2
*D60
 70
     1
 71
     0
 10
0.0
 20
0.0
 30
0.0
  3
*D60
  1

  0
POINT
  5
BA9
330
BB2
100
AcDbEntity
  8
DEFPOINTS
  6
ByBlock
 62
     0
370
    15
100
AcDbPoint
 10
543.90505609641
 20
310.39511670511
 30
0.0
  0
POINT
  5
BAA
330
BB2
100
AcDbEntity
  8
DEFPOINTS
  6
ByBlock
 62
     0
370
    15
100
AcDbPoint
 10
582.2292747736299
 20
260.3951167051099
 30
0.0
  0
LINE
  5
BAB
330
BB2
100
AcDbEntity
  8
0
  6
ByBlock
 62
     0
370
    -2
100
AcDbLine
 10
582.2292747736299
 20
260.3951167051099
 30
0.0
 11
543.90505609641
 21
260.3951167051099
 31
0.0
  0
LINE
  5
BAC
330
BB2
100
AcDbEntity
  8
0
  6
ByBlock
 62
     0
370
    -2
100
AcDbLine
 10
543.90505609641
 20
310.39511670511
 30
0.0
 11
543.90505609641
 21
260.3951167051099
 31
0.0
  0
SOLID
  5
BAD
330
BB2
100
AcDbEntity
  8
0
  6
ByBlock
 62
     0
370
    15
100
AcDbTrace
 10
543.90505609641
 20
310.39511670511
 30
0.0
 11
543.0717227630765
 21
305.39511670511
 31
0.0
 12
544.7383894297435
 22
305.39511670511
 32
0.0
 13
544.7383894297435
 23
305.39511670511
 33
0.0
  0
SOLID
  5
BAE
330
BB2
100
AcDbEntity
  8
0
  6
ByBlock
 62
     0
370
    15
100
AcDbTrace
 10
543.90505609641
 20
260.3951167051099
 30
0.0
 11
543.0717227630765
 21
265.3951167051099
 31
0.0
 12
544.7383894297435
 22
265.3951167051099
 32
0.0
 13
544.7383894297435
 23
265.3951167051099
 33
0.0
  0
LINE
  5
BAF
330
BB2
100
AcDbEntity
  8
0
  6
ByBlock
 62
     0
370
    -2
100
AcDbLine
 10
543.90505609641
 20
310.39511670511
 30
0.0
 11
543.90505609641
 21
310.39511670511
 31
0.0
  0
MTEXT
  5
BB0
330
BB2
100
AcDbEntity
  8
0
  6
ByBlock
 62
     0
100
AcDbMText
 10
539.63839009641
 20
274.08888933368
 30
0.0
 40
6.4
 41
0.0
 71
     5
 72
     1
  1
50
  7
KCADDIMSTANDARD
 11
6.123031769111886E-17
 21
1.0
 31
0.0
 73
     1
 44
1.0
  0
ENDBLK
  5
DA9
330
BB2
100
AcDbEntity
  8
0
100
AcDbBlockEnd
  0
BLOCK
  5
DAA
330
BBE
100
AcDbEntity
  8
0
100
AcDbBlockBegin
  2
*D61
 70
     1
 71
     0
 10
0.0
 20
0.0
 30
0.0
  3
*D61
  1

  0
POINT
  5
BB4
330
BBE
100
AcDbEntity
  8
DEFPOINTS
  6
ByBlock
 62
     0
370
    15
100
AcDbPoint
 10
175.22927477363
 20
243.39511670511
 30
0.0
  0
POINT
  5
BB5
330
BBE
100
AcDbEntity
  8
DEFPOINTS
  6
ByBlock
 62
     0
370
    15
100
AcDbPoint
 10
589.2292747736299
 20
254.77268781622
 30
0.0
  0
LINE
  5
BB6
330
BBE
100
AcDbEntity
  8
0
  6
ByBlock
 62
     0
370
    -2
100
AcDbLine
 10
175.22927477363
 20
243.39511670511
 30
0.0
 11
175.22927477363
 21
200.1336067132399
 31
0.0
  0
LINE
  5
BB7
330
BBE
100
AcDbEntity
  8
0
  6
ByBlock
 62
     0
370
    -2
100
AcDbLine
 10
589.2292747736299
 20
254.77268781622
 30
0.0
 11
589.2292747736299
 21
200.1336067132399
 31
0.0
  0
LINE
  5
BB8
330
BBE
100
AcDbEntity
  8
0
  6
ByBlock
 62
     0
370
    -2
100
AcDbLine
 10
175.22927477363
 20
200.1336067132399
 30
0.0
 11
589.2292747736299
 21
200.1336067132399
 31
0.0
  0
SOLID
  5
BB9
330
BBE
100
AcDbEntity
  8
0
  6
ByBlock
 62
     0
370
    15
100
AcDbTrace
 10
175.22927477363
 20
200.1336067132399
 30
0.0
 11
180.22927477363
 21
199.3002733799064
 31
0.0
 12
180.22927477363
 22
200.9669400465734
 32
0.0
 13
180.22927477363
 23
200.9669400465734
 33
0.0
  0
SOLID
  5
BBA
330
BBE
100
AcDbEntity
  8
0
  6
ByBlock
 62
     0
370
    15
100
AcDbTrace
 10
589.2292747736299
 20
200.1336067132399
 30
0.0
 11
584.2292747736299
 21
199.3002733799064
 31
0.0
 12
584.2292747736299
 22
200.9669400465734
 32
0.0
 13
584.2292747736299
 23
200.9669400465734
 33
0.0
  0
LINE
  5
BBB
330
BBE
100
AcDbEntity
  8
0
  6
ByBlock
 62
     0
370
    -2
100
AcDbLine
 10
175.22927477363
 20
243.39511670511
 30
0.0
 11
175.22927477363
 21
243.39511670511
 31
0.0
  0
MTEXT
  5
BBC
330
BBE
100
AcDbEntity
  8
0
  6
ByBlock
 62
     0
100
AcDbMText
 10
382.22927477363
 20
204.4002727132399
 30
0.0
 40
6.4
 41
0.0
 71
     5
 72
     1
  1
414
  7
KCADDIMSTANDARD
 73
     1
 44
1.0
  0
ENDBLK
  5
DAB
330
BBE
100
AcDbEntity
  8
0
100
AcDbBlockEnd
  0
BLOCK
  5
DAC
330
BCA
100
AcDbEntity
  8
0
100
AcDbBlockBegin
  2
*D62
 70
     1
 71
     0
 10
0.0
 20
0.0
 30
0.0
  3
*D62
  1

  0
POINT
  5
BC0
330
BCA
100
AcDbEntity
  8
DEFPOINTS
  6
ByBlock
 62
     0
370
    15
100
AcDbPoint
 10
582.2292747736299
 20
260.89511670511
 30
0.0
  0
POINT
  5
BC1
330
BCA
100
AcDbEntity
  8
DEFPOINTS
  6
ByBlock
 62
     0
370
    15
100
AcDbPoint
 10
596.22927477363
 20
260.89511670511
 30
0.0
  0
LINE
  5
BC2
330
BCA
100
AcDbEntity
  8
0
  6
ByBlock
 62
     0
370
    -2
100
AcDbLine
 10
582.2292747736299
 20
260.89511670511
 30
0.0
 11
582.2292747736299
 21
230.92293903849
 31
0.0
  0
LINE
  5
BC3
330
BCA
100
AcDbEntity
  8
0
  6
ByBlock
 62
     0
370
    -2
100
AcDbLine
 10
596.22927477363
 20
260.89511670511
 30
0.0
 11
596.22927477363
 21
230.92293903849
 31
0.0
  0
LINE
  5
BC4
330
BCA
100
AcDbEntity
  8
0
  6
ByBlock
 62
     0
370
    -2
100
AcDbLine
 10
582.2292747736299
 20
230.92293903849
 30
0.0
 11
596.22927477363
 21
230.92293903849
 31
0.0
  0
SOLID
  5
BC5
330
BCA
100
AcDbEntity
  8
0
  6
ByBlock
 62
     0
370
    15
100
AcDbTrace
 10
582.2292747736299
 20
230.92293903849
 30
0.0
 11
587.2292747736299
 21
230.0896057051565
 31
0.0
 12
587.2292747736299
 22
231.7562723718235
 32
0.0
 13
587.2292747736299
 23
231.7562723718235
 33
0.0
  0
SOLID
  5
BC6
330
BCA
100
AcDbEntity
  8
0
  6
ByBlock
 62
     0
370
    15
100
AcDbTrace
 10
596.22927477363
 20
230.92293903849
 30
0.0
 11
591.22927477363
 21
230.0896057051565
 31
0.0
 12
591.22927477363
 22
231.7562723718235
 32
0.0
 13
591.22927477363
 23
231.7562723718235
 33
0.0
  0
LINE
  5
BC7
330
BCA
100
AcDbEntity
  8
0
  6
ByBlock
 62
     0
370
    -2
100
AcDbLine
 10
582.2292747736299
 20
260.89511670511
 30
0.0
 11
582.2292747736299
 21
260.89511670511
 31
0.0
  0
MTEXT
  5
BC8
330
BCA
100
AcDbEntity
  8
0
  6
ByBlock
 62
     0
100
AcDbMText
 10
608.8123236124198
 20
235.1896050384899
 30
0.0
 40
6.4
 41
0.0
 71
     5
 72
     1
  1
\A1;φ14
  7
KCADDIMSTANDARD
 73
     1
 44
1.0
  0
ENDBLK
  5
DAD
330
BCA
100
AcDbEntity
  8
0
100
AcDbBlockEnd
  0
BLOCK
  5
DAE
330
BD7
100
AcDbEntity
  8
0
100
AcDbBlockBegin
  2
*D63
 70
     1
 71
     0
 10
0.0
 20
0.0
 30
0.0
  3
*D63
  1

  0
POINT
  5
BCC
330
BD7
100
AcDbEntity
  8
DEFPOINTS
  6
ByBlock
 62
     0
370
    15
100
AcDbPoint
 10
585.2292747736299
 20
260.89511670511
 30
0.0
  0
POINT
  5
BCD
330
BD7
100
AcDbEntity
  8
DEFPOINTS
  6
ByBlock
 62
     0
370
    15
100
AcDbPoint
 10
593.2292747736299
 20
260.69511670511
 30
0.0
  0
LINE
  5
BCE
330
BD7
100
AcDbEntity
  8
0
  6
ByBlock
 62
     0
370
    -2
100
AcDbLine
 10
585.2292747736299
 20
260.89511670511
 30
0.0
 11
585.2292747736299
 21
242.3440108284499
 31
0.0
  0
LINE
  5
BCF
330
BD7
100
AcDbEntity
  8
0
  6
ByBlock
 62
     0
370
    -2
100
AcDbLine
 10
593.2292747736299
 20
260.69511670511
 30
0.0
 11
593.2292747736299
 21
242.3440108284499
 31
0.0
  0
LINE
  5
BD0
330
BD7
100
AcDbEntity
  8
0
  6
ByBlock
 62
     0
370
    -2
100
AcDbLine
 10
580.2292747736299
 20
242.3440108284499
 30
0.0
 11
575.2292747736299
 21
242.3440108284499
 31
0.0
  0
SOLID
  5
BD1
330
BD7
100
AcDbEntity
  8
0
  6
ByBlock
 62
     0
370
    15
100
AcDbTrace
 10
585.2292747736299
 20
242.3440108284499
 30
0.0
 11
580.2292747736299
 21
241.5106774951164
 31
0.0
 12
580.2292747736299
 22
243.1773441617834
 32
0.0
 13
580.2292747736299
 23
243.1773441617834
 33
0.0
  0
LINE
  5
BD2
330
BD7
100
AcDbEntity
  8
0
  6
ByBlock
 62
     0
370
    -2
100
AcDbLine
 10
598.2292747736299
 20
242.3440108284499
 30
0.0
 11
603.2292747736299
 21
242.3440108284499
 31
0.0
  0
SOLID
  5
BD3
330
BD7
100
AcDbEntity
  8
0
  6
ByBlock
 62
     0
370
    15
100
AcDbTrace
 10
593.2292747736299
 20
242.3440108284499
 30
0.0
 11
598.2292747736299
 21
241.5106774951164
 31
0.0
 12
598.2292747736299
 22
243.1773441617834
 32
0.0
 13
598.2292747736299
 23
243.1773441617834
 33
0.0
  0
LINE
  5
BD4
330
BD7
100
AcDbEntity
  8
0
  6
ByBlock
 62
     0
370
    -2
100
AcDbLine
 10
585.2292747736299
 20
242.3440108284499
 30
0.0
 11
593.2292747736299
 21
242.3440108284499
 31
0.0
  0
MTEXT
  5
BD5
330
BD7
100
AcDbEntity
  8
0
  6
ByBlock
 62
     0
100
AcDbMText
 10
605.94778927564
 20
246.6106768284499
 30
0.0
 40
6.4
 41
0.0
 71
     5
 72
     1
  1
\A1;φ8
  7
KCADDIMSTANDARD
 73
     1
 44
1.0
  0
ENDBLK
  5
DAF
330
BD7
100
AcDbEntity
  8
0
100
AcDbBlockEnd
  0
BLOCK
  5
DB0
330
BE3
100
AcDbEntity
  8
0
100
AcDbBlockBegin
  2
*D64
 70
     1
 71
     0
 10
0.0
 20
0.0
 30
0.0
  3
*D64
  1

  0
POINT
  5
BD9
330
BE3
100
AcDbEntity
  8
DEFPOINTS
  6
ByBlock
 62
     0
370
    15
100
AcDbPoint
 10
741.76927477363
 20
323.09511670511
 30
0.0
  0
POINT
  5
BDA
330
BE3
100
AcDbEntity
  8
DEFPOINTS
  6
ByBlock
 62
     0
370
    15
100
AcDbPoint
 10
741.76927477363
 20
297.69511670511
 30
0.0
  0
LINE
  5
BDB
330
BE3
100
AcDbEntity
  8
0
  6
ByBlock
 62
     0
370
    -2
100
AcDbLine
 10
741.76927477363
 20
323.09511670511
 30
0.0
 11
773.1773283160899
 21
323.09511670511
 31
0.0
  0
LINE
  5
BDC
330
BE3
100
AcDbEntity
  8
0
  6
ByBlock
 62
     0
370
    -2
100
AcDbLine
 10
741.76927477363
 20
297.69511670511
 30
0.0
 11
773.1773283160899
 21
297.69511670511
 31
0.0
  0
LINE
  5
BDD
330
BE3
100
AcDbEntity
  8
0
  6
ByBlock
 62
     0
370
    -2
100
AcDbLine
 10
773.1773283160899
 20
323.09511670511
 30
0.0
 11
773.1773283160899
 21
297.69511670511
 31
0.0
  0
SOLID
  5
BDE
330
BE3
100
AcDbEntity
  8
0
  6
ByBlock
 62
     0
370
    15
100
AcDbTrace
 10
773.1773283160899
 20
323.09511670511
 30
0.0
 11
772.3439949827564
 21
318.09511670511
 31
0.0
 12
774.0106616494234
 22
318.09511670511
 32
0.0
 13
774.0106616494234
 23
318.09511670511
 33
0.0
  0
SOLID
  5
BDF
330
BE3
100
AcDbEntity
  8
0
  6
ByBlock
 62
     0
370
    15
100
AcDbTrace
 10
773.1773283160899
 20
297.69511670511
 30
0.0
 11
772.3439949827564
 21
302.69511670511
 31
0.0
 12
774.0106616494234
 22
302.69511670511
 32
0.0
 13
774.0106616494234
 23
302.69511670511
 33
0.0
  0
LINE
  5
BE0
330
BE3
100
AcDbEntity
  8
0
  6
ByBlock
 62
     0
370
    -2
100
AcDbLine
 10
741.76927477363
 20
323.09511670511
 30
0.0
 11
741.76927477363
 21
323.09511670511
 31
0.0
  0
MTEXT
  5
BE1
330
BE3
100
AcDbEntity
  8
0
  6
ByBlock
 62
     0
100
AcDbMText
 10
768.91066231609
 20
310.39511670511
 30
0.0
 40
6.4
 41
0.0
 71
     5
 72
     1
  1
\A1;Ｃマウント
  7
KCADDIMSTANDARD
 11
6.123031769111886E-17
 21
1.0
 31
0.0
 73
     1
 44
1.0
  0
ENDBLK
  5
DB1
330
BE3
100
AcDbEntity
  8
0
100
AcDbBlockEnd
  0
BLOCK
  5
DB2
330
BEF
100
AcDbEntity
  8
0
100
AcDbBlockBegin
  2
*D65
 70
     1
 71
     0
 10
0.0
 20
0.0
 30
0.0
  3
*D65
  1

  0
POINT
  5
BE5
330
BEF
100
AcDbEntity
  8
DEFPOINTS
  6
ByBlock
 62
     0
370
    15
100
AcDbPoint
 10
737.66927477363
 20
326.89511670511
 30
0.0
  0
POINT
  5
BE6
330
BEF
100
AcDbEntity
  8
DEFPOINTS
  6
ByBlock
 62
     0
370
    15
100
AcDbPoint
 10
737.66927477363
 20
293.89511670511
 30
0.0
  0
LINE
  5
BE7
330
BEF
100
AcDbEntity
  8
0
  6
ByBlock
 62
     0
370
    -2
100
AcDbLine
 10
737.66927477363
 20
326.89511670511
 30
0.0
 11
785.91956726246
 21
326.89511670511
 31
0.0
  0
LINE
  5
BE8
330
BEF
100
AcDbEntity
  8
0
  6
ByBlock
 62
     0
370
    -2
100
AcDbLine
 10
737.66927477363
 20
293.89511670511
 30
0.0
 11
785.91956726246
 21
293.89511670511
 31
0.0
  0
LINE
  5
BE9
330
BEF
100
AcDbEntity
  8
0
  6
ByBlock
 62
     0
370
    -2
100
AcDbLine
 10
785.91956726246
 20
326.89511670511
 30
0.0
 11
785.91956726246
 21
293.89511670511
 31
0.0
  0
SOLID
  5
BEA
330
BEF
100
AcDbEntity
  8
0
  6
ByBlock
 62
     0
370
    15
100
AcDbTrace
 10
785.91956726246
 20
326.89511670511
 30
0.0
 11
785.0862339291265
 21
321.89511670511
 31
0.0
 12
786.7529005957934
 22
321.89511670511
 32
0.0
 13
786.7529005957934
 23
321.89511670511
 33
0.0
  0
SOLID
  5
BEB
330
BEF
100
AcDbEntity
  8
0
  6
ByBlock
 62
     0
370
    15
100
AcDbTrace
 10
785.91956726246
 20
293.89511670511
 30
0.0
 11
785.0862339291265
 21
298.89511670511
 31
0.0
 12
786.7529005957934
 22
298.89511670511
 32
0.0
 13
786.7529005957934
 23
298.89511670511
 33
0.0
  0
LINE
  5
BEC
330
BEF
100
AcDbEntity
  8
0
  6
ByBlock
 62
     0
370
    -2
100
AcDbLine
 10
737.66927477363
 20
326.89511670511
 30
0.0
 11
737.66927477363
 21
326.89511670511
 31
0.0
  0
MTEXT
  5
BED
330
BEF
100
AcDbEntity
  8
0
  6
ByBlock
 62
     0
100
AcDbMText
 10
781.65290126246
 20
310.39511670511
 30
0.0
 40
6.4
 41
0.0
 71
     5
 72
     1
  1
\A1;φ33
  7
KCADDIMSTANDARD
 11
6.123031769111886E-17
 21
1.0
 31
0.0
 73
     1
 44
1.0
  0
ENDBLK
  5
DB3
330
BEF
100
AcDbEntity
  8
0
100
AcDbBlockEnd
  0
BLOCK
  5
DB4
330
BFB
100
AcDbEntity
  8
0
100
AcDbBlockBegin
  2
*D66
 70
     1
 71
     0
 10
0.0
 20
0.0
 30
0.0
  3
*D66
  1

  0
POINT
  5
BF1
330
BFB
100
AcDbEntity
  8
DEFPOINTS
  6
ByBlock
 62
     0
370
    15
100
AcDbPoint
 10
611.2292747736299
 20
335.39511670511
 30
0.0
  0
POINT
  5
BF2
330
BFB
100
AcDbEntity
  8
DEFPOINTS
  6
ByBlock
 62
     0
370
    15
100
AcDbPoint
 10
611.2292747736299
 20
285.39511670511
 30
0.0
  0
LINE
  5
BF3
330
BFB
100
AcDbEntity
  8
0
  6
ByBlock
 62
     0
370
    -2
100
AcDbLine
 10
611.2292747736299
 20
335.39511670511
 30
0.0
 11
797.1307619943599
 21
335.39511670511
 31
0.0
  0
LINE
  5
BF4
330
BFB
100
AcDbEntity
  8
0
  6
ByBlock
 62
     0
370
    -2
100
AcDbLine
 10
611.2292747736299
 20
285.39511670511
 30
0.0
 11
797.1307619943599
 21
285.39511670511
 31
0.0
  0
LINE
  5
BF5
330
BFB
100
AcDbEntity
  8
0
  6
ByBlock
 62
     0
370
    -2
100
AcDbLine
 10
797.1307619943599
 20
335.39511670511
 30
0.0
 11
797.1307619943599
 21
285.39511670511
 31
0.0
  0
SOLID
  5
BF6
330
BFB
100
AcDbEntity
  8
0
  6
ByBlock
 62
     0
370
    15
100
AcDbTrace
 10
797.1307619943599
 20
335.39511670511
 30
0.0
 11
796.2974286610264
 21
330.39511670511
 31
0.0
 12
797.9640953276934
 22
330.39511670511
 32
0.0
 13
797.9640953276934
 23
330.39511670511
 33
0.0
  0
SOLID
  5
BF7
330
BFB
100
AcDbEntity
  8
0
  6
ByBlock
 62
     0
370
    15
100
AcDbTrace
 10
797.1307619943599
 20
285.39511670511
 30
0.0
 11
796.2974286610264
 21
290.39511670511
 31
0.0
 12
797.9640953276934
 22
290.39511670511
 32
0.0
 13
797.9640953276934
 23
290.39511670511
 33
0.0
  0
LINE
  5
BF8
330
BFB
100
AcDbEntity
  8
0
  6
ByBlock
 62
     0
370
    -2
100
AcDbLine
 10
611.2292747736299
 20
335.39511670511
 30
0.0
 11
611.2292747736299
 21
335.39511670511
 31
0.0
  0
MTEXT
  5
BF9
330
BFB
100
AcDbEntity
  8
0
  6
ByBlock
 62
     0
100
AcDbMText
 10
792.86409599436
 20
310.39511670511
 30
0.0
 40
6.4
 41
0.0
 71
     5
 72
     1
  1
\A1;□50
  7
KCADDIMSTANDARD
 11
6.123031769111886E-17
 21
1.0
 31
0.0
 73
     1
 44
1.0
  0
ENDBLK
  5
DB5
330
BFB
100
AcDbEntity
  8
0
100
AcDbBlockEnd
  0
ENDSEC
  0
SECTION
  2
ENTITIES
  0
LINE
  5
2F0
330
1F
100
AcDbEntity
  8
99
  6
Continuous
 62
     7
370
    30
100
AcDbLine
 10
800.0
 20
564.0000066757099
 30
0.0
 11
40.0
 21
564.0000066757099
 31
0.0
1001
Sigma
1000

  0
LINE
  5
2F2
330
1F
100
AcDbEntity
  8
99
  6
Continuous
 62
     7
370
    30
100
AcDbLine
 10
40.0
 20
564.0000066757099
 30
0.0
 11
40.0
 21
20.00000667570799
 31
0.0
1001
Sigma
1000

  0
LINE
  5
2F4
330
1F
100
AcDbEntity
  8
99
  6
Continuous
 62
     7
370
    30
100
AcDbLine
 10
800.0
 20
564.0000066757099
 30
0.0
 11
800.0
 21
20.00000667570799
 31
0.0
1001
Sigma
1000

  0
LINE
  5
2F6
330
1F
100
AcDbEntity
  8
99
  6
Continuous
 62
     7
370
    15
100
AcDbLine
 10
406.3620025674
 20
563.00000667571
 30
0.0
 11
406.3620025674
 21
568.00000667571
 31
0.0
1001
Sigma
1000

  0
LINE
  5
2F8
330
1F
100
AcDbEntity
  8
99
  6
Continuous
 62
     7
370
    15
100
AcDbLine
 10
40.0
 20
272.13612282811
 30
0.0
 11
32.89275634995299
 21
272.13612282811
 31
0.0
1001
Sigma
1000

  0
LINE
  5
2FA
330
1F
100
AcDbEntity
  8
99
  6
Continuous
 62
     7
370
    15
100
AcDbLine
 10
807.60112888053
 20
272.13612282811
 30
0.0
 11
800.0
 21
272.13612282811
 31
0.0
1001
Sigma
1000

  0
LINE
  5
2FC
330
1F
100
AcDbEntity
  8
99
  6
Continuous
 62
     7
370
    30
100
AcDbLine
 10
800.0
 20
20.00000667570799
 30
0.0
 11
40.0
 21
20.00000667570799
 31
0.0
1001
Sigma
1000

  0
LINE
  5
2FE
330
1F
100
AcDbEntity
  8
99
  6
Continuous
 62
     7
370
    30
100
AcDbLine
 10
420.0
 20
115.0000066757099
 30
0.0
 11
800.0
 21
115.0000066757099
 31
0.0
1001
Sigma
1000

  0
LINE
  5
300
330
1F
100
AcDbEntity
  8
99
  6
Continuous
 62
     7
370
    30
100
AcDbLine
 10
678.0
 20
20.00000667570799
 30
0.0
 11
678.0
 21
115.0000066757099
 31
0.0
1001
Sigma
1000

  0
LINE
  5
302
330
1F
100
AcDbEntity
  8
99
  6
Continuous
 62
     7
370
    30
100
AcDbLine
 10
558.0
 20
60.000006675708
 30
0.0
 11
800.0
 21
60.000006675708
 31
0.0
1001
Sigma
1000

  0
LINE
  5
304
330
1F
100
AcDbEntity
  8
99
  6
Continuous
 62
     7
370
    30
100
AcDbLine
 10
648.0
 20
20.00000667570799
 30
0.0
 11
648.0
 21
60.000006675708
 31
0.0
1001
Sigma
1000

  0
LINE
  5
306
330
1F
100
AcDbEntity
  8
99
  6
Continuous
 62
     7
370
    30
100
AcDbLine
 10
618.0
 20
20.00000667570799
 30
0.0
 11
618.0
 21
60.000006675708
 31
0.0
1001
Sigma
1000

  0
LINE
  5
308
330
1F
100
AcDbEntity
  8
99
  6
Continuous
 62
     7
370
    30
100
AcDbLine
 10
588.0
 20
20.00000667570799
 30
0.0
 11
588.0
 21
115.0000066757099
 31
0.0
1001
Sigma
1000

  0
LINE
  5
30A
330
1F
100
AcDbEntity
  8
99
  6
Continuous
 62
     7
370
    30
100
AcDbLine
 10
558.0
 20
20.00000667570799
 30
0.0
 11
558.0
 21
115.0000066757099
 31
0.0
1001
Sigma
1000

  0
LINE
  5
30C
330
1F
100
AcDbEntity
  8
99
  6
Continuous
 62
     7
370
    15
100
AcDbLine
 10
420.0
 20
30.000006675708
 30
0.0
 11
558.0
 21
30.000006675708
 31
0.0
1001
Sigma
1000

  0
LINE
  5
30E
330
1F
100
AcDbEntity
  8
99
  6
Continuous
 62
     7
370
    15
100
AcDbLine
 10
420.0
 20
40.000006675708
 30
0.0
 11
558.0
 21
40.000006675708
 31
0.0
1001
Sigma
1000

  0
LINE
  5
310
330
1F
100
AcDbEntity
  8
99
  6
Continuous
 62
     7
370
    15
100
AcDbLine
 10
420.0
 20
50.000006675708
 30
0.0
 11
678.0
 21
50.000006675708
 31
0.0
1001
Sigma
1000

  0
LINE
  5
312
330
1F
100
AcDbEntity
  8
99
  6
Continuous
 62
     7
370
    15
100
AcDbLine
 10
420.0
 20
60.000006675708
 30
0.0
 11
558.0
 21
60.000006675708
 31
0.0
1001
Sigma
1000

  0
LINE
  5
314
330
1F
100
AcDbEntity
  8
99
  6
Continuous
 62
     7
370
    15
100
AcDbLine
 10
420.0
 20
70.000006675708
 30
0.0
 11
558.0
 21
70.000006675708
 31
0.0
1001
Sigma
1000

  0
LINE
  5
316
330
1F
100
AcDbEntity
  8
99
  6
Continuous
 62
     7
370
    30
100
AcDbLine
 10
588.0
 20
75.000006675708
 30
0.0
 11
800.0
 21
75.000006675708
 31
0.0
1001
Sigma
1000

  0
LINE
  5
318
330
1F
100
AcDbEntity
  8
99
  6
Continuous
 62
     7
370
    15
100
AcDbLine
 10
462.0
 20
20.00000667570799
 30
0.0
 11
462.0
 21
90.000006675708
 31
0.0
1001
Sigma
1000

  0
LINE
  5
31A
330
1F
100
AcDbEntity
  8
99
  6
Continuous
 62
     7
370
    15
100
AcDbLine
 10
484.0
 20
20.00000667570799
 30
0.0
 11
484.0
 21
90.000006675708
 31
0.0
1001
Sigma
1000

  0
LINE
  5
31C
330
1F
100
AcDbEntity
  8
99
  6
Continuous
 62
     7
370
    15
100
AcDbLine
 10
688.0
 20
20.00000667570799
 30
0.0
 11
688.0
 21
90.000006675708
 31
0.0
1001
Sigma
1000

  0
LINE
  5
31E
330
1F
100
AcDbEntity
  8
99
  6
Continuous
 62
     7
370
    30
100
AcDbLine
 10
678.0
 20
40.000006675708
 30
0.0
 11
800.0
 21
40.000006675708
 31
0.0
1001
Sigma
1000

  0
TEXT
  5
320
330
1F
100
AcDbEntity
  8
99
  6
Continuous
 62
     7
370
    30
100
AcDbText
 10
679.45982852302
 20
53.77111035090799
 30
0.0
 40
5.4
  1
製
 41
1.266666666666666
  7
KCADTEXTSTANDARD
100
AcDbText
1001
Sigma
1000

  0
TEXT
  5
322
330
1F
100
AcDbEntity
  8
99
  6
Continuous
 62
     7
370
    30
100
AcDbText
 10
586.45
 20
78.450006675708
 30
0.0
 40
8.1
  1
 三角法
 41
0.7916666674531168
  7
KCADTEXTSTANDARD
100
AcDbText
1001
Sigma
1000

  0
TEXT
  5
324
330
1F
100
AcDbEntity
  8
99
  6
Continuous
 62
     7
370
    30
100
AcDbText
 10
679.45982852302
 20
47.571110350908
 30
0.0
 40
5.4
  1
品
 41
1.266666666666666
  7
KCADTEXTSTANDARD
100
AcDbText
1001
Sigma
1000

  0
LINE
  5
326
330
1F
100
AcDbEntity
  8
99
  6
Continuous
 62
     7
370
    15
100
AcDbLine
 10
428.26438830542
 20
31.400952384708
 30
0.0
 11
421.8643883054199
 21
31.400952384708
 31
0.0
1001
Sigma
1000

  0
TEXT
  5
328
330
1F
100
AcDbEntity
  8
99
  6
Continuous
 62
     7
370
    30
100
AcDbText
 10
679.45982852302
 20
41.37111035090799
 30
0.0
 40
5.4
  1
名
 41
1.266666666666666
  7
KCADTEXTSTANDARD
100
AcDbText
1001
Sigma
1000

  0
TEXT
  5
32A
330
1F
100
AcDbEntity
  8
99
  6
Continuous
 62
     7
370
    30
100
AcDbText
 10
557.6957364341
 20
51.602139162108
 30
0.0
 40
7.2
  1
 設計  製図  検図  承認
 41
1.147916666666666
  7
KCADTEXTSTANDARD
100
AcDbText
1001
Sigma
1000

  0
TEXT
  5
32C
330
1F
100
AcDbEntity
  8
99
  6
Continuous
 62
     7
370
    30
100
AcDbText
 10
429.0145778442099
 20
21.60671755630799
 30
0.0
 40
7.2
  1
 年月日   担当      訂 正 記 事
 41
0.8102941176470586
  7
KCADTEXTSTANDARD
100
AcDbText
1001
Sigma
1000

  0
TEXT
  5
32E
330
1F
100
AcDbEntity
  8
99
  6
Continuous
 62
     7
370
    30
100
AcDbText
 10
421.4078124999999
 20
21.93951755010799
 30
0.0
 40
7.2
  1
符号
 41
0.4987500003539026
  7
KCADTEXTSTANDARD
100
AcDbText
1001
Sigma
1000

  0
LINE
  5
330
330
1F
100
AcDbEntity
  8
99
  6
Continuous
 62
     7
370
    15
100
AcDbLine
 10
428.26438830542
 20
71.400952384708
 30
0.0
 11
421.8643883054199
 21
71.400952384708
 31
0.0
1001
Sigma
1000

  0
LINE
  5
332
330
1F
100
AcDbEntity
  8
99
  6
Continuous
 62
     7
370
    15
100
AcDbLine
 10
425.0643883054199
 20
78.329155615108
 30
0.0
 11
428.26438830542
 21
71.400952384708
 31
0.0
1001
Sigma
1000

  0
TEXT
  5
334
330
1F
100
AcDbEntity
  8
99
  6
Continuous
 62
     7
370
    15
100
AcDbText
 10
424.2682070748749
 20
72.57356222516232
 30
0.0
 40
4.165631906890869
  1
5
 41
0.577433628318584
  7
KCADTEXTSTANDARD
100
AcDbText
1001
Sigma
1000

  0
LINE
  5
336
330
1F
100
AcDbEntity
  8
99
  6
Continuous
 62
     7
370
    15
100
AcDbLine
 10
421.8643883054199
 20
71.400952384708
 30
0.0
 11
425.0643883054199
 21
78.329155615108
 31
0.0
1001
Sigma
1000

  0
LINE
  5
338
330
1F
100
AcDbEntity
  8
99
  6
Continuous
 62
     7
370
    15
100
AcDbLine
 10
428.26438830542
 20
61.400952384708
 30
0.0
 11
421.8643883054199
 21
61.400952384708
 31
0.0
1001
Sigma
1000

  0
LINE
  5
33A
330
1F
100
AcDbEntity
  8
99
  6
Continuous
 62
     7
370
    15
100
AcDbLine
 10
425.0643883054199
 20
68.329155615108
 30
0.0
 11
428.26438830542
 21
61.400952384708
 31
0.0
1001
Sigma
1000

  0
TEXT
  5
33C
330
1F
100
AcDbEntity
  8
99
  6
Continuous
 62
     7
370
    15
100
AcDbText
 10
424.2682070748749
 20
62.57356222516232
 30
0.0
 40
4.165631906890869
  1
4
 41
0.577433628318584
  7
KCADTEXTSTANDARD
100
AcDbText
1001
Sigma
1000

  0
LINE
  5
33E
330
1F
100
AcDbEntity
  8
99
  6
Continuous
 62
     7
370
    15
100
AcDbLine
 10
421.8643883054199
 20
61.400952384708
 30
0.0
 11
425.0643883054199
 21
68.329155615108
 31
0.0
1001
Sigma
1000

  0
LINE
  5
340
330
1F
100
AcDbEntity
  8
99
  6
Continuous
 62
     7
370
    15
100
AcDbLine
 10
428.26438830542
 20
51.400952384708
 30
0.0
 11
421.8643883054199
 21
51.400952384708
 31
0.0
1001
Sigma
1000

  0
LINE
  5
342
330
1F
100
AcDbEntity
  8
99
  6
Continuous
 62
     7
370
    15
100
AcDbLine
 10
425.0643883054199
 20
58.329155615108
 30
0.0
 11
428.26438830542
 21
51.400952384708
 31
0.0
1001
Sigma
1000

  0
TEXT
  5
344
330
1F
100
AcDbEntity
  8
99
  6
Continuous
 62
     7
370
    15
100
AcDbText
 10
424.2682070748749
 20
52.57356222516232
 30
0.0
 40
4.165631906890869
  1
3
 41
0.577433628318584
  7
KCADTEXTSTANDARD
100
AcDbText
1001
Sigma
1000

  0
LINE
  5
346
330
1F
100
AcDbEntity
  8
99
  6
Continuous
 62
     7
370
    15
100
AcDbLine
 10
425.0643883054199
 20
38.329155615108
 30
0.0
 11
428.26438830542
 21
31.400952384708
 31
0.0
1001
Sigma
1000

  0
LINE
  5
348
330
1F
100
AcDbEntity
  8
99
  6
Continuous
 62
     7
370
    15
100
AcDbLine
 10
421.8643883054199
 20
31.400952384708
 30
0.0
 11
425.0643883054199
 21
38.329155615108
 31
0.0
1001
Sigma
1000

  0
LINE
  5
34A
330
1F
100
AcDbEntity
  8
99
  6
Continuous
 62
     7
370
    15
100
AcDbLine
 10
421.8643883054199
 20
51.400952384708
 30
0.0
 11
425.0643883054199
 21
58.329155615108
 31
0.0
1001
Sigma
1000

  0
TEXT
  5
34C
330
1F
100
AcDbEntity
  8
99
  6
Continuous
 62
     7
370
    15
100
AcDbText
 10
424.2682070748749
 20
42.57356222516231
 30
0.0
 40
4.165631906890869
  1
2
 41
0.577433628318584
  7
KCADTEXTSTANDARD
100
AcDbText
1001
Sigma
1000

  0
LINE
  5
34E
330
1F
100
AcDbEntity
  8
99
  6
Continuous
 62
     7
370
    15
100
AcDbLine
 10
428.26438830542
 20
41.400952384708
 30
0.0
 11
421.8643883054199
 21
41.400952384708
 31
0.0
1001
Sigma
1000

  0
LINE
  5
350
330
1F
100
AcDbEntity
  8
99
  6
Continuous
 62
     7
370
    15
100
AcDbLine
 10
425.0643883054199
 20
48.329155615108
 30
0.0
 11
428.26438830542
 21
41.400952384708
 31
0.0
1001
Sigma
1000

  0
LINE
  5
352
330
1F
100
AcDbEntity
  8
99
  6
Continuous
 62
     7
370
    15
100
AcDbLine
 10
421.8643883054199
 20
41.400952384708
 30
0.0
 11
425.0643883054199
 21
48.329155615108
 31
0.0
1001
Sigma
1000

  0
TEXT
  5
354
330
1F
100
AcDbEntity
  8
99
  6
Continuous
 62
     7
370
    15
100
AcDbText
 10
424.2682070748749
 20
32.57356222516232
 30
0.0
 40
4.165631906890869
  1
1
 41
0.577433628318584
  7
KCADTEXTSTANDARD
100
AcDbText
1001
Sigma
1000

  0
TEXT
  5
356
330
1F
100
AcDbEntity
  8
99
  6
Continuous
 62
     7
370
    30
100
AcDbText
 10
679.43582811926
 20
61.523747601308
 30
0.0
 40
5.4
  1
差
 41
1.266666666666666
  7
KCADTEXTSTANDARD
100
AcDbText
1001
Sigma
1000

  0
TEXT
  5
358
330
1F
100
AcDbEntity
  8
99
  6
Continuous
 62
     7
370
    30
100
AcDbText
 10
679.43582811926
 20
68.523747601308
 30
0.0
 40
5.4
  1
公
 41
1.266666666666666
  7
KCADTEXTSTANDARD
100
AcDbText
1001
Sigma
1000

  0
TEXT
  5
35A
330
1F
100
AcDbEntity
  8
99
  6
Continuous
 62
     7
370
    30
100
AcDbText
 10
619.6358281669437
 20
83.523747601308
 30
0.0
 40
5.4
  1
面
 41
1.203333318233489
  7
KCADTEXTSTANDARD
100
AcDbText
1001
Sigma
1000

  0
TEXT
  5
35C
330
1F
100
AcDbEntity
  8
99
  6
Continuous
 62
     7
370
    30
100
AcDbText
 10
619.6358281669437
 20
76.523747601308
 30
0.0
 40
5.4
  1
取
 41
1.203333318233489
  7
KCADTEXTSTANDARD
100
AcDbText
1001
Sigma
1000

  0
TEXT
  5
35E
330
1F
100
AcDbEntity
  8
99
  6
Continuous
 62
     7
370
    30
100
AcDbText
 10
679.43582811926
 20
76.523747601308
 30
0.0
 40
5.4
  1
上
 41
1.266666666666666
  7
KCADTEXTSTANDARD
100
AcDbText
1001
Sigma
1000

  0
TEXT
  5
360
330
1F
100
AcDbEntity
  8
99
  6
Continuous
 62
     7
370
    30
100
AcDbText
 10
679.43582811926
 20
83.523747601308
 30
0.0
 40
5.4
  1
仕
 41
1.266666666666666
  7
KCADTEXTSTANDARD
100
AcDbText
1001
Sigma
1000

  0
LINE
  5
362
330
1F
100
AcDbEntity
  8
99
  6
Continuous
 62
     7
370
    30
100
AcDbLine
 10
462.0
 20
90.000006675708
 30
0.0
 11
462.0
 21
115.0000066757099
 31
0.0
1001
Sigma
1000

  0
TEXT
  5
364
330
1F
100
AcDbEntity
  8
99
  6
Continuous
 62
     7
370
    30
100
AcDbText
 10
679.3
 20
32.30000667570799
 30
0.0
 40
5.4
  1
図
 41
1.266666666666666
  7
KCADTEXTSTANDARD
100
AcDbText
1001
Sigma
1000

  0
TEXT
  5
366
330
1F
100
AcDbEntity
  8
99
  6
Continuous
 62
     7
370
    30
100
AcDbText
 10
679.3
 20
23.300006675708
 30
0.0
 40
5.4
  1
番
 41
1.266666666666666
  7
KCADTEXTSTANDARD
100
AcDbText
1001
Sigma
1000

  0
LINE
  5
368
330
1F
100
AcDbEntity
  8
99
  6
Continuous
 62
     7
370
    15
100
AcDbLine
 10
420.0
 20
100.00000667571
 30
0.0
 11
800.0
 21
100.00000667571
 31
0.0
1001
Sigma
1000

  0
LINE
  5
36A
330
1F
100
AcDbEntity
  8
99
  6
Continuous
 62
     7
370
    15
100
AcDbLine
 10
628.0
 20
90.000006675708
 30
0.0
 11
628.0
 21
75.000006675708
 31
0.0
1001
Sigma
1000

  0
TEXT
  5
36C
330
1F
100
AcDbEntity
  8
99
  6
Continuous
 62
     7
370
    30
100
AcDbText
 10
562.78378378378
 20
81.804271648508
 30
0.0
 40
7.2
  1
尺度
 41
1.1875
  7
KCADTEXTSTANDARD
100
AcDbText
1001
Sigma
1000

  0
LINE
  5
36E
330
1F
100
AcDbEntity
  8
99
  6
Continuous
 62
     7
370
    15
100
AcDbLine
 10
421.8643883054199
 20
81.400952384708
 30
0.0
 11
425.0643883054199
 21
88.329155615048
 31
0.0
1001
Sigma
1000

  0
TEXT
  5
370
330
1F
100
AcDbEntity
  8
99
  6
Continuous
 62
     7
370
    15
100
AcDbText
 10
424.2682070748749
 20
82.57356222516232
 30
0.0
 40
4.165631906890869
  1
6
 41
0.577433628318584
  7
KCADTEXTSTANDARD
100
AcDbText
1001
Sigma
1000

  0
LINE
  5
372
330
1F
100
AcDbEntity
  8
99
  6
Continuous
 62
     7
370
    15
100
AcDbLine
 10
425.0643883054199
 20
88.329155615048
 30
0.0
 11
428.26438830542
 21
81.400952384708
 31
0.0
1001
Sigma
1000

  0
LINE
  5
374
330
1F
100
AcDbEntity
  8
99
  6
Continuous
 62
     7
370
    15
100
AcDbLine
 10
428.26438830542
 20
81.400952384708
 30
0.0
 11
421.8643883054199
 21
81.400952384708
 31
0.0
1001
Sigma
1000

  0
LINE
  5
376
330
1F
100
AcDbEntity
  8
99
  6
Continuous
 62
     7
370
    30
100
AcDbLine
 10
618.0
 20
75.000006675708
 30
0.0
 11
618.0
 21
90.000006675708
 31
0.0
1001
Sigma
1000

  0
LINE
  5
378
330
1F
100
AcDbEntity
  8
99
  6
Continuous
 62
     7
370
    30
100
AcDbLine
 10
420.0
 20
90.000006675708
 30
0.0
 11
800.0
 21
90.000006675708
 31
0.0
1001
Sigma
1000

  0
LINE
  5
37A
330
1F
100
AcDbEntity
  8
99
  6
Continuous
 62
     7
370
    15
100
AcDbLine
 10
420.0
 20
80.000006675708
 30
0.0
 11
588.0
 21
80.000006675708
 31
0.0
1001
Sigma
1000

  0
LINE
  5
37C
330
1F
100
AcDbEntity
  8
99
  6
Continuous
 62
     7
370
    15
100
AcDbLine
 10
430.0
 20
20.00000667570799
 30
0.0
 11
430.0
 21
90.000006675708
 31
0.0
1001
Sigma
1000

  0
TEXT
  5
37E
330
1F
100
AcDbEntity
  8
99
  6
Continuous
 62
     7
370
    30
100
AcDbText
 10
423.6693958884699
 20
91.409476885508
 30
0.0
 40
7.2
  1
部品番号     部   品   名
 41
0.7659374981911647
  7
KCADTEXTSTANDARD
100
AcDbText
1001
Sigma
1000

  0
TEXT
  5
380
330
1F
100
AcDbEntity
  8
99
  6
Continuous
 62
     7
370
    30
100
AcDbText
 10
562.78378378378
 20
92.004271648488
 30
0.0
 40
7.2
  1
個数
 41
1.1875
  7
KCADTEXTSTANDARD
100
AcDbText
1001
Sigma
1000

  0
TEXT
  5
382
330
1F
100
AcDbEntity
  8
99
  6
Continuous
 62
     7
370
    30
100
AcDbText
 10
605.69573643412
 20
92.00213916208801
 30
0.0
 40
7.2
  1
  材       質               表  面  処  理
 41
0.6678663776994779
  7
KCADTEXTSTANDARD
100
AcDbText
1001
Sigma
1000

  0
LINE
  5
384
330
1F
100
AcDbEntity
  8
99
  6
Continuous
 62
     7
370
    30
100
AcDbLine
 10
420.0
 20
115.0000066757099
 30
0.0
 11
420.0
 21
20.00000667570799
 31
0.0
1001
Sigma
1000

  0
TEXT
  5
386
330
1F
100
AcDbEntity
  8
99
  6
Continuous
 62
     7
370
    30
100
AcDbText
 10
563.2688478709199
 20
66.539570278508
 30
0.0
 40
8.136
  1
1/2
 41
1.048251158870632
  7
KCADTEXTSTANDARD
100
AcDbText
1001
Sigma
1000

  0
TEXT
  5
388
330
1F
100
AcDbEntity
  8
99
  6
Continuous
 62
     7
370
    30
100
AcDbText
 10
704.69146057716
 20
23.979209186908
 30
0.0
 40
11.3904
  1
TSTM-039
 41
0.8309056596859591
  7
KCADTEXTSTANDARD
100
AcDbText
1001
Sigma
1000

  0
TEXT
  5
38A
330
1F
100
AcDbEntity
  8
99
  6
Continuous
 62
     7
370
    30
100
AcDbText
 10
595.7706445075299
 20
64.326817217508
 30
0.0
 40
5.4
  1
２００４年０４月０５日
 41
1.093939393939393
  7
KCADTEXTSTANDARD
100
AcDbText
1001
Sigma
1000

  0
TEXT
  5
38C
330
1F
100
AcDbEntity
  8
99
  6
Continuous
 62
     7
370
    30
100
AcDbText
 10
698.7914605115949
 20
43.97920918690799
 30
0.0
 40
11.3904
  1
KCM-015DTUMP
 41
0.663245090375636
  7
KCADTEXTSTANDARD
100
AcDbText
1001
Sigma
1000

  0
TEXT
  5
38E
330
1F
100
AcDbEntity
  8
99
  6
Continuous
 62
     7
370
    30
100
AcDbText
 10
711.95081147086
 20
102.06500410695
 30
0.0
 40
9.0
  1
梨地黒アルマイト
 41
0.653125
  7
KCADTEXTSTANDARD
100
AcDbText
1001
Sigma
1000

  0
POINT
  5
390
330
1F
100
AcDbEntity
  8
KCAD_ASST
  6
Continuous
 62
     7
370
    15
100
AcDbPoint
 10
48.75
 20
95.750013351415
 30
0.0
1001
Sigma
1000
ASST
  0
POINT
  5
392
330
1F
100
AcDbEntity
  8
KCAD_ASST
  6
Continuous
 62
     7
370
    15
100
AcDbPoint
 10
248.06292724608
 20
95.750013351415
 30
0.0
1001
Sigma
1000
ASST
  0
POINT
  5
394
330
1F
100
AcDbEntity
  8
KCAD_ASST
  6
Continuous
 62
     7
370
    15
100
AcDbPoint
 10
127.5
 20
95.750013351415
 30
0.0
1001
Sigma
1000
ASST
  0
POINT
  5
396
330
1F
100
AcDbEntity
  8
KCAD_ASST
  6
Continuous
 62
     7
370
    15
100
AcDbPoint
 10
48.75
 20
85.250013351415
 30
0.0
1001
Sigma
1000
ASST
  0
POINT
  5
398
330
1F
100
AcDbEntity
  8
KCAD_ASST
  6
Continuous
 62
     7
370
    15
100
AcDbPoint
 10
127.5
 20
85.250013351415
 30
0.0
1001
Sigma
1000
ASST
  0
POINT
  5
39A
330
1F
100
AcDbEntity
  8
KCAD_ASST
  6
Continuous
 62
     7
370
    15
100
AcDbPoint
 10
248.06292724608
 20
85.250013351415
 30
0.0
1001
Sigma
1000
ASST
  0
POINT
  5
39C
330
1F
100
AcDbEntity
  8
KCAD_ASST
  6
Continuous
 62
     7
370
    15
100
AcDbPoint
 10
361.8129272460799
 20
95.750013351415
 30
0.0
1001
Sigma
1000
ASST
  0
POINT
  5
39E
330
1F
100
AcDbEntity
  8
KCAD_ASST
  6
Continuous
 62
     7
370
    15
100
AcDbPoint
 10
361.8129272460799
 20
85.250013351415
 30
0.0
1001
Sigma
1000
ASST
  0
POINT
  5
3A0
330
1F
100
AcDbEntity
  8
KCAD_ASST
  6
Continuous
 62
     7
370
    15
100
AcDbPoint
 10
248.06292724608
 20
74.750013351415
 30
0.0
1001
Sigma
1000
ASST
  0
POINT
  5
3A2
330
1F
100
AcDbEntity
  8
KCAD_ASST
  6
Continuous
 62
     7
370
    15
100
AcDbPoint
 10
127.5
 20
74.750013351415
 30
0.0
1001
Sigma
1000
ASST
  0
POINT
  5
3A4
330
1F
100
AcDbEntity
  8
KCAD_ASST
  6
Continuous
 62
     7
370
    15
100
AcDbPoint
 10
48.75
 20
74.750013351415
 30
0.0
1001
Sigma
1000
ASST
  0
POINT
  5
3A6
330
1F
100
AcDbEntity
  8
KCAD_ASST
  6
Continuous
 62
     7
370
    15
100
AcDbPoint
 10
300.56292724608
 20
74.750013351415
 30
0.0
1001
Sigma
1000
ASST
  0
POINT
  5
3A8
330
1F
100
AcDbEntity
  8
KCAD_ASST
  6
Continuous
 62
     7
370
    15
100
AcDbPoint
 10
248.06292724608
 20
64.250013351415
 30
0.0
1001
Sigma
1000
ASST
  0
POINT
  5
3AA
330
1F
100
AcDbEntity
  8
KCAD_ASST
  6
Continuous
 62
     7
370
    15
100
AcDbPoint
 10
127.5
 20
64.250013351415
 30
0.0
1001
Sigma
1000
ASST
  0
POINT
  5
3AC
330
1F
100
AcDbEntity
  8
KCAD_ASST
  6
Continuous
 62
     7
370
    15
100
AcDbPoint
 10
48.75
 20
64.250013351415
 30
0.0
1001
Sigma
1000
ASST
  0
POINT
  5
3AE
330
1F
100
AcDbEntity
  8
KCAD_ASST
  6
Continuous
 62
     7
370
    15
100
AcDbPoint
 10
300.56292724608
 20
64.250013351415
 30
0.0
1001
Sigma
1000
ASST
  0
POINT
  5
3B0
330
1F
100
AcDbEntity
  8
KCAD_ASST
  6
Continuous
 62
     7
370
    15
100
AcDbPoint
 10
300.56292724608
 20
53.750013351415
 30
0.0
1001
Sigma
1000
ASST
  0
POINT
  5
3B2
330
1F
100
AcDbEntity
  8
KCAD_ASST
  6
Continuous
 62
     7
370
    15
100
AcDbPoint
 10
248.06292724608
 20
53.750013351415
 30
0.0
1001
Sigma
1000
ASST
  0
POINT
  5
3B4
330
1F
100
AcDbEntity
  8
KCAD_ASST
  6
Continuous
 62
     7
370
    15
100
AcDbPoint
 10
48.75
 20
53.750013351415
 30
0.0
1001
Sigma
1000
ASST
  0
POINT
  5
3B6
330
1F
100
AcDbEntity
  8
KCAD_ASST
  6
Continuous
 62
     7
370
    15
100
AcDbPoint
 10
127.5
 20
53.750013351415
 30
0.0
1001
Sigma
1000
ASST
  0
POINT
  5
3B8
330
1F
100
AcDbEntity
  8
KCAD_ASST
  6
Continuous
 62
     7
370
    15
100
AcDbPoint
 10
127.5
 20
43.25001335141499
 30
0.0
1001
Sigma
1000
ASST
  0
POINT
  5
3BA
330
1F
100
AcDbEntity
  8
KCAD_ASST
  6
Continuous
 62
     7
370
    15
100
AcDbPoint
 10
248.06292724608
 20
43.25001335141499
 30
0.0
1001
Sigma
1000
ASST
  0
POINT
  5
3BC
330
1F
100
AcDbEntity
  8
KCAD_ASST
  6
Continuous
 62
     7
370
    15
100
AcDbPoint
 10
300.56292724608
 20
43.25001335141499
 30
0.0
1001
Sigma
1000
ASST
  0
POINT
  5
3BE
330
1F
100
AcDbEntity
  8
KCAD_ASST
  6
Continuous
 62
     7
370
    15
100
AcDbPoint
 10
48.75
 20
43.25001335141499
 30
0.0
1001
Sigma
1000
ASST
  0
POINT
  5
3C0
330
1F
100
AcDbEntity
  8
KCAD_ASST
  6
Continuous
 62
     7
370
    15
100
AcDbPoint
 10
127.5
 20
32.75001335141499
 30
0.0
1001
Sigma
1000
ASST
  0
POINT
  5
3C2
330
1F
100
AcDbEntity
  8
KCAD_ASST
  6
Continuous
 62
     7
370
    15
100
AcDbPoint
 10
300.56292724608
 20
32.75001335141499
 30
0.0
1001
Sigma
1000
ASST
  0
POINT
  5
3C4
330
1F
100
AcDbEntity
  8
KCAD_ASST
  6
Continuous
 62
     7
370
    15
100
AcDbPoint
 10
248.06292724608
 20
32.75001335141499
 30
0.0
1001
Sigma
1000
ASST
  0
POINT
  5
3C6
330
1F
100
AcDbEntity
  8
KCAD_ASST
  6
Continuous
 62
     7
370
    15
100
AcDbPoint
 10
48.75
 20
32.75001335141499
 30
0.0
1001
Sigma
1000
ASST
  0
POINT
  5
3C9
330
1F
100
AcDbEntity
  8
1
  6
Continuous
 62
     7
370
    15
100
AcDbPoint
 10
291.81292724608
 20
101.0000133514199
 30
0.0
1001
Sigma
1000

  0
POINT
  5
3CB
330
1F
100
AcDbEntity
  8
1
  6
Continuous
 62
     7
370
    15
100
AcDbPoint
 10
353.0629272460799
 20
101.0000133514199
 30
0.0
1001
Sigma
1000

  0
POINT
  5
3CD
330
1F
100
AcDbEntity
  8
KCAD_ASST
  6
Continuous
 62
     7
370
    15
100
AcDbPoint
 10
239.31292724608
 20
108.0000100135499
 30
0.0
1001
Sigma
1000
ASST
  0
POINT
  5
3CF
330
1F
100
AcDbEntity
  8
KCAD_ASST
  6
Continuous
 62
     7
370
    15
100
AcDbPoint
 10
48.75
 20
108.0000100135499
 30
0.0
1001
Sigma
1000
ASST
  0
LINE
  5
3D1
330
1F
100
AcDbEntity
  8
1
  6
Continuous
 62
     7
370
    30
100
AcDbLine
 10
420.0
 20
115.0000066757099
 30
0.0
 11
423.1457160337799
 21
115.0000066757099
 31
0.0
1001
Sigma
1000

  0
LINE
  5
3D3
330
1F
100
AcDbEntity
  8
1
  6
Continuous
 62
     7
370
    30
100
AcDbLine
 10
420.0
 20
115.0000066757099
 30
0.0
 11
40.0
 21
115.0000066757099
 31
0.0
1001
Sigma
1000

  0
LINE
  5
3D5
330
1F
100
AcDbEntity
  8
1
  6
Continuous
 62
     7
370
    30
100
AcDbLine
 10
420.0
 20
27.500013351415
 30
0.0
 11
40.0
 21
27.500013351415
 31
0.0
1001
Sigma
1000

  0
LINE
  5
3D7
330
1F
100
AcDbEntity
  8
1
  6
Continuous
 62
     7
370
    30
100
AcDbLine
 10
239.31292724608
 20
101.0000133514199
 30
0.0
 11
239.31292724608
 21
27.500013351415
 31
0.0
1001
Sigma
1000

  0
LINE
  5
3D9
330
1F
100
AcDbEntity
  8
1
  6
Continuous
 62
     7
370
    30
100
AcDbLine
 10
239.31292724608
 20
38.000013351415
 30
0.0
 11
40.0
 21
38.000013351415
 31
0.0
1001
Sigma
1000

  0
LINE
  5
3DB
330
1F
100
AcDbEntity
  8
1
  6
Continuous
 62
     7
370
    30
100
AcDbLine
 10
239.31292724608
 20
48.500013351415
 30
0.0
 11
40.0
 21
48.500013351415
 31
0.0
1001
Sigma
1000

  0
LINE
  5
3DD
330
1F
100
AcDbEntity
  8
1
  6
Continuous
 62
     7
370
    30
100
AcDbLine
 10
239.31292724608
 20
59.00001335141499
 30
0.0
 11
40.0
 21
59.00001335141499
 31
0.0
1001
Sigma
1000

  0
LINE
  5
3DF
330
1F
100
AcDbEntity
  8
1
  6
Continuous
 62
     7
370
    30
100
AcDbLine
 10
420.0
 20
69.500013351415
 30
0.0
 11
40.0
 21
69.500013351415
 31
0.0
1001
Sigma
1000

  0
LINE
  5
3E1
330
1F
100
AcDbEntity
  8
1
  6
Continuous
 62
     7
370
    30
100
AcDbLine
 10
420.0
 20
80.000013351415
 30
0.0
 11
40.0
 21
80.000013351415
 31
0.0
1001
Sigma
1000

  0
LINE
  5
3E3
330
1F
100
AcDbEntity
  8
1
  6
Continuous
 62
     7
370
    30
100
AcDbLine
 10
420.0
 20
90.500013351415
 30
0.0
 11
40.0
 21
90.500013351415
 31
0.0
1001
Sigma
1000

  0
LINE
  5
3E5
330
1F
100
AcDbEntity
  8
1
  6
Continuous
 62
     7
370
    30
100
AcDbLine
 10
420.0
 20
101.0000133514199
 30
0.0
 11
40.0
 21
101.0000133514199
 31
0.0
1001
Sigma
1000

  0
LINE
  5
3E7
330
1F
100
AcDbEntity
  8
1
  6
Continuous
 62
     7
370
    30
100
AcDbLine
 10
118.75
 20
101.0000133514199
 30
0.0
 11
118.75
 21
27.500013351415
 31
0.0
1001
Sigma
1000

  0
LINE
  5
3E9
330
1F
100
AcDbEntity
  8
1
  6
Continuous
 62
     7
370
    30
100
AcDbLine
 10
353.0629272460799
 20
101.0000133514199
 30
0.0
 11
353.0629272460799
 21
69.500013351415
 31
0.0
1001
Sigma
1000

  0
TEXT
  5
3EB
330
1F
100
AcDbEntity
  8
1
  6
Continuous
 62
     7
370
    15
100
AcDbText
 10
47.06974999307838
 20
93.27001331446338
 30
0.0
 40
5.760000085830689
  1
倍率
 41
0.7333685343187336
  7
KCADTEXTSTANDARD
100
AcDbText
1001
Sigma
1000

  0
TEXT
  5
3ED
330
1F
100
AcDbEntity
  8
1
  6
Continuous
 62
     7
370
    15
100
AcDbText
 10
47.06974999307838
 20
61.77001331446337
 30
0.0
 40
5.760000085830689
  1
ＮＡ
 41
0.7333685343187336
  7
KCADTEXTSTANDARD
100
AcDbText
1001
Sigma
1000

  0
TEXT
  5
3EF
330
1F
100
AcDbEntity
  8
1
  6
Continuous
 62
     7
370
    15
100
AcDbText
 10
47.06974999307838
 20
51.27001331446337
 30
0.0
 40
5.760000085830689
  1
光学的分解能
 41
0.7432643676520666
  7
KCADTEXTSTANDARD
100
AcDbText
1001
Sigma
1000

  0
TEXT
  5
3F1
330
1F
100
AcDbEntity
  8
1
  6
Continuous
 62
     7
370
    15
100
AcDbText
 10
47.06974999307838
 20
72.27001331446337
 30
0.0
 40
5.760000085830689
  1
被写界深度
 41
0.7422747843187335
  7
KCADTEXTSTANDARD
100
AcDbText
1001
Sigma
1000

  0
TEXT
  5
3F3
330
1F
100
AcDbEntity
  8
1
  6
Continuous
 62
     7
370
    15
100
AcDbText
 10
47.06974999307838
 20
40.77001331446338
 30
0.0
 40
5.760000085830689
  1
有効Ｆ値
 41
0.7407904093187334
  7
KCADTEXTSTANDARD
100
AcDbText
1001
Sigma
1000

  0
TEXT
  5
3F5
330
1F
100
AcDbEntity
  8
1
  6
Continuous
 62
     7
370
    15
100
AcDbText
 10
246.3476772248632
 20
93.23501330015826
 30
0.0
 40
5.129999828338623
  1
テレセントリシティｔａｎθ（対角値）
 41
0.8638889355675766
  7
KCADTEXTSTANDARD
100
AcDbText
1001
Sigma
1000

  0
TEXT
  5
3F7
330
1F
100
AcDbEntity
  8
1
  6
Continuous
 62
     7
370
    15
100
AcDbText
 10
246.3476772248632
 20
82.73501330015824
 30
0.0
 40
5.129999828338623
  1
ディスト－ション％（対角値）
 41
0.8630952847158317
  7
KCADTEXTSTANDARD
100
AcDbText
1001
Sigma
1000

  0
TEXT
  5
3F9
330
1F
100
AcDbEntity
  8
1
  6
Continuous
 62
     7
370
    15
100
AcDbText
 10
47.06974999307838
 20
82.77001331446337
 30
0.0
 40
5.760000085830689
  1
ＷＤ（作動距離）
 41
0.7445013468187335
  7
KCADTEXTSTANDARD
100
AcDbText
1001
Sigma
1000

  0
TEXT
  5
3FB
330
1F
100
AcDbEntity
  8
1
  6
Continuous
 62
     7
370
    15
100
AcDbText
 10
46.93097293744562
 20
21.21166899633062
 30
0.0
 40
5.039999914169311
  1
オプションによる作動距離変更可能範囲　５～１３００ｍｍ
 41
0.8501141248812633
  7
KCADTEXTSTANDARD
100
AcDbText
1001
Sigma
1000

  0
TEXT
  5
3FD
330
1F
100
AcDbEntity
  8
1
  6
Continuous
 62
     7
370
    15
100
AcDbText
 10
125.8297499835416
 20
82.78001330492663
 30
0.0
 40
5.939999914169312
  1
３４２．１ｍｍ
 41
0.8286796671245164
  7
KCADTEXTSTANDARD
100
AcDbText
1001
Sigma
1000

  0
TEXT
  5
3FF
330
1F
100
AcDbEntity
  8
1
  6
Continuous
 62
     7
370
    15
100
AcDbText
 10
360.0976772248632
 20
93.23501330015826
 30
0.0
 40
5.129999828338623
  1
－０．００１２３
 41
0.8604167130911923
  7
KCADTEXTSTANDARD
100
AcDbText
1001
Sigma
1000

  0
TEXT
  5
401
330
1F
100
AcDbEntity
  8
1
  6
Continuous
 62
     7
370
    15
100
AcDbText
 10
360.0976772248632
 20
82.73501330015824
 30
0.0
 40
5.129999828338623
  1
＋０．０３５
 41
0.8583333796053617
  7
KCADTEXTSTANDARD
100
AcDbText
1001
Sigma
1000

  0
TEXT
  5
403
330
1F
100
AcDbEntity
  8
1
  6
Continuous
 62
     7
370
    15
100
AcDbText
 10
125.9477499806806
 20
93.79001329538988
 30
0.0
 40
4.556159922409057
  1
X0.15
 41
2.291340986201193
  7
KCADTEXTSTANDARD
100
AcDbText
1001
Sigma
1000

  0
TEXT
  5
405
330
1F
100
AcDbEntity
  8
1
  6
Continuous
 62
     7
370
    15
100
AcDbText
 10
125.8297499835416
 20
61.78001330492663
 30
0.0
 40
5.939999914169312
  1
０．００６３
 41
0.827651528540667
  7
KCADTEXTSTANDARD
100
AcDbText
1001
Sigma
1000

  0
TEXT
  5
407
330
1F
100
AcDbEntity
  8
1
  6
Continuous
 62
     7
370
    15
100
AcDbText
 10
125.8297499835416
 20
51.28001330492663
 30
0.0
 40
5.939999914169312
  1
５４μｍ
 41
0.8240530434971945
  7
KCADTEXTSTANDARD
100
AcDbText
1001
Sigma
1000

  0
TEXT
  5
409
330
1F
100
AcDbEntity
  8
1
  6
Continuous
 62
     7
370
    15
100
AcDbText
 10
125.8297499835416
 20
72.28001330492663
 30
0.0
 40
5.939999914169312
  1
２０．０ｍｍ
 41
0.827651528540667
  7
KCADTEXTSTANDARD
100
AcDbText
1001
Sigma
1000

  0
TEXT
  5
40B
330
1F
100
AcDbEntity
  8
1
  6
Continuous
 62
     7
370
    15
100
AcDbText
 10
125.8297499835416
 20
40.78001330492663
 30
0.0
 40
5.939999914169312
  1
１２～６０（可変絞りによる）
 41
0.8317640828760641
  7
KCADTEXTSTANDARD
100
AcDbText
1001
Sigma
1000

  0
TEXT
  5
40D
330
1F
100
AcDbEntity
  8
1
  6
Continuous
 62
     7
370
    15
100
AcDbText
 10
231.0157722437416
 20
21.11289195023462
 30
0.0
 40
5.039999914169311
  1
※作動距離の変化により倍率以外の性能が変化します。
 41
0.8499633312219096
  7
KCADTEXTSTANDARD
100
AcDbText
1001
Sigma
1000

  0
TEXT
  5
40F
330
1F
100
AcDbEntity
  8
1
  6
Continuous
 62
     7
370
    15
100
AcDbText
 10
213.0425032805102
 20
104.2935108751302
 30
0.0
 40
7.560000514984131
  1
光　学　仕　様
 41
0.8040321971780549
  7
KCADTEXTSTANDARD
100
AcDbText
1001
Sigma
1000

  0
TEXT
  5
411
330
1F
100
AcDbEntity
  8
1
  6
Continuous
 62
     7
370
    15
100
AcDbText
 10
246.3476774334832
 20
72.23501330015824
 30
0.0
 40
5.129999828338623
  1
重量（ｇ）
 41
0.8566667128166972
  7
KCADTEXTSTANDARD
100
AcDbText
1001
Sigma
1000

  0
TEXT
  5
413
330
1F
100
AcDbEntity
  8
1
  6
Continuous
 62
     7
370
    15
100
AcDbText
 10
246.3426772296316
 20
61.73001330492663
 30
0.0
 40
5.039999914169311
  1
イメ－ジサ－クル%%c１７ｍｍ（１．１インチ対角）に対応。
 41
0.8501141248812633
  7
KCADTEXTSTANDARD
100
AcDbText
1001
Sigma
1000

  0
LINE
  5
415
330
1F
100
AcDbEntity
  8
0
  6
CENTER
 62
     7
370
    15
100
AcDbLine
 10
45.809066005546
 20
310.39511670511
 30
0.0
 11
75.825544005546
 21
310.39511670511
 31
0.0
1001
Sigma
1000

  0
POINT
  5
417
330
1F
100
AcDbEntity
  8
0
  6
Continuous
 62
     7
370
    15
100
AcDbPoint
 10
175.22927477363
 20
310.39511670511
 30
0.0
1001
Sigma
1000

  0
POINT
  5
419
330
1F
100
AcDbEntity
  8
0
  6
Continuous
 62
     7
370
    15
100
AcDbPoint
 10
49.534744005546
 20
310.39511670511
 30
0.0
1001
Sigma
1000

  0
POINT
  5
41B
330
1F
100
AcDbEntity
  8
0
  6
Continuous
 62
     7
370
    15
100
AcDbPoint
 10
755.69527477363
 20
310.39511670511
 30
0.0
1001
Sigma
1000

  0
LINE
  5
41D
330
1F
100
AcDbEntity
  8
0
  6
Continuous
 62
     7
370
    30
100
AcDbLine
 10
175.72927477363
 20
377.39511670511
 30
0.0
 11
374.7292747736299
 21
377.39511670511
 31
0.0
1001
Sigma
1000

  0
LINE
  5
41F
330
1F
100
AcDbEntity
  8
0
  6
Continuous
 62
     7
370
    30
100
AcDbLine
 10
375.72927477363
 20
243.39511670511
 30
0.0
 11
385.2292747736299
 21
243.39511670511
 31
0.0
1001
Sigma
1000

  0
LINE
  5
421
330
1F
100
AcDbEntity
  8
0
  6
Continuous
 62
     7
370
    30
100
AcDbLine
 10
375.72927477363
 20
377.39511670511
 30
0.0
 11
385.2292747736299
 21
377.39511670511
 31
0.0
1001
Sigma
1000

  0
LINE
  5
423
330
1F
100
AcDbEntity
  8
0
  6
Continuous
 62
     7
370
    30
100
AcDbLine
 10
375.2292747736299
 20
376.89511670511
 30
0.0
 11
375.2292747736299
 21
243.89511670511
 31
0.0
1001
Sigma
1000

  0
LINE
  5
425
330
1F
100
AcDbEntity
  8
0
  6
Continuous
 62
     7
370
    30
100
AcDbLine
 10
175.72927477363
 20
243.39511670511
 30
0.0
 11
374.7292747736299
 21
243.39511670511
 31
0.0
1001
Sigma
1000

  0
LINE
  5
427
330
1F
100
AcDbEntity
  8
0
  6
CENTER
 62
     7
370
    15
100
AcDbLine
 10
45.809066005546
 20
310.39511670511
 30
0.0
 11
75.825544005546
 21
310.39511670511
 31
0.0
1001
Sigma
1000

  0
LINE
  5
429
330
1F
100
AcDbEntity
  8
0
  6
Continuous
 62
     7
370
    30
100
AcDbLine
 10
175.22927477363
 20
376.89511670511
 30
0.0
 11
175.22927477363
 21
243.89511670511
 31
0.0
1001
Sigma
1000

  0
LINE
  5
42B
330
1F
100
AcDbEntity
  8
0
  6
Continuous
 62
     7
370
    30
100
AcDbLine
 10
175.22927477363
 20
376.89511670511
 30
0.0
 11
175.72927477363
 21
377.39511670511
 31
0.0
1001
Sigma
1000

  0
LINE
  5
42D
330
1F
100
AcDbEntity
  8
0
  6
Continuous
 62
     7
370
    30
100
AcDbLine
 10
175.22927477363
 20
243.89511670511
 30
0.0
 11
175.72927477363
 21
243.39511670511
 31
0.0
1001
Sigma
1000

  0
LINE
  5
42F
330
1F
100
AcDbEntity
  8
0
  6
Continuous
 62
     7
370
    30
100
AcDbLine
 10
385.2292747736299
 20
243.39511670511
 30
0.0
 11
555.2292747736299
 21
288.39511670511
 31
0.0
1001
Sigma
1000

  0
LINE
  5
431
330
1F
100
AcDbEntity
  8
0
  6
Continuous
 62
     7
370
    30
100
AcDbLine
 10
385.2292747736299
 20
377.39511670511
 30
0.0
 11
555.2292747736299
 21
332.39511670511
 31
0.0
1001
Sigma
1000

  0
LINE
  5
433
330
1F
100
AcDbEntity
  8
0
  6
Continuous
 62
     7
370
    30
100
AcDbLine
 10
555.2292747736299
 20
332.39511670511
 30
0.0
 11
566.72927477363
 21
332.39511670511
 31
0.0
1001
Sigma
1000

  0
LINE
  5
435
330
1F
100
AcDbEntity
  8
0
  6
Continuous
 62
     7
370
    30
100
AcDbLine
 10
555.2292747736299
 20
288.39511670511
 30
0.0
 11
566.72927477363
 21
288.39511670511
 31
0.0
1001
Sigma
1000

  0
LINE
  5
437
330
1F
100
AcDbEntity
  8
0
  6
Continuous
 62
     7
370
    30
100
AcDbLine
 10
385.2292747736299
 20
377.39511670511
 30
0.0
 11
385.2292747736299
 21
243.39511670511
 31
0.0
1001
Sigma
1000

  0
LINE
  5
439
330
1F
100
AcDbEntity
  8
0
  6
Continuous
 62
     7
370
    30
100
AcDbLine
 10
566.72927477363
 20
332.39511670511
 30
0.0
 11
567.22927477363
 21
331.89511670511
 31
0.0
1001
Sigma
1000

  0
LINE
  5
43B
330
1F
100
AcDbEntity
  8
0
  6
Continuous
 62
     7
370
    30
100
AcDbLine
 10
566.72927477363
 20
288.39511670511
 30
0.0
 11
567.22927477363
 21
288.89511670511
 31
0.0
1001
Sigma
1000

  0
LINE
  5
43D
330
1F
100
AcDbEntity
  8
0
  6
Continuous
 62
     7
370
    30
100
AcDbLine
 10
555.2292747736299
 20
332.39511670511
 30
0.0
 11
555.2292747736299
 21
288.39511670511
 31
0.0
1001
Sigma
1000

  0
LINE
  5
43F
330
1F
100
AcDbEntity
  8
0
  6
Continuous
 62
     7
370
    30
100
AcDbLine
 10
742.16927477363
 20
322.69511670511
 30
0.0
 11
742.16927477363
 21
298.09511670511
 31
0.0
1001
Sigma
1000

  0
LINE
  5
441
330
1F
100
AcDbEntity
  8
0
  6
Continuous
 62
     7
370
    30
100
AcDbLine
 10
636.2292747736299
 20
326.89511670511
 30
0.0
 11
636.2292747736299
 21
293.89511670511
 31
0.0
1001
Sigma
1000

  0
LINE
  5
443
330
1F
100
AcDbEntity
  8
0
  6
Continuous
 62
     7
370
    30
100
AcDbLine
 10
623.7292747736299
 20
327.39511670511
 30
0.0
 11
623.7292747736299
 21
293.39511670511
 31
0.0
1001
Sigma
1000

  0
LINE
  5
445
330
1F
100
AcDbEntity
  8
0
  6
Continuous
 62
     7
370
    30
100
AcDbLine
 10
175.72927477363
 20
377.39511670511
 30
0.0
 11
175.72927477363
 21
243.39511670511
 31
0.0
1001
Sigma
1000

  0
LINE
  5
447
330
1F
100
AcDbEntity
  8
0
  6
Continuous
 62
     7
370
    30
100
AcDbLine
 10
741.76927477363
 20
297.69511670511
 30
0.0
 11
742.16927477363
 21
298.09511670511
 31
0.0
1001
Sigma
1000

  0
LINE
  5
449
330
1F
100
AcDbEntity
  8
0
  6
Continuous
 62
     7
370
    30
100
AcDbLine
 10
741.76927477363
 20
323.09511670511
 30
0.0
 11
742.16927477363
 21
322.69511670511
 31
0.0
1001
Sigma
1000

  0
LINE
  5
44B
330
1F
100
AcDbEntity
  8
0
  6
Continuous
 62
     7
370
    30
100
AcDbLine
 10
738.16927477363
 20
326.39511670511
 30
0.0
 11
738.16927477363
 21
294.39511670511
 31
0.0
1001
Sigma
1000

  0
LINE
  5
44D
330
1F
100
AcDbEntity
  8
0
  6
Continuous
 62
     7
370
    30
100
AcDbLine
 10
738.9692747736299
 20
322.69511670511
 30
0.0
 11
741.76927477363
 21
322.69511670511
 31
0.0
1001
Sigma
1000

  0
LINE
  5
44F
330
1F
100
AcDbEntity
  8
0
  6
Continuous
 62
     7
370
    30
100
AcDbLine
 10
632.72927477363
 20
326.89511670511
 30
0.0
 11
635.7292747736299
 21
326.89511670511
 31
0.0
1001
Sigma
1000

  0
LINE
  5
451
330
1F
100
AcDbEntity
  8
0
  6
Continuous
 62
     7
370
    30
100
AcDbLine
 10
738.16927477363
 20
322.69511670511
 30
0.0
 11
738.9692747736299
 21
322.69511670511
 31
0.0
1001
Sigma
1000

  0
LINE
  5
453
330
1F
100
AcDbEntity
  8
0
  6
Continuous
 62
     7
370
    30
100
AcDbLine
 10
738.16927477363
 20
298.09511670511
 30
0.0
 11
738.9692747736299
 21
298.09511670511
 31
0.0
1001
Sigma
1000

  0
LINE
  5
455
330
1F
100
AcDbEntity
  8
0
  6
Continuous
 62
     7
370
    30
100
AcDbLine
 10
738.9692747736299
 20
323.09511670511
 30
0.0
 11
738.9692747736299
 21
322.69511670511
 31
0.0
1001
Sigma
1000

  0
LINE
  5
457
330
1F
100
AcDbEntity
  8
0
  6
Continuous
 62
     7
370
    30
100
AcDbLine
 10
738.9692747736299
 20
298.09511670511
 30
0.0
 11
741.76927477363
 21
298.09511670511
 31
0.0
1001
Sigma
1000

  0
LINE
  5
459
330
1F
100
AcDbEntity
  8
0
  6
Continuous
 62
     7
370
    30
100
AcDbLine
 10
738.9692747736299
 20
298.09511670511
 30
0.0
 11
738.9692747736299
 21
297.69511670511
 31
0.0
1001
Sigma
1000

  0
LINE
  5
45B
330
1F
100
AcDbEntity
  8
0
  6
Continuous
 62
     7
370
    30
100
AcDbLine
 10
738.9692747736299
 20
323.09511670511
 30
0.0
 11
741.76927477363
 21
323.09511670511
 31
0.0
1001
Sigma
1000

  0
LINE
  5
45D
330
1F
100
AcDbEntity
  8
0
  6
Continuous
 62
     7
370
    30
100
AcDbLine
 10
738.9692747736299
 20
297.69511670511
 30
0.0
 11
741.76927477363
 21
297.69511670511
 31
0.0
1001
Sigma
1000

  0
LINE
  5
45F
330
1F
100
AcDbEntity
  8
0
  6
Continuous
 62
     7
370
    30
100
AcDbLine
 10
624.22927477363
 20
326.89511670511
 30
0.0
 11
624.22927477363
 21
293.89511670511
 31
0.0
1001
Sigma
1000

  0
LINE
  5
461
330
1F
100
AcDbEntity
  8
0
  6
Continuous
 62
     7
370
    30
100
AcDbLine
 10
624.52927477363
 20
293.89511670511
 30
0.0
 11
632.2292747736299
 21
293.89511670511
 31
0.0
1001
Sigma
1000

  0
LINE
  5
463
330
1F
100
AcDbEntity
  8
0
  6
Continuous
 62
     7
370
    30
100
AcDbLine
 10
624.52927477363
 20
326.89511670511
 30
0.0
 11
632.2292747736299
 21
326.89511670511
 31
0.0
1001
Sigma
1000

  0
LINE
  5
465
330
1F
100
AcDbEntity
  8
0
  6
Continuous
 62
     7
370
    30
100
AcDbLine
 10
632.2292747736299
 20
326.89511670511
 30
0.0
 11
632.2292747736299
 21
293.89511670511
 31
0.0
1001
Sigma
1000

  0
LINE
  5
467
330
1F
100
AcDbEntity
  8
0
  6
Continuous
 62
     7
370
    30
100
AcDbLine
 10
632.72927477363
 20
293.89511670511
 30
0.0
 11
635.7292747736299
 21
293.89511670511
 31
0.0
1001
Sigma
1000

  0
LINE
  5
469
330
1F
100
AcDbEntity
  8
0
  6
Continuous
 62
     7
370
    30
100
AcDbLine
 10
636.72927477363
 20
326.89511670511
 30
0.0
 11
636.72927477363
 21
293.89511670511
 31
0.0
1001
Sigma
1000

  0
LINE
  5
46B
330
1F
100
AcDbEntity
  8
0
  6
Continuous
 62
     7
370
    30
100
AcDbLine
 10
632.72927477363
 20
327.39511670511
 30
0.0
 11
635.7292747736299
 21
327.39511670511
 31
0.0
1001
Sigma
1000

  0
LINE
  5
46D
330
1F
100
AcDbEntity
  8
0
  6
Continuous
 62
     7
370
    30
100
AcDbLine
 10
626.7292747736299
 20
326.89511670511
 30
0.0
 11
626.7292747736299
 21
293.89511670511
 31
0.0
1001
Sigma
1000

  0
LINE
  5
46F
330
1F
100
AcDbEntity
  8
0
  6
Continuous
 62
     7
370
    30
100
AcDbLine
 10
632.72927477363
 20
293.39511670511
 30
0.0
 11
635.7292747736299
 21
293.39511670511
 31
0.0
1001
Sigma
1000

  0
LINE
  5
471
330
1F
100
AcDbEntity
  8
0
  6
Continuous
 62
     7
370
    30
100
AcDbLine
 10
632.72927477363
 20
327.39511670511
 30
0.0
 11
632.72927477363
 21
293.39511670511
 31
0.0
1001
Sigma
1000

  0
LINE
  5
473
330
1F
100
AcDbEntity
  8
0
  6
Continuous
 62
     7
370
    30
100
AcDbLine
 10
635.7292747736299
 20
327.39511670511
 30
0.0
 11
635.7292747736299
 21
293.39511670511
 31
0.0
1001
Sigma
1000

  0
LINE
  5
475
330
1F
100
AcDbEntity
  8
0
  6
Continuous
 62
     7
370
    15
100
AcDbLine
 10
626.7292747736299
 20
303.39511670511
 30
0.0
 11
629.4792747736299
 21
303.39511670511
 31
0.0
1001
Sigma
1000

  0
LINE
  5
477
330
1F
100
AcDbEntity
  8
0
  6
Continuous
 62
     7
370
    15
100
AcDbLine
 10
626.7292747736299
 20
299.8951167051099
 30
0.0
 11
629.4792747736299
 21
299.8951167051099
 31
0.0
1001
Sigma
1000

  0
LINE
  5
479
330
1F
100
AcDbEntity
  8
0
  6
Continuous
 62
     7
370
    30
100
AcDbLine
 10
632.2292747736299
 20
326.89511670511
 30
0.0
 11
632.72927477363
 21
327.39511670511
 31
0.0
1001
Sigma
1000

  0
LINE
  5
47B
330
1F
100
AcDbEntity
  8
0
  6
Continuous
 62
     7
370
    30
100
AcDbLine
 10
632.2292747736299
 20
293.89511670511
 30
0.0
 11
632.72927477363
 21
293.39511670511
 31
0.0
1001
Sigma
1000

  0
LINE
  5
47D
330
1F
100
AcDbEntity
  8
0
  6
Continuous
 62
     7
370
    30
100
AcDbLine
 10
635.7292747736299
 20
327.39511670511
 30
0.0
 11
636.2292747736299
 21
326.89511670511
 31
0.0
1001
Sigma
1000

  0
LINE
  5
47F
330
1F
100
AcDbEntity
  8
0
  6
Continuous
 62
     7
370
    30
100
AcDbLine
 10
635.7292747736299
 20
293.39511670511
 30
0.0
 11
636.2292747736299
 21
293.89511670511
 31
0.0
1001
Sigma
1000

  0
LINE
  5
481
330
1F
100
AcDbEntity
  8
0
  6
Continuous
 62
     7
370
    15
100
AcDbLine
 10
626.7292747736299
 20
307.39511670511
 30
0.0
 11
629.4792747736299
 21
307.39511670511
 31
0.0
1001
Sigma
1000

  0
LINE
  5
483
330
1F
100
AcDbEntity
  8
0
  6
Continuous
 62
     7
370
    30
100
AcDbLine
 10
632.72927477363
 20
294.39511670511
 30
0.0
 11
635.7292747736299
 21
294.39511670511
 31
0.0
1001
Sigma
1000

  0
LINE
  5
485
330
1F
100
AcDbEntity
  8
0
  6
Continuous
 62
     7
370
    15
100
AcDbLine
 10
626.7292747736299
 20
296.89511670511
 30
0.0
 11
629.4792747736299
 21
296.89511670511
 31
0.0
1001
Sigma
1000

  0
LINE
  5
487
330
1F
100
AcDbEntity
  8
0
  6
Continuous
 62
     7
370
    15
100
AcDbLine
 10
626.7292747736299
 20
294.89511670511
 30
0.0
 11
629.4792747736299
 21
294.89511670511
 31
0.0
1001
Sigma
1000

  0
LINE
  5
489
330
1F
100
AcDbEntity
  8
0
  6
Continuous
 62
     7
370
    15
100
AcDbLine
 10
626.7292747736299
 20
305.39511670511
 30
0.0
 11
628.1042747736299
 21
305.39511670511
 31
0.0
1001
Sigma
1000

  0
LINE
  5
48B
330
1F
100
AcDbEntity
  8
0
  6
Continuous
 62
     7
370
    15
100
AcDbLine
 10
626.7292747736299
 20
301.64511670511
 30
0.0
 11
628.1042747736299
 21
301.64511670511
 31
0.0
1001
Sigma
1000

  0
LINE
  5
48D
330
1F
100
AcDbEntity
  8
0
  6
Continuous
 62
     7
370
    15
100
AcDbLine
 10
626.7292747736299
 20
298.39511670511
 30
0.0
 11
628.1042747736299
 21
298.39511670511
 31
0.0
1001
Sigma
1000

  0
LINE
  5
48F
330
1F
100
AcDbEntity
  8
0
  6
Continuous
 62
     7
370
    15
100
AcDbLine
 10
626.7292747736299
 20
295.89511670511
 30
0.0
 11
628.1042747736299
 21
295.89511670511
 31
0.0
1001
Sigma
1000

  0
LINE
  5
491
330
1F
100
AcDbEntity
  8
0
  6
Continuous
 62
     7
370
    15
100
AcDbLine
 10
626.7292747736299
 20
294.39511670511
 30
0.0
 11
628.1042747736299
 21
294.39511670511
 31
0.0
1001
Sigma
1000

  0
LINE
  5
493
330
1F
100
AcDbEntity
  8
0
  6
Continuous
 62
     7
370
    30
100
AcDbLine
 10
632.72927477363
 20
298.39511670511
 30
0.0
 11
635.7292747736299
 21
298.39511670511
 31
0.0
1001
Sigma
1000

  0
LINE
  5
495
330
1F
100
AcDbEntity
  8
0
  6
Continuous
 62
     7
370
    30
100
AcDbLine
 10
632.72927477363
 20
299.39511670511
 30
0.0
 11
635.7292747736299
 21
299.39511670511
 31
0.0
1001
Sigma
1000

  0
LINE
  5
497
330
1F
100
AcDbEntity
  8
0
  6
Continuous
 62
     7
370
    30
100
AcDbLine
 10
632.72927477363
 20
296.64511670511
 30
0.0
 11
635.7292747736299
 21
296.64511670511
 31
0.0
1001
Sigma
1000

  0
LINE
  5
499
330
1F
100
AcDbEntity
  8
0
  6
Continuous
 62
     7
370
    30
100
AcDbLine
 10
632.72927477363
 20
297.3951167051099
 30
0.0
 11
635.7292747736299
 21
297.3951167051099
 31
0.0
1001
Sigma
1000

  0
LINE
  5
49B
330
1F
100
AcDbEntity
  8
0
  6
Continuous
 62
     7
370
    30
100
AcDbLine
 10
624.52927477363
 20
326.89511670511
 30
0.0
 11
624.52927477363
 21
293.89511670511
 31
0.0
1001
Sigma
1000

  0
LINE
  5
49D
330
1F
100
AcDbEntity
  8
0
  6
Continuous
 62
     7
370
    30
100
AcDbLine
 10
632.72927477363
 20
295.14511670511
 30
0.0
 11
635.7292747736299
 21
295.14511670511
 31
0.0
1001
Sigma
1000

  0
LINE
  5
49F
330
1F
100
AcDbEntity
  8
0
  6
Continuous
 62
     7
370
    30
100
AcDbLine
 10
624.22927477363
 20
326.5951167051099
 30
0.0
 11
624.52927477363
 21
326.89511670511
 31
0.0
1001
Sigma
1000

  0
LINE
  5
4A1
330
1F
100
AcDbEntity
  8
0
  6
Continuous
 62
     7
370
    30
100
AcDbLine
 10
632.72927477363
 20
295.89511670511
 30
0.0
 11
635.7292747736299
 21
295.89511670511
 31
0.0
1001
Sigma
1000

  0
LINE
  5
4A3
330
1F
100
AcDbEntity
  8
0
  6
Continuous
 62
     7
370
    30
100
AcDbLine
 10
632.72927477363
 20
300.39511670511
 30
0.0
 11
635.7292747736299
 21
300.39511670511
 31
0.0
1001
Sigma
1000

  0
LINE
  5
4A5
330
1F
100
AcDbEntity
  8
0
  6
Continuous
 62
     7
370
    30
100
AcDbLine
 10
632.72927477363
 20
301.89511670511
 30
0.0
 11
635.7292747736299
 21
301.89511670511
 31
0.0
1001
Sigma
1000

  0
LINE
  5
4A7
330
1F
100
AcDbEntity
  8
0
  6
Continuous
 62
     7
370
    30
100
AcDbLine
 10
632.72927477363
 20
303.39511670511
 30
0.0
 11
635.7292747736299
 21
303.39511670511
 31
0.0
1001
Sigma
1000

  0
LINE
  5
4A9
330
1F
100
AcDbEntity
  8
0
  6
Continuous
 62
     7
370
    30
100
AcDbLine
 10
632.72927477363
 20
304.89511670511
 30
0.0
 11
635.7292747736299
 21
304.89511670511
 31
0.0
1001
Sigma
1000

  0
LINE
  5
4AB
330
1F
100
AcDbEntity
  8
0
  6
Continuous
 62
     7
370
    30
100
AcDbLine
 10
632.72927477363
 20
306.89511670511
 30
0.0
 11
635.7292747736299
 21
306.89511670511
 31
0.0
1001
Sigma
1000

  0
LINE
  5
4AD
330
1F
100
AcDbEntity
  8
0
  6
Continuous
 62
     7
370
    30
100
AcDbLine
 10
632.72927477363
 20
308.89511670511
 30
0.0
 11
635.7292747736299
 21
308.89511670511
 31
0.0
1001
Sigma
1000

  0
LINE
  5
4AF
330
1F
100
AcDbEntity
  8
0
  6
Continuous
 62
     7
370
    30
100
AcDbLine
 10
632.72927477363
 20
311.89511670511
 30
0.0
 11
635.7292747736299
 21
311.89511670511
 31
0.0
1001
Sigma
1000

  0
LINE
  5
4B1
330
1F
100
AcDbEntity
  8
0
  6
Continuous
 62
     7
370
    30
100
AcDbLine
 10
632.72927477363
 20
313.89511670511
 30
0.0
 11
635.7292747736299
 21
313.89511670511
 31
0.0
1001
Sigma
1000

  0
LINE
  5
4B3
330
1F
100
AcDbEntity
  8
0
  6
Continuous
 62
     7
370
    30
100
AcDbLine
 10
632.72927477363
 20
315.89511670511
 30
0.0
 11
635.7292747736299
 21
315.89511670511
 31
0.0
1001
Sigma
1000

  0
LINE
  5
4B5
330
1F
100
AcDbEntity
  8
0
  6
Continuous
 62
     7
370
    30
100
AcDbLine
 10
632.72927477363
 20
317.39511670511
 30
0.0
 11
635.7292747736299
 21
317.39511670511
 31
0.0
1001
Sigma
1000

  0
LINE
  5
4B7
330
1F
100
AcDbEntity
  8
0
  6
Continuous
 62
     7
370
    30
100
AcDbLine
 10
632.72927477363
 20
318.89511670511
 30
0.0
 11
635.7292747736299
 21
318.89511670511
 31
0.0
1001
Sigma
1000

  0
LINE
  5
4B9
330
1F
100
AcDbEntity
  8
0
  6
Continuous
 62
     7
370
    30
100
AcDbLine
 10
632.72927477363
 20
320.39511670511
 30
0.0
 11
635.7292747736299
 21
320.39511670511
 31
0.0
1001
Sigma
1000

  0
LINE
  5
4BB
330
1F
100
AcDbEntity
  8
0
  6
Continuous
 62
     7
370
    30
100
AcDbLine
 10
632.72927477363
 20
324.8951167051099
 30
0.0
 11
635.7292747736299
 21
324.8951167051099
 31
0.0
1001
Sigma
1000

  0
LINE
  5
4BD
330
1F
100
AcDbEntity
  8
0
  6
Continuous
 62
     7
370
    30
100
AcDbLine
 10
632.72927477363
 20
325.64511670511
 30
0.0
 11
635.7292747736299
 21
325.64511670511
 31
0.0
1001
Sigma
1000

  0
LINE
  5
4BF
330
1F
100
AcDbEntity
  8
0
  6
Continuous
 62
     7
370
    30
100
AcDbLine
 10
632.72927477363
 20
323.39511670511
 30
0.0
 11
635.7292747736299
 21
323.39511670511
 31
0.0
1001
Sigma
1000

  0
LINE
  5
4C1
330
1F
100
AcDbEntity
  8
0
  6
Continuous
 62
     7
370
    30
100
AcDbLine
 10
632.72927477363
 20
324.14511670511
 30
0.0
 11
635.7292747736299
 21
324.14511670511
 31
0.0
1001
Sigma
1000

  0
LINE
  5
4C3
330
1F
100
AcDbEntity
  8
0
  6
Continuous
 62
     7
370
    30
100
AcDbLine
 10
632.72927477363
 20
321.39511670511
 30
0.0
 11
635.7292747736299
 21
321.39511670511
 31
0.0
1001
Sigma
1000

  0
LINE
  5
4C5
330
1F
100
AcDbEntity
  8
0
  6
Continuous
 62
     7
370
    30
100
AcDbLine
 10
632.72927477363
 20
322.39511670511
 30
0.0
 11
635.7292747736299
 21
322.39511670511
 31
0.0
1001
Sigma
1000

  0
LINE
  5
4C7
330
1F
100
AcDbEntity
  8
0
  6
Continuous
 62
     7
370
    30
100
AcDbLine
 10
632.72927477363
 20
326.39511670511
 30
0.0
 11
635.7292747736299
 21
326.39511670511
 31
0.0
1001
Sigma
1000

  0
LINE
  5
4C9
330
1F
100
AcDbEntity
  8
0
  6
Continuous
 62
     7
370
    30
100
AcDbLine
 10
632.72927477363
 20
326.89511670511
 30
0.0
 11
635.7292747736299
 21
326.89511670511
 31
0.0
1001
Sigma
1000

  0
LINE
  5
4CB
330
1F
100
AcDbEntity
  8
0
  6
Continuous
 62
     7
370
    30
100
AcDbLine
 10
679.6292747736298
 20
326.39511670511
 30
0.0
 11
679.6292747736298
 21
294.39511670511
 31
0.0
1001
Sigma
1000

  0
LINE
  5
4CD
330
1F
100
AcDbEntity
  8
0
  6
Continuous
 62
     7
370
    30
100
AcDbLine
 10
738.9692747736299
 20
322.69511670511
 30
0.0
 11
738.9692747736299
 21
298.09511670511
 31
0.0
1001
Sigma
1000

  0
LINE
  5
4CF
330
1F
100
AcDbEntity
  8
0
  6
Continuous
 62
     7
370
    30
100
AcDbLine
 10
741.76927477363
 20
323.09511670511
 30
0.0
 11
741.76927477363
 21
297.69511670511
 31
0.0
1001
Sigma
1000

  0
LINE
  5
4D1
330
1F
100
AcDbEntity
  8
0
  6
Continuous
 62
     7
370
    30
100
AcDbLine
 10
737.66927477363
 20
326.89511670511
 30
0.0
 11
737.66927477363
 21
293.89511670511
 31
0.0
1001
Sigma
1000

  0
LINE
  5
4D3
330
1F
100
AcDbEntity
  8
0
  6
Continuous
 62
     7
370
    30
100
AcDbLine
 10
680.1292747736298
 20
326.89511670511
 30
0.0
 11
680.1292747736298
 21
293.89511670511
 31
0.0
1001
Sigma
1000

  0
LINE
  5
4D5
330
1F
100
AcDbEntity
  8
0
  6
Continuous
 62
     7
370
    30
100
AcDbLine
 10
679.1292747736298
 20
326.89511670511
 30
0.0
 11
679.1292747736298
 21
293.89511670511
 31
0.0
1001
Sigma
1000

  0
LINE
  5
4D7
330
1F
100
AcDbEntity
  8
0
  6
Continuous
 62
     7
370
    30
100
AcDbLine
 10
566.72927477363
 20
332.39511670511
 30
0.0
 11
566.72927477363
 21
288.39511670511
 31
0.0
1001
Sigma
1000

  0
LINE
  5
4D9
330
1F
100
AcDbEntity
  8
0
  6
Continuous
 62
     7
370
    30
100
AcDbLine
 10
375.72927477363
 20
377.39511670511
 30
0.0
 11
375.72927477363
 21
243.39511670511
 31
0.0
1001
Sigma
1000

  0
LINE
  5
4DB
330
1F
100
AcDbEntity
  8
0
  6
Continuous
 62
     7
370
    30
100
AcDbLine
 10
374.7292747736299
 20
377.39511670511
 30
0.0
 11
374.7292747736299
 21
243.39511670511
 31
0.0
1001
Sigma
1000

  0
LINE
  5
4DD
330
1F
100
AcDbEntity
  8
0
  6
Continuous
 62
     7
370
    30
100
AcDbLine
 10
375.2292747736299
 20
376.89511670511
 30
0.0
 11
375.72927477363
 21
377.39511670511
 31
0.0
1001
Sigma
1000

  0
LINE
  5
4DF
330
1F
100
AcDbEntity
  8
0
  6
Continuous
 62
     7
370
    30
100
AcDbLine
 10
374.7292747736299
 20
377.39511670511
 30
0.0
 11
375.2292747736299
 21
376.89511670511
 31
0.0
1001
Sigma
1000

  0
LINE
  5
4E1
330
1F
100
AcDbEntity
  8
0
  6
Continuous
 62
     7
370
    30
100
AcDbLine
 10
375.2292747736299
 20
243.89511670511
 30
0.0
 11
375.72927477363
 21
243.39511670511
 31
0.0
1001
Sigma
1000

  0
LINE
  5
4E3
330
1F
100
AcDbEntity
  8
0
  6
Continuous
 62
     7
370
    30
100
AcDbLine
 10
374.7292747736299
 20
243.39511670511
 30
0.0
 11
375.2292747736299
 21
243.89511670511
 31
0.0
1001
Sigma
1000

  0
LINE
  5
4E5
330
1F
100
AcDbEntity
  8
0
  6
CENTER
 62
     7
370
    15
100
AcDbLine
 10
755.69527477363
 20
314.16612794073
 30
0.0
 11
755.69527477363
 21
307.15388134977
 31
0.0
1001
Sigma
1000

  0
LINE
  5
4E7
330
1F
100
AcDbEntity
  8
0
  6
CENTER
 62
     7
370
    15
100
AcDbLine
 10
164.7417788233699
 20
310.39511670511
 30
0.0
 11
758.9568154213099
 21
310.39511670511
 31
0.0
1001
Sigma
1000

  0
LINE
  5
4E9
330
1F
100
AcDbEntity
  8
0
  6
CENTER
 62
     7
370
    15
100
AcDbLine
 10
80.792344005546
 20
315.39511670511
 30
0.0
 11
103.2587440055499
 21
305.39511670511
 31
0.0
1001
Sigma
1000

  0
LINE
  5
4EB
330
1F
100
AcDbEntity
  8
0
  6
CENTER
 62
     7
370
    15
100
AcDbLine
 10
75.825544005546
 20
310.39511670511
 30
0.0
 11
80.792344005546
 21
315.39511670511
 31
0.0
1001
Sigma
1000

  0
LINE
  5
4ED
330
1F
100
AcDbEntity
  8
0
  6
CENTER
 62
     7
370
    15
100
AcDbLine
 10
103.2587440055499
 20
305.39511670511
 30
0.0
 11
108.2587440055499
 21
310.39511670511
 31
0.0
1001
Sigma
1000

  0
LINE
  5
4EF
330
1F
100
AcDbEntity
  8
0
  6
CENTER
 62
     7
370
    15
100
AcDbLine
 10
108.2587440055499
 20
310.39511670511
 30
0.0
 11
137.4467440055499
 21
310.39511670511
 31
0.0
1001
Sigma
1000

  0
LINE
  5
4F1
330
1F
100
AcDbEntity
  8
0
  6
CENTER
 62
     7
370
    15
100
AcDbLine
 10
49.534744005546
 20
312.89511670511
 30
0.0
 11
49.534744005546
 21
307.89511670511
 31
0.0
1001
Sigma
1000

  0
LINE
  5
4F3
330
1F
100
AcDbEntity
  8
0
  6
CENTER
 62
     7
370
    15
100
AcDbLine
 10
571.22927477363
 20
293.29026337178
 30
0.0
 11
571.22927477363
 21
280.8984700384399
 31
0.0
1001
Sigma
1000

  0
LINE
  5
4F5
330
1F
100
AcDbEntity
  8
0
  6
Continuous
 62
     7
370
    30
100
AcDbLine
 10
614.2292747736299
 20
293.39511670511
 30
0.0
 11
623.7292747736299
 21
293.39511670511
 31
0.0
1001
Sigma
1000

  0
LINE
  5
4F7
330
1F
100
AcDbEntity
  8
0
  6
Continuous
 62
     7
370
    30
100
AcDbLine
 10
614.2292747736299
 20
327.39511670511
 30
0.0
 11
623.7292747736299
 21
327.39511670511
 31
0.0
1001
Sigma
1000

  0
LINE
  5
4F9
330
1F
100
AcDbEntity
  8
0
  6
CENTER
 62
     7
370
    15
100
AcDbLine
 10
589.2292747736299
 20
310.39511670511
 30
0.0
 11
589.2292747736299
 21
254.77268781622
 31
0.0
1001
Sigma
1000

  0
LINE
  5
4FB
330
1F
100
AcDbEntity
  8
0
  6
Continuous
 62
     7
370
    30
100
AcDbLine
 10
575.72927477363
 20
268.39511670511
 30
0.0
 11
602.7292747736299
 21
268.39511670511
 31
0.0
1001
Sigma
1000

  0
LINE
  5
4FD
330
1F
100
AcDbEntity
  8
0
  6
Continuous
 62
     7
370
    30
100
AcDbLine
 10
611.2292747736299
 20
286.39511670511
 30
0.0
 11
613.7292747736299
 21
286.39511670511
 31
0.0
1001
Sigma
1000

  0
LINE
  5
4FF
330
1F
100
AcDbEntity
  8
0
  6
Continuous
 62
     7
370
    30
100
AcDbLine
 10
567.22927477363
 20
285.39511670511
 30
0.0
 11
567.22927477363
 21
335.39511670511
 31
0.0
1001
Sigma
1000

  0
LINE
  5
501
330
1F
100
AcDbEntity
  8
0
  6
Continuous
 62
     7
370
    30
100
AcDbLine
 10
611.2292747736299
 20
335.39511670511
 30
0.0
 11
611.2292747736299
 21
285.39511670511
 31
0.0
1001
Sigma
1000

  0
LINE
  5
503
330
1F
100
AcDbEntity
  8
0
  6
Continuous
 62
     7
370
    30
100
AcDbLine
 10
611.2292747736299
 20
334.39511670511
 30
0.0
 11
613.7292747736299
 21
334.39511670511
 31
0.0
1001
Sigma
1000

  0
LINE
  5
505
330
1F
100
AcDbEntity
  8
0
  6
Continuous
 62
     7
370
    30
100
AcDbLine
 10
567.22927477363
 20
335.39511670511
 30
0.0
 11
611.2292747736299
 21
335.39511670511
 31
0.0
1001
Sigma
1000

  0
LINE
  5
507
330
1F
100
AcDbEntity
  8
0
  6
Continuous
 62
     7
370
    30
100
AcDbLine
 10
614.2292747736299
 20
333.89511670511
 30
0.0
 11
614.2292747736299
 21
286.89511670511
 31
0.0
1001
Sigma
1000

  0
LINE
  5
509
330
1F
100
AcDbEntity
  8
0
  6
Continuous
 62
     7
370
    30
100
AcDbLine
 10
567.22927477363
 20
285.39511670511
 30
0.0
 11
611.2292747736299
 21
285.39511670511
 31
0.0
1001
Sigma
1000

  0
LINE
  5
50B
330
1F
100
AcDbEntity
  8
0
  6
Continuous
 62
     7
370
    30
100
AcDbLine
 10
568.2292747736299
 20
285.39511670511
 30
0.0
 11
568.2292747736299
 21
282.89511670511
 31
0.0
1001
Sigma
1000

  0
LINE
  5
50D
330
1F
100
AcDbEntity
  8
0
  6
Continuous
 62
     7
370
    30
100
AcDbLine
 10
610.2292747736299
 20
285.39511670511
 30
0.0
 11
610.2292747736299
 21
282.89511670511
 31
0.0
1001
Sigma
1000

  0
LINE
  5
50F
330
1F
100
AcDbEntity
  8
0
  6
Continuous
 62
     7
370
    30
100
AcDbLine
 10
603.2292747736299
 20
282.39511670511
 30
0.0
 11
603.2292747736299
 21
268.89511670511
 31
0.0
1001
Sigma
1000

  0
LINE
  5
511
330
1F
100
AcDbEntity
  8
0
  6
Continuous
 62
     7
370
    30
100
AcDbLine
 10
575.22927477363
 20
282.39511670511
 30
0.0
 11
575.22927477363
 21
268.89511670511
 31
0.0
1001
Sigma
1000

  0
LINE
  5
513
330
1F
100
AcDbEntity
  8
0
  6
Continuous
 62
     7
370
    30
100
AcDbLine
 10
582.72927477363
 20
260.3951167051099
 30
0.0
 11
595.72927477363
 21
260.3951167051099
 31
0.0
1001
Sigma
1000

  0
LINE
  5
515
330
1F
100
AcDbEntity
  8
0
  6
Continuous
 62
     7
370
    30
100
AcDbLine
 10
568.7292747736299
 20
282.39511670511
 30
0.0
 11
609.7292747736299
 21
282.39511670511
 31
0.0
1001
Sigma
1000

  0
LINE
  5
517
330
1F
100
AcDbEntity
  8
0
  6
Continuous
 62
     7
370
    30
100
AcDbLine
 10
582.2292747736299
 20
268.39511670511
 30
0.0
 11
582.2292747736299
 21
260.89511670511
 31
0.0
1001
Sigma
1000

  0
LINE
  5
519
330
1F
100
AcDbEntity
  8
0
  6
CENTER
 62
     7
370
    15
100
AcDbLine
 10
587.05811105247
 20
263.39511670511
 30
0.0
 11
591.17905300117
 21
263.39511670511
 31
0.0
1001
Sigma
1000

  0
LINE
  5
51B
330
1F
100
AcDbEntity
  8
0
  6
CENTER
 62
     7
370
    15
100
AcDbLine
 10
604.14478579569
 20
331.35457269709
 30
0.0
 11
604.14478579569
 21
289.60033666503
 31
0.0
1001
Sigma
1000

  0
LINE
  5
51D
330
1F
100
AcDbEntity
  8
0
  6
CENTER
 62
     7
370
    15
100
AcDbLine
 10
574.14478579569
 20
331.53339169509
 30
0.0
 11
574.14478579569
 21
289.06387967104
 31
0.0
1001
Sigma
1000

  0
LINE
  5
51F
330
1F
100
AcDbEntity
  8
0
  6
Continuous
 62
     7
370
    30
100
AcDbLine
 10
596.22927477363
 20
268.39511670511
 30
0.0
 11
596.22927477363
 21
260.89511670511
 31
0.0
1001
Sigma
1000

  0
LINE
  5
521
330
1F
100
AcDbEntity
  8
0
  6
DASHED
 62
     7
370
    15
100
AcDbLine
 10
585.2292747736299
 20
260.69511670511
 30
0.0
 11
585.2292747736299
 21
273.47782270171
 31
0.0
1001
Sigma
1000

  0
LINE
  5
523
330
1F
100
AcDbEntity
  8
0
  6
DASHED
 62
     7
370
    15
100
AcDbLine
 10
593.2292747736299
 20
260.69511670511
 30
0.0
 11
593.2292747736299
 21
273.08271451732
 31
0.0
1001
Sigma
1000

  0
LINE
  5
525
330
1F
100
AcDbEntity
  8
0
  6
Continuous
 62
     7
370
    30
100
AcDbLine
 10
568.2292747736299
 20
282.89511670511
 30
0.0
 11
610.2292747736299
 21
282.89511670511
 31
0.0
1001
Sigma
1000

  0
LINE
  5
527
330
1F
100
AcDbEntity
  8
0
  6
Continuous
 62
     7
370
    30
100
AcDbLine
 10
575.22927477363
 20
268.89511670511
 30
0.0
 11
603.2292747736299
 21
268.89511670511
 31
0.0
1001
Sigma
1000

  0
LINE
  5
529
330
1F
100
AcDbEntity
  8
0
  6
Continuous
 62
     7
370
    30
100
AcDbLine
 10
582.2292747736299
 20
260.89511670511
 30
0.0
 11
596.22927477363
 21
260.89511670511
 31
0.0
1001
Sigma
1000

  0
LINE
  5
52B
330
1F
100
AcDbEntity
  8
0
  6
Continuous
 62
     7
370
    30
100
AcDbLine
 10
568.2292747736299
 20
282.89511670511
 30
0.0
 11
568.7292747736299
 21
282.39511670511
 31
0.0
1001
Sigma
1000

  0
LINE
  5
52D
330
1F
100
AcDbEntity
  8
0
  6
Continuous
 62
     7
370
    30
100
AcDbLine
 10
609.7292747736299
 20
282.39511670511
 30
0.0
 11
610.2292747736299
 21
282.89511670511
 31
0.0
1001
Sigma
1000

  0
LINE
  5
52F
330
1F
100
AcDbEntity
  8
0
  6
Continuous
 62
     7
370
    30
100
AcDbLine
 10
575.22927477363
 20
268.89511670511
 30
0.0
 11
575.72927477363
 21
268.39511670511
 31
0.0
1001
Sigma
1000

  0
LINE
  5
531
330
1F
100
AcDbEntity
  8
0
  6
Continuous
 62
     7
370
    30
100
AcDbLine
 10
602.7292747736299
 20
268.39511670511
 30
0.0
 11
603.2292747736299
 21
268.89511670511
 31
0.0
1001
Sigma
1000

  0
LINE
  5
533
330
1F
100
AcDbEntity
  8
0
  6
Continuous
 62
     7
370
    30
100
AcDbLine
 10
595.72927477363
 20
260.3951167051099
 30
0.0
 11
596.22927477363
 21
260.89511670511
 31
0.0
1001
Sigma
1000

  0
LINE
  5
535
330
1F
100
AcDbEntity
  8
0
  6
Continuous
 62
     7
370
    30
100
AcDbLine
 10
582.2292747736299
 20
260.89511670511
 30
0.0
 11
582.72927477363
 21
260.3951167051099
 31
0.0
1001
Sigma
1000

  0
LINE
  5
537
330
1F
100
AcDbEntity
  8
0
  6
Continuous
 62
     7
370
    30
100
AcDbLine
 10
613.7292747736299
 20
334.39511670511
 30
0.0
 11
613.7292747736299
 21
286.39511670511
 31
0.0
1001
Sigma
1000

  0
LINE
  5
539
330
1F
100
AcDbEntity
  8
0
  6
Continuous
 62
     7
370
    30
100
AcDbLine
 10
614.2292747736299
 20
286.89511670511
 30
0.0
 11
613.7292747736299
 21
286.39511670511
 31
0.0
1001
Sigma
1000

  0
LINE
  5
53B
330
1F
100
AcDbEntity
  8
0
  6
Continuous
 62
     7
370
    30
100
AcDbLine
 10
624.52927477363
 20
293.89511670511
 30
0.0
 11
624.22927477363
 21
294.19511670511
 31
0.0
1001
Sigma
1000

  0
LINE
  5
53D
330
1F
100
AcDbEntity
  8
0
  6
Continuous
 62
     7
370
    30
100
AcDbLine
 10
623.7292747736299
 20
293.39511670511
 30
0.0
 11
624.22927477363
 21
293.89511670511
 31
0.0
1001
Sigma
1000

  0
LINE
  5
53F
330
1F
100
AcDbEntity
  8
0
  6
Continuous
 62
     7
370
    30
100
AcDbLine
 10
623.7292747736299
 20
327.39511670511
 30
0.0
 11
624.22927477363
 21
326.89511670511
 31
0.0
1001
Sigma
1000

  0
LINE
  5
541
330
1F
100
AcDbEntity
  8
0
  6
Continuous
 62
     7
370
    30
100
AcDbLine
 10
613.7292747736299
 20
334.39511670511
 30
0.0
 11
614.2292747736299
 21
333.89511670511
 31
0.0
1001
Sigma
1000

  0
LINE
  5
543
330
1F
100
AcDbEntity
  8
0
  6
CENTER
 62
     7
370
    15
100
AcDbLine
 10
571.80618844999
 20
328.39511670511
 30
0.0
 11
606.81723289445
 21
328.39511670511
 31
0.0
1001
Sigma
1000

  0
LINE
  5
545
330
1F
100
AcDbEntity
  8
0
  6
CENTER
 62
     7
370
    15
100
AcDbLine
 10
571.80618844999
 20
292.39511670511
 30
0.0
 11
606.81723289445
 21
292.39511670511
 31
0.0
1001
Sigma
1000

  0
LINE
  5
547
330
1F
100
AcDbEntity
  8
0
  6
Continuous
 62
     7
370
    30
100
AcDbLine
 10
636.72927477363
 20
326.89511670511
 30
0.0
 11
679.1292747736298
 21
326.89511670511
 31
0.0
1001
Sigma
1000

  0
LINE
  5
549
330
1F
100
AcDbEntity
  8
0
  6
Continuous
 62
     7
370
    30
100
AcDbLine
 10
680.1292747736298
 20
326.89511670511
 30
0.0
 11
705.52927477363
 21
326.89511670511
 31
0.0
1001
Sigma
1000

  0
LINE
  5
54B
330
1F
100
AcDbEntity
  8
0
  6
Continuous
 62
     7
370
    30
100
AcDbLine
 10
636.72927477363
 20
293.89511670511
 30
0.0
 11
679.1292747736298
 21
293.89511670511
 31
0.0
1001
Sigma
1000

  0
LINE
  5
54D
330
1F
100
AcDbEntity
  8
0
  6
Continuous
 62
     7
370
    30
100
AcDbLine
 10
680.1292747736298
 20
293.89511670511
 30
0.0
 11
705.52927477363
 21
293.89511670511
 31
0.0
1001
Sigma
1000

  0
LINE
  5
54F
330
1F
100
AcDbEntity
  8
0
  6
Continuous
 62
     7
370
    30
100
AcDbLine
 10
636.2292747736299
 20
326.39511670511
 30
0.0
 11
636.72927477363
 21
326.89511670511
 31
0.0
1001
Sigma
1000

  0
LINE
  5
551
330
1F
100
AcDbEntity
  8
0
  6
Continuous
 62
     7
370
    30
100
AcDbLine
 10
636.2292747736299
 20
294.39511670511
 30
0.0
 11
636.72927477363
 21
293.89511670511
 31
0.0
1001
Sigma
1000

  0
LINE
  5
553
330
1F
100
AcDbEntity
  8
0
  6
Continuous
 62
     7
370
    30
100
AcDbLine
 10
679.1292747736298
 20
326.89511670511
 30
0.0
 11
679.6292747736298
 21
326.39511670511
 31
0.0
1001
Sigma
1000

  0
LINE
  5
555
330
1F
100
AcDbEntity
  8
0
  6
Continuous
 62
     7
370
    30
100
AcDbLine
 10
679.1292747736298
 20
293.89511670511
 30
0.0
 11
679.6292747736298
 21
294.39511670511
 31
0.0
1001
Sigma
1000

  0
LINE
  5
557
330
1F
100
AcDbEntity
  8
0
  6
Continuous
 62
     7
370
    30
100
AcDbLine
 10
679.6292747736298
 20
326.39511670511
 30
0.0
 11
680.1292747736298
 21
326.89511670511
 31
0.0
1001
Sigma
1000

  0
LINE
  5
559
330
1F
100
AcDbEntity
  8
0
  6
Continuous
 62
     7
370
    30
100
AcDbLine
 10
679.6292747736298
 20
294.39511670511
 30
0.0
 11
680.1292747736298
 21
293.89511670511
 31
0.0
1001
Sigma
1000

  0
LINE
  5
55B
330
1F
100
AcDbEntity
  8
0
  6
Continuous
 62
     7
370
    30
100
AcDbLine
 10
706.02927477363
 20
326.39511670511
 30
0.0
 11
706.02927477363
 21
294.39511670511
 31
0.0
1001
Sigma
1000

  0
LINE
  5
55D
330
1F
100
AcDbEntity
  8
0
  6
Continuous
 62
     7
370
    30
100
AcDbLine
 10
706.52927477363
 20
326.89511670511
 30
0.0
 11
737.66927477363
 21
326.89511670511
 31
0.0
1001
Sigma
1000

  0
LINE
  5
55F
330
1F
100
AcDbEntity
  8
0
  6
Continuous
 62
     7
370
    30
100
AcDbLine
 10
706.52927477363
 20
293.89511670511
 30
0.0
 11
737.66927477363
 21
293.89511670511
 31
0.0
1001
Sigma
1000

  0
LINE
  5
561
330
1F
100
AcDbEntity
  8
0
  6
Continuous
 62
     7
370
    30
100
AcDbLine
 10
705.52927477363
 20
293.89511670511
 30
0.0
 11
706.02927477363
 21
294.39511670511
 31
0.0
1001
Sigma
1000

  0
LINE
  5
563
330
1F
100
AcDbEntity
  8
0
  6
Continuous
 62
     7
370
    30
100
AcDbLine
 10
706.02927477363
 20
294.39511670511
 30
0.0
 11
706.52927477363
 21
293.89511670511
 31
0.0
1001
Sigma
1000

  0
LINE
  5
565
330
1F
100
AcDbEntity
  8
0
  6
Continuous
 62
     7
370
    30
100
AcDbLine
 10
705.52927477363
 20
326.89511670511
 30
0.0
 11
706.02927477363
 21
326.39511670511
 31
0.0
1001
Sigma
1000

  0
LINE
  5
567
330
1F
100
AcDbEntity
  8
0
  6
Continuous
 62
     7
370
    30
100
AcDbLine
 10
706.02927477363
 20
326.39511670511
 30
0.0
 11
706.52927477363
 21
326.89511670511
 31
0.0
1001
Sigma
1000

  0
LINE
  5
569
330
1F
100
AcDbEntity
  8
0
  6
Continuous
 62
     7
370
    30
100
AcDbLine
 10
705.52927477363
 20
326.89511670511
 30
0.0
 11
705.52927477363
 21
293.89511670511
 31
0.0
1001
Sigma
1000

  0
LINE
  5
56B
330
1F
100
AcDbEntity
  8
0
  6
Continuous
 62
     7
370
    30
100
AcDbLine
 10
706.52927477363
 20
326.89511670511
 30
0.0
 11
706.52927477363
 21
293.89511670511
 31
0.0
1001
Sigma
1000

  0
LINE
  5
56D
330
1F
100
AcDbEntity
  8
0
  6
Continuous
 62
     7
370
    30
100
AcDbLine
 10
737.66927477363
 20
326.89511670511
 30
0.0
 11
738.16927477363
 21
326.39511670511
 31
0.0
1001
Sigma
1000

  0
LINE
  5
56F
330
1F
100
AcDbEntity
  8
0
  6
Continuous
 62
     7
370
    30
100
AcDbLine
 10
737.66927477363
 20
293.89511670511
 30
0.0
 11
738.16927477363
 21
294.39511670511
 31
0.0
1001
Sigma
1000

  0
CIRCLE
  5
571
330
1F
100
AcDbEntity
  8
0
  6
Continuous
 62
     7
370
    30
100
AcDbCircle
 10
755.69527477363
 20
310.39511670511
 30
0.0
 40
1.0
1001
Sigma
1000

  0
CIRCLE
  5
573
330
1F
100
AcDbEntity
  8
0
  6
Continuous
 62
     7
370
    30
100
AcDbCircle
 10
49.534744005546
 20
310.39511670511
 30
0.0
 40
1.0
1001
Sigma
1000

  0
CIRCLE
  5
575
330
1F
100
AcDbEntity
  8
0
  6
Continuous
 62
     7
370
    30
100
AcDbCircle
 10
574.14478579569
 20
292.39511670511
 30
0.0
 40
1.649999999999999
1001
Sigma
1000

  0
CIRCLE
  5
577
330
1F
100
AcDbEntity
  8
0
  6
Continuous
 62
     7
370
    30
100
AcDbCircle
 10
604.10700299007
 20
292.4618321359699
 30
0.0
 40
1.649999999999999
1001
Sigma
1000

  0
CIRCLE
  5
579
330
1F
100
AcDbEntity
  8
0
  6
Continuous
 62
     7
370
    30
100
AcDbCircle
 10
574.14478579569
 20
292.39511670511
 30
0.0
 40
2.0
1001
Sigma
1000

  0
CIRCLE
  5
57B
330
1F
100
AcDbEntity
  8
0
  6
Continuous
 62
     7
370
    30
100
AcDbCircle
 10
604.14478579569
 20
292.39511670511
 30
0.0
 40
2.0
1001
Sigma
1000

  0
CIRCLE
  5
57D
330
1F
100
AcDbEntity
  8
0
  6
Continuous
 62
     7
370
    30
100
AcDbCircle
 10
574.14478579569
 20
328.39511670511
 30
0.0
 40
2.0
1001
Sigma
1000

  0
CIRCLE
  5
57F
330
1F
100
AcDbEntity
  8
0
  6
Continuous
 62
     7
370
    30
100
AcDbCircle
 10
604.14478579569
 20
328.39511670511
 30
0.0
 40
2.0
1001
Sigma
1000

  0
CIRCLE
  5
581
330
1F
100
AcDbEntity
  8
0
  6
Continuous
 62
     7
370
    30
100
AcDbCircle
 10
574.14478579569
 20
328.39511670511
 30
0.0
 40
1.649999999999999
1001
Sigma
1000

  0
CIRCLE
  5
583
330
1F
100
AcDbEntity
  8
0
  6
Continuous
 62
     7
370
    30
100
AcDbCircle
 10
604.10700299007
 20
328.32840127425
 30
0.0
 40
1.649999999999999
1001
Sigma
1000

  0
CIRCLE
  5
585
330
1F
100
AcDbEntity
  8
0
  6
Continuous
 62
     7
370
    30
100
AcDbCircle
 10
589.2292747736299
 20
263.39511670511
 30
0.0
 40
1.5
1001
Sigma
1000

  0
CIRCLE
  5
587
330
1F
100
AcDbEntity
  8
0
  6
Continuous
 62
     7
370
    30
100
AcDbCircle
 10
589.2292747736299
 20
263.39511670511
 30
0.0
 40
1.25
1001
Sigma
1000

  0
TEXT
  5
589
330
1F
100
AcDbEntity
  8
0
  6
Continuous
 62
     7
370
    15
100
AcDbText
 10
631.55427477363
 20
294.34074168604
 30
0.0
 40
1.6272
  1
2
 50
90.0
 41
1.154867256637168
  7
KCADTEXTSTANDARD
100
AcDbText
1001
Sigma
1000

  0
TEXT
  5
58B
330
1F
100
AcDbEntity
  8
0
  6
Continuous
 62
     7
370
    15
100
AcDbText
 10
631.55427477363
 20
296.34074168604
 30
0.0
 40
1.6272
  1
3
 50
90.0
 41
1.154867256637168
  7
KCADTEXTSTANDARD
100
AcDbText
1001
Sigma
1000

  0
TEXT
  5
58D
330
1F
100
AcDbEntity
  8
0
  6
Continuous
 62
     7
370
    15
100
AcDbText
 10
631.55427477363
 20
299.34074168604
 30
0.0
 40
1.6272
  1
4
 50
90.0
 41
1.154867256637168
  7
KCADTEXTSTANDARD
100
AcDbText
1001
Sigma
1000

  0
TEXT
  5
58F
330
1F
100
AcDbEntity
  8
0
  6
Continuous
 62
     7
370
    15
100
AcDbText
 10
631.55427477363
 20
306.84074168604
 30
0.0
 40
1.6272
  1
6
 50
90.0
 41
1.154867256637168
  7
KCADTEXTSTANDARD
100
AcDbText
1001
Sigma
1000

  0
TEXT
  5
591
330
1F
100
AcDbEntity
  8
0
  6
Continuous
 62
     7
370
    15
100
AcDbText
 10
631.55427477363
 20
302.84074168604
 30
0.0
 40
1.6272
  1
5
 50
90.0
 41
1.154867256637168
  7
KCADTEXTSTANDARD
100
AcDbText
1001
Sigma
1000

  0
ARC
  5
594
102
{ACAD_REACTORS
330
593
102
}
330
1F
100
AcDbEntity
  8
0
  6
Continuous
 62
     7
370
    30
100
AcDbCircle
 10
625.4792747736299
 20
294.89511670511
 30
0.0
 40
0.125
100
AcDbArc
 50
0.0
 51
180.0
1001
Sigma
1000

  0
ARC
  5
596
102
{ACAD_REACTORS
330
593
102
}
330
1F
100
AcDbEntity
  8
0
  6
Continuous
 62
     7
370
    30
100
AcDbCircle
 10
625.4792747736299
 20
294.89511670511
 30
0.0
 40
0.125
100
AcDbArc
 50
180.0
 51
0.0
1001
Sigma
1000

  0
LINE
  5
599
102
{ACAD_REACTORS
330
598
102
}
330
1F
100
AcDbEntity
  8
0
  6
Continuous
 62
     7
370
    15
100
AcDbLine
 10
639.83849956111
 20
267.54027681626
 30
0.0
 11
675.49669934081
 21
267.54027681626
 31
0.0
1001
Sigma
1000

  0
LINE
  5
59B
102
{ACAD_REACTORS
330
598
102
}
330
1F
100
AcDbEntity
  8
0
  6
Continuous
 62
     7
370
    15
100
AcDbLine
 10
626.7292747736299
 20
293.89511670511
 30
0.0
 11
639.83849956111
 21
267.54027681626
 31
0.0
1001
Sigma
1000

  0
TEXT
  5
59D
102
{ACAD_REACTORS
330
598
102
}
330
1F
100
AcDbEntity
  8
0
  6
Continuous
 62
     7
370
    30
100
AcDbText
 10
642.2868772978867
 20
269.4802768496467
 30
0.0
 40
6.120000171661376
  1
可変絞り部
 41
0.8298528925852805
  7
KCADTEXTSTANDARD
100
AcDbText
1001
Sigma
1000

  0
LINE
  5
59F
102
{ACAD_REACTORS
330
598
102
}
330
1F
100
AcDbEntity
  8
0
  6
Continuous
 62
     7
370
    15
100
AcDbLine
 10
626.7292747736299
 20
293.89511670511
 30
0.0
 11
627.61072599859
 21
287.6322864713799
 31
0.0
1001
Sigma
1000

  0
LINE
  5
5A1
102
{ACAD_REACTORS
330
598
102
}
330
1F
100
AcDbEntity
  8
0
  6
Continuous
 62
     7
370
    15
100
AcDbLine
 10
626.7292747736299
 20
293.89511670511
 30
0.0
 11
631.19213389385
 21
289.4137232530999
 31
0.0
1001
Sigma
1000

  0
LINE
  5
5A3
102
{ACAD_REACTORS
330
598
102
}
330
1F
100
AcDbEntity
  8
0
  6
Continuous
 62
     7
370
    15
100
AcDbLine
 10
626.7292747736299
 20
293.89511670511
 30
0.0
 11
639.83849956111
 21
267.54027681626
 31
0.0
1001
Sigma
1000

  0
LINE
  5
5A6
102
{ACAD_REACTORS
330
5A5
102
}
330
1F
100
AcDbEntity
  8
0
  6
Continuous
 62
     7
370
    15
100
AcDbLine
 10
626.5594462277699
 20
248.5632234829299
 30
0.0
 11
662.2176460074699
 21
248.5632234829299
 31
0.0
1001
Sigma
1000

  0
LINE
  5
5A8
102
{ACAD_REACTORS
330
5A5
102
}
330
1F
100
AcDbEntity
  8
0
  6
Continuous
 62
     7
370
    15
100
AcDbLine
 10
605.85128622777
 20
287.67863681626
 30
0.0
 11
626.5594462277699
 21
248.5632234829299
 31
0.0
1001
Sigma
1000

  0
TEXT
  5
5AA
102
{ACAD_REACTORS
330
5A5
102
}
330
1F
100
AcDbEntity
  8
0
  6
Continuous
 62
     7
370
    30
100
AcDbText
 10
630.2613839645467
 20
250.5032235163067
 30
0.0
 40
6.120000171661376
  1
同軸照明部
 41
0.8298528925852805
  7
KCADTEXTSTANDARD
100
AcDbText
1001
Sigma
1000

  0
LINE
  5
5AC
102
{ACAD_REACTORS
330
5A5
102
}
330
1F
100
AcDbEntity
  8
0
  6
Continuous
 62
     7
370
    15
100
AcDbLine
 10
605.85128622777
 20
287.67863681626
 30
0.0
 11
606.89103670197
 21
281.44013397104
 31
0.0
1001
Sigma
1000

  0
LINE
  5
5AE
102
{ACAD_REACTORS
330
5A5
102
}
330
1F
100
AcDbEntity
  8
0
  6
Continuous
 62
     7
370
    15
100
AcDbLine
 10
605.85128622777
 20
287.67863681626
 30
0.0
 11
610.42618831427
 21
283.3116848245999
 31
0.0
1001
Sigma
1000

  0
LINE
  5
5B0
102
{ACAD_REACTORS
330
5A5
102
}
330
1F
100
AcDbEntity
  8
0
  6
Continuous
 62
     7
370
    15
100
AcDbLine
 10
605.85128622777
 20
287.67863681626
 30
0.0
 11
626.5594462277699
 21
248.5632234829299
 31
0.0
1001
Sigma
1000

  0
LINE
  5
5B3
102
{ACAD_REACTORS
330
5B2
102
}
330
1F
100
AcDbEntity
  8
0
  6
Continuous
 62
     7
370
    15
100
AcDbLine
 10
557.90125956111
 20
244.90745903849
 30
0.0
 11
528.64305975757
 21
244.90745903849
 31
0.0
1001
Sigma
1000

  0
LINE
  5
5B5
102
{ACAD_REACTORS
330
5B2
102
}
330
1F
100
AcDbEntity
  8
0
  6
Continuous
 62
     7
370
    15
100
AcDbLine
 10
573.49749075471
 20
290.50276126018
 30
0.0
 11
557.90125956111
 21
244.90745903849
 31
0.0
1001
Sigma
1000

  0
TEXT
  5
5B7
102
{ACAD_REACTORS
330
5B2
102
}
330
1F
100
AcDbEntity
  8
0
  6
Continuous
 62
     7
370
    30
100
AcDbText
 10
531.6499885549067
 20
246.8474590718667
 30
0.0
 40
6.120000171661376
  1
４－Ｍ４
 41
0.8277573043254948
  7
KCADTEXTSTANDARD
100
AcDbText
1001
Sigma
1000

  0
LINE
  5
5B9
102
{ACAD_REACTORS
330
5B2
102
}
330
1F
100
AcDbEntity
  8
0
  6
Continuous
 62
     7
370
    15
100
AcDbLine
 10
573.49749075471
 20
290.50276126018
 30
0.0
 11
569.6632502444699
 21
285.47299004192
 31
0.0
1001
Sigma
1000

  0
LINE
  5
5BB
102
{ACAD_REACTORS
330
5B2
102
}
330
1F
100
AcDbEntity
  8
0
  6
Continuous
 62
     7
370
    15
100
AcDbLine
 10
573.49749075471
 20
290.50276126018
 30
0.0
 11
573.44796107749
 21
284.17839997942
 31
0.0
1001
Sigma
1000

  0
LINE
  5
5BD
102
{ACAD_REACTORS
330
5B2
102
}
330
1F
100
AcDbEntity
  8
0
  6
Continuous
 62
     7
370
    15
100
AcDbLine
 10
573.49749075471
 20
290.50276126018
 30
0.0
 11
557.90125956111
 21
244.90745903849
 31
0.0
1001
Sigma
1000

  0
DIMENSION
  5
5BF
330
1F
100
AcDbEntity
  8
KCAD_DIMS
 62
     7
100
AcDbDimension
  2
*D47
 10
153.00564440263
 20
243.39511670511
 30
0.0
 11
148.73897840263
 21
310.39511670511
 31
0.0
 70
    32
 71
     5
 42
-1.0
 53
90.0
  3
Standard
100
AcDbAlignedDimension
 13
175.72927477363
 23
377.39511670511
 33
0.0
 14
175.72927477363
 24
243.39511670511
 34
0.0
 50
90.0
100
AcDbRotatedDimension
1001
Sigma
1000
DIM_TPVO
1001
KCAD_DIM_EXT
1002
{
1071
 20001212
1070
     0
1070
     2
1070
     2
1040
2.5
1040
0.0
1040
0.0
1040
0.0
1040
0.0
1040
0.0
1040
0.0
1040
0.0
1070
     0
1040
50.0
1040
-1.0
1013
1.0
1023
0.0
1033
0.0
1040
0.0
1013
1.0
1023
0.0
1033
0.0
1000
_None
1040
1.0
1040
134.0
1070
     0
1070
     0
1070
     0
1012
1.0
1022
0.0
1032
0.0
1013
1.0
1023
0.0
1033
0.0
1002
}
1001
ACAD
1000
DSTYLE
1002
{
1070
     3
1000
φ<>
1070
    40
1040
2.0
1070
    41
1040
2.5
1070
    42
1040
0.0
1070
    43
1040
8.0
1070
    44
1040
0.0
1070
    45
1040
0.0
1070
    73
1070
     0
1070
    74
1070
     0
1070
    77
1070
     1
1070
    78
1070
     8
1070
    79
1070
     2
1070
   140
1040
3.2
1070
   141
1040
2.5
1070
   145
1040
0.0001
1070
   146
1040
0.667
1070
   147
1040
0.5333000000000001
1070
   172
1070
     1
1070
   173
1070
     1
1070
   179
1070
     3
1070
   271
1070
     2
1070
   272
1070
     3
1070
   279
1070
     2
1070
   284
1070
     8
1070
   289
1070
     2
1070
   340
1005
189
1070
   341
1005
21
1070
   343
1005
12D
1070
   344
1005
12D
1002
}
  0
DIMENSION
  5
5FB
330
1F
100
AcDbEntity
  8
KCAD_DIMS
 62
     7
100
AcDbDimension
  2
*D48
 10
385.2292747736299
 20
403.01813390822
 30
0.0
 11
280.2292747736299
 21
407.28479990822
 31
0.0
 70
    32
 71
     5
 42
-1.0
  3
Standard
100
AcDbAlignedDimension
 13
175.22927477363
 23
376.89511670511
 33
0.0
 14
385.2292747736299
 24
377.39511670511
 34
0.0
100
AcDbRotatedDimension
1001
Sigma
1000
DIM_TPHO
1001
KCAD_DIM_EXT
1002
{
1071
 20001212
1070
     0
1070
     2
1070
     2
1040
2.5
1040
0.0
1040
0.0
1040
0.0
1040
0.0
1040
0.0
1040
0.0
1040
0.0
1070
     0
1040
50.0
1040
-1.0
1013
1.0
1023
0.0
1033
0.0
1040
0.0
1013
1.0
1023
0.0
1033
0.0
1000
_None
1040
1.0
1040
210.00000000001
1070
     0
1070
     0
1070
     0
1012
1.0
1022
0.0
1032
0.0
1013
1.0
1023
0.0
1033
0.0
1002
}
1001
ACAD
1000
DSTYLE
1002
{
1070
    40
1040
2.0
1070
    41
1040
2.5
1070
    42
1040
0.0
1070
    43
1040
8.0
1070
    44
1040
0.0
1070
    45
1040
0.0
1070
    73
1070
     0
1070
    74
1070
     0
1070
    77
1070
     1
1070
    78
1070
     8
1070
    79
1070
     2
1070
   140
1040
3.2
1070
   141
1040
2.5
1070
   145
1040
0.0001
1070
   146
1040
0.667
1070
   147
1040
0.5333000000000001
1070
   172
1070
     1
1070
   173
1070
     1
1070
   179
1070
     3
1070
   271
1070
     2
1070
   272
1070
     3
1070
   279
1070
     2
1070
   284
1070
     8
1070
   289
1070
     2
1070
   340
1005
189
1070
   341
1005
21
1070
   343
1005
12D
1070
   344
1005
12D
1002
}
  0
DIMENSION
  5
637
330
1F
100
AcDbEntity
  8
KCAD_DIMS
 62
     7
100
AcDbDimension
  2
*D49
 10
555.2292747736299
 20
403.01813390822
 30
0.0
 11
470.22927477363
 21
407.28479990822
 31
0.0
 70
    32
 71
     5
 42
-1.0
  3
Standard
100
AcDbAlignedDimension
 13
385.2292747736299
 23
377.39511670511
 33
0.0
 14
555.2292747736299
 24
332.39511670511
 34
0.0
100
AcDbRotatedDimension
1001
Sigma
1000
DIM_TPHO
1001
KCAD_DIM_EXT
1002
{
1071
 20001212
1070
     0
1070
     2
1070
     2
1040
2.5
1040
0.0
1040
0.0
1040
0.0
1040
0.0
1040
0.0
1040
0.0
1040
0.0
1070
     0
1040
50.0
1040
-1.0
1013
1.0
1023
0.0
1033
0.0
1040
0.0
1013
1.0
1023
0.0
1033
0.0
1000
_None
1040
1.0
1040
169.9999999999899
1070
     0
1070
     0
1070
     0
1012
1.0
1022
0.0
1032
0.0
1013
1.0
1023
0.0
1033
0.0
1002
}
1001
ACAD
1000
DSTYLE
1002
{
1070
    40
1040
2.0
1070
    41
1040
2.5
1070
    42
1040
0.0
1070
    43
1040
8.0
1070
    44
1040
0.0
1070
    45
1040
0.0
1070
    73
1070
     0
1070
    74
1070
     0
1070
    77
1070
     1
1070
    78
1070
     8
1070
    79
1070
     2
1070
   140
1040
3.2
1070
   141
1040
2.5
1070
   145
1040
0.0001
1070
   146
1040
0.667
1070
   147
1040
0.5333000000000001
1070
   172
1070
     1
1070
   173
1070
     1
1070
   179
1070
     3
1070
   271
1070
     2
1070
   272
1070
     3
1070
   279
1070
     2
1070
   284
1070
     8
1070
   289
1070
     2
1070
   340
1005
189
1070
   341
1005
21
1070
   343
1005
12D
1070
   344
1005
12D
1002
}
  0
DIMENSION
  5
673
330
1F
100
AcDbEntity
  8
KCAD_DIMS
 62
     7
100
AcDbDimension
  2
*D50
 10
624.22927477363
 20
403.01813390822
 30
0.0
 11
589.7292747736299
 21
407.28479990822
 31
0.0
 70
    32
 71
     5
 42
-1.0
  3
Standard
100
AcDbAlignedDimension
 13
555.2292747736299
 23
332.39511670511
 33
0.0
 14
624.22927477363
 24
326.89511670511
 34
0.0
100
AcDbRotatedDimension
1001
Sigma
1000
DIM_TPHO
1001
KCAD_DIM_EXT
1002
{
1071
 20001212
1070
     0
1070
     2
1070
     2
1040
2.5
1040
0.0
1040
0.0
1040
0.0
1040
0.0
1040
0.0
1040
0.0
1040
0.0
1070
     0
1040
50.0
1040
-1.0
1013
1.0
1023
0.0
1033
0.0
1040
0.0
1013
1.0
1023
0.0
1033
0.0
1000
_None
1040
1.0
1040
69.0
1070
     0
1070
     0
1070
     0
1012
1.0
1022
0.0
1032
0.0
1013
1.0
1023
0.0
1033
0.0
1002
}
1001
ACAD
1000
DSTYLE
1002
{
1070
    40
1040
2.0
1070
    41
1040
2.5
1070
    42
1040
0.0
1070
    43
1040
8.0
1070
    44
1040
0.0
1070
    45
1040
0.0
1070
    73
1070
     0
1070
    74
1070
     0
1070
    77
1070
     1
1070
    78
1070
     8
1070
    79
1070
     2
1070
   140
1040
3.2
1070
   141
1040
2.5
1070
   145
1040
0.0001
1070
   146
1040
0.667
1070
   147
1040
0.5333000000000001
1070
   172
1070
     1
1070
   173
1070
     1
1070
   179
1070
     3
1070
   271
1070
     2
1070
   272
1070
     3
1070
   279
1070
     2
1070
   284
1070
     8
1070
   289
1070
     2
1070
   340
1005
189
1070
   341
1005
21
1070
   343
1005
12D
1070
   344
1005
12D
1002
}
  0
DIMENSION
  5
6AF
330
1F
100
AcDbEntity
  8
KCAD_DIMS
 62
     7
100
AcDbDimension
  2
*D51
 10
636.2292747736299
 20
403.01813390822
 30
0.0
 11
630.2292747736299
 21
407.28479990822
 31
0.0
 70
    32
 71
     5
 42
-1.0
  3
Standard
100
AcDbAlignedDimension
 13
624.22927477363
 23
326.5951167051099
 33
0.0
 14
636.2292747736299
 24
326.89511670511
 34
0.0
100
AcDbRotatedDimension
1001
Sigma
1000
DIM_TPHO
1001
KCAD_DIM_EXT
1002
{
1071
 20001212
1070
     0
1070
     2
1070
     2
1040
2.5
1040
0.0
1040
0.0
1040
0.0
1040
0.0
1040
0.0
1040
0.0
1040
0.0
1070
     0
1040
50.0
1040
-1.0
1013
1.0
1023
0.0
1033
0.0
1040
0.0
1013
1.0
1023
0.0
1033
0.0
1000
_None
1040
1.0
1040
12.0
1070
     0
1070
     0
1070
     0
1012
1.0
1022
0.0
1032
0.0
1013
1.0
1023
0.0
1033
0.0
1002
}
1001
ACAD
1000
DSTYLE
1002
{
1070
    40
1040
2.0
1070
    41
1040
2.5
1070
    42
1040
0.0
1070
    43
1040
8.0
1070
    44
1040
0.0
1070
    45
1040
0.0
1070
    73
1070
     0
1070
    74
1070
     0
1070
    77
1070
     1
1070
    78
1070
     8
1070
    79
1070
     2
1070
   140
1040
3.2
1070
   141
1040
2.5
1070
   145
1040
0.0001
1070
   146
1040
0.667
1070
   147
1040
0.5333000000000001
1070
   172
1070
     1
1070
   173
1070
     1
1070
   179
1070
     3
1070
   271
1070
     2
1070
   272
1070
     3
1070
   279
1070
     2
1070
   284
1070
     8
1070
   289
1070
     2
1070
   340
1005
189
1070
   341
1005
21
1070
   343
1005
12D
1070
   344
1005
12D
1002
}
  0
DIMENSION
  5
6F1
330
1F
100
AcDbEntity
  8
KCAD_DIMS
 62
     7
100
AcDbDimension
  2
*D52
 10
611.2292747736299
 20
388.9619434829299
 30
0.0
 11
589.2292747736299
 21
393.2286094829299
 31
0.0
 70
    32
 71
     5
 42
-1.0
  3
Standard
100
AcDbAlignedDimension
 13
567.22927477363
 23
335.39511670511
 33
0.0
 14
611.2292747736299
 24
335.39511670511
 34
0.0
100
AcDbRotatedDimension
1001
Sigma
1000
DIM_TPHO
1001
KCAD_DIM_EXT
1002
{
1071
 20001212
1070
     0
1070
     2
1070
     2
1040
2.5
1040
0.0
1040
0.0
1040
0.0
1040
0.0
1040
0.0
1040
0.0
1040
0.0
1070
     0
1040
50.0
1040
-1.0
1013
1.0
1023
0.0
1033
0.0
1040
0.0
1013
1.0
1023
0.0
1033
0.0
1000
_None
1040
1.0
1040
44.0
1070
     0
1070
     0
1070
     0
1012
1.0
1022
0.0
1032
0.0
1013
1.0
1023
0.0
1033
0.0
1002
}
1001
ACAD
1000
DSTYLE
1002
{
1070
    40
1040
2.0
1070
    41
1040
2.5
1070
    42
1040
0.0
1070
    43
1040
8.0
1070
    44
1040
0.0
1070
    45
1040
0.0
1070
    73
1070
     0
1070
    74
1070
     0
1070
    77
1070
     1
1070
    78
1070
     8
1070
    79
1070
     2
1070
   140
1040
3.2
1070
   141
1040
2.5
1070
   145
1040
0.0001
1070
   146
1040
0.667
1070
   147
1040
0.5333000000000001
1070
   172
1070
     1
1070
   173
1070
     1
1070
   179
1070
     3
1070
   271
1070
     2
1070
   272
1070
     3
1070
   279
1070
     2
1070
   284
1070
     8
1070
   289
1070
     2
1070
   340
1005
189
1070
   341
1005
21
1070
   343
1005
12D
1070
   344
1005
12D
1002
}
  0
DIMENSION
  5
72D
330
1F
100
AcDbEntity
  8
KCAD_DIMS
 62
     7
100
AcDbDimension
  2
*D53
 10
624.22927477363
 20
388.9619434829299
 30
0.0
 11
617.7292747736299
 21
393.2286094829299
 31
0.0
 70
    32
 71
     5
 42
-1.0
  3
Standard
100
AcDbAlignedDimension
 13
611.2292747736299
 23
334.39511670511
 33
0.0
 14
624.22927477363
 24
326.5951167051099
 34
0.0
100
AcDbRotatedDimension
1001
Sigma
1000
DIM_TPHO
1001
KCAD_DIM_EXT
1002
{
1071
 20001212
1070
     0
1070
     1
1070
     1
1040
2.5
1040
5.0
1040
5.0
1040
0.0
1040
0.0
1040
0.0
1040
0.0
1040
0.0
1070
     0
1040
50.0
1040
-1.0
1013
1.0
1023
0.0
1033
0.0
1040
0.0
1013
1.0
1023
0.0
1033
0.0
1000
_None
1040
1.0
1040
13.0
1070
     0
1070
     0
1070
     0
1012
1.0
1022
0.0
1032
0.0
1013
1.0
1023
0.0
1033
0.0
1002
}
1001
ACAD
1000
DSTYLE
1002
{
1070
    40
1040
2.0
1070
    41
1040
2.5
1070
    42
1040
0.0
1070
    43
1040
8.0
1070
    44
1040
0.0
1070
    45
1040
0.0
1070
    73
1070
     0
1070
    74
1070
     0
1070
    77
1070
     1
1070
    78
1070
     8
1070
    79
1070
     2
1070
   140
1040
3.2
1070
   141
1040
2.5
1070
   145
1040
0.0001
1070
   146
1040
0.667
1070
   147
1040
0.5333000000000001
1070
   172
1070
     1
1070
   173
1070
     1
1070
   179
1070
     3
1070
   271
1070
     2
1070
   272
1070
     3
1070
   279
1070
     2
1070
   284
1070
     8
1070
   289
1070
     2
1070
   340
1005
189
1070
   341
1005
21
1070
   343
1005
12D
1070
   344
1005
12D
1002
}
  0
DIMENSION
  5
76F
330
1F
100
AcDbEntity
  8
KCAD_DIMS
 62
     7
100
AcDbDimension
  2
*D54
 10
738.16927477363
 20
403.01813390822
 30
0.0
 11
687.19927477363
 21
407.28479990822
 31
0.0
 70
    32
 71
     5
 42
-1.0
  3
Standard
100
AcDbAlignedDimension
 13
636.2292747736299
 23
326.39511670511
 33
0.0
 14
738.16927477363
 24
326.39511670511
 34
0.0
100
AcDbRotatedDimension
1001
Sigma
1000
DIM_TPHO
1001
KCAD_DIM_EXT
1002
{
1071
 20001212
1070
     0
1070
     2
1070
     2
1040
2.5
1040
0.0
1040
0.0
1040
0.0
1040
0.0
1040
0.0
1040
0.0
1040
0.0
1070
     0
1040
50.0
1040
-1.0
1013
1.0
1023
0.0
1033
0.0
1040
0.0
1013
1.0
1023
0.0
1033
0.0
1000
_None
1040
1.0
1040
101.94
1070
     0
1070
     0
1070
     0
1012
1.0
1022
0.0
1032
0.0
1013
1.0
1023
0.0
1033
0.0
1002
}
1001
ACAD
1000
DSTYLE
1002
{
1070
    40
1040
2.0
1070
    41
1040
2.5
1070
    42
1040
0.0
1070
    43
1040
8.0
1070
    44
1040
0.0
1070
    45
1040
0.0
1070
    73
1070
     0
1070
    74
1070
     0
1070
    77
1070
     1
1070
    78
1070
     8
1070
    79
1070
     2
1070
   140
1040
3.2
1070
   141
1040
2.5
1070
   145
1040
0.0001
1070
   146
1040
0.667
1070
   147
1040
0.5333000000000001
1070
   172
1070
     1
1070
   173
1070
     1
1070
   179
1070
     3
1070
   271
1070
     2
1070
   272
1070
     3
1070
   279
1070
     2
1070
   284
1070
     8
1070
   289
1070
     2
1070
   340
1005
189
1070
   341
1005
21
1070
   343
1005
12D
1070
   344
1005
12D
1002
}
  0
DIMENSION
  5
7AB
330
1F
100
AcDbEntity
  8
KCAD_DIMS
 62
     7
100
AcDbDimension
  2
*D55
 10
742.16927477363
 20
403.01813390822
 30
0.0
 11
750.06349952963
 21
407.28479990822
 31
0.0
 70
    32
 71
     5
 42
-1.0
  3
Standard
100
AcDbAlignedDimension
 13
738.16927477363
 23
326.39511670511
 33
0.0
 14
742.16927477363
 24
322.69511670511
 34
0.0
100
AcDbRotatedDimension
1001
Sigma
1000
DIM_TPHO
1001
KCAD_DIM_EXT
1002
{
1071
 20001212
1070
     0
1070
     1
1070
     1
1040
2.5
1040
5.0
1040
5.2681245935985
1040
0.0
1040
0.0
1040
0.0
1040
0.0
1040
0.0
1070
     0
1040
50.0
1040
-1.0
1013
1.0
1023
0.0
1033
0.0
1040
0.0
1013
1.0
1023
0.0
1033
0.0
1000
_None
1040
1.0
1040
4.0
1070
     0
1070
     0
1070
     0
1012
1.0
1022
0.0
1032
0.0
1013
1.0
1023
0.0
1033
0.0
1002
}
1001
ACAD
1000
DSTYLE
1002
{
1070
    40
1040
2.0
1070
    41
1040
2.5
1070
    42
1040
0.0
1070
    43
1040
8.0
1070
    44
1040
0.0
1070
    45
1040
0.0
1070
    73
1070
     0
1070
    74
1070
     0
1070
    77
1070
     1
1070
    78
1070
     8
1070
    79
1070
     2
1070
   140
1040
3.2
1070
   141
1040
2.5
1070
   145
1040
0.0001
1070
   146
1040
0.667
1070
   147
1040
0.5333000000000001
1070
   172
1070
     1
1070
   173
1070
     1
1070
   179
1070
     3
1070
   271
1070
     2
1070
   272
1070
     3
1070
   279
1070
     2
1070
   284
1070
     8
1070
   289
1070
     2
1070
   340
1005
189
1070
   341
1005
21
1070
   343
1005
12D
1070
   344
1005
12D
1002
}
  0
DIMENSION
  5
7F3
330
1F
100
AcDbEntity
  8
KCAD_DIMS
 62
     7
100
AcDbDimension
  2
*D56
 10
755.69527477363
 20
422.6673255138999
 30
0.0
 11
767.69520225776
 21
426.9339915138999
 31
0.0
 70
    32
 71
     5
 42
-1.0
  3
Standard
100
AcDbAlignedDimension
 13
738.16927477363
 23
326.39511670511
 33
0.0
 14
755.69527477363
 24
314.16612794073
 34
0.0
100
AcDbRotatedDimension
1001
Sigma
1000
DIM_TPHO
1001
KCAD_DIM_EXT
1002
{
1071
 20001212
1070
     0
1070
     1
1070
     1
1040
2.5
1040
5.0
1040
11.82097600725499
1040
0.0
1040
0.0
1040
0.0
1040
0.0
1040
0.0
1070
     0
1040
50.0
1040
-1.0
1013
1.0
1023
0.0
1033
0.0
1040
0.0
1013
1.0
1023
0.0
1033
0.0
1000
_None
1040
1.0
1040
17.526
1070
     0
1070
     0
1070
     0
1012
1.0
1022
0.0
1032
0.0
1013
1.0
1023
0.0
1033
0.0
1002
}
1001
ACAD
1000
DSTYLE
1002
{
1070
    40
1040
2.0
1070
    41
1040
2.5
1070
    42
1040
0.0
1070
    43
1040
8.0
1070
    44
1040
0.0
1070
    45
1040
0.0
1070
    73
1070
     0
1070
    74
1070
     0
1070
    77
1070
     1
1070
    78
1070
     8
1070
    79
1070
     2
1070
   140
1040
3.2
1070
   141
1040
2.5
1070
   145
1040
0.0001
1070
   146
1040
0.667
1070
   147
1040
0.5333000000000001
1070
   172
1070
     1
1070
   173
1070
     1
1070
   179
1070
     3
1070
   271
1070
     2
1070
   272
1070
     3
1070
   279
1070
     2
1070
   284
1070
     8
1070
   289
1070
     2
1070
   340
1005
189
1070
   341
1005
21
1070
   343
1005
12D
1070
   344
1005
12D
1002
}
  0
DIMENSION
  5
831
330
1F
100
AcDbEntity
  8
KCAD_DIMS
 62
     7
100
AcDbDimension
  2
*D57
 10
738.16927477363
 20
422.6673255138999
 30
0.0
 11
456.69927477363
 21
426.9339915138999
 31
0.0
 70
    32
 71
     5
 42
-1.0
  3
Standard
100
AcDbAlignedDimension
 13
175.22927477363
 23
376.89511670511
 33
0.0
 14
738.16927477363
 24
326.39511670511
 34
0.0
100
AcDbRotatedDimension
1001
Sigma
1000
DIM_TPHO
1001
KCAD_DIM_EXT
1002
{
1071
 20001212
1070
     0
1070
     2
1070
     2
1040
2.5
1040
0.0
1040
0.0
1040
0.0
1040
0.0
1040
0.0
1040
0.0
1040
0.0
1070
     0
1040
50.0
1040
-1.0
1013
1.0
1023
0.0
1033
0.0
1040
0.0
1013
1.0
1023
0.0
1033
0.0
1000
_None
1040
1.0
1040
562.94
1070
     0
1070
     0
1070
     0
1012
1.0
1022
0.0
1032
0.0
1013
1.0
1023
0.0
1033
0.0
1002
}
1001
ACAD
1000
DSTYLE
1002
{
1070
    40
1040
2.0
1070
    41
1040
2.5
1070
    42
1040
0.0
1070
    43
1040
8.0
1070
    44
1040
0.0
1070
    45
1040
0.0
1070
    73
1070
     0
1070
    74
1070
     0
1070
    77
1070
     1
1070
    78
1070
     8
1070
    79
1070
     2
1070
   140
1040
3.2
1070
   141
1040
2.5
1070
   145
1040
0.0001
1070
   146
1040
0.667
1070
   147
1040
0.5333000000000001
1070
   172
1070
     1
1070
   173
1070
     1
1070
   179
1070
     3
1070
   271
1070
     2
1070
   272
1070
     3
1070
   279
1070
     2
1070
   284
1070
     8
1070
   289
1070
     2
1070
   340
1005
189
1070
   341
1005
21
1070
   343
1005
12D
1070
   344
1005
12D
1002
}
  0
DIMENSION
  5
86D
330
1F
100
AcDbEntity
  8
KCAD_DIMS
 62
     7
100
AcDbDimension
  2
*D58
 10
175.22927477363
 20
422.6673255138999
 30
0.0
 11
112.3820093895899
 21
426.9339915138999
 31
0.0
 70
    32
  1
\A1;WD=342.1
 71
     5
 42
-1.0
  3
Standard
100
AcDbAlignedDimension
 13
49.534744005546
 23
310.39511670511
 33
0.0
 14
175.22927477363
 24
376.89511670511
 34
0.0
100
AcDbRotatedDimension
1001
Sigma
1000
DIM_TPHO
1001
KCAD_DIM_EXT
1002
{
1071
 20001212
1070
     0
1070
     2
1070
     2
1040
2.5
1040
0.0
1040
0.0
1040
0.0
1040
0.0
1040
0.0
1040
0.0
1040
0.0
1070
     0
1040
50.0
1040
-1.0
1013
1.0
1023
0.0
1033
0.0
1040
0.0
1013
1.0
1023
0.0
1033
0.0
1000
_None
1040
1.0
1040
125.6945307680799
1070
     1
1070
     0
1070
     0
1012
1.0
1022
0.0
1032
0.0
1013
1.0
1023
0.0
1033
0.0
1002
}
1001
ACAD
1000
DSTYLE
1002
{
1070
    40
1040
2.0
1070
    41
1040
2.5
1070
    42
1040
0.0
1070
    43
1040
8.0
1070
    44
1040
0.0
1070
    45
1040
0.0
1070
    73
1070
     0
1070
    74
1070
     0
1070
    77
1070
     1
1070
    78
1070
     8
1070
    79
1070
     2
1070
   140
1040
3.2
1070
   141
1040
2.5
1070
   145
1040
0.0001
1070
   146
1040
0.667
1070
   147
1040
0.5333000000000001
1070
   172
1070
     1
1070
   173
1070
     1
1070
   179
1070
     3
1070
   271
1070
     2
1070
   272
1070
     3
1070
   279
1070
     2
1070
   284
1070
     8
1070
   289
1070
     2
1070
   340
1005
189
1070
   341
1005
21
1070
   343
1005
12D
1070
   344
1005
12D
1002
}
  0
DIMENSION
  5
8A9
330
1F
100
AcDbEntity
  8
KCAD_DIMS
 62
     7
100
AcDbDimension
  2
*D59
 10
755.69527477363
 20
443.12224284942
 30
0.0
 11
402.61500938959
 21
447.38890884942
 31
0.0
 70
    32
  1
\A1;922.57
 71
     5
 42
-1.0
  3
Standard
100
AcDbAlignedDimension
 13
49.534744005546
 23
310.39511670511
 33
0.0
 14
755.69527477363
 24
314.16612794073
 34
0.0
100
AcDbRotatedDimension
1001
Sigma
1000
DIM_TPHO
1001
KCAD_DIM_EXT
1002
{
1071
 20001212
1070
     0
1070
     2
1070
     2
1040
2.5
1040
0.0
1040
0.0
1040
0.0
1040
0.0
1040
0.0
1040
0.0
1040
0.0
1070
     0
1040
50.0
1040
-1.0
1013
1.0
1023
0.0
1033
0.0
1040
0.0
1013
1.0
1023
0.0
1033
0.0
1000
_None
1040
1.0
1040
706.16053076808
1070
     1
1070
     0
1070
     0
1012
1.0
1022
0.0
1032
0.0
1013
1.0
1023
0.0
1033
0.0
1002
}
1001
ACAD
1000
DSTYLE
1002
{
1070
    40
1040
2.0
1070
    41
1040
2.5
1070
    42
1040
0.0
1070
    43
1040
8.0
1070
    44
1040
0.0
1070
    45
1040
0.0
1070
    73
1070
     0
1070
    74
1070
     0
1070
    77
1070
     1
1070
    78
1070
     8
1070
    79
1070
     2
1070
   140
1040
3.2
1070
   141
1040
2.5
1070
   145
1040
0.0001
1070
   146
1040
0.667
1070
   147
1040
0.5333000000000001
1070
   172
1070
     1
1070
   173
1070
     1
1070
   179
1070
     3
1070
   271
1070
     2
1070
   272
1070
     3
1070
   279
1070
     2
1070
   284
1070
     8
1070
   289
1070
     2
1070
   340
1005
189
1070
   341
1005
21
1070
   343
1005
12D
1070
   344
1005
12D
1002
}
  0
DIMENSION
  5
8E5
330
1F
100
AcDbEntity
  8
KCAD_DIMS
 62
     7
100
AcDbDimension
  2
*D60
 10
543.90505609641
 20
260.3951167051099
 30
0.0
 11
539.63839009641
 21
274.08888933368
 31
0.0
 70
    32
 71
     5
 42
-1.0
 53
90.0
  3
Standard
100
AcDbAlignedDimension
 13
543.90505609641
 23
310.39511670511
 33
0.0
 14
582.2292747736299
 24
260.3951167051099
 34
0.0
 50
90.0
100
AcDbRotatedDimension
1001
Sigma
1000
DIM_TPVO
1001
KCAD_DIM_EXT
1002
{
1071
 20001212
1070
     0
1070
     2
1070
     2
1040
2.5
1040
0.0
1040
0.0
1040
0.0
1040
0.0
1040
0.0
1040
0.0
1040
0.0
1070
     0
1040
50.0
1040
-1.0
1013
1.0
1023
0.0
1033
0.0
1040
0.0
1013
1.0
1023
0.0
1033
0.0
1000
_None
1040
1.0
1040
50.0
1070
     0
1070
     0
1070
     0
1012
1.0
1022
0.0
1032
0.0
1013
1.0
1023
0.0
1033
0.0
1002
}
1001
ACAD
1000
DSTYLE
1002
{
1070
    40
1040
2.0
1070
    41
1040
2.5
1070
    42
1040
0.0
1070
    43
1040
8.0
1070
    44
1040
0.0
1070
    45
1040
0.0
1070
    73
1070
     0
1070
    74
1070
     0
1070
    75
1070
     1
1070
    77
1070
     1
1070
    78
1070
     8
1070
    79
1070
     2
1070
   140
1040
3.2
1070
   141
1040
2.5
1070
   145
1040
0.0001
1070
   146
1040
0.667
1070
   147
1040
0.5333000000000001
1070
   172
1070
     1
1070
   173
1070
     1
1070
   179
1070
     3
1070
   271
1070
     2
1070
   272
1070
     3
1070
   279
1070
     2
1070
   284
1070
     8
1070
   289
1070
     2
1070
   340
1005
189
1070
   341
1005
21
1070
   343
1005
12D
1070
   344
1005
12D
1002
}
  0
DIMENSION
  5
91B
330
1F
100
AcDbEntity
  8
KCAD_DIMS
 62
     7
100
AcDbDimension
  2
*D61
 10
589.2292747736299
 20
200.1336067132399
 30
0.0
 11
382.22927477363
 21
204.4002727132399
 31
0.0
 70
    32
 71
     5
 42
-1.0
  3
Standard
100
AcDbAlignedDimension
 13
175.22927477363
 23
243.39511670511
 33
0.0
 14
589.2292747736299
 24
254.77268781622
 34
0.0
100
AcDbRotatedDimension
1001
Sigma
1000
DIM_TPHO
1001
KCAD_DIM_EXT
1002
{
1071
 20001212
1070
     0
1070
     2
1070
     2
1040
2.5
1040
0.0
1040
0.0
1040
0.0
1040
0.0
1040
0.0
1040
0.0
1040
0.0
1070
     0
1040
50.0
1040
-1.0
1013
1.0
1023
0.0
1033
0.0
1040
0.0
1013
1.0
1023
0.0
1033
0.0
1000
_None
1040
1.0
1040
414.0
1070
     0
1070
     0
1070
     0
1012
1.0
1022
0.0
1032
0.0
1013
1.0
1023
0.0
1033
0.0
1002
}
1001
ACAD
1000
DSTYLE
1002
{
1070
    40
1040
2.0
1070
    41
1040
2.5
1070
    42
1040
0.0
1070
    43
1040
8.0
1070
    44
1040
0.0
1070
    45
1040
0.0
1070
    73
1070
     0
1070
    74
1070
     0
1070
    77
1070
     1
1070
    78
1070
     8
1070
    79
1070
     2
1070
   140
1040
3.2
1070
   141
1040
2.5
1070
   145
1040
0.0001
1070
   146
1040
0.667
1070
   147
1040
0.5333000000000001
1070
   172
1070
     1
1070
   173
1070
     1
1070
   179
1070
     3
1070
   271
1070
     2
1070
   272
1070
     3
1070
   279
1070
     2
1070
   284
1070
     8
1070
   289
1070
     2
1070
   340
1005
189
1070
   341
1005
21
1070
   343
1005
12D
1070
   344
1005
12D
1002
}
  0
DIMENSION
  5
957
330
1F
100
AcDbEntity
  8
KCAD_DIMS
 62
     7
100
AcDbDimension
  2
*D62
 10
596.22927477363
 20
230.92293903849
 30
0.0
 11
608.8123236124198
 21
235.1896050384899
 31
0.0
 70
    32
 71
     5
 42
-1.0
  3
Standard
100
AcDbAlignedDimension
 13
582.2292747736299
 23
260.89511670511
 33
0.0
 14
596.22927477363
 24
260.89511670511
 34
0.0
100
AcDbRotatedDimension
1001
Sigma
1000
DIM_TPHO
1001
KCAD_DIM_EXT
1002
{
1071
 20001212
1070
     0
1070
     1
1070
     1
1040
2.5
1040
5.0
1040
9.862536659787
1040
0.0
1040
0.0
1040
0.0
1040
0.0
1040
0.0
1070
     0
1040
50.0
1040
-1.0
1013
1.0
1023
0.0
1033
0.0
1040
0.0
1013
1.0
1023
0.0
1033
0.0
1000
_None
1040
1.0
1040
14.0
1070
     0
1070
     0
1070
     0
1012
1.0
1022
0.0
1032
0.0
1013
1.0
1023
0.0
1033
0.0
1002
}
1001
ACAD
1000
DSTYLE
1002
{
1070
     3
1000
φ<>
1070
    40
1040
2.0
1070
    41
1040
2.5
1070
    42
1040
0.0
1070
    43
1040
8.0
1070
    44
1040
0.0
1070
    45
1040
0.0
1070
    73
1070
     0
1070
    74
1070
     0
1070
    77
1070
     1
1070
    78
1070
     8
1070
    79
1070
     2
1070
   140
1040
3.2
1070
   141
1040
2.5
1070
   145
1040
0.0001
1070
   146
1040
0.667
1070
   147
1040
0.5333000000000001
1070
   172
1070
     1
1070
   173
1070
     1
1070
   179
1070
     3
1070
   271
1070
     2
1070
   272
1070
     3
1070
   279
1070
     2
1070
   284
1070
     8
1070
   289
1070
     2
1070
   340
1005
189
1070
   341
1005
21
1070
   343
1005
12D
1070
   344
1005
12D
1002
}
  0
DIMENSION
  5
999
330
1F
100
AcDbEntity
  8
KCAD_DIMS
 62
     7
100
AcDbDimension
  2
*D63
 10
593.2292747736299
 20
242.3440108284499
 30
0.0
 11
605.94778927564
 21
246.6106768284499
 31
0.0
 70
    32
 71
     5
 42
-1.0
  3
Standard
100
AcDbAlignedDimension
 13
585.2292747736299
 23
260.89511670511
 33
0.0
 14
593.2292747736299
 24
260.69511670511
 34
0.0
100
AcDbRotatedDimension
1001
Sigma
1000
DIM_TPHO
1001
KCAD_DIM_EXT
1002
{
1071
 20001212
1070
     0
1070
     1
1070
     1
1040
2.5
1040
5.0
1040
8.8052694789975
1040
0.0
1040
0.0
1040
0.0
1040
0.0
1040
0.0
1070
     0
1040
50.0
1040
-1.0
1013
1.0
1023
0.0
1033
0.0
1040
0.0
1013
1.0
1023
0.0
1033
0.0
1000
_None
1040
1.0
1040
8.0
1070
     0
1070
     0
1070
     0
1012
1.0
1022
0.0
1032
0.0
1013
1.0
1023
0.0
1033
0.0
1002
}
1001
ACAD
1000
DSTYLE
1002
{
1070
     3
1000
φ<>
1070
    40
1040
2.0
1070
    41
1040
2.5
1070
    42
1040
0.0
1070
    43
1040
8.0
1070
    44
1040
0.0
1070
    45
1040
0.0
1070
    73
1070
     0
1070
    74
1070
     0
1070
    77
1070
     1
1070
    78
1070
     8
1070
    79
1070
     2
1070
   140
1040
3.2
1070
   141
1040
2.5
1070
   145
1040
0.0001
1070
   146
1040
0.667
1070
   147
1040
0.5333000000000001
1070
   172
1070
     1
1070
   173
1070
     1
1070
   179
1070
     3
1070
   271
1070
     2
1070
   272
1070
     3
1070
   279
1070
     2
1070
   284
1070
     8
1070
   289
1070
     2
1070
   340
1005
189
1070
   341
1005
21
1070
   343
1005
12D
1070
   344
1005
12D
1002
}
  0
DIMENSION
  5
9DD
330
1F
100
AcDbEntity
  8
KCAD_DIMS
 62
     7
100
AcDbDimension
  2
*D64
 10
773.1773283160899
 20
297.69511670511
 30
0.0
 11
768.91066231609
 21
310.39511670511
 31
0.0
 70
    32
  1
\A1;Ｃマウント
 71
     5
 42
-1.0
 53
90.0
  3
Standard
100
AcDbAlignedDimension
 13
741.76927477363
 23
323.09511670511
 33
0.0
 14
741.76927477363
 24
297.69511670511
 34
0.0
 50
90.0
100
AcDbRotatedDimension
1001
Sigma
1000
DIM_TPVO
1001
KCAD_DIM_EXT
1002
{
1071
 20001212
1070
     0
1070
     2
1070
     2
1040
2.5
1040
0.0
1040
0.0
1040
0.0
1040
0.0
1040
0.0
1040
0.0
1040
0.0
1070
     0
1040
50.0
1040
-1.0
1013
1.0
1023
0.0
1033
0.0
1040
0.0
1013
1.0
1023
0.0
1033
0.0
1000
_None
1040
1.0
1040
25.4
1070
     1
1070
     0
1070
     0
1012
1.0
1022
0.0
1032
0.0
1013
1.0
1023
0.0
1033
0.0
1002
}
1001
ACAD
1000
DSTYLE
1002
{
1070
    40
1040
2.0
1070
    41
1040
2.5
1070
    42
1040
0.0
1070
    43
1040
8.0
1070
    44
1040
0.0
1070
    45
1040
0.0
1070
    73
1070
     0
1070
    74
1070
     0
1070
    77
1070
     1
1070
    78
1070
     8
1070
    79
1070
     2
1070
   140
1040
3.2
1070
   141
1040
2.5
1070
   145
1040
0.0001
1070
   146
1040
0.667
1070
   147
1040
0.5333000000000001
1070
   172
1070
     1
1070
   173
1070
     1
1070
   179
1070
     3
1070
   271
1070
     2
1070
   272
1070
     3
1070
   279
1070
     2
1070
   284
1070
     8
1070
   289
1070
     2
1070
   340
1005
189
1070
   341
1005
21
1070
   343
1005
12D
1070
   344
1005
12D
1002
}
  0
DIMENSION
  5
A19
330
1F
100
AcDbEntity
  8
KCAD_DIMS
 62
     7
100
AcDbDimension
  2
*D65
 10
785.91956726246
 20
293.89511670511
 30
0.0
 11
781.65290126246
 21
310.39511670511
 31
0.0
 70
    32
 71
     5
 42
-1.0
 53
90.0
  3
Standard
100
AcDbAlignedDimension
 13
737.66927477363
 23
326.89511670511
 33
0.0
 14
737.66927477363
 24
293.89511670511
 34
0.0
 50
90.0
100
AcDbRotatedDimension
1001
Sigma
1000
DIM_TPVO
1001
KCAD_DIM_EXT
1002
{
1071
 20001212
1070
     0
1070
     2
1070
     2
1040
2.5
1040
0.0
1040
0.0
1040
0.0
1040
0.0
1040
0.0
1040
0.0
1040
0.0
1070
     0
1040
50.0
1040
-1.0
1013
1.0
1023
0.0
1033
0.0
1040
0.0
1013
1.0
1023
0.0
1033
0.0
1000
_None
1040
1.0
1040
33.0
1070
     0
1070
     0
1070
     0
1012
1.0
1022
0.0
1032
0.0
1013
1.0
1023
0.0
1033
0.0
1002
}
1001
ACAD
1000
DSTYLE
1002
{
1070
     3
1000
φ<>
1070
    40
1040
2.0
1070
    41
1040
2.5
1070
    42
1040
0.0
1070
    43
1040
8.0
1070
    44
1040
0.0
1070
    45
1040
0.0
1070
    73
1070
     0
1070
    74
1070
     0
1070
    77
1070
     1
1070
    78
1070
     8
1070
    79
1070
     2
1070
   140
1040
3.2
1070
   141
1040
2.5
1070
   145
1040
0.0001
1070
   146
1040
0.667
1070
   147
1040
0.5333000000000001
1070
   172
1070
     1
1070
   173
1070
     1
1070
   179
1070
     3
1070
   271
1070
     2
1070
   272
1070
     3
1070
   279
1070
     2
1070
   284
1070
     8
1070
   289
1070
     2
1070
   340
1005
189
1070
   341
1005
21
1070
   343
1005
12D
1070
   344
1005
12D
1002
}
  0
DIMENSION
  5
A55
330
1F
100
AcDbEntity
  8
KCAD_DIMS
 62
     7
100
AcDbDimension
  2
*D66
 10
797.1307619943599
 20
285.39511670511
 30
0.0
 11
792.86409599436
 21
310.39511670511
 31
0.0
 70
    32
 71
     5
 42
-1.0
 53
90.0
  3
Standard
100
AcDbAlignedDimension
 13
611.2292747736299
 23
335.39511670511
 33
0.0
 14
611.2292747736299
 24
285.39511670511
 34
0.0
 50
90.0
100
AcDbRotatedDimension
1001
Sigma
1000
DIM_TPVO
1001
KCAD_DIM_EXT
1002
{
1071
 20001212
1070
     0
1070
     2
1070
     2
1040
2.5
1040
0.0
1040
0.0
1040
0.0
1040
0.0
1040
0.0
1040
0.0
1040
0.0
1070
     0
1040
50.0
1040
-1.0
1013
1.0
1023
0.0
1033
0.0
1040
0.0
1013
1.0
1023
0.0
1033
0.0
1000
_None
1040
1.0
1040
50.0
1070
     0
1070
     0
1070
     0
1012
1.0
1022
0.0
1032
0.0
1013
1.0
1023
0.0
1033
0.0
1002
}
1001
ACAD
1000
DSTYLE
1002
{
1070
     3
1000
□<>
1070
    40
1040
2.0
1070
    41
1040
2.5
1070
    42
1040
0.0
1070
    43
1040
8.0
1070
    44
1040
0.0
1070
    45
1040
0.0
1070
    73
1070
     0
1070
    74
1070
     0
1070
    77
1070
     1
1070
    78
1070
     8
1070
    79
1070
     2
1070
   140
1040
3.2
1070
   141
1040
2.5
1070
   145
1040
0.0001
1070
   146
1040
0.667
1070
   147
1040
0.5333000000000001
1070
   172
1070
     1
1070
   173
1070
     1
1070
   179
1070
     3
1070
   271
1070
     2
1070
   272
1070
     3
1070
   279
1070
     2
1070
   284
1070
     8
1070
   289
1070
     2
1070
   340
1005
189
1070
   341
1005
21
1070
   343
1005
12D
1070
   344
1005
12D
1002
}
  0
OLE2FRAME
  5
A99
330
1F
100
AcDbEntity
  8
0
  6
Continuous
 62
   214
370
    15
100
AcDbOle2Frame
 70
     2
 10
372.3525959211506
 20
17.34914782640692
 30
0.0
 11
475.2156217171073
 21
1.459737337600615
 31
0.0
 72
     0
 73
   205
 90
     9344
310
0055B8E09E3BA445774020E37FC061593140000000000000000088F4C12F73B3
310
7D4020E37FC061593140000000000000000088F4C12F73B37D4080EADB89155B
310
F73F0000000000000000B8E09E3BA445774080EADB89155BF73F000000000000
310
0000000000000100000000010000010000000100000000000100000000240000
310
D0CF11E0A1B11AE1000000000000000000000000000000003E000300FEFF0900
310
0600000000000000000000000100000001000000000000000010000002000000
310
01000000FEFFFFFF0000000000000000FFFFFFFFFFFFFFFFFFFFFFFFFFFFFFFF
310
FFFFFFFFFFFFFFFFFFFFFFFFFFFFFFFFFFFFFFFFFFFFFFFFFFFFFFFFFFFFFFFF
310
FFFFFFFFFFFFFFFFFFFFFFFFFFFFFFFFFFFFFFFFFFFFFFFFFFFFFFFFFFFFFFFF
310
FFFFFFFFFFFFFFFFFFFFFFFFFFFFFFFFFFFFFFFFFFFFFFFFFFFFFFFFFFFFFFFF
310
FFFFFFFFFFFFFFFFFFFFFFFFFFFFFFFFFFFFFFFFFFFFFFFFFFFFFFFFFFFFFFFF
310
FFFFFFFFFFFFFFFFFFFFFFFFFFFFFFFFFFFFFFFFFFFFFFFFFFFFFFFFFFFFFFFF
310
FFFFFFFFFFFFFFFFFFFFFFFFFFFFFFFFFFFFFFFFFFFFFFFFFFFFFFFFFFFFFFFF
310
FFFFFFFFFFFFFFFFFFFFFFFFFFFFFFFFFFFFFFFFFFFFFFFFFFFFFFFFFFFFFFFF
310
FFFFFFFFFFFFFFFFFFFFFFFFFFFFFFFFFFFFFFFFFFFFFFFFFFFFFFFFFFFFFFFF
310
FFFFFFFFFFFFFFFFFFFFFFFFFFFFFFFFFFFFFFFFFFFFFFFFFFFFFFFFFFFFFFFF
310
FFFFFFFFFFFFFFFFFFFFFFFFFFFFFFFFFFFFFFFFFFFFFFFFFFFFFFFFFFFFFFFF
310
FFFFFFFFFFFFFFFFFFFFFFFFFFFFFFFFFFFFFFFFFFFFFFFFFFFFFFFFFFFFFFFF
310
FFFFFFFFFFFFFFFFFFFFFFFFFFFFFFFFFFFFFFFFFFFFFFFFFFFFFFFFFFFFFFFF
310
FFFFFFFFFFFFFFFFFFFFFFFFFFFFFFFFFFFFFFFFFFFFFFFFFFFFFFFFFFFFFFFF
310
FDFFFFFFFEFFFFFFFEFFFFFFFEFFFFFF05000000060000000700000008000000
310
090000000A0000000B0000000C0000000D0000000E0000000F00000010000000
310
FEFFFFFFFFFFFFFFFFFFFFFFFFFFFFFFFFFFFFFFFFFFFFFFFFFFFFFFFFFFFFFF
310
FFFFFFFFFFFFFFFFFFFFFFFFFFFFFFFFFFFFFFFFFFFFFFFFFFFFFFFFFFFFFFFF
310
FFFFFFFFFFFFFFFFFFFFFFFFFFFFFFFFFFFFFFFFFFFFFFFFFFFFFFFFFFFFFFFF
310
FFFFFFFFFFFFFFFFFFFFFFFFFFFFFFFFFFFFFFFFFFFFFFFFFFFFFFFFFFFFFFFF
310
FFFFFFFFFFFFFFFFFFFFFFFFFFFFFFFFFFFFFFFFFFFFFFFFFFFFFFFFFFFFFFFF
310
FFFFFFFFFFFFFFFFFFFFFFFFFFFFFFFFFFFFFFFFFFFFFFFFFFFFFFFFFFFFFFFF
310
FFFFFFFFFFFFFFFFFFFFFFFFFFFFFFFFFFFFFFFFFFFFFFFFFFFFFFFFFFFFFFFF
310
FFFFFFFFFFFFFFFFFFFFFFFFFFFFFFFFFFFFFFFFFFFFFFFFFFFFFFFFFFFFFFFF
310
FFFFFFFFFFFFFFFFFFFFFFFFFFFFFFFFFFFFFFFFFFFFFFFFFFFFFFFFFFFFFFFF
310
FFFFFFFFFFFFFFFFFFFFFFFFFFFFFFFFFFFFFFFFFFFFFFFFFFFFFFFFFFFFFFFF
310
FFFFFFFFFFFFFFFFFFFFFFFFFFFFFFFFFFFFFFFFFFFFFFFFFFFFFFFFFFFFFFFF
310
FFFFFFFFFFFFFFFFFFFFFFFFFFFFFFFFFFFFFFFFFFFFFFFFFFFFFFFFFFFFFFFF
310
FFFFFFFFFFFFFFFFFFFFFFFFFFFFFFFFFFFFFFFFFFFFFFFFFFFFFFFFFFFFFFFF
310
FFFFFFFFFFFFFFFFFFFFFFFFFFFFFFFFFFFFFFFFFFFFFFFFFFFFFFFFFFFFFFFF
310
52006F006F007400200045006E00740072007900000000000000000000000000
310
0000000000000000000000000000000000000000000000000000000000000000
310
16000500FFFFFFFFFFFFFFFF020000000A00030000000000C000000000000046
310
000000000000000000000000B0FF58D69B6FC80103000000C000000000000000
310
01004F006C006500310030004E00610074006900760065000000000000000000
310
0000000000000000000000000000000000000000000000000000000000000000
310
1A000200FFFFFFFFFFFFFFFFFFFFFFFF00000000000000000000000000000000
310
0000000000000000000000000000000000000000040000000419000000000000
310
010043006F006D0070004F0062006A0000000000000000000000000000000000
310
0000000000000000000000000000000000000000000000000000000000000000
310
120002010300000001000000FFFFFFFF00000000000000000000000000000000
310
0000000000000000000000000000000000000000000000004D00000000000000
310
01004F006C006500000000000000000000000000000000000000000000000000
310
0000000000000000000000000000000000000000000000000000000000000000
310
0A000200FFFFFFFFFFFFFFFFFFFFFFFF00000000000000000000000000000000
310
0000000000000000000000000000000000000000020000001400000000000000
310
01000000FEFFFFFFFEFFFFFFFFFFFFFFFFFFFFFFFFFFFFFFFFFFFFFFFFFFFFFF
310
FFFFFFFFFFFFFFFFFFFFFFFFFFFFFFFFFFFFFFFFFFFFFFFFFFFFFFFFFFFFFFFF
310
FFFFFFFFFFFFFFFFFFFFFFFFFFFFFFFFFFFFFFFFFFFFFFFFFFFFFFFFFFFFFFFF
310
FFFFFFFFFFFFFFFFFFFFFFFFFFFFFFFFFFFFFFFFFFFFFFFFFFFFFFFFFFFFFFFF
310
FFFFFFFFFFFFFFFFFFFFFFFFFFFFFFFFFFFFFFFFFFFFFFFFFFFFFFFFFFFFFFFF
310
FFFFFFFFFFFFFFFFFFFFFFFFFFFFFFFFFFFFFFFFFFFFFFFFFFFFFFFFFFFFFFFF
310
FFFFFFFFFFFFFFFFFFFFFFFFFFFFFFFFFFFFFFFFFFFFFFFFFFFFFFFFFFFFFFFF
310
FFFFFFFFFFFFFFFFFFFFFFFFFFFFFFFFFFFFFFFFFFFFFFFFFFFFFFFFFFFFFFFF
310
FFFFFFFFFFFFFFFFFFFFFFFFFFFFFFFFFFFFFFFFFFFFFFFFFFFFFFFFFFFFFFFF
310
FFFFFFFFFFFFFFFFFFFFFFFFFFFFFFFFFFFFFFFFFFFFFFFFFFFFFFFFFFFFFFFF
310
FFFFFFFFFFFFFFFFFFFFFFFFFFFFFFFFFFFFFFFFFFFFFFFFFFFFFFFFFFFFFFFF
310
FFFFFFFFFFFFFFFFFFFFFFFFFFFFFFFFFFFFFFFFFFFFFFFFFFFFFFFFFFFFFFFF
310
FFFFFFFFFFFFFFFFFFFFFFFFFFFFFFFFFFFFFFFFFFFFFFFFFFFFFFFFFFFFFFFF
310
FFFFFFFFFFFFFFFFFFFFFFFFFFFFFFFFFFFFFFFFFFFFFFFFFFFFFFFFFFFFFFFF
310
FFFFFFFFFFFFFFFFFFFFFFFFFFFFFFFFFFFFFFFFFFFFFFFFFFFFFFFFFFFFFFFF
310
FFFFFFFFFFFFFFFFFFFFFFFFFFFFFFFFFFFFFFFFFFFFFFFFFFFFFFFFFFFFFFFF
310
0100FEFF030A0000FFFFFFFF0A00030000000000C00000000000004607000000
310
5042727573680007000000504272757368000700000050427275736800F439B2
310
71000000000000000000000000000020AC00C400A5000A001820AB0678011500
310
72006F006700720061006D002000460069006C00650073005C00440057004700
310
0100000200000000000000000000000000000000570049004E0044004F005700
310
53005C00730079007300740065006D00330032003B0043003A005C0057004900
310
4E0044004F00570053005C00730079007300740065006D003B0043003A005C00
310
570049004E0044004F00570053003B002E003B0043003A005C00570049004E00
310
44004F00570053005C00730079007300740065006D00330032003B0043003A00
310
5C00570049004E0044004F00570053003B0043003A005C00570049004E004400
310
4F00570053005C00530079007300740065006D00330032005C00570062006500
310
6D003B0043003A005C00500072006F006700720061006D002000460069006C00
310
650073005C0049006E00740065006C005C0057006900720065006C0065007300
310
73005C00420069006E005C003B0043003A005C00500072006F00670072006100
310
6D002000460069006C00650073005C005400680069006E006B00500061006400
310
5C0043006F006E006E006500630074005500740069006C006900740069006500
310
00190000424DF618000000000000360000002800000075000000120000000100
310
180000000000C018000000000000000000000000000000000000FFFFFFFFFFFF
310
FFFFFFFFFFFFFFFFFFFFFFFFFFFFFFFFFFFF6666660808081212120C0C0C3535
310
35FFFFFFFFFFFFFFFFFFFFFFFFFFFFFFFFFFFFFFFFFFFFFFFFFFFFFFC0C0C045
310
4545151515121212121212121212131313141414151515151515161616181818
310
1818181919191919191E1E1E484848B0B0B0FFFFFFFFFFFFFFFFFFD4D4D42424
310
242424242424242E2E2EF1F1F1FFFFFFFFFFFFFFFFFFFFFFFFFFFFFFFFFFFFFF
310
FFFFDEDEDE4B4B4B3333333838383A3A3A3838382C2C2C5E5E5EEBEBEBFFFFFF
310
F1F1F14949494242424444444D4D4DF5F5F5FFFFFFA5A5A54343435050504848
310
48999999FFFFFFFFFFFFFFFFFFFFFFFFFFFFFFFFFFFFFFFFFFFFFFFFFFFFFFFF
310
FFFFFFFFFFBCBCBC6666667171716C6C6C9A9A9AFFFFFFFFFFFFFFFFFFE9E9E9
310
9393938181818080808282828484848484848585858888888888888989898B8B
310
8B8C8C8C8D8D8D8F8F8F90909090909092929291919199999900FFFFFFFFFFFF
310
FFFFFFFFFFFFFFFFFFFFFFFFFFFFFFFFFFFF5D5D5D0000000202020000002727
310
27FFFFFFFFFFFFFFFFFFFFFFFFFFFFFFFFFFFFFFFFFFFFFFFFA6A6A600000000
310
0000020202030303020202030303020202020202020202020202020202020202
310
0202020202020101010000000000000000006B6B6BFFFFFFFFFFFFCECECE0000
310
00000000000000080808EDEDEDFFFFFFFFFFFFFFFFFFFFFFFFFFFFFFFFFFFF9B
310
9B9B000000000000000000000000000000000000838383FFFFFFFFFFFFFFFFFF
310
ECECEC060606000000000000050505EEEEEEFFFFFF7B7B7B0000000000000000
310
00656565FFFFFFFFFFFFFFFFFFFFFFFFFFFFFFFFFFFFFFFFFFFFFFFFFFFFFFFF
310
FFFFFFFFFF8888880000000000000000003F3F3FFFFFFFFFFFFFC1C1C1000000
310
0000000000000000000000000000000000000000000000000000000000000000
310
0000000000000000000000000000000000000000000003030300FFFFFFFFFFFF
310
FFFFFFFFFFFFFFFFFFFFFFFFFFFFFFFFFFFF5E5E5E0000000404040000002525
310
25FFFFFFFFFFFFFFFFFFFFFFFFFFFFFFFFFFFFFFFFFFFEFEFE13131300000005
310
0505030303000000000000000000000000000000000000000000000000000000
310
000000000000000000000000050505010101000000CDCDCDFFFFFFCECECE0303
310
030202020101010B0B0BEDEDEDFFFFFFFFFFFFFFFFFFFFFFFFF7F7F759595900
310
0000000000050505000000000000383838D8D8D8FFFFFFFFFFFFFFFFFFFFFFFF
310
EDEDED0B0B0B0101010101010B0B0BEFEFEFFFFFFF7F7F7F0000000505050000
310
00686868FFFFFFFFFFFFFFFFFFFFFFFFFFFFFFFFFFFFFFFFFFFFFFFFFFFFFFFF
310
FFFFFFFFFF8D8D8D000000040404000000464646FFFFFFFFFFFF2E2E2E000000
310
0404040404040000000000000000000000000000000000000000000000000000
310
0000000000000000000000000003030305050503030312121200FFFFFFFFFFFF
310
FFFFFFFFFFFFFFFFFFFFFFFFFFFFFFFFFFFF5F5F5F0000000505050000002424
310
24FFFFFFFFFFFFFFFFFFFFFFFFFFFFFFFFFFFFFFFFFFD9D9D900000003030304
310
04040000007070709D9D9D9797979797979696969393939292928F8F8F8C8C8C
310
8A8A8A8B8B8B7E7E7E131313010101040404000000858585FFFFFFCECECE0404
310
040202020101010C0C0CEDEDEDFFFFFFFFFFFFFFFFFFCBCBCB23232300000003
310
03030404040000000606068D8D8DFFFFFFFFFFFFFFFFFFFFFFFFFFFFFFFFFFFF
310
EDEDED0C0C0C0101010101010B0B0BEFEFEFFFFFFF7F7F7F0000000505050000
310
00686868FFFFFFFFFFFFFFFFFFFFFFFFFFFFFFFFFFFFFFFFFFFFFFFFFFFFFFFF
310
FFFFFFFFFF8D8D8D000000050505000000444444FFFFFFFEFEFE050505010101
310
0404040101015A5A5A6666666464646464646464646464646363636262626262
310
626060606060606060605E5E5E00000004040403030312121200FFFFFFFFFFFF
310
FFFFFFFFFFFFFFFFFFFFFFFFFFFFFFFFFFFF5F5F5F0000000404040000002323
310
23FFFFFFFFFFFFFFFFFFFFFFFFFFFFFFFFFFFFFFFFFFD2D2D200000003030302
310
0202060606FFFFFFFFFFFFFFFFFFFFFFFFFFFFFFFFFFFFFFFFFFFFFFFFFFFFFF
310
FFFFFFFFFFFFFFFFFF666666000000040404000000808080FFFFFFCECECE0404
310
040202020101010B0B0BEDEDEDFFFFFFFFFFFF8C8C8C03030300000003030300
310
00000000003E3E3ED9D9D9FFFFFFFFFFFFFFFFFFFFFFFFFFFFFFFFFFFFFFFFFF
310
EDEDED0C0C0C0101010101010B0B0BEFEFEFFFFFFF7F7F7F0000000505050000
310
00676767FFFFFFFFFFFFFFFFFFFFFFFFFFFFFFFFFFFFFFFFFFFFFFFFFFFFFFFF
310
FFFFFFFFFF8D8D8D000000040404000000444444FFFFFFFFFFFF070707010101
310
030303000000F7F7F7FFFFFFFFFFFFFFFFFFFFFFFFFFFFFFFFFFFFFFFFFFFFFF
310
FFFFFFFFFFFFFFFFFFFFFFFFFF00000003030303030311111100FFFFFFFFFFFF
310
FFFFFFFFFFFFFFFFFFFFFFFFFFFFFFFFFFFF6161610000000404040000002222
310
22FFFFFFFFFFFFFFFFFFFFFFFFFFFFFFFFFFFFFFFFFFD3D3D300000002020202
310
0202070707FCFCFCFFFFFFFFFFFFFFFFFFFFFFFFFFFFFFFFFFFFFFFFFFFFFFFF
310
FFFFFFFFFFFFFFFFFF696969000000040404000000818181FFFFFFCECECE0404
310
040202020101010D0D0DFAFAFAEEEEEE4D4D4D0000000000000303030000000D
310
0D0D949494FFFFFFFFFFFFFFFFFFFFFFFFFFFFFFFFFFFFFFFFFFFFFFFFFFFFFF
310
EDEDED0C0C0C0101010101010B0B0BEFEFEFFFFFFF7F7F7F0000000505050000
310
00676767FFFFFFFFFFFFFFFFFFFFFFFFFFFFFFFFFFFFFFFFFFFFFFFFFFFFFFFF
310
FFFFFFFFFF8D8D8D000000040404000000434343FFFFFFFEFEFE050505010101
310
030303010101A9A9A9C1C1C1BEBEBEC1C1C1C1C1C1C2C2C2C3C3C3C4C4C4C5C5
310
C5C5C5C5C8C8C8CACACACCCCCC00000003030303030311111100FFFFFFFFFFFF
310
FFFFFFFFFFFFFFFFFFFFFFFFFFFFFFFFFFFF6161610000000404040000002121
310
21FFFFFFFFFFFFFFFFFFFFFFFFFFFFFFFFFFFFFFFFFFD5D5D500000002020202
310
0202060606FCFCFCFFFFFFFFFFFFFFFFFFFFFFFFFFFFFFFFFFFFFFFFFFFFFFFF
310
FFFFFFFFFFFFFFFFFF686868000000050505000000818181FFFFFFCCCCCC0303
310
030202020202020D0D0D9898981D1D1D000000030303040404010101545454E1
310
E1E1FFFFFFFFFFFFFFFFFFFFFFFFFFFFFFFFFFFFFFFFFFFFFFFFFFFFFFFFFFFF
310
EDEDED0C0C0C0101010101010B0B0BEFEFEFFFFFFF7F7F7F0000000505050000
310
00666666FFFFFFFFFFFFFFFFFFFFFFFFFFFFFFFFFFFFFFFFFFFFFFFFFFFFFFFF
310
FFFFFFFFFF8D8D8D000000040404000000424242FFFFFFFFFFFF1E1E1E000000
310
0505050303030000000000000000000000000000000101010101010101010202
310
0202020203030304040405050502020204040403030311111100FFFFFFFFFFFF
310
FFFFFFFFFFFFFFFFFFFFFFFFFFFFFFFFFFFF6363630000000505050000001F1F
310
1FFFFFFFFFFFFFFFFFFFFFFFFFFFFFFFFEFEFEFFFFFFD5D5D500000003030302
310
0202050505FCFCFCFFFFFFFFFFFFFFFFFFFFFFFFFFFFFFFFFFFFFFFFFFFFFFFF
310
FFFFFFFFFFFFFFFFFF686868000000040404000000818181FFFFFFCDCDCD0303
310
030202020303030707074545450000000000000404040303030303039E9E9EFF
310
FFFFFFFFFFFFFFFFFFFFFFFFFFFFFFFFFFFFFFFFFFFFFFFFFFFFFFFFFFFFFFFF
310
EDEDED0C0C0C0101010101010B0B0BEEEEEEFFFFFF7F7F7F0000000505050000
310
00666666FFFFFFFFFFFFFFFFFFFFFFFFFFFFFFFFFFFFFFFFFFFFFFFFFFFFFFFF
310
FFFFFFFFFF8D8D8D000000040404000000434343FFFFFFFFFFFF9C9C9C000000
310
0000000000000000000000000000000000000000000000000000000000000000
310
0000000000000000000000000004040405050503030311111100FFFFFFFFFFFF
310
FFFFFFFFFFFFFFFFFFFFFFFFFFFFFFFFFFFF6262620000000505050000002121
310
21FFFFFFFFFFFFFFFFFFFFFFFFFFFFFFFEFEFEFFFFFFD5D5D500000002020201
310
0101070707FDFDFDFFFFFFFFFFFFFFFFFFFFFFFFFFFFFFFFFFFFFFFFFFFFFFFF
310
FFFFFFFFFFFFFFFFFF696969000000050505000000818181FFFFFFCCCCCC0303
310
030202020101010D0D0DF6F6F6B3B3B319191900000003030302020200000057
310
5757E8E8E8FFFFFFFFFFFFFFFFFFFFFFFFFFFFFFFFFFFFFFFFFFFFFFFFFFFFFF
310
EDEDED0C0C0C0101010101010C0C0CEDEDEDFFFFFF7F7F7F0000000505050000
310
00666666FFFFFFFFFFFFFFFFFFFFFFFFFFFFFFFFFFFFFFFFFFFFFFFFFFFFFFFF
310
FFFFFFFFFF8D8D8D000000040404000000434343FFFFFFFFFFFFFFFFFFA8A8A8
310
3C3C3C2E2E2E2C2C2C2B2B2B2A2A2A2A2A2A2929292828282727272727272626
310
2626262625252525252524242400000004040403030311111100FFFFFFFFFFFF
310
FFFFFFFFFFFFFFFFFFFFFFFFFFFFFFFFFFFF6161610000000505050000002121
310
21FFFFFFFFFFFFFFFFFFFFFFFFFFFFFFFFFFFFFFFFFFD2D2D200000003030302
310
0202060606FFFFFFFFFFFFFFFFFFFFFFFFFFFFFFFFFFFFFFFFFFFFFFFFFFFFFF
310
FFFFFFFFFFFFFFFFFF666666000000050505000000808080FFFFFFCCCCCC0202
310
020202020101010B0B0BECECECFFFFFFE5E5E54D4D4D00000000000003030300
310
00001B1B1BABABABFFFFFFFFFFFFFFFFFFFFFFFFFFFFFFFFFFFFFFFFFFFFFFFF
310
EDEDED0C0C0C0101010101010B0B0BEEEEEEFFFFFF7F7F7F0000000505050000
310
00696969FFFFFFFFFFFFFFFFFFFFFFFFFFFFFFFFFFFFFFFFFFFFFFFFFFFFFFFF
310
FFFFFFFFFF909090000000040404000000414141FFFFFFFFFFFFFFFFFFFFFFFF
310
FFFFFFFDFDFDFAFAFAF9F9F9F9F9F9F7F7F7F7F7F7F7F7F7F5F5F5F5F5F5F4F4
310
F4F4F4F4F2F2F2F4F4F4F7F7F700000004040403030311111100FFFFFFFFFFFF
310
FFFFFFFFFFFFFFFFFFFFFFFFFFFFFFFFFFFF5F5F5F0000000505050000002222
310
22FFFFFFFFFFFFFFFFFFFFFFFFFFFFFFFFFFFFFFFFFFDBDBDB00000003030304
310
04040000005858588585858383838585858686868989898989898D8D8D8E8E8E
310
919191949494898989161616010101040404000000828282FFFFFFCCCCCC0303
310
030202020101010B0B0BECECECFFFFFFFFFFFFFFFFFF8F8F8F0A0A0A00000003
310
0303000000000000636363EDEDEDFFFFFFFFFFFFFFFFFFFFFFFFFFFFFFFFFFFF
310
ECECEC0C0C0C0101010101010B0B0BEFEFEFFFFFFF7F7F7F0000000505050000
310
00555555D8D8D8D1D1D1D1D1D1D2D2D2D2D2D2D2D2D2D4D4D4D4D4D4D4D4D4D5
310
D5D5DCDCDC565656000000050505000000424242FFFFFFFFFFFFFFFFFFFFFFFF
310
FFFFFFFFFFFFFFFFFFFFFFFFFFFFFFFFFFFFFFFFFFFFFFFFFFFFFFFFFFFFFFFF
310
FFFFFFFFFFFFFFFFFFFFFDFDFD00000003030303030310101000FFFFFFFFFFFF
310
FFFFFFFFFFFFFFFFFFFFFFFFFFFFFFFFFFFF5F5F5F0000000505050000002121
310
21FFFFFFFFFFFFFFFFFFFFFFFFFFFFFFFFFFFFFFFFFFFFFFFF1D1D1D00000004
310
0404040404000000000000000000000000000000000000000000000000000000
310
000000000000000000000000050505020202000000BFBFBFFFFFFFCBCBCB0202
310
020202020101010C0C0CECECECFFFFFFFFFFFFFFFFFFFFFFFFD2D2D235353500
310
00000101010202020000001F1F1FB5B5B5FFFFFFFFFFFFFFFFFFFFFFFFFFFFFF
310
ECECEC0C0C0C0101010101010B0B0BEFEFEFFFFFFF7F7F7F0000000505050404
310
0400000000000000000000000000000000000000000000000000000000000000
310
00000000000000000404040404040000006E6E6EFFFFFFFFFFFF7C7C7C464646
310
4D4D4D4D4D4D4D4D4D4D4D4D4D4D4D4D4D4D4D4D4D4D4D4D4C4C4C4D4D4D4E4E
310
4E4F4F4F50505055555530303000000004040401010115151500FFFFFFFFFFFF
310
FFFFFFFFFFFFFFFFFFFFFFFFFFFFFFFFFFFF6060600000000505050000001F1F
310
1FFFFFFFFFFFFFFFFFFFFFFFFFFFFFFFFFFFFFFFFFFFFFFFFFB3B3B300000000
310
0000000000000000000000000000000000000000000000000000000000000000
310
000000000000000000000000000000000000585858FFFFFFFFFFFFCCCCCC0303
310
030202020101010B0B0BEAEAEAFFFFFFFFFFFFFFFFFFFFFFFFFFFFFFFEFEFE77
310
7777010101000000010101000000000000656565F0F0F0FFFFFFFFFFFFFFFFFF
310
EDEDED0A0A0A0000000000000A0A0AEDEDEDFFFFFF7E7E7E0000000303030303
310
0303030302020202020202020202020202020202020202020202020202020202
310
0202020202030303020202000000040404DADADAFFFFFFFFFFFF3F3F3F000000
310
0000000000000000000000000000000000000000000000000000000000000000
310
0000000000000000000000000004040402020200000082828200F1F1F1F1F1F1
310
F1F1F1F1F1F1F2F2F2F2F2F2F3F3F3FFFFFF5F5F5F0000000505050000001E1E
310
1EFFFFFFFCFCFCFCFCFCFBFBFBFDFDFDFDFDFDFEFEFEFEFEFEFFFFFFC6C6C646
310
4646131313131313131313131313121212121212121212111111111111111111
310
1010101010101010100F0F0F1C1C1C848484FEFEFEFFFFFFFFFFFFCDCDCD0404
310
040202020101010B0B0BEBEBEBFFFFFFFFFFFFFFFFFFFFFFFFFFFFFFFFFFFFFF
310
FFFFC0C0C0222222030303060606030303000000222222BCBCBCFFFFFFFFFFFF
310
ECECEC0D0D0D0000000000000B0B0BECECECFFFFFF7E7E7E0000000000000000
310
0000000000000000000000000000000000000000000000000000000000000000
310
00000000000000000000001C1C1CBBBBBBFFFFFFFFFFFFFFFFFF3F3F3F000000
310
0000000000000000000000000000000000000000000000000000000000000000
310
000000000000000000000000000000000000004F4F4FFFFFFF00111111101010
310
1010101111111313131313131515151919190909090303030505050404040404
310
043030302E2E2E2F2F2F3131313333333333333636362F2F2F7F7F7FFFFFFFFF
310
FFFFFFFFFFFDFDFDFCFCFCFBFBFBFAFAFAF8F8F8F7F7F7F7F7F7F6F6F6F5F5F5
310
F3F3F3F3F3F3F0F0F0F4F4F4FFFFFFFFFFFFFFFFFFFFFFFFFFFFFFCECECE0404
310
040303030000000B0B0BEBEBEBFFFFFFFFFFFFFFFFFFFFFFFFFFFFFFFFFFFFFF
310
FFFFFFFFFFF5F5F5D3D3D3D5D5D5D3D3D3D1D1D1C6C6C6C9C9C9FCFCFCFFFFFF
310
FFFFFFD5D5D5D4D4D4D4D4D4D1D1D1FDFDFDFFFFFFDFDFDFBBBBBBBDBDBDBDBD
310
BDBBBBBBB9B9B9B8B8B8B5B5B5B4B4B4B3B3B3B1B1B1AFAFAFAEAEAEADADADAB
310
ABABA9A9A9A9A9A9C4C4C4FDFDFDFFFFFFFFFFFFFFFFFFFFFFFFB8B8B89B9B9B
310
9D9D9D9B9B9B9B9B9B9999999999999999999999999999999999999999999999
310
999A9A9A989898979797979797989898CCCCCCFFFFFFFFFFFF00010101000000
310
0000000000000000000000000000000000000303030505050505050404040404
310
04000000000000000000000000000000000000000000000000555555FFFFFFFF
310
FFFFFFFFFFFFFFFFFFFFFFFFFFFFFFFFFFFFFFFFFFFFFFFFFFFFFFFFFFFFFFFF
310
FFFFFFFFFFFFFFFFFFFFFFFFFFFFFFFFFFFFFFFFFFFFFFFFFFFFFFCECECE0404
310
040101010101010B0B0BEBEBEBFFFFFFFFFFFFFFFFFFFFFFFFFFFFFFFFFFFFFF
310
FFFFFFFFFFFFFFFFFFFFFFFFFFFFFFFFFFFFFFFFFFFFFFFFFFFFFFFFFFFFFFFF
310
F5F5F57979797272727373737A7A7AF6F6F6FFFFFFFFFFFFFFFFFFFFFFFFFFFF
310
FFFFFFFFFFFFFFFFFFFFFFFFFFFFFFFFFFFFFFFFFFFFFFFFFFFFFFFFFFFFFFFF
310
FFFFFFFFFFFFFFFFFFFFFFFFFFFFFFFFFFFFFFFFFFFFFFFFFFFFFFFFFFFFFFFF
310
FFFFFFFFFFFFFFFFFFFFFFFFFFFFFFFFFFFFFFFFFFFFFFFFFFFFFFFFFFFFFFFF
310
FFFFFFFFFFFFFFFFFFFFFFFFFFFFFFFFFFFFFFFFFFFFFFFFFF00030303020202
310
0303030202020303030303030303030303030303030303030303030303030303
310
030303030303030303030303030303030303030303030000005A5A5AFFFFFFFF
310
FFFFFFFFFFFFFFFFFFFFFFFFFFFFFFFFFFFFFFFFFFFFFFFFFFFFFFFFFFFFFFFF
310
FFFFFFFFFFFFFFFFFFFFFFFFFFFFFFFFFFFFFFFFFFFFFFFFFFFFFFCECECE0303
310
030202020101010A0A0AEBEBEBFFFFFFFFFFFFFFFFFFFFFFFFFFFFFFFFFFFFFF
310
FFFFFFFFFFFFFFFFFFFFFFFFFFFFFFFFFFFFFFFFFFFFFFFFFFFFFFFFFFFFFFFF
310
EDEDED000000000000000000000000EDEDEDFFFFFFFFFFFFFFFFFFFFFFFFFFFF
310
FFFFFFFFFFFFFFFFFFFFFFFFFFFFFFFFFFFFFFFFFFFFFFFFFFFFFFFFFFFFFFFF
310
FFFFFFFFFFFFFFFFFFFFFFFFFFFFFFFFFFFFFFFFFFFFFFFFFFFFFFFFFFFFFFFF
310
FFFFFFFFFFFFFFFFFFFFFFFFFFFFFFFFFFFFFFFFFFFFFFFFFFFFFFFFFFFFFFFF
310
FFFFFFFFFFFFFFFFFFFFFFFFFFFFFFFFFFFFFFFFFFFFFFFFFF00141414121212
310
1212121212121111111212121111111111111111111111111111111010101010
310
101010100F0F0F1010101010100F0F0F0F0F0F0F0F0F030303646464FFFFFFFF
310
FFFFFFFFFFFFFFFFFFFFFFFFFFFFFFFFFFFFFFFFFFFFFFFFFFFFFFFFFFFFFFFF
310
FFFFFFFFFFFFFFFFFFFFFFFFFFFFFFFFFFFFFFFFFFFFFFFFFFFFFFD0D0D00A0A
310
0A070707060606111111ECECECFFFFFFFFFFFFFFFFFFFFFFFFFFFFFFFFFFFFFF
310
FFFFFFFFFFFFFFFFFFFFFFFFFFFFFFFFFFFFFFFFFFFFFFFFFFFFFFFFFFFFFFFF
310
F0F0F00E0E0E0000000101010C0C0CEFEFEFFFFFFFFFFFFFFFFFFFFFFFFFFFFF
310
FFFFFFFFFFFFFFFFFFFFFFFFFFFFFFFFFFFFFFFFFFFFFFFFFFFFFFFFFFFFFFFF
310
FFFFFFFFFFFFFFFFFFFFFFFFFFFFFFFFFFFFFFFFFFFFFFFFFFFFFFFFFFFFFFFF
310
FFFFFFFFFFFFFFFFFFFFFFFFFFFFFFFFFFFFFFFFFFFFFFFFFFFFFFFFFFFFFFFF
310
FFFFFFFFFFFFFFFFFFFFFFFFFFFFFFFFFFFFFFFFFFFFFFFFFF00000000000000
310
00000000080000002503020001044300010444000A0000002503030003044500
310
04044400040443000A00000025030300090444000504440005043D0008000000
310
250302000E043F000B043F000C000000250304000E0443000D0444000C044300
310
0C043D00140000002503080012043F0011043F00100440001004430011044400
310
120444001304420012043F0008000000250302001304440013043D0008000000
310
2503020015044300150444000400000004010D00040000002D01000004000000
310
F0010400040000002D01010004000000F001030008000000FA02000000000000
310
00000000040000002D01020004000000F001000007000000FC020000FFFFFF00
  1
OLE
  0
TEXT
  5
A9A
330
1F
100
AcDbEntity
  8
99
  6
Continuous
 62
     7
370
    30
100
AcDbText
 10
634.9460113677392
 20
6.164876387875665
 30
0.0
 40
8.0
  1
株式会社トキナー
  7
KCADTEXTSTANDARD
100
AcDbText
1001
Sigma
1000

  0
TEXT
  5
A9B
330
1F
100
AcDbEntity
  8
99
  6
Continuous
 62
     7
370
    30
100
AcDbText
 10
732.3526913965637
 20
6.164876387875665
 30
0.0
 40
8.0
  1
Tokina Co.,Ltd.
 41
0.7000000000000001
  7
KCADTEXTSTANDARD
100
AcDbText
1001
Sigma
1000

  0
TEXT
  5
C91
330
1F
100
AcDbEntity
  8
99
  6
Continuous
 62
     7
370
    30
100
AcDbText
 10
595.7983511029855
 20
33.92483868190745
 30
0.0
 40
4.5
  1
図番登録
 41
0.7000000000000001
  7
KCADTEXTSTANDARD
100
AcDbText
1001
Sigma
1000

  0
TEXT
  5
C92
330
1F
100
AcDbEntity
  8
99
  6
Continuous
 62
     7
370
    30
100
AcDbText
 10
592.6521522606674
 20
22.54207947693657
 30
0.0
 40
4.5
  1
2008.5.15
 41
0.7000000000000001
  7
KCADTEXTSTANDARD
100
AcDbText
1001
Sigma
1000

  0
ENDSEC
  0
SECTION
  2
OBJECTS
  0
DICTIONARY
  5
C
330
0
100
AcDbDictionary
281
     1
  3
ACAD_COLOR
350
6C
  3
ACAD_GROUP
350
D
  3
ACAD_LAYOUT
350
1A
  3
ACAD_MATERIAL
350
6B
  3
ACAD_MLINESTYLE
350
17
  3
ACAD_PLOTSETTINGS
350
19
  3
ACAD_PLOTSTYLENAME
350
E
  3
ACAD_TABLESTYLE
350
92
  3
ACDBHEADERROUNDTRIPXREC
350
DB7
  3
AcDbVariableDictionary
350
59
  3
DWGPROPS
350
DBA
  3
KCADFRAMEINFO
350
2A7
  0
DICTIONARY
  5
6C
102
{ACAD_REACTORS
330
C
102
}
330
C
100
AcDbDictionary
281
     1
  0
DICTIONARY
  5
D
102
{ACAD_REACTORS
330
C
102
}
330
C
100
AcDbDictionary
281
     1
  3
*A1
350
593
  3
*A2
350
598
  3
*A3
350
5A5
  3
*A4
350
5B2
  0
DICTIONARY
  5
1A
102
{ACAD_REACTORS
330
C
102
}
330
C
100
AcDbDictionary
281
     1
  3
Model
350
22
  3
ﾚｲｱｳﾄ1
350
22F
  0
DICTIONARY
  5
6B
102
{ACAD_REACTORS
330
C
102
}
330
C
100
AcDbDictionary
281
     1
  0
DICTIONARY
  5
17
102
{ACAD_REACTORS
330
C
102
}
330
C
100
AcDbDictionary
281
     1
  3
Standard
350
18
  0
DICTIONARY
  5
19
102
{ACAD_REACTORS
330
C
102
}
330
C
100
AcDbDictionary
281
     1
  0
ACDBDICTIONARYWDFLT
  5
E
102
{ACAD_REACTORS
330
C
102
}
330
C
100
AcDbDictionary
281
     1
  3
Normal
350
F
100
AcDbDictionaryWithDefault
340
F
  0
DICTIONARY
  5
92
102
{ACAD_REACTORS
330
C
102
}
330
C
100
AcDbDictionary
281
     1
  0
DICTIONARY
  5
DB7
102
{ACAD_REACTORS
330
C
102
}
330
C
100
AcDbDictionary
281
     1
  3
COLORDICT
350
DB8
  3
MATERIALDICT
350
DB9
  0
DICTIONARY
  5
59
102
{ACAD_REACTORS
330
C
102
}
330
C
100
AcDbDictionary
281
     1
  3
DIMASSOC
350
DB6
  0
XRECORD
  5
DBA
102
{ACAD_REACTORS
330
C
102
}
330
C
100
AcDbXrecord
280
     1
  1
DWGPROPS COOKIE
  2

  3

  4

  6

  7

  8
fottrem
  9

300
=
301
=
302
=
303
=
304
=
305
=
306
=
307
=
308
=
309
=
 40
0.0
 41
2453353.717125822
 42
2453304.109453299
  1

 90
        0
  0
XRECORD
  5
2A7
102
{ACAD_REACTORS
330
C
102
}
330
C
100
AcDbXrecord
280
     1
  1
A3
 40
420.0
 40
297.0
 90
        1
 90
        2
  0
GROUP
  5
593
102
{ACAD_REACTORS
330
D
102
}
330
D
100
AcDbGroup
300
group from kcad family
 70
     1
 71
     1
340
594
340
596
  0
GROUP
  5
598
102
{ACAD_REACTORS
330
D
102
}
330
D
100
AcDbGroup
300
group from kcad family
 70
     1
 71
     1
340
599
340
59B
340
59D
340
59F
340
5A1
340
5A3
  0
GROUP
  5
5A5
102
{ACAD_REACTORS
330
D
102
}
330
D
100
AcDbGroup
300
group from kcad family
 70
     1
 71
     1
340
5A6
340
5A8
340
5AA
340
5AC
340
5AE
340
5B0
  0
GROUP
  5
5B2
102
{ACAD_REACTORS
330
D
102
}
330
D
100
AcDbGroup
300
group from kcad family
 70
     1
 71
     1
340
5B3
340
5B5
340
5B7
340
5B9
340
5BB
340
5BD
  0
LAYOUT
  5
22
102
{ACAD_REACTORS
330
1A
102
}
330
1A
100
AcDbPlotSettings
  1

  2
DWF ePlot.pc3
  4
ISO_A3_(297.00_x_420.00_MM)
  6

 40
5.793749809265136
 41
17.79375076293945
 42
5.79376220703125
 43
17.79376220703125
 44
297.0
 45
420.0
 46
0.0
 47
0.0
 48
0.0
 49
0.0
140
0.0
141
0.0
142
0.0
143
0.0
 70
 11952
 72
     1
 73
     0
 74
     2
  7

 75
     0
147
1.0
148
0.0
149
0.0
100
AcDbLayout
  1
Model
 70
     1
 71
     0
 10
0.0
 20
0.0
 11
840.0
 21
594.0
 12
0.0
 22
0.0
 32
0.0
 14
32.89275634995299
 24
1.459737337600615
 34
0.0
 15
807.60112888053
 25
568.00000667571
 35
0.0
146
0.0
 13
0.0
 23
0.0
 33
0.0
 16
1.0
 26
0.0
 36
0.0
 17
0.0
 27
1.0
 37
0.0
 76
     0
330
1F
  0
LAYOUT
  5
22F
102
{ACAD_REACTORS
330
1A
102
}
330
1A
100
AcDbPlotSettings
  1

  2
D:\ACAD2000\plotters\HP DesignJet 700(System).pc3
  4

  6

 40
0.0
 41
0.0
 42
0.0
 43
0.0
 44
0.0
 45
0.0
 46
0.0
 47
0.0
 48
0.0
 49
0.0
140
0.0
141
0.0
142
1.0
143
1.0
 70
   688
 72
     0
 73
     0
 74
     5
  7
monochrome.ctb
 75
    16
147
1.0
148
0.0
149
0.0
100
AcDbLayout
  1
ﾚｲｱｳﾄ1
 70
     1
 71
     1
 10
0.0
 20
0.0
 11
12.0
 21
9.0
 12
0.0
 22
0.0
 32
0.0
 14
0.0
 24
0.0
 34
0.0
 15
0.0
 25
0.0
 35
0.0
146
0.0
 13
0.0
 23
0.0
 33
0.0
 16
1.0
 26
0.0
 36
0.0
 17
0.0
 27
1.0
 37
0.0
 76
     0
330
73
  0
MLINESTYLE
  5
18
102
{ACAD_REACTORS
330
17
102
}
330
17
100
AcDbMlineStyle
  2
Standard
 70
     0
  3

 62
   256
 51
90.0
 52
90.0
 71
     2
 49
0.5
 62
   256
  6
BYLAYER
 49
-0.5
 62
   256
  6
BYLAYER
  0
ACDBPLACEHOLDER
  5
F
102
{ACAD_REACTORS
330
E
102
}
330
E
  0
XRECORD
  5
DB8
102
{ACAD_REACTORS
330
DB7
102
}
330
DB7
100
AcDbXrecord
280
     1
340
6C
  0
XRECORD
  5
DB9
102
{ACAD_REACTORS
330
DB7
102
}
330
DB7
100
AcDbXrecord
280
     1
340
6B
  0
DICTIONARYVAR
  5
DB6
102
{ACAD_REACTORS
330
59
102
}
330
59
100
DictionaryVariables
280
     0
  1
1
  0
ENDSEC
  0
EOF
