  0
SECTION
  2
HEADER
  9
$ACADVER
  1
AC1015
  9
$ACADMAINTVER
 70
     6
  9
$DWGCODEPAGE
  3
ANSI_932
  9
$INSBASE
 10
0.0
 20
0.0
 30
0.0
  9
$EXTMIN
 10
-115.1913341940266
 20
-135.0307504174916
 30
0.0
  9
$EXTMAX
 10
166.8086658059735
 20
65.46924958250838
 30
0.0
  9
$LIMMIN
 10
-130.1913299560547
 20
-135.0307464599609
  9
$LIMMAX
 10
166.8086700439453
 20
74.96925354003906
  9
$ORTHOMODE
 70
     0
  9
$REGENMODE
 70
     1
  9
$FILLMODE
 70
     1
  9
$QTEXTMODE
 70
     0
  9
$MIRRTEXT
 70
     1
  9
$LTSCALE
 40
1.0
  9
$ATTMODE
 70
     1
  9
$TEXTSIZE
 40
3.2
  9
$TRACEWID
 40
0.05
  9
$TEXTSTYLE
  7
Standard
  9
$CLAYER
  8
図
  9
$CELTYPE
  6
Continuous
  9
$CECOLOR
 62
   256
  9
$CELTSCALE
 40
1.0
  9
$DISPSILH
 70
     0
  9
$DIMSCALE
 40
1.0
  9
$DIMASZ
 40
1.0
  9
$DIMEXO
 40
2.54
  9
$DIMDLI
 40
0.38
  9
$DIMRND
 40
0.0
  9
$DIMDLE
 40
0.0
  9
$DIMEXE
 40
2.54
  9
$DIMTP
 40
0.0
  9
$DIMTM
 40
0.0
  9
$DIMTXT
 40
3.200000047683716
  9
$DIMCEN
 40
0.09
  9
$DIMTSZ
 40
0.0
  9
$DIMTOL
 70
     0
  9
$DIMLIM
 70
     0
  9
$DIMTIH
 70
     0
  9
$DIMTOH
 70
     0
  9
$DIMSE1
 70
     0
  9
$DIMSE2
 70
     0
  9
$DIMTAD
 70
     1
  9
$DIMZIN
 70
     8
  9
$DIMBLK
  1

  9
$DIMASO
 70
     1
  9
$DIMSHO
 70
     0
  9
$DIMPOST
  1

  9
$DIMAPOST
  1

  9
$DIMALT
 70
     0
  9
$DIMALTD
 70
     2
  9
$DIMALTF
 40
25.4
  9
$DIMLFAC
 40
1.0
  9
$DIMTOFL
 70
     0
  9
$DIMTVP
 40
1.0
  9
$DIMTIX
 70
     0
  9
$DIMSOXD
 70
     0
  9
$DIMSAH
 70
     1
  9
$DIMBLK1
  1

  9
$DIMBLK2
  1

  9
$DIMSTYLE
  2
DIMSTYLE
  9
$DIMCLRD
 70
     0
  9
$DIMCLRE
 70
     0
  9
$DIMCLRT
 70
     0
  9
$DIMTFAC
 40
1.0
  9
$DIMGAP
 40
1.600000023841858
  9
$DIMJUST
 70
     0
  9
$DIMSD1
 70
     0
  9
$DIMSD2
 70
     0
  9
$DIMTOLJ
 70
     1
  9
$DIMTZIN
 70
     0
  9
$DIMALTZ
 70
     0
  9
$DIMALTTZ
 70
     0
  9
$DIMUPT
 70
     0
  9
$DIMDEC
 70
     2
  9
$DIMTDEC
 70
     2
  9
$DIMALTU
 70
     2
  9
$DIMALTTD
 70
     2
  9
$DIMTXSTY
  7
Standard
  9
$DIMAUNIT
 70
     0
  9
$DIMADEC
 70
     0
  9
$DIMALTRND
 40
0.0
  9
$DIMAZIN
 70
     0
  9
$DIMDSEP
 70
    46
  9
$DIMATFIT
 70
     3
  9
$DIMFRAC
 70
     0
  9
$DIMLDRBLK
  1

  9
$DIMLUNIT
 70
     2
  9
$DIMLWD
 70
    -2
  9
$DIMLWE
 70
    -2
  9
$DIMTMOVE
 70
     0
  9
$LUNITS
 70
     2
  9
$LUPREC
 70
     4
  9
$SKETCHINC
 40
0.1
  9
$FILLETRAD
 40
0.0
  9
$AUNITS
 70
     0
  9
$AUPREC
 70
     0
  9
$MENU
  1
.
  9
$ELEVATION
 40
0.0
  9
$PELEVATION
 40
0.0
  9
$THICKNESS
 40
0.0
  9
$LIMCHECK
 70
     0
  9
$CHAMFERA
 40
0.0
  9
$CHAMFERB
 40
0.0
  9
$CHAMFERC
 40
0.0
  9
$CHAMFERD
 40
0.0
  9
$SKPOLY
 70
     0
  9
$TDCREATE
 40
2453354.092125822
  9
$TDUCREATE
 40
2453353.717125822
  9
$TDUPDATE
 40
2454580.497863299
  9
$TDUUPDATE
 40
2454580.122863299
  9
$TDINDWG
 40
0.6415333102
  9
$TDUSRTIMER
 40
0.6413944444
  9
$USRTIMER
 70
     1
  9
$ANGBASE
 50
0.0
  9
$ANGDIR
 70
     0
  9
$PDMODE
 70
     0
  9
$PDSIZE
 40
0.0
  9
$PLINEWID
 40
0.0
  9
$SPLFRAME
 70
     0
  9
$SPLINETYPE
 70
     6
  9
$SPLINESEGS
 70
     8
  9
$HANDSEED
  5
297C
  9
$SURFTAB1
 70
     6
  9
$SURFTAB2
 70
     6
  9
$SURFTYPE
 70
     6
  9
$SURFU
 70
     6
  9
$SURFV
 70
     6
  9
$UCSBASE
  2

  9
$UCSNAME
  2

  9
$UCSORG
 10
0.0
 20
0.0
 30
0.0
  9
$UCSXDIR
 10
1.0
 20
0.0
 30
0.0
  9
$UCSYDIR
 10
0.0
 20
1.0
 30
0.0
  9
$UCSORTHOREF
  2

  9
$UCSORTHOVIEW
 70
     0
  9
$UCSORGTOP
 10
0.0
 20
0.0
 30
0.0
  9
$UCSORGBOTTOM
 10
0.0
 20
0.0
 30
0.0
  9
$UCSORGLEFT
 10
0.0
 20
0.0
 30
0.0
  9
$UCSORGRIGHT
 10
0.0
 20
0.0
 30
0.0
  9
$UCSORGFRONT
 10
0.0
 20
0.0
 30
0.0
  9
$UCSORGBACK
 10
0.0
 20
0.0
 30
0.0
  9
$PUCSBASE
  2

  9
$PUCSNAME
  2

  9
$PUCSORG
 10
0.0
 20
0.0
 30
0.0
  9
$PUCSXDIR
 10
1.0
 20
0.0
 30
0.0
  9
$PUCSYDIR
 10
0.0
 20
1.0
 30
0.0
  9
$PUCSORTHOREF
  2

  9
$PUCSORTHOVIEW
 70
     0
  9
$PUCSORGTOP
 10
0.0
 20
0.0
 30
0.0
  9
$PUCSORGBOTTOM
 10
0.0
 20
0.0
 30
0.0
  9
$PUCSORGLEFT
 10
0.0
 20
0.0
 30
0.0
  9
$PUCSORGRIGHT
 10
0.0
 20
0.0
 30
0.0
  9
$PUCSORGFRONT
 10
0.0
 20
0.0
 30
0.0
  9
$PUCSORGBACK
 10
0.0
 20
0.0
 30
0.0
  9
$USERI1
 70
     0
  9
$USERI2
 70
     0
  9
$USERI3
 70
     0
  9
$USERI4
 70
     0
  9
$USERI5
 70
     0
  9
$USERR1
 40
0.0
  9
$USERR2
 40
0.0
  9
$USERR3
 40
0.0
  9
$USERR4
 40
0.0
  9
$USERR5
 40
0.0
  9
$WORLDVIEW
 70
     1
  9
$SHADEDGE
 70
     3
  9
$SHADEDIF
 70
    70
  9
$TILEMODE
 70
     1
  9
$MAXACTVP
 70
    64
  9
$PINSBASE
 10
0.0
 20
0.0
 30
0.0
  9
$PLIMCHECK
 70
     0
  9
$PEXTMIN
 10
0.0
 20
0.0
 30
0.0
  9
$PEXTMAX
 10
0.0
 20
0.0
 30
0.0
  9
$PLIMMIN
 10
0.0
 20
0.0
  9
$PLIMMAX
 10
12.0
 20
9.0
  9
$UNITMODE
 70
     0
  9
$VISRETAIN
 70
     1
  9
$PLINEGEN
 70
     0
  9
$PSLTSCALE
 70
     1
  9
$TREEDEPTH
 70
  3020
  9
$CMLSTYLE
  2
Standard
  9
$CMLJUST
 70
     0
  9
$CMLSCALE
 40
1.0
  9
$PROXYGRAPHICS
 70
     1
  9
$MEASUREMENT
 70
     0
  9
$CELWEIGHT
370
    -1
  9
$ENDCAPS
280
     0
  9
$JOINSTYLE
280
     0
  9
$LWDISPLAY
290
     0
  9
$INSUNITS
 70
     0
  9
$HYPERLINKBASE
  1

  9
$STYLESHEET
  1

  9
$XEDIT
290
     0
  9
$CEPSNTYPE
380
     0
  9
$PSTYLEMODE
290
     1
  9
$FINGERPRINTGUID
  2
{A599FA13-248C-43A8-B177-BBB525CA90C1}
  9
$VERSIONGUID
  2
{416A684F-5C1C-4891-854D-F1FF376D61C3}
  9
$EXTNAMES
290
     1
  9
$PSVPSCALE
 40
0.0
  9
$OLESTARTUP
290
     0
  0
ENDSEC
  0
SECTION
  2
CLASSES
  0
CLASS
  1
ACDBDICTIONARYWDFLT
  2
AcDbDictionaryWithDefault
  3
ObjectDBX Classes
 90
        0
280
     0
281
     0
  0
CLASS
  1
ACDBPLACEHOLDER
  2
AcDbPlaceHolder
  3
ObjectDBX Classes
 90
        0
280
     0
281
     0
  0
CLASS
  1
LAYOUT
  2
AcDbLayout
  3
ObjectDBX Classes
 90
        0
280
     0
281
     0
  0
CLASS
  1
DICTIONARYVAR
  2
AcDbDictionaryVar
  3
ObjectDBX Classes
 90
        0
280
     0
281
     0
  0
CLASS
  1
TABLESTYLE
  2
AcDbTableStyle
  3
ObjectDBX Classes
 90
     2047
280
     0
281
     0
  0
ENDSEC
  0
SECTION
  2
TABLES
  0
TABLE
  2
VPORT
  5
8
330
0
100
AcDbSymbolTable
 70
     2
  0
VPORT
  5
97
330
8
100
AcDbSymbolTableRecord
100
AcDbViewportTableRecord
  2
*Active
 70
     0
 10
0.0
 20
0.0
 11
1.0
 21
1.0
 12
18.30866580597345
 22
-30.03075041749161
 13
0.0
 23
0.0
 14
1.0
 24
1.0
 15
0.0
 25
0.0
 16
0.0
 26
0.0
 36
1.0
 17
0.0
 27
0.0
 37
0.0
 40
294.0301356022727
 41
1.527918781725888
 42
50.0
 43
0.0
 44
0.0
 50
0.0
 51
0.0
 71
    16
 72
   100
 73
     1
 74
     1
 75
     0
 76
     0
 77
     0
 78
     0
281
     0
 65
     0
110
0.0
120
0.0
130
0.0
111
1.0
121
0.0
131
0.0
112
0.0
122
1.0
132
0.0
 79
     0
146
0.0
  0
ENDTAB
  0
TABLE
  2
LTYPE
  5
5
330
0
100
AcDbSymbolTable
 70
    39
  0
LTYPE
  5
14
330
5
100
AcDbSymbolTableRecord
100
AcDbLinetypeTableRecord
  2
ByBlock
 70
     0
  3

 72
    65
 73
     0
 40
0.0
  0
LTYPE
  5
15
330
5
100
AcDbSymbolTableRecord
100
AcDbLinetypeTableRecord
  2
ByLayer
 70
     0
  3

 72
    65
 73
     0
 40
0.0
  0
LTYPE
  5
16
330
5
100
AcDbSymbolTableRecord
100
AcDbLinetypeTableRecord
  2
Continuous
 70
     0
  3
Solid line
 72
    65
 73
     0
 40
0.0
  0
LTYPE
  5
28A7
330
5
100
AcDbSymbolTableRecord
100
AcDbLinetypeTableRecord
  2
ACAD_ISO02W100
 70
     0
  3
ISO dash __ __ __ __ __ __ __ __ __ __ __ __ __
 72
    65
 73
     2
 40
15.0
 49
12.0
 74
     4
 75
     0
340
0
 46
1.0
 50
0.0
 44
0.0
 45
0.0
 49
-3.0
 74
     4
 75
     0
340
0
 46
1.0
 50
0.0
 44
0.0
 45
0.0
  0
LTYPE
  5
28A8
330
5
100
AcDbSymbolTableRecord
100
AcDbLinetypeTableRecord
  2
ACAD_ISO03W100
 70
     0
  3
ISO dash space __    __    __    __    __    __
 72
    65
 73
     2
 40
30.0
 49
12.0
 74
     4
 75
     0
340
0
 46
1.0
 50
0.0
 44
0.0
 45
0.0
 49
-18.0
 74
     4
 75
     0
340
0
 46
1.0
 50
0.0
 44
0.0
 45
0.0
  0
LTYPE
  5
28A9
330
5
100
AcDbSymbolTableRecord
100
AcDbLinetypeTableRecord
  2
ACAD_ISO04W100
 70
     0
  3
ISO long-dash dot ____ . ____ . ____ . ____ . _
 72
    65
 73
     4
 40
30.0
 49
24.0
 74
     4
 75
     0
340
0
 46
1.0
 50
0.0
 44
0.0
 45
0.0
 49
-3.0
 74
     4
 75
     0
340
0
 46
1.0
 50
0.0
 44
0.0
 45
0.0
 49
0.0
 74
     4
 75
     0
340
0
 46
1.0
 50
0.0
 44
0.0
 45
0.0
 49
-3.0
 74
     4
 75
     0
340
0
 46
1.0
 50
0.0
 44
0.0
 45
0.0
  0
LTYPE
  5
28AA
330
5
100
AcDbSymbolTableRecord
100
AcDbLinetypeTableRecord
  2
ACAD_ISO05W100
 70
     0
  3
ISO long-dash double-dot ____ .. ____ .. ____ .
 72
    65
 73
     6
 40
33.0
 49
24.0
 74
     4
 75
     0
340
0
 46
1.0
 50
0.0
 44
0.0
 45
0.0
 49
-3.0
 74
     4
 75
     0
340
0
 46
1.0
 50
0.0
 44
0.0
 45
0.0
 49
0.0
 74
     4
 75
     0
340
0
 46
1.0
 50
0.0
 44
0.0
 45
0.0
 49
-3.0
 74
     4
 75
     0
340
0
 46
1.0
 50
0.0
 44
0.0
 45
0.0
 49
0.0
 74
     4
 75
     0
340
0
 46
1.0
 50
0.0
 44
0.0
 45
0.0
 49
-3.0
 74
     4
 75
     0
340
0
 46
1.0
 50
0.0
 44
0.0
 45
0.0
  0
LTYPE
  5
28AB
330
5
100
AcDbSymbolTableRecord
100
AcDbLinetypeTableRecord
  2
ACAD_ISO06W100
 70
     0
  3
ISO long-dash triple-dot ____ ... ____ ... ____
 72
    65
 73
     8
 40
36.0
 49
24.0
 74
     4
 75
     0
340
0
 46
1.0
 50
0.0
 44
0.0
 45
0.0
 49
-3.0
 74
     4
 75
     0
340
0
 46
1.0
 50
0.0
 44
0.0
 45
0.0
 49
0.0
 74
     4
 75
     0
340
0
 46
1.0
 50
0.0
 44
0.0
 45
0.0
 49
-3.0
 74
     4
 75
     0
340
0
 46
1.0
 50
0.0
 44
0.0
 45
0.0
 49
0.0
 74
     4
 75
     0
340
0
 46
1.0
 50
0.0
 44
0.0
 45
0.0
 49
-3.0
 74
     4
 75
     0
340
0
 46
1.0
 50
0.0
 44
0.0
 45
0.0
 49
0.0
 74
     4
 75
     0
340
0
 46
1.0
 50
0.0
 44
0.0
 45
0.0
 49
-3.0
 74
     4
 75
     0
340
0
 46
1.0
 50
0.0
 44
0.0
 45
0.0
  0
LTYPE
  5
28AC
330
5
100
AcDbSymbolTableRecord
100
AcDbLinetypeTableRecord
  2
ACAD_ISO07W100
 70
     0
  3
ISO dot . . . . . . . . . . . . . . . . . . . .
 72
    65
 73
     2
 40
3.0
 49
0.0
 74
     4
 75
     0
340
0
 46
1.0
 50
0.0
 44
0.0
 45
0.0
 49
-3.0
 74
     4
 75
     0
340
0
 46
1.0
 50
0.0
 44
0.0
 45
0.0
  0
LTYPE
  5
28AD
330
5
100
AcDbSymbolTableRecord
100
AcDbLinetypeTableRecord
  2
ACAD_ISO08W100
 70
     0
  3
ISO long-dash short-dash ____ __ ____ __ ____ _
 72
    65
 73
     4
 40
36.0
 49
24.0
 74
     4
 75
     0
340
0
 46
1.0
 50
0.0
 44
0.0
 45
0.0
 49
-3.0
 74
     4
 75
     0
340
0
 46
1.0
 50
0.0
 44
0.0
 45
0.0
 49
6.0
 74
     4
 75
     0
340
0
 46
1.0
 50
0.0
 44
0.0
 45
0.0
 49
-3.0
 74
     4
 75
     0
340
0
 46
1.0
 50
0.0
 44
0.0
 45
0.0
  0
LTYPE
  5
28AE
330
5
100
AcDbSymbolTableRecord
100
AcDbLinetypeTableRecord
  2
ACAD_ISO09W100
 70
     0
  3
ISO long-dash double-short-dash ____ __ __ ____
 72
    65
 73
     6
 40
45.0
 49
24.0
 74
     4
 75
     0
340
0
 46
1.0
 50
0.0
 44
0.0
 45
0.0
 49
-3.0
 74
     4
 75
     0
340
0
 46
1.0
 50
0.0
 44
0.0
 45
0.0
 49
6.0
 74
     4
 75
     0
340
0
 46
1.0
 50
0.0
 44
0.0
 45
0.0
 49
-3.0
 74
     4
 75
     0
340
0
 46
1.0
 50
0.0
 44
0.0
 45
0.0
 49
6.0
 74
     4
 75
     0
340
0
 46
1.0
 50
0.0
 44
0.0
 45
0.0
 49
-3.0
 74
     4
 75
     0
340
0
 46
1.0
 50
0.0
 44
0.0
 45
0.0
  0
LTYPE
  5
28AF
330
5
100
AcDbSymbolTableRecord
100
AcDbLinetypeTableRecord
  2
ACAD_ISO10W100
 70
     0
  3
ISO dash dot __ . __ . __ . __ . __ . __ . __ .
 72
    65
 73
     4
 40
18.0
 49
12.0
 74
     4
 75
     0
340
0
 46
1.0
 50
0.0
 44
0.0
 45
0.0
 49
-3.0
 74
     4
 75
     0
340
0
 46
1.0
 50
0.0
 44
0.0
 45
0.0
 49
0.0
 74
     4
 75
     0
340
0
 46
1.0
 50
0.0
 44
0.0
 45
0.0
 49
-3.0
 74
     4
 75
     0
340
0
 46
1.0
 50
0.0
 44
0.0
 45
0.0
  0
LTYPE
  5
28B0
330
5
100
AcDbSymbolTableRecord
100
AcDbLinetypeTableRecord
  2
ACAD_ISO11W100
 70
     0
  3
ISO double-dash dot __ __ . __ __ . __ __ . __ 
 72
    65
 73
     6
 40
33.0
 49
12.0
 74
     4
 75
     0
340
0
 46
1.0
 50
0.0
 44
0.0
 45
0.0
 49
-3.0
 74
     4
 75
     0
340
0
 46
1.0
 50
0.0
 44
0.0
 45
0.0
 49
12.0
 74
     4
 75
     0
340
0
 46
1.0
 50
0.0
 44
0.0
 45
0.0
 49
-3.0
 74
     4
 75
     0
340
0
 46
1.0
 50
0.0
 44
0.0
 45
0.0
 49
0.0
 74
     4
 75
     0
340
0
 46
1.0
 50
0.0
 44
0.0
 45
0.0
 49
-3.0
 74
     4
 75
     0
340
0
 46
1.0
 50
0.0
 44
0.0
 45
0.0
  0
LTYPE
  5
28B1
330
5
100
AcDbSymbolTableRecord
100
AcDbLinetypeTableRecord
  2
ACAD_ISO12W100
 70
     0
  3
ISO dash double-dot __ . . __ . . __ . . __ . .
 72
    65
 73
     6
 40
21.0
 49
12.0
 74
     4
 75
     0
340
0
 46
1.0
 50
0.0
 44
0.0
 45
0.0
 49
-3.0
 74
     4
 75
     0
340
0
 46
1.0
 50
0.0
 44
0.0
 45
0.0
 49
0.0
 74
     4
 75
     0
340
0
 46
1.0
 50
0.0
 44
0.0
 45
0.0
 49
-3.0
 74
     4
 75
     0
340
0
 46
1.0
 50
0.0
 44
0.0
 45
0.0
 49
0.0
 74
     4
 75
     0
340
0
 46
1.0
 50
0.0
 44
0.0
 45
0.0
 49
-3.0
 74
     4
 75
     0
340
0
 46
1.0
 50
0.0
 44
0.0
 45
0.0
  0
LTYPE
  5
28B2
330
5
100
AcDbSymbolTableRecord
100
AcDbLinetypeTableRecord
  2
ACAD_ISO13W100
 70
     0
  3
ISO double-dash double-dot __ __ . . __ __ . . 
 72
    65
 73
     8
 40
36.0
 49
12.0
 74
     4
 75
     0
340
0
 46
1.0
 50
0.0
 44
0.0
 45
0.0
 49
-3.0
 74
     4
 75
     0
340
0
 46
1.0
 50
0.0
 44
0.0
 45
0.0
 49
12.0
 74
     4
 75
     0
340
0
 46
1.0
 50
0.0
 44
0.0
 45
0.0
 49
-3.0
 74
     4
 75
     0
340
0
 46
1.0
 50
0.0
 44
0.0
 45
0.0
 49
0.0
 74
     4
 75
     0
340
0
 46
1.0
 50
0.0
 44
0.0
 45
0.0
 49
-3.0
 74
     4
 75
     0
340
0
 46
1.0
 50
0.0
 44
0.0
 45
0.0
 49
0.0
 74
     4
 75
     0
340
0
 46
1.0
 50
0.0
 44
0.0
 45
0.0
 49
-3.0
 74
     4
 75
     0
340
0
 46
1.0
 50
0.0
 44
0.0
 45
0.0
  0
LTYPE
  5
28B3
330
5
100
AcDbSymbolTableRecord
100
AcDbLinetypeTableRecord
  2
ACAD_ISO14W100
 70
     0
  3
ISO dash triple-dot __ . . . __ . . . __ . . . 
 72
    65
 73
     8
 40
24.0
 49
12.0
 74
     4
 75
     0
340
0
 46
1.0
 50
0.0
 44
0.0
 45
0.0
 49
-3.0
 74
     4
 75
     0
340
0
 46
1.0
 50
0.0
 44
0.0
 45
0.0
 49
0.0
 74
     4
 75
     0
340
0
 46
1.0
 50
0.0
 44
0.0
 45
0.0
 49
-3.0
 74
     4
 75
     0
340
0
 46
1.0
 50
0.0
 44
0.0
 45
0.0
 49
0.0
 74
     4
 75
     0
340
0
 46
1.0
 50
0.0
 44
0.0
 45
0.0
 49
-3.0
 74
     4
 75
     0
340
0
 46
1.0
 50
0.0
 44
0.0
 45
0.0
 49
0.0
 74
     4
 75
     0
340
0
 46
1.0
 50
0.0
 44
0.0
 45
0.0
 49
-3.0
 74
     4
 75
     0
340
0
 46
1.0
 50
0.0
 44
0.0
 45
0.0
  0
LTYPE
  5
28B4
330
5
100
AcDbSymbolTableRecord
100
AcDbLinetypeTableRecord
  2
ACAD_ISO15W100
 70
     0
  3
ISO double-dash triple-dot __ __ . . . __ __ . 
 72
    65
 73
    10
 40
39.0
 49
12.0
 74
     4
 75
     0
340
0
 46
1.0
 50
0.0
 44
0.0
 45
0.0
 49
-3.0
 74
     4
 75
     0
340
0
 46
1.0
 50
0.0
 44
0.0
 45
0.0
 49
12.0
 74
     4
 75
     0
340
0
 46
1.0
 50
0.0
 44
0.0
 45
0.0
 49
-3.0
 74
     4
 75
     0
340
0
 46
1.0
 50
0.0
 44
0.0
 45
0.0
 49
0.0
 74
     4
 75
     0
340
0
 46
1.0
 50
0.0
 44
0.0
 45
0.0
 49
-3.0
 74
     4
 75
     0
340
0
 46
1.0
 50
0.0
 44
0.0
 45
0.0
 49
0.0
 74
     4
 75
     0
340
0
 46
1.0
 50
0.0
 44
0.0
 45
0.0
 49
-3.0
 74
     4
 75
     0
340
0
 46
1.0
 50
0.0
 44
0.0
 45
0.0
 49
0.0
 74
     4
 75
     0
340
0
 46
1.0
 50
0.0
 44
0.0
 45
0.0
 49
-3.0
 74
     4
 75
     0
340
0
 46
1.0
 50
0.0
 44
0.0
 45
0.0
  0
LTYPE
  5
28B5
330
5
100
AcDbSymbolTableRecord
100
AcDbLinetypeTableRecord
  2
BORDER
 70
     0
  3
Border __ __ . __ __ . __ __ . __ __ . __ __ .
 72
    65
 73
     6
 40
3.5
 49
1.0
 74
     4
 75
     0
340
0
 46
1.0
 50
0.0
 44
0.0
 45
0.0
 49
-0.5
 74
     4
 75
     0
340
0
 46
1.0
 50
0.0
 44
0.0
 45
0.0
 49
1.0
 74
     4
 75
     0
340
0
 46
1.0
 50
0.0
 44
0.0
 45
0.0
 49
-0.5
 74
     4
 75
     0
340
0
 46
1.0
 50
0.0
 44
0.0
 45
0.0
 49
0.0
 74
     4
 75
     0
340
0
 46
1.0
 50
0.0
 44
0.0
 45
0.0
 49
-0.5
 74
     4
 75
     0
340
0
 46
1.0
 50
0.0
 44
0.0
 45
0.0
  0
LTYPE
  5
28B6
330
5
100
AcDbSymbolTableRecord
100
AcDbLinetypeTableRecord
  2
BORDER2
 70
     0
  3
Border (.5x) __.__.__.__.__.__.__.__.__.__.__.
 72
    65
 73
     6
 40
1.75
 49
0.5
 74
     4
 75
     0
340
0
 46
1.0
 50
0.0
 44
0.0
 45
0.0
 49
-0.25
 74
     4
 75
     0
340
0
 46
1.0
 50
0.0
 44
0.0
 45
0.0
 49
0.5
 74
     4
 75
     0
340
0
 46
1.0
 50
0.0
 44
0.0
 45
0.0
 49
-0.25
 74
     4
 75
     0
340
0
 46
1.0
 50
0.0
 44
0.0
 45
0.0
 49
0.0
 74
     4
 75
     0
340
0
 46
1.0
 50
0.0
 44
0.0
 45
0.0
 49
-0.25
 74
     4
 75
     0
340
0
 46
1.0
 50
0.0
 44
0.0
 45
0.0
  0
LTYPE
  5
28B7
330
5
100
AcDbSymbolTableRecord
100
AcDbLinetypeTableRecord
  2
BORDERX2
 70
     0
  3
Border (2x) ____  ____  .  ____  ____  .  ___
 72
    65
 73
     6
 40
7.0
 49
2.0
 74
     4
 75
     0
340
0
 46
1.0
 50
0.0
 44
0.0
 45
0.0
 49
-1.0
 74
     4
 75
     0
340
0
 46
1.0
 50
0.0
 44
0.0
 45
0.0
 49
2.0
 74
     4
 75
     0
340
0
 46
1.0
 50
0.0
 44
0.0
 45
0.0
 49
-1.0
 74
     4
 75
     0
340
0
 46
1.0
 50
0.0
 44
0.0
 45
0.0
 49
0.0
 74
     4
 75
     0
340
0
 46
1.0
 50
0.0
 44
0.0
 45
0.0
 49
-1.0
 74
     4
 75
     0
340
0
 46
1.0
 50
0.0
 44
0.0
 45
0.0
  0
LTYPE
  5
28B8
330
5
100
AcDbSymbolTableRecord
100
AcDbLinetypeTableRecord
  2
CENTER
 70
     0
  3
Center ____ _ ____ _ ____ _ ____ _ ____ _ ____
 72
    65
 73
     4
 40
12.0
 49
7.5
 74
     4
 75
     0
340
0
 46
1.0
 50
0.0
 44
0.0
 45
0.0
 49
-1.5
 74
     4
 75
     0
340
0
 46
1.0
 50
0.0
 44
0.0
 45
0.0
 49
1.5
 74
     4
 75
     0
340
0
 46
1.0
 50
0.0
 44
0.0
 45
0.0
 49
-1.5
 74
     4
 75
     0
340
0
 46
1.0
 50
0.0
 44
0.0
 45
0.0
  0
LTYPE
  5
28B9
330
5
100
AcDbSymbolTableRecord
100
AcDbLinetypeTableRecord
  2
CENTER2
 70
     0
  3
Center (.5x) ___ _ ___ _ ___ _ ___ _ ___ _ ___
 72
    65
 73
     4
 40
6.0
 49
3.75
 74
     4
 75
     0
340
0
 46
1.0
 50
0.0
 44
0.0
 45
0.0
 49
-0.75
 74
     4
 75
     0
340
0
 46
1.0
 50
0.0
 44
0.0
 45
0.0
 49
0.75
 74
     4
 75
     0
340
0
 46
1.0
 50
0.0
 44
0.0
 45
0.0
 49
-0.75
 74
     4
 75
     0
340
0
 46
1.0
 50
0.0
 44
0.0
 45
0.0
  0
LTYPE
  5
28BA
330
5
100
AcDbSymbolTableRecord
100
AcDbLinetypeTableRecord
  2
CENTERX2
 70
     0
  3
Center (2x) ________  __  ________  __  _____
 72
    65
 73
     4
 40
24.0
 49
15.0
 74
     4
 75
     0
340
0
 46
1.0
 50
0.0
 44
0.0
 45
0.0
 49
-3.0
 74
     4
 75
     0
340
0
 46
1.0
 50
0.0
 44
0.0
 45
0.0
 49
3.0
 74
     4
 75
     0
340
0
 46
1.0
 50
0.0
 44
0.0
 45
0.0
 49
-3.0
 74
     4
 75
     0
340
0
 46
1.0
 50
0.0
 44
0.0
 45
0.0
  0
LTYPE
  5
28BB
330
5
100
AcDbSymbolTableRecord
100
AcDbLinetypeTableRecord
  2
DASHDOT
 70
     0
  3
Dash dot __ . __ . __ . __ . __ . __ . __ . __
 72
    65
 73
     4
 40
6.0
 49
3.0
 74
     4
 75
     0
340
0
 46
1.0
 50
0.0
 44
0.0
 45
0.0
 49
-1.5
 74
     4
 75
     0
340
0
 46
1.0
 50
0.0
 44
0.0
 45
0.0
 49
0.0
 74
     4
 75
     0
340
0
 46
1.0
 50
0.0
 44
0.0
 45
0.0
 49
-1.5
 74
     4
 75
     0
340
0
 46
1.0
 50
0.0
 44
0.0
 45
0.0
  0
LTYPE
  5
28BC
330
5
100
AcDbSymbolTableRecord
100
AcDbLinetypeTableRecord
  2
DASHDOT2
 70
     0
  3
Dash dot (.5x) _._._._._._._._._._._._._._._.
 72
    65
 73
     4
 40
3.0
 49
1.5
 74
     4
 75
     0
340
0
 46
1.0
 50
0.0
 44
0.0
 45
0.0
 49
-0.75
 74
     4
 75
     0
340
0
 46
1.0
 50
0.0
 44
0.0
 45
0.0
 49
0.0
 74
     4
 75
     0
340
0
 46
1.0
 50
0.0
 44
0.0
 45
0.0
 49
-0.75
 74
     4
 75
     0
340
0
 46
1.0
 50
0.0
 44
0.0
 45
0.0
  0
LTYPE
  5
28BD
330
5
100
AcDbSymbolTableRecord
100
AcDbLinetypeTableRecord
  2
DASHDOTX2
 70
     0
  3
Dash dot (2x) ____  .  ____  .  ____  .  ___
 72
    65
 73
     4
 40
12.0
 49
6.0
 74
     4
 75
     0
340
0
 46
1.0
 50
0.0
 44
0.0
 45
0.0
 49
-3.0
 74
     4
 75
     0
340
0
 46
1.0
 50
0.0
 44
0.0
 45
0.0
 49
0.0
 74
     4
 75
     0
340
0
 46
1.0
 50
0.0
 44
0.0
 45
0.0
 49
-3.0
 74
     4
 75
     0
340
0
 46
1.0
 50
0.0
 44
0.0
 45
0.0
  0
LTYPE
  5
28BE
330
5
100
AcDbSymbolTableRecord
100
AcDbLinetypeTableRecord
  2
DASHED
 70
     0
  3
Dashed __ __ __ __ __ __ __ __ __ __ __ __ __ _
 72
    65
 73
     2
 40
4.5
 49
3.0
 74
     4
 75
     0
340
0
 46
1.0
 50
0.0
 44
0.0
 45
0.0
 49
-1.5
 74
     4
 75
     0
340
0
 46
1.0
 50
0.0
 44
0.0
 45
0.0
  0
LTYPE
  5
28BF
330
5
100
AcDbSymbolTableRecord
100
AcDbLinetypeTableRecord
  2
DASHED2
 70
     0
  3
Dashed (.5x) _ _ _ _ _ _ _ _ _ _ _ _ _ _ _ _ _
 72
    65
 73
     2
 40
2.25
 49
1.5
 74
     4
 75
     0
340
0
 46
1.0
 50
0.0
 44
0.0
 45
0.0
 49
-0.75
 74
     4
 75
     0
340
0
 46
1.0
 50
0.0
 44
0.0
 45
0.0
  0
LTYPE
  5
28C0
330
5
100
AcDbSymbolTableRecord
100
AcDbLinetypeTableRecord
  2
DASHEDX2
 70
     0
  3
Dashed (2x) ____  ____  ____  ____  ____  ___
 72
    65
 73
     2
 40
9.0
 49
6.0
 74
     4
 75
     0
340
0
 46
1.0
 50
0.0
 44
0.0
 45
0.0
 49
-3.0
 74
     4
 75
     0
340
0
 46
1.0
 50
0.0
 44
0.0
 45
0.0
  0
LTYPE
  5
28C1
330
5
100
AcDbSymbolTableRecord
100
AcDbLinetypeTableRecord
  2
DIVIDE
 70
     0
  3
Divide ____ . . ____ . . ____ . . ____ . . ____
 72
    65
 73
     6
 40
7.5
 49
3.0
 74
     4
 75
     0
340
0
 46
1.0
 50
0.0
 44
0.0
 45
0.0
 49
-1.5
 74
     4
 75
     0
340
0
 46
1.0
 50
0.0
 44
0.0
 45
0.0
 49
0.0
 74
     4
 75
     0
340
0
 46
1.0
 50
0.0
 44
0.0
 45
0.0
 49
-1.5
 74
     4
 75
     0
340
0
 46
1.0
 50
0.0
 44
0.0
 45
0.0
 49
0.0
 74
     4
 75
     0
340
0
 46
1.0
 50
0.0
 44
0.0
 45
0.0
 49
-1.5
 74
     4
 75
     0
340
0
 46
1.0
 50
0.0
 44
0.0
 45
0.0
  0
LTYPE
  5
28C2
330
5
100
AcDbSymbolTableRecord
100
AcDbLinetypeTableRecord
  2
DIVIDE2
 70
     0
  3
Divide (.5x) __..__..__..__..__..__..__..__.._
 72
    65
 73
     6
 40
3.75
 49
1.5
 74
     4
 75
     0
340
0
 46
1.0
 50
0.0
 44
0.0
 45
0.0
 49
-0.75
 74
     4
 75
     0
340
0
 46
1.0
 50
0.0
 44
0.0
 45
0.0
 49
0.0
 74
     4
 75
     0
340
0
 46
1.0
 50
0.0
 44
0.0
 45
0.0
 49
-0.75
 74
     4
 75
     0
340
0
 46
1.0
 50
0.0
 44
0.0
 45
0.0
 49
0.0
 74
     4
 75
     0
340
0
 46
1.0
 50
0.0
 44
0.0
 45
0.0
 49
-0.75
 74
     4
 75
     0
340
0
 46
1.0
 50
0.0
 44
0.0
 45
0.0
  0
LTYPE
  5
28C3
330
5
100
AcDbSymbolTableRecord
100
AcDbLinetypeTableRecord
  2
DIVIDEX2
 70
     0
  3
Divide (2x) ________  .  .  ________  .  .  _
 72
    65
 73
     6
 40
15.0
 49
6.0
 74
     4
 75
     0
340
0
 46
1.0
 50
0.0
 44
0.0
 45
0.0
 49
-3.0
 74
     4
 75
     0
340
0
 46
1.0
 50
0.0
 44
0.0
 45
0.0
 49
0.0
 74
     4
 75
     0
340
0
 46
1.0
 50
0.0
 44
0.0
 45
0.0
 49
-3.0
 74
     4
 75
     0
340
0
 46
1.0
 50
0.0
 44
0.0
 45
0.0
 49
0.0
 74
     4
 75
     0
340
0
 46
1.0
 50
0.0
 44
0.0
 45
0.0
 49
-3.0
 74
     4
 75
     0
340
0
 46
1.0
 50
0.0
 44
0.0
 45
0.0
  0
LTYPE
  5
28C4
330
5
100
AcDbSymbolTableRecord
100
AcDbLinetypeTableRecord
  2
DOT
 70
     0
  3
Dot . . . . . . . . . . . . . . . . . . . . . .
 72
    65
 73
     2
 40
1.5
 49
0.0
 74
     4
 75
     0
340
0
 46
1.0
 50
0.0
 44
0.0
 45
0.0
 49
-1.5
 74
     4
 75
     0
340
0
 46
1.0
 50
0.0
 44
0.0
 45
0.0
  0
LTYPE
  5
28C5
330
5
100
AcDbSymbolTableRecord
100
AcDbLinetypeTableRecord
  2
DOT2
 70
     0
  3
Dot (.5x) .....................................
 72
    65
 73
     2
 40
0.75
 49
0.0
 74
     4
 75
     0
340
0
 46
1.0
 50
0.0
 44
0.0
 45
0.0
 49
-0.75
 74
     4
 75
     0
340
0
 46
1.0
 50
0.0
 44
0.0
 45
0.0
  0
LTYPE
  5
28C6
330
5
100
AcDbSymbolTableRecord
100
AcDbLinetypeTableRecord
  2
DOTX2
 70
     0
  3
Dot (2x) .  .  .  .  .  .  .  .  .  .  .  .  . 
 72
    65
 73
     2
 40
3.0
 49
0.0
 74
     4
 75
     0
340
0
 46
1.0
 50
0.0
 44
0.0
 45
0.0
 49
-3.0
 74
     4
 75
     0
340
0
 46
1.0
 50
0.0
 44
0.0
 45
0.0
  0
LTYPE
  5
28C7
330
5
100
AcDbSymbolTableRecord
100
AcDbLinetypeTableRecord
  2
HIDDEN
 70
     0
  3
Hidden __ __ __ __ __ __ __ __ __ __ __ __ __ _
 72
    65
 73
     2
 40
4.5
 49
3.0
 74
     4
 75
     0
340
0
 46
1.0
 50
0.0
 44
0.0
 45
0.0
 49
-1.5
 74
     4
 75
     0
340
0
 46
1.0
 50
0.0
 44
0.0
 45
0.0
  0
LTYPE
  5
28C8
330
5
100
AcDbSymbolTableRecord
100
AcDbLinetypeTableRecord
  2
HIDDEN2
 70
     0
  3
Hidden (.5x) _ _ _ _ _ _ _ _ _ _ _ _ _ _ _ _ _
 72
    65
 73
     2
 40
2.25
 49
1.5
 74
     4
 75
     0
340
0
 46
1.0
 50
0.0
 44
0.0
 45
0.0
 49
-0.75
 74
     4
 75
     0
340
0
 46
1.0
 50
0.0
 44
0.0
 45
0.0
  0
LTYPE
  5
28C9
330
5
100
AcDbSymbolTableRecord
100
AcDbLinetypeTableRecord
  2
HIDDENX2
 70
     0
  3
Hidden (2x) ____ ____ ____ ____ ____ ____ ____
 72
    65
 73
     2
 40
9.0
 49
6.0
 74
     4
 75
     0
340
0
 46
1.0
 50
0.0
 44
0.0
 45
0.0
 49
-3.0
 74
     4
 75
     0
340
0
 46
1.0
 50
0.0
 44
0.0
 45
0.0
  0
LTYPE
  5
28CA
330
5
100
AcDbSymbolTableRecord
100
AcDbLinetypeTableRecord
  2
PHANTOM
 70
     0
  3
Phantom ______  __  __  ______  __  __  ______
 72
    65
 73
     6
 40
15.0
 49
7.5
 74
     4
 75
     0
340
0
 46
1.0
 50
0.0
 44
0.0
 45
0.0
 49
-1.5
 74
     4
 75
     0
340
0
 46
1.0
 50
0.0
 44
0.0
 45
0.0
 49
1.5
 74
     4
 75
     0
340
0
 46
1.0
 50
0.0
 44
0.0
 45
0.0
 49
-1.5
 74
     4
 75
     0
340
0
 46
1.0
 50
0.0
 44
0.0
 45
0.0
 49
1.5
 74
     4
 75
     0
340
0
 46
1.0
 50
0.0
 44
0.0
 45
0.0
 49
-1.5
 74
     4
 75
     0
340
0
 46
1.0
 50
0.0
 44
0.0
 45
0.0
  0
LTYPE
  5
28CB
330
5
100
AcDbSymbolTableRecord
100
AcDbLinetypeTableRecord
  2
PHANTOM2
 70
     0
  3
Phantom (.5x) ___ _ _ ___ _ _ ___ _ _ ___ _ _
 72
    65
 73
     6
 40
7.5
 49
3.75
 74
     4
 75
     0
340
0
 46
1.0
 50
0.0
 44
0.0
 45
0.0
 49
-0.75
 74
     4
 75
     0
340
0
 46
1.0
 50
0.0
 44
0.0
 45
0.0
 49
0.75
 74
     4
 75
     0
340
0
 46
1.0
 50
0.0
 44
0.0
 45
0.0
 49
-0.75
 74
     4
 75
     0
340
0
 46
1.0
 50
0.0
 44
0.0
 45
0.0
 49
0.75
 74
     4
 75
     0
340
0
 46
1.0
 50
0.0
 44
0.0
 45
0.0
 49
-0.75
 74
     4
 75
     0
340
0
 46
1.0
 50
0.0
 44
0.0
 45
0.0
  0
LTYPE
  5
28CC
330
5
100
AcDbSymbolTableRecord
100
AcDbLinetypeTableRecord
  2
PHANTOMX2
 70
     0
  3
Phantom (2x) ____________    ____    ____   _
 72
    65
 73
     6
 40
30.0
 49
15.0
 74
     4
 75
     0
340
0
 46
1.0
 50
0.0
 44
0.0
 45
0.0
 49
-3.0
 74
     4
 75
     0
340
0
 46
1.0
 50
0.0
 44
0.0
 45
0.0
 49
3.0
 74
     4
 75
     0
340
0
 46
1.0
 50
0.0
 44
0.0
 45
0.0
 49
-3.0
 74
     4
 75
     0
340
0
 46
1.0
 50
0.0
 44
0.0
 45
0.0
 49
3.0
 74
     4
 75
     0
340
0
 46
1.0
 50
0.0
 44
0.0
 45
0.0
 49
-3.0
 74
     4
 75
     0
340
0
 46
1.0
 50
0.0
 44
0.0
 45
0.0
  0
ENDTAB
  0
TABLE
  2
LAYER
  5
2
330
0
100
AcDbSymbolTable
 70
    12
  0
LAYER
  5
10
330
2
100
AcDbSymbolTableRecord
100
AcDbLayerTableRecord
  2
0
 70
     0
 62
     7
  6
Continuous
370
    -3
390
F
  0
LAYER
  5
48
330
2
100
AcDbSymbolTableRecord
100
AcDbLayerTableRecord
  2
1
 70
     0
 62
     7
  6
Continuous
370
    -3
390
F
  0
LAYER
  5
49
330
2
100
AcDbSymbolTableRecord
100
AcDbLayerTableRecord
  2
2
 70
     0
 62
     7
  6
Continuous
370
    -3
390
F
  0
LAYER
  5
4A
330
2
100
AcDbSymbolTableRecord
100
AcDbLayerTableRecord
  2
3
 70
     0
 62
     7
  6
Continuous
370
    -3
390
F
  0
LAYER
  5
4B
330
2
100
AcDbSymbolTableRecord
100
AcDbLayerTableRecord
  2
4
 70
     0
 62
     7
  6
Continuous
370
    -3
390
F
  0
LAYER
  5
4C
330
2
100
AcDbSymbolTableRecord
100
AcDbLayerTableRecord
  2
寸法
 70
     0
 62
     7
  6
Continuous
370
    -3
390
F
  0
LAYER
  5
4D
330
2
100
AcDbSymbolTableRecord
100
AcDbLayerTableRecord
  2
DEFPOINTS
 70
     0
 62
     7
  6
Continuous
290
     0
370
    -3
390
F
  0
LAYER
  5
1277
330
2
100
AcDbSymbolTableRecord
100
AcDbLayerTableRecord
  2
図
 70
     0
 62
   130
  6
Continuous
370
    40
390
F
  0
LAYER
  5
137A
330
2
100
AcDbSymbolTableRecord
100
AcDbLayerTableRecord
  2
SLD-DEFPOINTS
 70
     0
 62
   179
  6
Continuous
370
    -3
390
F
  0
LAYER
  5
13C4
330
2
100
AcDbSymbolTableRecord
100
AcDbLayerTableRecord
  2
ZUWAKU
 70
     0
 62
     5
  6
Continuous
290
     0
370
    -3
390
F
  0
LAYER
  5
2250
330
2
100
AcDbSymbolTableRecord
100
AcDbLayerTableRecord
  2
Layer1
 70
     0
 62
     7
  6
Continuous
370
    -3
390
F
  0
LAYER
  5
2254
330
2
100
AcDbSymbolTableRecord
100
AcDbLayerTableRecord
  2
Dimension
 70
     0
 62
     7
  6
Continuous
370
    -3
390
F
  0
ENDTAB
  0
TABLE
  2
STYLE
  5
3
330
0
100
AcDbSymbolTable
 70
     3
  0
STYLE
  5
11
330
3
100
AcDbSymbolTableRecord
100
AcDbTextStyleTableRecord
  2
Standard
 70
     0
 40
0.0
 41
1.0
 50
0.0
 71
     0
 42
0.2
  3
txt
  4
BIGFONT
  0
STYLE
  5
47B
330
3
100
AcDbSymbolTableRecord
100
AcDbTextStyleTableRecord
  2
NewStyle1
 70
     0
 40
0.0
 41
1.0
 50
0.0
 71
     0
 42
0.2
  3
txt.shx
  4
spec_bar.shx
  0
STYLE
  5
1398
330
3
100
AcDbSymbolTableRecord
100
AcDbTextStyleTableRecord
  2
SLDTEXTSTYLE0
 70
     0
 40
0.0
 41
1.0
 50
0.0
 71
     0
 42
0.2
  3
ISOCP
  4
bigfont
  0
ENDTAB
  0
TABLE
  2
VIEW
  5
6
330
0
100
AcDbSymbolTable
 70
     0
  0
ENDTAB
  0
TABLE
  2
UCS
  5
7
330
0
100
AcDbSymbolTable
 70
     0
  0
ENDTAB
  0
TABLE
  2
APPID
  5
9
330
0
100
AcDbSymbolTable
 70
     1
  0
APPID
  5
12
330
9
100
AcDbSymbolTableRecord
100
AcDbRegAppTableRecord
  2
ACAD
 70
     0
  0
ENDTAB
  0
TABLE
  2
DIMSTYLE
  5
A
330
0
100
AcDbSymbolTable
 70
     4
100
AcDbDimStyleTable
  0
DIMSTYLE
105
27
330
A
100
AcDbSymbolTableRecord
100
AcDbDimStyleTableRecord
  2
Standard
 70
     0
278
     0
340
11
  0
DIMSTYLE
105
4E
330
A
100
AcDbSymbolTableRecord
100
AcDbDimStyleTableRecord
  2
DIMSTYLE
 70
     0
 41
1.0
 42
2.54
 44
2.54
 73
     0
 74
     0
 77
     1
 78
     8
140
3.200000047683716
145
1.0
147
1.600000023841858
173
     1
271
     2
340
11
  0
DIMSTYLE
105
1399
102
{ACAD_REACTORS
330
20F
102
}
330
A
100
AcDbSymbolTableRecord
100
AcDbDimStyleTableRecord
  2
SLDDIMSTYLE0
 70
     0
 41
3.302
 44
0.0
 73
     0
 74
     0
 77
     3
 78
    12
140
3.4999997784
144
1.0000000633
147
0.8749999446
173
     1
271
     0
284
    12
340
1398
341
28CD
343
28CD
344
28CD
  0
DIMSTYLE
105
2255
102
{ACAD_REACTORS
330
25EF
330
2650
330
2695
330
26A2
330
26D3
102
}
330
A
100
AcDbSymbolTableRecord
100
AcDbDimStyleTableRecord
  2
VELDIM0
 70
     0
 41
2.0
 44
0.6999999881
 46
3.0
 73
     0
 74
     0
 78
     8
140
2.6987499595
271
     3
340
11
  0
ENDTAB
  0
TABLE
  2
BLOCK_RECORD
  5
1
330
0
100
AcDbSymbolTable
 70
    84
  0
BLOCK_RECORD
  5
1F
330
1
100
AcDbSymbolTableRecord
100
AcDbBlockTableRecord
  2
*Model_Space
340
22
  0
BLOCK_RECORD
  5
73
330
1
100
AcDbSymbolTableRecord
100
AcDbBlockTableRecord
  2
*Paper_Space
340
1D
  0
BLOCK_RECORD
  5
28CD
330
1
100
AcDbSymbolTableRecord
100
AcDbBlockTableRecord
  2
_None
340
0
  0
BLOCK_RECORD
  5
56
330
1
100
AcDbSymbolTableRecord
100
AcDbBlockTableRecord
  2
_OPEN30
340
0
102
{BLKREFS
331
1C52
331
1C53
331
1C5D
331
1C5E
102
}
  0
BLOCK_RECORD
  5
E6
330
1
100
AcDbSymbolTableRecord
100
AcDbBlockTableRecord
  2
KOZU0001
340
0
  0
BLOCK_RECORD
  5
E9
330
1
100
AcDbSymbolTableRecord
100
AcDbBlockTableRecord
  2
KOZU0031
340
0
102
{BLKREFS
331
EA
102
}
  0
BLOCK_RECORD
  5
EC
330
1
100
AcDbSymbolTableRecord
100
AcDbBlockTableRecord
  2
KOZU0002
340
0
  0
BLOCK_RECORD
  5
EF
330
1
100
AcDbSymbolTableRecord
100
AcDbBlockTableRecord
  2
KOZU0032
340
0
102
{BLKREFS
331
F0
102
}
  0
BLOCK_RECORD
  5
F1
330
1
100
AcDbSymbolTableRecord
100
AcDbBlockTableRecord
  2
KOZU0033
340
0
102
{BLKREFS
331
F2
102
}
  0
BLOCK_RECORD
  5
F4
330
1
100
AcDbSymbolTableRecord
100
AcDbBlockTableRecord
  2
KOZU0003
340
0
  0
BLOCK_RECORD
  5
F7
330
1
100
AcDbSymbolTableRecord
100
AcDbBlockTableRecord
  2
KOZU0034
340
0
102
{BLKREFS
331
F8
102
}
  0
BLOCK_RECORD
  5
F9
330
1
100
AcDbSymbolTableRecord
100
AcDbBlockTableRecord
  2
KOZU0035
340
0
102
{BLKREFS
331
FA
102
}
  0
BLOCK_RECORD
  5
FB
330
1
100
AcDbSymbolTableRecord
100
AcDbBlockTableRecord
  2
KOZU0036
340
0
102
{BLKREFS
331
FC
102
}
  0
BLOCK_RECORD
  5
FE
330
1
100
AcDbSymbolTableRecord
100
AcDbBlockTableRecord
  2
KOZU0004
340
0
  0
BLOCK_RECORD
  5
113
330
1
100
AcDbSymbolTableRecord
100
AcDbBlockTableRecord
  2
KOZU0005
340
0
  0
BLOCK_RECORD
  5
121
330
1
100
AcDbSymbolTableRecord
100
AcDbBlockTableRecord
  2
KOZU0006
340
0
  0
BLOCK_RECORD
  5
126
330
1
100
AcDbSymbolTableRecord
100
AcDbBlockTableRecord
  2
KOZU0007
340
0
  0
BLOCK_RECORD
  5
12A
330
1
100
AcDbSymbolTableRecord
100
AcDbBlockTableRecord
  2
KOZU0008
340
0
  0
BLOCK_RECORD
  5
12D
330
1
100
AcDbSymbolTableRecord
100
AcDbBlockTableRecord
  2
KOZU0037
340
0
102
{BLKREFS
331
12E
102
}
  0
BLOCK_RECORD
  5
130
330
1
100
AcDbSymbolTableRecord
100
AcDbBlockTableRecord
  2
KOZU0009
340
0
  0
BLOCK_RECORD
  5
137
330
1
100
AcDbSymbolTableRecord
100
AcDbBlockTableRecord
  2
KOZU0010
340
0
  0
BLOCK_RECORD
  5
13A
330
1
100
AcDbSymbolTableRecord
100
AcDbBlockTableRecord
  2
KOZU0038
340
0
102
{BLKREFS
331
13B
102
}
  0
BLOCK_RECORD
  5
13D
330
1
100
AcDbSymbolTableRecord
100
AcDbBlockTableRecord
  2
KOZU0011
340
0
  0
BLOCK_RECORD
  5
140
330
1
100
AcDbSymbolTableRecord
100
AcDbBlockTableRecord
  2
KOZU0039
340
0
102
{BLKREFS
331
141
102
}
  0
BLOCK_RECORD
  5
143
330
1
100
AcDbSymbolTableRecord
100
AcDbBlockTableRecord
  2
KOZU0012
340
0
  0
BLOCK_RECORD
  5
146
330
1
100
AcDbSymbolTableRecord
100
AcDbBlockTableRecord
  2
KOZU0040
340
0
102
{BLKREFS
331
147
102
}
  0
BLOCK_RECORD
  5
149
330
1
100
AcDbSymbolTableRecord
100
AcDbBlockTableRecord
  2
KOZU0013
340
0
  0
BLOCK_RECORD
  5
14C
330
1
100
AcDbSymbolTableRecord
100
AcDbBlockTableRecord
  2
KOZU0041
340
0
102
{BLKREFS
331
14D
102
}
  0
BLOCK_RECORD
  5
14F
330
1
100
AcDbSymbolTableRecord
100
AcDbBlockTableRecord
  2
KOZU0014
340
0
  0
BLOCK_RECORD
  5
152
330
1
100
AcDbSymbolTableRecord
100
AcDbBlockTableRecord
  2
KOZU0042
340
0
102
{BLKREFS
331
153
102
}
  0
BLOCK_RECORD
  5
155
330
1
100
AcDbSymbolTableRecord
100
AcDbBlockTableRecord
  2
KOZU0015
340
0
102
{BLKREFS
331
43A
102
}
  0
BLOCK_RECORD
  5
158
330
1
100
AcDbSymbolTableRecord
100
AcDbBlockTableRecord
  2
KOZU0016
340
0
  0
BLOCK_RECORD
  5
189
330
1
100
AcDbSymbolTableRecord
100
AcDbBlockTableRecord
  2
KOZU0017
340
0
  0
BLOCK_RECORD
  5
1DC
330
1
100
AcDbSymbolTableRecord
100
AcDbBlockTableRecord
  2
KOZU0018
340
0
  0
BLOCK_RECORD
  5
20C
330
1
100
AcDbSymbolTableRecord
100
AcDbBlockTableRecord
  2
KOZU0019
340
0
  0
BLOCK_RECORD
  5
240
330
1
100
AcDbSymbolTableRecord
100
AcDbBlockTableRecord
  2
KOZU0020
340
0
  0
BLOCK_RECORD
  5
294
330
1
100
AcDbSymbolTableRecord
100
AcDbBlockTableRecord
  2
KOZU0021
340
0
  0
BLOCK_RECORD
  5
29D
330
1
100
AcDbSymbolTableRecord
100
AcDbBlockTableRecord
  2
KOZU0022
340
0
  0
BLOCK_RECORD
  5
2A1
330
1
100
AcDbSymbolTableRecord
100
AcDbBlockTableRecord
  2
KOZU0023
340
0
  0
BLOCK_RECORD
  5
2A5
330
1
100
AcDbSymbolTableRecord
100
AcDbBlockTableRecord
  2
KOZU0024
340
0
  0
BLOCK_RECORD
  5
2A9
330
1
100
AcDbSymbolTableRecord
100
AcDbBlockTableRecord
  2
KOZU0025
340
0
  0
BLOCK_RECORD
  5
2AD
330
1
100
AcDbSymbolTableRecord
100
AcDbBlockTableRecord
  2
KOZU0026
340
0
  0
BLOCK_RECORD
  5
2B1
330
1
100
AcDbSymbolTableRecord
100
AcDbBlockTableRecord
  2
KOZU0027
340
0
  0
BLOCK_RECORD
  5
2B5
330
1
100
AcDbSymbolTableRecord
100
AcDbBlockTableRecord
  2
KOZU0028
340
0
  0
BLOCK_RECORD
  5
2B9
330
1
100
AcDbSymbolTableRecord
100
AcDbBlockTableRecord
  2
KOZU0029
340
0
  0
BLOCK_RECORD
  5
2BD
330
1
100
AcDbSymbolTableRecord
100
AcDbBlockTableRecord
  2
KOZU0030
340
0
  0
BLOCK_RECORD
  5
1C56
330
1
100
AcDbSymbolTableRecord
100
AcDbBlockTableRecord
  2
*D44
340
0
  0
BLOCK_RECORD
  5
1C61
330
1
100
AcDbSymbolTableRecord
100
AcDbBlockTableRecord
  2
*D45
340
0
  0
BLOCK_RECORD
  5
211D
330
1
100
AcDbSymbolTableRecord
100
AcDbBlockTableRecord
  2
*D46
340
0
  0
BLOCK_RECORD
  5
2262
330
1
100
AcDbSymbolTableRecord
100
AcDbBlockTableRecord
  2
*D47
340
0
  0
BLOCK_RECORD
  5
228A
330
1
100
AcDbSymbolTableRecord
100
AcDbBlockTableRecord
  2
*D48
340
0
  0
BLOCK_RECORD
  5
229B
330
1
100
AcDbSymbolTableRecord
100
AcDbBlockTableRecord
  2
*D49
340
0
  0
BLOCK_RECORD
  5
22A8
330
1
100
AcDbSymbolTableRecord
100
AcDbBlockTableRecord
  2
*D50
340
0
  0
BLOCK_RECORD
  5
234D
330
1
100
AcDbSymbolTableRecord
100
AcDbBlockTableRecord
  2
*D51
340
0
  0
BLOCK_RECORD
  5
236D
330
1
100
AcDbSymbolTableRecord
100
AcDbBlockTableRecord
  2
*D52
340
0
  0
BLOCK_RECORD
  5
2380
330
1
100
AcDbSymbolTableRecord
100
AcDbBlockTableRecord
  2
*D53
340
0
  0
BLOCK_RECORD
  5
238B
330
1
100
AcDbSymbolTableRecord
100
AcDbBlockTableRecord
  2
*D54
340
0
  0
BLOCK_RECORD
  5
2396
330
1
100
AcDbSymbolTableRecord
100
AcDbBlockTableRecord
  2
*D55
340
0
  0
BLOCK_RECORD
  5
23A1
330
1
100
AcDbSymbolTableRecord
100
AcDbBlockTableRecord
  2
*D56
340
0
  0
BLOCK_RECORD
  5
23AC
330
1
100
AcDbSymbolTableRecord
100
AcDbBlockTableRecord
  2
*D57
340
0
  0
BLOCK_RECORD
  5
23B8
330
1
100
AcDbSymbolTableRecord
100
AcDbBlockTableRecord
  2
*D58
340
0
  0
BLOCK_RECORD
  5
23C3
330
1
100
AcDbSymbolTableRecord
100
AcDbBlockTableRecord
  2
*D59
340
0
  0
BLOCK_RECORD
  5
23CF
330
1
100
AcDbSymbolTableRecord
100
AcDbBlockTableRecord
  2
*D60
340
0
  0
BLOCK_RECORD
  5
23E5
330
1
100
AcDbSymbolTableRecord
100
AcDbBlockTableRecord
  2
*D61
340
0
  0
BLOCK_RECORD
  5
25FB
330
1
100
AcDbSymbolTableRecord
100
AcDbBlockTableRecord
  2
*D62
340
0
  0
BLOCK_RECORD
  5
265C
330
1
100
AcDbSymbolTableRecord
100
AcDbBlockTableRecord
  2
*D63
340
0
  0
BLOCK_RECORD
  5
26A1
330
1
100
AcDbSymbolTableRecord
100
AcDbBlockTableRecord
  2
*D64
340
0
  0
BLOCK_RECORD
  5
26AE
330
1
100
AcDbSymbolTableRecord
100
AcDbBlockTableRecord
  2
*D65
340
0
  0
BLOCK_RECORD
  5
26DF
330
1
100
AcDbSymbolTableRecord
100
AcDbBlockTableRecord
  2
*D66
340
0
  0
BLOCK_RECORD
  5
2700
330
1
100
AcDbSymbolTableRecord
100
AcDbBlockTableRecord
  2
*D67
340
0
  0
BLOCK_RECORD
  5
2711
330
1
100
AcDbSymbolTableRecord
100
AcDbBlockTableRecord
  2
*D68
340
0
  0
BLOCK_RECORD
  5
271C
330
1
100
AcDbSymbolTableRecord
100
AcDbBlockTableRecord
  2
*D69
340
0
  0
BLOCK_RECORD
  5
2727
330
1
100
AcDbSymbolTableRecord
100
AcDbBlockTableRecord
  2
*D70
340
0
  0
BLOCK_RECORD
  5
2733
330
1
100
AcDbSymbolTableRecord
100
AcDbBlockTableRecord
  2
*D71
340
0
  0
BLOCK_RECORD
  5
273E
330
1
100
AcDbSymbolTableRecord
100
AcDbBlockTableRecord
  2
*D72
340
0
  0
BLOCK_RECORD
  5
274B
330
1
100
AcDbSymbolTableRecord
100
AcDbBlockTableRecord
  2
*D73
340
0
  0
BLOCK_RECORD
  5
2756
330
1
100
AcDbSymbolTableRecord
100
AcDbBlockTableRecord
  2
*D74
340
0
  0
BLOCK_RECORD
  5
2761
330
1
100
AcDbSymbolTableRecord
100
AcDbBlockTableRecord
  2
*D75
340
0
  0
BLOCK_RECORD
  5
276C
330
1
100
AcDbSymbolTableRecord
100
AcDbBlockTableRecord
  2
*D76
340
0
  0
BLOCK_RECORD
  5
2782
330
1
100
AcDbSymbolTableRecord
100
AcDbBlockTableRecord
  2
*D77
340
0
  0
BLOCK_RECORD
  5
2796
330
1
100
AcDbSymbolTableRecord
100
AcDbBlockTableRecord
  2
*D78
340
0
  0
BLOCK_RECORD
  5
27A2
330
1
100
AcDbSymbolTableRecord
100
AcDbBlockTableRecord
  2
*D79
340
0
  0
BLOCK_RECORD
  5
27AE
330
1
100
AcDbSymbolTableRecord
100
AcDbBlockTableRecord
  2
*D80
340
0
  0
BLOCK_RECORD
  5
27B9
330
1
100
AcDbSymbolTableRecord
100
AcDbBlockTableRecord
  2
*D81
340
0
  0
BLOCK_RECORD
  5
27C4
330
1
100
AcDbSymbolTableRecord
100
AcDbBlockTableRecord
  2
*D82
340
0
  0
BLOCK_RECORD
  5
27CF
330
1
100
AcDbSymbolTableRecord
100
AcDbBlockTableRecord
  2
*D83
340
0
  0
ENDTAB
  0
ENDSEC
  0
SECTION
  2
BLOCKS
  0
BLOCK
  5
20
330
1F
100
AcDbEntity
  8
0
100
AcDbBlockBegin
  2
*Model_Space
 70
     0
 71
     0
 10
0.0
 20
0.0
 30
0.0
  3
*Model_Space
  1

  0
ENDBLK
  5
21
330
1F
100
AcDbEntity
  8
0
100
AcDbBlockEnd
  0
BLOCK
  5
75
330
73
100
AcDbEntity
 67
     1
  8
0
100
AcDbBlockBegin
  2
*Paper_Space
 70
     0
 71
     0
 10
0.0
 20
0.0
 30
0.0
  3
*Paper_Space
  1

  0
ENDBLK
  5
76
330
73
100
AcDbEntity
 67
     1
  8
0
100
AcDbBlockEnd
  0
BLOCK
  5
28CE
330
28CD
100
AcDbEntity
  8
0
100
AcDbBlockBegin
  2
_None
 70
     0
 71
     0
 10
0.0
 20
0.0
 30
0.0
  3
_None
  1

  0
CIRCLE
  5
54
330
28CD
100
AcDbEntity
  8
0
  6
ByBlock
 62
     0
100
AcDbCircle
 10
0.0
 20
0.0
 30
0.0
 40
0.001
  0
ENDBLK
  5
28CF
330
28CD
100
AcDbEntity
  8
0
100
AcDbBlockEnd
  0
BLOCK
  5
28D1
330
56
100
AcDbEntity
  8
0
100
AcDbBlockBegin
  2
_OPEN30
 70
     0
 71
     0
 10
0.0
 20
0.0
 30
0.0
  3
_OPEN30
  1

  0
LINE
  5
58
330
56
100
AcDbEntity
  8
0
  6
ByBlock
 62
     0
100
AcDbLine
 10
0.0
 20
0.0
 30
0.0
 11
-2.999999954944514
 21
-0.9999999849815248
 31
0.0
  0
LINE
  5
51F
330
56
100
AcDbEntity
  8
0
  6
ByBlock
 62
     0
100
AcDbLine
 10
0.0
 20
0.0
 30
0.0
 11
-2.999999954944526
 21
0.9999999849814885
 31
0.0
  0
LINE
  5
520
330
56
100
AcDbEntity
  8
0
  6
ByBlock
 62
     0
100
AcDbLine
 10
0.0
 20
0.0
 30
0.0
 11
-2.99999995494452
 21
0.0
 31
0.0
  0
ENDBLK
  5
28D2
330
56
100
AcDbEntity
  8
0
100
AcDbBlockEnd
  0
BLOCK
  5
28D3
330
E6
100
AcDbEntity
  8
0
100
AcDbBlockBegin
  2
KOZU0001
 70
     0
 71
     0
 10
0.0
 20
0.0
 30
0.0
  3
KOZU0001
  1

  0
POINT
  5
E8
330
E6
100
AcDbEntity
  8
0
  6
Continuous
 62
     7
100
AcDbPoint
 10
2.4967041015625
 20
0.000244140625
 30
0.0
  0
INSERT
  5
EA
330
E6
100
AcDbEntity
  8
0
  6
Continuous
 62
     7
100
AcDbBlockReference
  2
KOZU0031
 10
0.0
 20
0.0
 30
0.0
 50
59.99999193204329
  0
ENDBLK
  5
28D4
330
E6
100
AcDbEntity
  8
0
100
AcDbBlockEnd
  0
BLOCK
  5
28D5
330
E9
100
AcDbEntity
  8
0
100
AcDbBlockBegin
  2
KOZU0031
 70
     0
 71
     0
 10
0.0
 20
0.0
 30
0.0
  3
KOZU0031
  1

  0
LWPOLYLINE
  5
2C2
330
E9
100
AcDbEntity
  8
0
  6
Continuous
 62
     7
100
AcDbPolyline
 90
        3
 70
     1
 43
0.0
 10
0.0
 20
0.0
 10
2.5
 20
0.0
 10
1.25
 20
2.165063509461096
  0
ENDBLK
  5
28D6
330
E9
100
AcDbEntity
  8
0
100
AcDbBlockEnd
  0
BLOCK
  5
28D7
330
EC
100
AcDbEntity
  8
0
100
AcDbBlockBegin
  2
KOZU0002
 70
     0
 71
     0
 10
0.0
 20
0.0
 30
0.0
  3
KOZU0002
  1

  0
POINT
  5
EE
330
EC
100
AcDbEntity
  8
0
  6
Continuous
 62
     7
100
AcDbPoint
 10
1.24835205078125
 20
0.0001220703125
 30
0.0
  0
INSERT
  5
F0
330
EC
100
AcDbEntity
  8
0
  6
Continuous
 62
     7
100
AcDbBlockReference
  2
KOZU0032
 10
1.24835205078125
 20
0.0001220703125
 30
0.0
 50
59.99999193204329
  0
INSERT
  5
F2
330
EC
100
AcDbEntity
  8
0
  6
Continuous
 62
     7
100
AcDbBlockReference
  2
KOZU0033
 10
-1.24835205078125
 20
-0.0001220703125
 30
0.0
 50
59.99999193204329
  0
ENDBLK
  5
28D8
330
EC
100
AcDbEntity
  8
0
100
AcDbBlockEnd
  0
BLOCK
  5
28D9
330
EF
100
AcDbEntity
  8
0
100
AcDbBlockBegin
  2
KOZU0032
 70
     0
 71
     0
 10
0.0
 20
0.0
 30
0.0
  3
KOZU0032
  1

  0
LWPOLYLINE
  5
2C9
330
EF
100
AcDbEntity
  8
0
  6
Continuous
 62
     7
100
AcDbPolyline
 90
        3
 70
     1
 43
0.0
 10
0.0
 20
0.0
 10
2.5
 20
0.0
 10
1.25
 20
2.165063509461096
  0
ENDBLK
  5
28DA
330
EF
100
AcDbEntity
  8
0
100
AcDbBlockEnd
  0
BLOCK
  5
28DB
330
F1
100
AcDbEntity
  8
0
100
AcDbBlockBegin
  2
KOZU0033
 70
     0
 71
     0
 10
0.0
 20
0.0
 30
0.0
  3
KOZU0033
  1

  0
LWPOLYLINE
  5
2D0
330
F1
100
AcDbEntity
  8
0
  6
Continuous
 62
     7
100
AcDbPolyline
 90
        3
 70
     1
 43
0.0
 10
0.0
 20
0.0
 10
2.5
 20
0.0
 10
1.25
 20
2.165063509461096
  0
ENDBLK
  5
28DC
330
F1
100
AcDbEntity
  8
0
100
AcDbBlockEnd
  0
BLOCK
  5
28DD
330
F4
100
AcDbEntity
  8
0
100
AcDbBlockBegin
  2
KOZU0003
 70
     0
 71
     0
 10
0.0
 20
0.0
 30
0.0
  3
KOZU0003
  1

  0
POINT
  5
F6
330
F4
100
AcDbEntity
  8
0
  6
Continuous
 62
     7
100
AcDbPoint
 10
2.4967041015625
 20
0.000244140625
 30
0.0
  0
INSERT
  5
F8
330
F4
100
AcDbEntity
  8
0
  6
Continuous
 62
     7
100
AcDbBlockReference
  2
KOZU0034
 10
2.4967041015625
 20
0.000244140625
 30
0.0
 50
59.99999193204329
  0
INSERT
  5
FA
330
F4
100
AcDbEntity
  8
0
  6
Continuous
 62
     7
100
AcDbBlockReference
  2
KOZU0035
 10
0.0
 20
0.0
 30
0.0
 50
59.99999193204329
  0
INSERT
  5
FC
330
F4
100
AcDbEntity
  8
0
  6
Continuous
 62
     7
100
AcDbBlockReference
  2
KOZU0036
 10
-2.4967041015625
 20
0.000244140625
 30
0.0
 50
59.99999193204329
  0
ENDBLK
  5
28DE
330
F4
100
AcDbEntity
  8
0
100
AcDbBlockEnd
  0
BLOCK
  5
28DF
330
F7
100
AcDbEntity
  8
0
100
AcDbBlockBegin
  2
KOZU0034
 70
     0
 71
     0
 10
0.0
 20
0.0
 30
0.0
  3
KOZU0034
  1

  0
LWPOLYLINE
  5
2D7
330
F7
100
AcDbEntity
  8
0
  6
Continuous
 62
     7
100
AcDbPolyline
 90
        3
 70
     1
 43
0.0
 10
0.0
 20
0.0
 10
2.5
 20
0.0
 10
1.25
 20
2.165063509461096
  0
ENDBLK
  5
28E0
330
F7
100
AcDbEntity
  8
0
100
AcDbBlockEnd
  0
BLOCK
  5
28E1
330
F9
100
AcDbEntity
  8
0
100
AcDbBlockBegin
  2
KOZU0035
 70
     0
 71
     0
 10
0.0
 20
0.0
 30
0.0
  3
KOZU0035
  1

  0
LWPOLYLINE
  5
2DE
330
F9
100
AcDbEntity
  8
0
  6
Continuous
 62
     7
100
AcDbPolyline
 90
        3
 70
     1
 43
0.0
 10
0.0
 20
0.0
 10
2.5
 20
0.0
 10
1.25
 20
2.165063509461096
  0
ENDBLK
  5
28E2
330
F9
100
AcDbEntity
  8
0
100
AcDbBlockEnd
  0
BLOCK
  5
28E3
330
FB
100
AcDbEntity
  8
0
100
AcDbBlockBegin
  2
KOZU0036
 70
     0
 71
     0
 10
0.0
 20
0.0
 30
0.0
  3
KOZU0036
  1

  0
LWPOLYLINE
  5
2E5
330
FB
100
AcDbEntity
  8
0
  6
Continuous
 62
     7
100
AcDbPolyline
 90
        3
 70
     1
 43
0.0
 10
0.0
 20
0.0
 10
2.5
 20
0.0
 10
1.25
 20
2.165063509461096
  0
ENDBLK
  5
28E4
330
FB
100
AcDbEntity
  8
0
100
AcDbBlockEnd
  0
BLOCK
  5
28E5
330
FE
100
AcDbEntity
  8
0
100
AcDbBlockBegin
  2
KOZU0004
 70
     0
 71
     0
 10
0.0
 20
0.0
 30
0.0
  3
KOZU0004
  1

  0
LINE
  5
100
330
FE
100
AcDbEntity
  8
0
  6
Continuous
 62
     7
100
AcDbLine
 10
-43.44632553897853
 20
5.133429503262494
 30
0.0
 11
-22.2331221033821
 21
26.34663293885892
 31
0.0
  0
LINE
  5
101
330
FE
100
AcDbEntity
  8
0
  6
Continuous
 62
     7
100
AcDbLine
 10
-13.44638286635845
 20
-24.86642685261183
 30
0.0
 11
7.766820569237978
 21
-3.653223417015406
 31
0.0
  0
LINE
  5
102
330
FE
100
AcDbEntity
  8
0
  6
Continuous
 62
     7
100
AcDbLine
 10
-13.44621023286695
 20
5.133562350129001
 30
0.0
 11
7.766863727610851
 21
26.3466363106068
 31
0.0
  0
LINE
  5
103
330
FE
100
AcDbEntity
  8
0
  6
Continuous
 62
     7
100
AcDbLine
 10
16.55362049772348
 20
-24.86644101395293
 30
0.0
 11
37.76678077494704
 21
-3.653280736729382
 31
0.0
  0
LINE
  5
104
330
FE
100
AcDbEntity
  8
0
  6
Continuous
 62
     7
100
AcDbLine
 10
16.55364949475526
 20
5.133605508501876
 30
0.0
 11
37.76680977197881
 21
26.34676578572543
 31
0.0
  0
LINE
  5
105
330
FE
100
AcDbEntity
  8
0
  6
Continuous
 62
     7
100
AcDbLine
 10
-43.44619943560777
 20
-24.86642685261183
 30
0.0
 11
-22.23303915838423
 21
-3.653266575388281
 31
0.0
  0
LINE
  5
106
330
FE
100
AcDbEntity
  8
0
  6
Continuous
 62
     7
100
AcDbLine
 10
-58.44641926973664
 20
41.34665788596028
 30
0.0
 11
-37.23319425495377
 21
20.1334328711774
 31
0.0
  0
LINE
  5
107
330
FE
100
AcDbEntity
  8
0
  6
Continuous
 62
     7
100
AcDbLine
 10
-28.44643006699581
 20
11.34666868321943
 30
0.0
 11
-7.233226631399381
 21
-9.866534752376994
 31
0.0
  0
LINE
  5
108
330
FE
100
AcDbEntity
  8
0
  6
Continuous
 62
     7
100
AcDbLine
 10
1.553548346151807
 20
-18.65330972992818
 30
0.0
 11
22.76671941296858
 21
-39.86648079674495
 31
0.0
  0
LINE
  5
109
330
FE
100
AcDbEntity
  8
0
  6
Continuous
 62
     7
100
AcDbLine
 10
31.55346404478884
 20
11.34658438952241
 30
0.0
 11
52.76663511160561
 21
-9.866586677294356
 31
0.0
  0
LINE
  5
10A
330
FE
100
AcDbEntity
  8
0
  6
Continuous
 62
     7
100
AcDbLine
 10
1.553496421234442
 20
41.34655201307681
 30
0.0
 11
22.76667827764443
 21
20.13337015666682
 31
0.0
  0
LINE
  5
10B
330
FE
100
AcDbEntity
  8
0
  6
Continuous
 62
     7
100
AcDbLine
 10
1.55343303237428
 20
11.34649942147581
 30
0.0
 11
22.76660409919105
 21
-9.866671645340956
 31
0.0
  0
LINE
  5
10C
330
FE
100
AcDbEntity
  8
0
  6
Continuous
 62
     7
100
AcDbLine
 10
31.55337907674224
 20
-18.65344662289215
 30
0.0
 11
52.76658251233868
 21
-39.86665005848857
 31
0.0
  0
LINE
  5
10D
330
FE
100
AcDbEntity
  8
0
  6
Continuous
 62
     7
100
AcDbLine
 10
-28.44655617036655
 20
41.34648862421665
 30
0.0
 11
-7.233374313956563
 21
20.13330676780666
 31
0.0
  0
LINE
  5
10E
330
FE
100
AcDbEntity
  8
0
  6
Continuous
 62
     7
100
AcDbLine
 10
31.55346404478884
 20
41.34657359226324
 30
0.0
 11
52.76664590119883
 21
20.13339173585326
 31
0.0
  0
LINE
  5
10F
330
FE
100
AcDbEntity
  8
0
  6
Continuous
 62
     7
100
AcDbLine
 10
-58.44632014034895
 20
11.34668149586138
 30
0.0
 11
-37.23313828393896
 21
-9.866500360548613
 31
0.0
  0
LINE
  5
110
330
FE
100
AcDbEntity
  8
0
  6
Continuous
 62
     7
100
AcDbLine
 10
-28.44635251679455
 20
-18.65328612769302
 30
0.0
 11
-7.233181449977781
 21
-39.86645719450978
 31
0.0
  0
LINE
  5
111
330
FE
100
AcDbEntity
  8
0
  6
Continuous
 62
     7
100
AcDbLine
 10
-58.44641724668791
 20
-18.65340481321843
 30
0.0
 11
-37.23325696946436
 21
-39.86656509044197
 31
0.0
  0
ENDBLK
  5
28E6
330
FE
100
AcDbEntity
  8
0
100
AcDbBlockEnd
  0
BLOCK
  5
28E7
330
113
100
AcDbEntity
  8
0
100
AcDbBlockBegin
  2
KOZU0005
 70
     0
 71
     0
 10
0.0
 20
0.0
 30
0.0
  3
KOZU0005
  1

  0
POINT
  5
115
330
113
100
AcDbEntity
  8
0
  6
Continuous
 62
     7
100
AcDbPoint
 10
65.0
 20
0.0
 30
0.0
  0
POINT
  5
116
330
113
100
AcDbEntity
  8
0
  6
Continuous
 62
     7
100
AcDbPoint
 10
0.0
 20
0.0
 30
0.0
  0
LINE
  5
117
330
113
100
AcDbEntity
  8
0
  6
Continuous
 62
     7
100
AcDbLine
 10
65.0
 20
2.0
 30
0.0
 11
65.0
 21
0.0
 31
0.0
  0
LINE
  5
118
330
113
100
AcDbEntity
  8
0
  6
Continuous
 62
     7
100
AcDbLine
 10
65.0
 20
0.0
 30
0.0
 11
0.0
 21
0.0
 31
0.0
  0
LINE
  5
119
330
113
100
AcDbEntity
  8
0
  6
Continuous
 62
     7
100
AcDbLine
 10
0.0
 20
0.0
 30
0.0
 11
0.0
 21
65.0
 31
0.0
  0
LINE
  5
11A
330
113
100
AcDbEntity
  8
0
  6
Continuous
 62
     7
100
AcDbLine
 10
0.0
 20
65.0
 30
0.0
 11
2.0
 21
65.0
 31
0.0
  0
LINE
  5
11B
330
113
100
AcDbEntity
  8
0
  6
Continuous
 62
     7
100
AcDbLine
 10
6.0
 20
61.0
 30
0.0
 11
6.0
 21
14.5
 31
0.0
  0
LINE
  5
11C
330
113
100
AcDbEntity
  8
0
  6
Continuous
 62
     7
100
AcDbLine
 10
14.5
 20
6.0
 30
0.0
 11
61.0
 21
6.0
 31
0.0
  0
ARC
  5
11D
330
113
100
AcDbEntity
  8
0
  6
Continuous
 62
     7
100
AcDbCircle
 10
61.0
 20
2.0
 30
0.0
 40
4.0
100
AcDbArc
 50
0.0000359721780749
 51
89.99998201391065
  0
ARC
  5
11E
330
113
100
AcDbEntity
  8
0
  6
Continuous
 62
     7
100
AcDbCircle
 10
2.0
 20
61.0
 30
0.0
 40
4.0
100
AcDbArc
 50
0.0000359721780749
 51
89.99998201391065
  0
ARC
  5
11F
330
113
100
AcDbEntity
  8
0
  6
Continuous
 62
     7
100
AcDbCircle
 10
14.5
 20
14.5
 30
0.0
 40
8.5
100
AcDbArc
 50
179.9999640278213
 51
269.9999460417327
  0
ENDBLK
  5
28E8
330
113
100
AcDbEntity
  8
0
100
AcDbBlockEnd
  0
BLOCK
  5
28E9
330
121
100
AcDbEntity
  8
0
100
AcDbBlockBegin
  2
KOZU0006
 70
     0
 71
     0
 10
0.0
 20
0.0
 30
0.0
  3
KOZU0006
  1

  0
CIRCLE
  5
123
330
121
100
AcDbEntity
  8
0
  6
Continuous
 62
     7
100
AcDbCircle
 10
0.0
 20
0.0
 30
0.0
 40
8.75
  0
CIRCLE
  5
124
330
121
100
AcDbEntity
  8
0
  6
Continuous
 62
     7
100
AcDbCircle
 10
0.0
 20
0.0
 30
0.0
 40
4.5
  0
ENDBLK
  5
28EA
330
121
100
AcDbEntity
  8
0
100
AcDbBlockEnd
  0
BLOCK
  5
28EB
330
126
100
AcDbEntity
  8
0
100
AcDbBlockBegin
  2
KOZU0007
 70
     0
 71
     0
 10
0.0
 20
0.0
 30
0.0
  3
KOZU0007
  1

  0
CIRCLE
  5
128
330
126
100
AcDbEntity
  8
0
  6
Continuous
 62
     7
100
AcDbCircle
 10
0.0
 20
0.0
 30
0.0
 40
8.75
  0
ENDBLK
  5
28EC
330
126
100
AcDbEntity
  8
0
100
AcDbBlockEnd
  0
BLOCK
  5
28ED
330
12A
100
AcDbEntity
  8
0
100
AcDbBlockBegin
  2
KOZU0008
 70
     0
 71
     0
 10
0.0
 20
0.0
 30
0.0
  3
KOZU0008
  1

  0
POINT
  5
12C
330
12A
100
AcDbEntity
  8
0
  6
Continuous
 62
     7
100
AcDbPoint
 10
0.0
 20
0.0
 30
0.0
  0
INSERT
  5
12E
330
12A
100
AcDbEntity
  8
0
  6
Continuous
 62
     7
100
AcDbBlockReference
  2
KOZU0037
 10
0.0
 20
0.0
 30
0.0
  0
ENDBLK
  5
28EE
330
12A
100
AcDbEntity
  8
0
100
AcDbBlockEnd
  0
BLOCK
  5
28EF
330
12D
100
AcDbEntity
  8
0
100
AcDbBlockBegin
  2
KOZU0037
 70
     0
 71
     0
 10
0.0
 20
0.0
 30
0.0
  3
KOZU0037
  1

  0
LWPOLYLINE
  5
2EC
330
12D
100
AcDbEntity
  8
0
  6
Continuous
 62
     7
100
AcDbPolyline
 90
        2
 70
     1
 43
30.0
 10
-15.0
 20
0.0
 42
1.0
 10
15.0
 20
0.0
 42
1.0
  0
ENDBLK
  5
28F0
330
12D
100
AcDbEntity
  8
0
100
AcDbBlockEnd
  0
BLOCK
  5
28F1
330
130
100
AcDbEntity
  8
0
100
AcDbBlockBegin
  2
KOZU0009
 70
     0
 71
     0
 10
0.0
 20
0.0
 30
0.0
  3
KOZU0009
  1

  0
POINT
  5
132
330
130
100
AcDbEntity
  8
0
  6
Continuous
 62
     7
100
AcDbPoint
 10
0.0
 20
0.0
 30
0.0
  0
TEXT
  5
133
330
130
100
AcDbEntity
  8
0
  6
Continuous
 62
     7
100
AcDbText
 10
-33.58189249038696
 20
14.5
 30
0.0
 40
3.0
  1
株式会社
 41
0.7932772975190165
100
AcDbText
  0
TEXT
  5
134
330
130
100
AcDbEntity
  8
0
  6
Continuous
 62
     7
100
AcDbText
 10
-33.58189249038696
 20
8.699999809265138
 30
0.0
 40
3.0
  1
ゴス　　グラフィック
 41
0.7790205686619511
100
AcDbText
  0
TEXT
  5
135
330
130
100
AcDbEntity
  8
0
  6
Continuous
 62
     7
100
AcDbText
 10
-33.58189249038696
 20
2.899999618530273
 30
0.0
 40
3.0
  1
システムズ　ジャパン
 41
0.7790205686619511
100
AcDbText
  0
ENDBLK
  5
28F2
330
130
100
AcDbEntity
  8
0
100
AcDbBlockEnd
  0
BLOCK
  5
28F3
330
137
100
AcDbEntity
  8
0
100
AcDbBlockBegin
  2
KOZU0010
 70
     0
 71
     0
 10
0.0
 20
0.0
 30
0.0
  3
KOZU0010
  1

  0
POINT
  5
139
330
137
100
AcDbEntity
  8
0
  6
Continuous
 62
     7
100
AcDbPoint
 10
0.0
 20
0.0
 30
0.0
  0
INSERT
  5
13B
330
137
100
AcDbEntity
  8
0
  6
Continuous
 62
     7
100
AcDbBlockReference
  2
KOZU0038
 10
0.0
 20
0.0
 30
0.0
  0
ENDBLK
  5
28F4
330
137
100
AcDbEntity
  8
0
100
AcDbBlockEnd
  0
BLOCK
  5
28F5
330
13A
100
AcDbEntity
  8
0
100
AcDbBlockBegin
  2
KOZU0038
 70
     0
 71
     0
 10
0.0
 20
0.0
 30
0.0
  3
KOZU0038
  1

  0
LWPOLYLINE
  5
2F2
330
13A
100
AcDbEntity
  8
0
  6
Continuous
 62
     7
100
AcDbPolyline
 90
        2
 70
     1
 43
30.0
 10
-15.0
 20
0.0
 42
1.0
 10
15.0
 20
0.0
 42
1.0
  0
ENDBLK
  5
28F6
330
13A
100
AcDbEntity
  8
0
100
AcDbBlockEnd
  0
BLOCK
  5
28F7
330
13D
100
AcDbEntity
  8
0
100
AcDbBlockBegin
  2
KOZU0011
 70
     0
 71
     0
 10
0.0
 20
0.0
 30
0.0
  3
KOZU0011
  1

  0
POINT
  5
13F
330
13D
100
AcDbEntity
  8
0
  6
Continuous
 62
     7
100
AcDbPoint
 10
0.0
 20
0.0
 30
0.0
  0
INSERT
  5
141
330
13D
100
AcDbEntity
  8
0
  6
Continuous
 62
     7
100
AcDbBlockReference
  2
KOZU0039
 10
0.0
 20
0.0
 30
0.0
  0
ENDBLK
  5
28F8
330
13D
100
AcDbEntity
  8
0
100
AcDbBlockEnd
  0
BLOCK
  5
28F9
330
140
100
AcDbEntity
  8
0
100
AcDbBlockBegin
  2
KOZU0039
 70
     0
 71
     0
 10
0.0
 20
0.0
 30
0.0
  3
KOZU0039
  1

  0
LWPOLYLINE
  5
2F8
330
140
100
AcDbEntity
  8
0
  6
Continuous
 62
     7
100
AcDbPolyline
 90
        2
 70
     1
 43
30.0
 10
-15.0
 20
0.0
 42
1.0
 10
15.0
 20
0.0
 42
1.0
  0
ENDBLK
  5
28FA
330
140
100
AcDbEntity
  8
0
100
AcDbBlockEnd
  0
BLOCK
  5
28FB
330
143
100
AcDbEntity
  8
0
100
AcDbBlockBegin
  2
KOZU0012
 70
     0
 71
     0
 10
0.0
 20
0.0
 30
0.0
  3
KOZU0012
  1

  0
POINT
  5
145
330
143
100
AcDbEntity
  8
0
  6
Continuous
 62
     7
100
AcDbPoint
 10
0.0
 20
0.0
 30
0.0
  0
INSERT
  5
147
330
143
100
AcDbEntity
  8
0
  6
Continuous
 62
     7
100
AcDbBlockReference
  2
KOZU0040
 10
0.0
 20
0.0
 30
0.0
  0
ENDBLK
  5
28FC
330
143
100
AcDbEntity
  8
0
100
AcDbBlockEnd
  0
BLOCK
  5
28FD
330
146
100
AcDbEntity
  8
0
100
AcDbBlockBegin
  2
KOZU0040
 70
     0
 71
     0
 10
0.0
 20
0.0
 30
0.0
  3
KOZU0040
  1

  0
LWPOLYLINE
  5
2FE
330
146
100
AcDbEntity
  8
0
  6
Continuous
 62
     7
100
AcDbPolyline
 90
        2
 70
     1
 43
30.0
 10
-15.0
 20
0.0
 42
1.0
 10
15.0
 20
0.0
 42
1.0
  0
ENDBLK
  5
28FE
330
146
100
AcDbEntity
  8
0
100
AcDbBlockEnd
  0
BLOCK
  5
28FF
330
149
100
AcDbEntity
  8
0
100
AcDbBlockBegin
  2
KOZU0013
 70
     0
 71
     0
 10
0.0
 20
0.0
 30
0.0
  3
KOZU0013
  1

  0
POINT
  5
14B
330
149
100
AcDbEntity
  8
0
  6
Continuous
 62
     7
100
AcDbPoint
 10
0.0
 20
0.0
 30
0.0
  0
INSERT
  5
14D
330
149
100
AcDbEntity
  8
0
  6
Continuous
 62
     7
100
AcDbBlockReference
  2
KOZU0041
 10
0.0
 20
0.0
 30
0.0
  0
ENDBLK
  5
2900
330
149
100
AcDbEntity
  8
0
100
AcDbBlockEnd
  0
BLOCK
  5
2901
330
14C
100
AcDbEntity
  8
0
100
AcDbBlockBegin
  2
KOZU0041
 70
     0
 71
     0
 10
0.0
 20
0.0
 30
0.0
  3
KOZU0041
  1

  0
LWPOLYLINE
  5
304
330
14C
100
AcDbEntity
  8
0
  6
Continuous
 62
     7
100
AcDbPolyline
 90
        2
 70
     1
 43
30.0
 10
-15.0
 20
0.0
 42
1.0
 10
15.0
 20
0.0
 42
1.0
  0
ENDBLK
  5
2902
330
14C
100
AcDbEntity
  8
0
100
AcDbBlockEnd
  0
BLOCK
  5
2903
330
14F
100
AcDbEntity
  8
0
100
AcDbBlockBegin
  2
KOZU0014
 70
     0
 71
     0
 10
0.0
 20
0.0
 30
0.0
  3
KOZU0014
  1

  0
POINT
  5
151
330
14F
100
AcDbEntity
  8
0
  6
Continuous
 62
     7
100
AcDbPoint
 10
0.0
 20
0.0
 30
0.0
  0
INSERT
  5
153
330
14F
100
AcDbEntity
  8
0
  6
Continuous
 62
     7
100
AcDbBlockReference
  2
KOZU0042
 10
0.0
 20
0.0
 30
0.0
  0
ENDBLK
  5
2904
330
14F
100
AcDbEntity
  8
0
100
AcDbBlockEnd
  0
BLOCK
  5
2905
330
152
100
AcDbEntity
  8
0
100
AcDbBlockBegin
  2
KOZU0042
 70
     0
 71
     0
 10
0.0
 20
0.0
 30
0.0
  3
KOZU0042
  1

  0
LWPOLYLINE
  5
30A
330
152
100
AcDbEntity
  8
0
  6
Continuous
 62
     7
100
AcDbPolyline
 90
        2
 70
     1
 43
30.0
 10
-15.0
 20
0.0
 42
1.0
 10
15.0
 20
0.0
 42
1.0
  0
ENDBLK
  5
2906
330
152
100
AcDbEntity
  8
0
100
AcDbBlockEnd
  0
BLOCK
  5
2907
330
155
100
AcDbEntity
  8
0
100
AcDbBlockBegin
  2
KOZU0015
 70
     0
 71
     0
 10
0.0
 20
0.0
 30
0.0
  3
KOZU0015
  1

  0
ENDBLK
  5
2908
330
155
100
AcDbEntity
  8
0
100
AcDbBlockEnd
  0
BLOCK
  5
2909
330
158
100
AcDbEntity
  8
0
100
AcDbBlockBegin
  2
KOZU0016
 70
     0
 71
     0
 10
0.0
 20
0.0
 30
0.0
  3
KOZU0016
  1

  0
LINE
  5
15A
330
158
100
AcDbEntity
  8
0
  6
Continuous
 62
     7
100
AcDbLine
 10
0.0
 20
0.0
 30
0.0
 11
0.69964599609375
 21
0.0
 31
0.0
  0
LINE
  5
15B
330
158
100
AcDbEntity
  8
0
  6
Continuous
 62
     7
100
AcDbLine
 10
0.69964599609375
 20
0.149932861328125
 30
0.0
 11
0.69964599609375
 21
0.0
 31
0.0
  0
LINE
  5
15C
330
158
100
AcDbEntity
  8
0
  6
Continuous
 62
     7
100
AcDbLine
 10
0.182830810546875
 20
0.149932861328125
 30
0.0
 11
0.69964599609375
 21
0.149932861328125
 31
0.0
  0
LINE
  5
15D
330
158
100
AcDbEntity
  8
0
  6
Continuous
 62
     7
100
AcDbLine
 10
0.019989013671875
 20
0.699676513671875
 30
0.0
 11
0.1699066162109375
 21
0.699676513671875
 31
0.0
  0
LINE
  5
15E
330
158
100
AcDbEntity
  8
0
  6
Continuous
 62
     7
100
AcDbLine
 10
0.5012409695434401
 20
0.5816915985492968
 30
0.0
 11
0.2550632969412037
 21
0.4404590138153239
 31
0.0
  0
LINE
  5
15F
330
158
100
AcDbEntity
  8
0
  6
Continuous
 62
     7
100
AcDbLine
 10
0.5749653034799671
 20
0.4520909784490509
 30
0.0
 11
0.3290175653954674
 21
0.3100917927593054
 31
0.0
  0
ARC
  5
160
330
158
100
AcDbEntity
  8
0
  6
Continuous
 62
     7
100
AcDbCircle
 10
0.5077362060546875
 20
0.00006103515625
 30
0.0
 40
0.50773686170578
100
AcDbArc
 50
119.8429363091506
 51
180.0060838773183
  0
ARC
  5
161
330
158
100
AcDbEntity
  8
0
  6
Continuous
 62
     7
100
AcDbCircle
 10
0.50823974609375
 20
-0.00030517578125
 30
0.0
 40
0.35841304063797
100
AcDbArc
 50
120.000194584601
 51
155.2193273793414
  0
LWPOLYLINE
  5
162
330
158
100
AcDbEntity
  8
0
  6
Continuous
 62
     7
100
AcDbPolyline
 90
       17
 70
     0
 43
0.0
 10
0.5748726046250198
 20
0.4520955666078392
 42
0.0643547735545519
 10
0.6427997437583612
 20
0.5032348522470527
 42
0.0643547735545519
 10
0.6931142866557031
 20
0.5672841103376081
 42
0.0643547735545519
 10
0.7225096065075889
 20
0.6400340808578037
 42
0.0643547735545519
 10
0.7290538691543986
 20
0.7167037007380607
 42
0.0643547735545519
 10
0.7123169915014647
 20
0.7922543110545739
 42
0.0643547735545519
 10
0.6733989061958288
 20
0.8617207931923726
 42
0.0643547735545519
 10
0.6148572750353312
 20
0.9205378720049828
 42
0.0643547735545519
 10
0.5405394017202072
 20
0.9648401416185498
 42
0.0643547735545519
 10
0.4553293904909928
 20
0.9917160964526132
 42
0.0643547735545519
 10
0.3648271671611735
 20
0.9993994727657852
 42
0.0643547735545519
 10
0.2749804569955572
 20
0.9873853259309012
 42
0.0643547735545519
 10
0.1916939055194191
 20
0.9564632149448108
 42
0.0643547735545519
 10
0.1204410304896436
 20
0.908665313316477
 42
0.0643547735545519
 10
0.0659045071976463
 20
0.8471328564394611
 42
0.0643547735545519
 10
0.0316684272326089
 20
0.7759097024081596
 42
0.0643547735545519
 10
0.0199827551841736
 20
0.6996765732765197
 42
-1.0
  0
LWPOLYLINE
  5
175
330
158
100
AcDbEntity
  8
0
  6
Continuous
 62
     7
100
AcDbPolyline
 90
       17
 70
     0
 43
0.0
 10
0.50114781081335
 20
0.5816559532775413
 42
0.0633335972868038
 10
0.5375025989632389
 20
0.6085512093559967
 42
0.0633335972868038
 10
0.5634987802165671
 20
0.6412480979942741
 42
0.0633335972868038
 10
0.5774812677374374
 20
0.6776649215217555
 42
0.0633335972868038
 10
0.5785598449666032
 20
0.7154831468955233
 42
0.0633335972868038
 10
0.5666658426269849
 20
0.7522950186701458
 42
0.0633335972868038
 10
0.5425565106587413
 20
0.7857568524488575
 42
0.0633335972868038
 10
0.5077668067379276
 20
0.8137382491529461
 42
0.0633335972868038
 10
0.4645116708368029
 20
0.834457730153545
 42
0.0633335972868038
 10
0.4155450076661119
 20
0.8465961578466903
 42
0.0633335972868038
 10
0.3639843550988929
 20
0.849380720576407
 42
0.0633335972868038
 10
0.3131124013301034
 20
0.8426341348766054
 42
0.0633335972868038
 10
0.2661679874871615
 20
0.8267859324954367
 42
0.0633335972868038
 10
0.2261399018314362
 20
0.8028451135963518
 42
0.0633335972868038
 10
0.1955765939597884
 20
0.7723359072118516
 42
0.0633335972868038
 10
0.1764239238439918
 20
0.7372007288593763
 42
0.0633335972868038
 10
0.1699012756648244
 20
0.699676513671875
 42
-1.0
  0
ENDBLK
  5
290A
330
158
100
AcDbEntity
  8
0
100
AcDbBlockEnd
  0
BLOCK
  5
290B
330
189
100
AcDbEntity
  8
0
100
AcDbBlockBegin
  2
KOZU0017
 70
     0
 71
     0
 10
0.0
 20
0.0
 30
0.0
  3
KOZU0017
  1

  0
LINE
  5
18B
330
189
100
AcDbEntity
  8
0
  6
Continuous
 62
     7
100
AcDbLine
 10
0.0
 20
0.55010986328125
 30
0.0
 11
0.0
 21
0.447906494140625
 31
0.0
  0
LINE
  5
18C
330
189
100
AcDbEntity
  8
0
  6
Continuous
 62
     7
100
AcDbLine
 10
0.1496734619140625
 20
0.550628662109375
 30
0.0
 11
0.1496734619140625
 21
0.4473876953125
 31
0.0
  0
LINE
  5
18D
330
189
100
AcDbEntity
  8
0
  6
Continuous
 62
     7
100
AcDbLine
 10
0.598785400390625
 20
0.550628662109375
 30
0.0
 11
0.598785400390625
 21
0.4473876953125
 31
0.0
  0
LINE
  5
18E
330
189
100
AcDbEntity
  8
0
  6
Continuous
 62
     7
100
AcDbLine
 10
0.7484893798828125
 20
0.550628662109375
 30
0.0
 11
0.7484893798828125
 21
0.4473876953125
 31
0.0
  0
LWPOLYLINE
  5
18F
330
189
100
AcDbEntity
  8
0
  6
Continuous
 62
     7
100
AcDbPolyline
 90
       17
 70
     0
 43
0.0
 10
0.7484851880796372
 20
0.5501098036766181
 42
0.0491268476851062
 10
0.7412941285837034
 20
0.6374893578170968
 42
0.0491268476851062
 10
0.7199972649852864
 20
0.7215109672691187
 42
0.0491268476851062
 10
0.6854130237399403
 20
0.7989457289739773
 42
0.0491268476851062
 10
0.6388704577314227
 20
0.8668178687165666
 42
0.0491268476851062
 10
0.5821581715190253
 20
0.922519098449978
 42
0.0491268476851062
 10
0.5174555862732271
 20
0.9639088513339312
 42
0.0491268476851062
 10
0.4472491858494183
 20
0.9893965425110584
 42
0.0491268476851062
 10
0.3742369626158441
 20
0.9980026943857988
 42
0.0491268476851062
 10
0.301224735128699
 20
0.9893965773959216
 42
0.0491268476851062
 10
0.2310183221076402
 20
0.9639089197630516
 42
0.0491268476851062
 10
0.1663157164050178
 20
0.9225191977936628
 42
0.0491268476851062
 10
0.1096034026623665
 20
0.8668179951570947
 42
0.0491268476851062
 10
0.0630608031081371
 20
0.7989458776523097
 42
0.0491268476851062
 10
0.0284765235907645
 20
0.7215111324716315
 42
0.0491268476851062
 10
0.0071796184647785
 20
0.6374895331951509
 42
0.0491268476851062
 10
-0.0000114842183858
 20
0.5501099824905334
 42
-1.0
  0
LWPOLYLINE
  5
1A2
330
189
100
AcDbEntity
  8
0
  6
Continuous
 62
     7
100
AcDbPolyline
 90
       17
 70
     0
 43
0.0
 10
0.5987777227752895
 20
0.550628662109375
 42
0.0491268497694672
 10
0.5944417246481589
 20
0.6086997296019055
 42
0.0491268497694672
 10
0.5816427978124645
 20
0.664539158537328
 42
0.0491268497694672
 10
0.5608727978487814
 20
0.7160010709767664
 42
0.0491268497694672
 10
0.5329299042077635
 20
0.7611078144853464
 42
0.0491268497694672
 10
0.4988879466214801
 20
0.7981259622061865
 42
0.0491268497694672
 10
0.4600551384290222
 20
0.8256329274823908
 42
0.0491268497694672
 10
0.4179238026715361
 20
0.8425716330644791
 42
0.0491268497694672
 10
0.3741130229546568
 20
0.8482911339962671
 42
0.0491268497694672
 10
0.3303064229735355
 20
0.8425716330644791
 42
0.0491268497694672
 10
0.2881874657984227
 20
0.8256329274823908
 42
0.0491268497694672
 10
0.2493747593329747
 20
0.7981259622061865
 42
0.0491268497694672
 10
0.2153598541202417
 20
0.7611078144853465
 42
0.0491268497694672
 10
0.1874499238917707
 20
0.7160010709767664
 42
0.0491268497694672
 10
0.1667175316141727
 20
0.664539158537328
 42
0.0491268497694672
 10
0.153959411495816
 20
0.6086997296019055
 42
0.0491268497694672
 10
0.1496658509380131
 20
0.550628662109375
 42
-1.0
  0
LWPOLYLINE
  5
1B5
330
189
100
AcDbEntity
  8
0
  6
Continuous
 62
     7
100
AcDbPolyline
 90
       17
 70
     0
 43
0.0
 10
-0.0000112211107969
 20
0.4479065239429394
 42
0.0491268487272869
 10
0.0071798454368174
 20
0.3605269603258108
 42
0.0491268487272869
 10
0.0284767131721659
 20
0.2765053430483931
 42
0.0491268487272869
 10
0.0630609554461574
 20
0.1990705756064548
 42
0.0491268487272869
 10
0.1096035192793864
 20
0.1311984325612232
 42
0.0491268487272869
 10
0.1663158001206343
 20
0.0754972021966581
 42
0.0491268487272869
 10
0.2310183769138089
 20
0.0341074514676772
 42
0.0491268487272869
 10
0.301224766023361
 20
0.0086197652159947
 42
0.0491268487272869
 10
0.3742369754019259
 20
0.0000136208892468
 42
0.0491268487272869
 10
0.4472491869072767
 20
0.0086197477735641
 42
0.0491268487272869
 10
0.5174555823154552
 20
0.0341074172531184
 42
0.0491268487272869
 10
0.582158169337045
 20
0.0754971525248176
 42
0.0491268487272869
 10
0.638870463943424
 20
0.1311983693409619
 42
0.0491268487272869
 10
0.6854130445495137
 20
0.1990705012672917
 42
0.0491268487272869
 10
0.7199973059595239
 20
0.2765052604471409
 42
0.0491268487272869
 10
0.7412941944586628
 20
0.3605268726367888
 42
0.0491268487272869
 10
0.7484852825998984
 20
0.4479064345359874
 42
-1.0
  0
LWPOLYLINE
  5
1C8
330
189
100
AcDbEntity
  8
0
  6
Continuous
 62
     7
100
AcDbPolyline
 90
       17
 70
     0
 43
0.0
 10
0.1496659576772763
 20
0.4473876953125002
 42
0.0491268482012981
 10
0.1539807340146741
 20
0.3893166370948513
 42
0.0491268482012981
 10
0.1667592511077331
 20
0.3334772169360964
 42
0.0491268482012981
 10
0.1875104377420417
 20
0.2820153123014926
 42
0.0491268482012981
 10
0.2154368375033088
 20
0.2369085752003304
 42
0.0491268482012981
 10
0.2494652545781989
 20
0.1998904321331258
 42
0.0491268482012981
 10
0.2882879960649637
 20
0.1723834694875548
 42
0.0491268482012981
 10
0.3304131258750996
 20
0.1554447643448439
 42
0.0491268482012981
 10
0.3742217989969003
 20
0.1497252616029348
 42
0.0491268482012981
 10
0.4180304727974447
 20
0.1554447585307003
 42
0.0491268482012981
 10
0.4601556046177275
 20
0.172383458082702
 42
0.0491268482012981
 10
0.4989783493687935
 20
0.1998904155758457
 42
0.0491268482012981
 10
0.5330067708366945
 20
0.2369085541269101
 42
0.0491268482012981
 10
0.5609331759508605
 20
0.2820152875217717
 42
0.0491268482012981
 10
0.5816843686922474
 20
0.3334771894023456
 42
0.0491268482012981
 10
0.5944628924118726
 20
0.389316607865177
 42
0.0491268482012981
 10
0.5987776756406693
 20
0.4473876655101824
 42
-1.0
  0
ENDBLK
  5
290C
330
189
100
AcDbEntity
  8
0
100
AcDbBlockEnd
  0
BLOCK
  5
290D
330
1DC
100
AcDbEntity
  8
0
100
AcDbBlockBegin
  2
KOZU0018
 70
     0
 71
     0
 10
0.0
 20
0.0
 30
0.0
  3
KOZU0018
  1

  0
LINE
  5
1DE
330
1DC
100
AcDbEntity
  8
0
  6
Continuous
 62
     7
100
AcDbLine
 10
0.0
 20
0.34930419921875
 30
0.0
 11
0.149932861328125
 21
0.34930419921875
 31
0.0
  0
LINE
  5
1DF
330
1DC
100
AcDbEntity
  8
0
  6
Continuous
 62
     7
100
AcDbLine
 10
0.024444580078125
 20
0.499755859375
 30
0.0
 11
0.22674560546875
 21
0.499755859375
 31
0.0
  0
LINE
  5
1E0
330
1DC
100
AcDbEntity
  8
0
  6
Continuous
 62
     7
100
AcDbLine
 10
0.2515411376953125
 20
0.849578857421875
 30
0.0
 11
0.6996612548828125
 21
0.849578857421875
 31
0.0
  0
LINE
  5
1E1
330
1DC
100
AcDbEntity
  8
0
  6
Continuous
 62
     7
100
AcDbLine
 10
0.1299591064453125
 20
0.99951171875
 30
0.0
 11
0.6996612548828125
 21
0.99951171875
 31
0.0
  0
LINE
  5
1E2
330
1DC
100
AcDbEntity
  8
0
  6
Continuous
 62
     7
100
AcDbLine
 10
0.024444342635095
 20
0.4997472006331586
 30
0.0
 11
0.1299570442125043
 21
0.999518013928292
 31
0.0
  0
LINE
  5
1E3
330
1DC
100
AcDbEntity
  8
0
  6
Continuous
 62
     7
100
AcDbLine
 10
0.6996612548828125
 20
0.99951171875
 30
0.0
 11
0.6996612548828125
 21
0.849578857421875
 31
0.0
  0
LINE
  5
1E4
330
1DC
100
AcDbEntity
  8
0
  6
Continuous
 62
     7
100
AcDbLine
 10
0.2124865266822817
 20
0.6646244195860755
 30
0.0
 11
0.2515365112287654
 21
0.8495883361970121
 31
0.0
  0
LWPOLYLINE
  5
1E5
330
1DC
100
AcDbEntity
  8
0
  6
Continuous
 62
     7
100
AcDbPolyline
 90
       17
 70
     0
 43
0.0
 10
0.0000029802322387
 20
0.3493043482303618
 42
0.0808055649786835
 10
0.0193108647076723
 20
0.2384247648574462
 42
0.0808055649786835
 10
0.075279085625734
 20
0.1389792448190796
 42
0.0808055649786835
 10
0.1621361127258265
 20
0.0612227652928017
 42
0.0808055649786835
 10
0.2709251138623011
 20
0.0131736957601159
 42
0.0808055649786835
 10
0.3904275975094307
 20
-0.0002130687644052
 42
0.0808055649786835
 10
0.5083202811102154
 20
0.022442935762537
 42
0.0808055649786835
 10
0.6124458871999828
 20
0.0788053868070723
 42
0.0808055649786835
 10
0.6920668208258778
 20
0.1630621004828991
 42
0.0808055649786835
 10
0.7389724470907929
 20
0.2665243930215903
 42
0.0808055649786835
 10
0.7483257846338854
 20
0.3785230713985543
 42
0.0808055649786835
 10
0.7191623026949838
 20
0.4875086571634069
 42
0.0808055649786835
 10
0.6544893850314022
 20
0.5822423866768383
 42
0.0808055649786835
 10
0.560976203812878
 20
0.6529551699513996
 42
0.0808055649786835
 10
0.4482659841824356
 20
0.6923549944523768
 42
0.0808055649786835
 10
0.3279815798346387
 20
0.6963788888070951
 42
0.0808055649786835
 10
0.2125269062090639
 20
0.6646119027517667
 42
-1.0
  0
LWPOLYLINE
  5
1F8
330
1DC
100
AcDbEntity
  8
0
  6
Continuous
 62
     7
100
AcDbPolyline
 90
       17
 70
     0
 43
0.0
 10
0.1499360203742981
 20
0.3493042290210724
 42
0.0850623041730979
 10
0.162745782731622
 20
0.2827477183347655
 42
0.0850623041730979
 10
0.1997554495124817
 20
0.2237861168423509
 42
0.0850623041730979
 10
0.2567417656434093
 20
0.1791476635230405
 42
0.0850623041730979
 10
0.3272018963341541
 20
0.153926151184232
 42
0.0850623041730979
 10
0.4030954799630114
 20
0.1509996624786578
 42
0.0850623041730979
 10
0.4757621315553736
 20
0.1707021455163197
 42
0.0850623041730979
 10
0.5369096985007752
 20
0.2107853063057745
 42
0.0850623041730979
 10
0.5795604964590284
 20
0.2666751665627262
 42
0.0850623041730979
 10
0.5988475483797541
 20
0.3319940105059662
 42
0.0850623041730979
 10
0.5925699660366743
 20
0.3992881601353722
 42
0.0850623041730979
 10
0.5614440982593131
 20
0.4608785309425678
 42
0.0850623041730979
 10
0.5090217867809441
 20
0.5097369092576381
 42
0.0850623041730979
 10
0.4412850577090935
 20
0.5402879572824257
 42
0.0850623041730979
 10
0.3659634992728759
 20
0.5490454272391699
 42
0.0850623041730979
 10
0.2916522213848113
 20
0.5350099848284146
 42
0.0850623041730979
 10
0.226831048605735
 20
0.499783245480003
 42
-1.0
  0
ENDBLK
  5
290E
330
1DC
100
AcDbEntity
  8
0
100
AcDbBlockEnd
  0
BLOCK
  5
290F
330
20C
100
AcDbEntity
  8
0
100
AcDbBlockBegin
  2
KOZU0019
 70
     0
 71
     0
 10
0.0
 20
0.0
 30
0.0
  3
KOZU0019
  1

  0
LINE
  5
20E
330
20C
100
AcDbEntity
  8
0
  6
Continuous
 62
     7
100
AcDbLine
 10
0.0
 20
0.5889434814453125
 30
0.0
 11
0.0
 21
0.3205413818359375
 31
0.0
  0
LINE
  5
20F
330
20C
100
AcDbEntity
  8
0
  6
Continuous
 62
     7
100
AcDbLine
 10
0.1499187350273132
 20
0.589691162109375
 30
0.0
 11
0.1499187350273132
 21
0.5772247314453125
 31
0.0
  0
LINE
  5
210
330
20C
100
AcDbEntity
  8
0
  6
Continuous
 62
     7
100
AcDbLine
 10
0.5896844267845154
 20
0.7189178466796875
 30
0.0
 11
0.7396420836448669
 21
0.7189178466796875
 31
0.0
  0
ARC
  5
211
330
20C
100
AcDbEntity
  8
0
  6
Continuous
 62
     7
100
AcDbCircle
 10
0.383287250995636
 20
0.631103515625
 30
0.0
 40
0.2187470197677612
100
AcDbArc
 50
91.1958115337965
 51
140.8582809134993
  0
ARC
  5
212
330
20C
100
AcDbEntity
  8
0
  6
Continuous
 62
     7
100
AcDbCircle
 10
0.4328224062919617
 20
0.5898895263671875
 30
0.0
 40
0.2831867933273315
100
AcDbArc
 50
140.7163222617897
 51
182.5627602874375
  0
ARC
  5
213
330
20C
100
AcDbEntity
  8
0
  6
Continuous
 62
     7
100
AcDbCircle
 10
0.4245291352272034
 20
0.59246826171875
 30
0.0
 40
0.4245437979698181
100
AcDbArc
 50
132.7666377660552
 51
180.4765473073488
  0
ARC
  5
214
330
20C
100
AcDbEntity
  8
0
  6
Continuous
 62
     7
100
AcDbCircle
 10
0.382081151008606
 20
0.6359100341796875
 30
0.0
 40
0.3638375997543335
100
AcDbArc
 50
90.63792168238984
 51
132.0731823200022
  0
ARC
  5
215
330
20C
100
AcDbEntity
  8
0
  6
Continuous
 62
     7
100
AcDbCircle
 10
0.5007433891296387
 20
0.7185211181640625
 30
0.0
 40
0.0889418125152588
100
AcDbArc
 50
0.2547103473110607
 51
35.3882858446303
  0
ARC
  5
216
330
20C
100
AcDbEntity
  8
0
  6
Continuous
 62
     7
100
AcDbCircle
 10
0.4375254511833191
 20
0.669830322265625
 30
0.0
 40
0.1687055230140686
100
AcDbArc
 50
36.43584561801355
 51
70.8868724141672
  0
ARC
  5
217
330
20C
100
AcDbEntity
  8
0
  6
Continuous
 62
     7
100
AcDbCircle
 10
0.380553662776947
 20
0.5335693359375
 30
0.0
 40
0.3162457942962647
100
AcDbArc
 50
69.2173009734493
 51
90.33181992454656
  0
ARC
  5
218
330
20C
100
AcDbEntity
  8
0
  6
Continuous
 62
     7
100
AcDbCircle
 10
0.3808826208114624
 20
0.55987548828125
 30
0.0
 40
0.4398602247238159
100
AcDbArc
 50
63.19689903143326
 51
90.37154430475938
  0
ARC
  5
219
330
20C
100
AcDbEntity
  8
0
  6
Continuous
 62
     7
100
AcDbCircle
 10
0.4685161709785461
 20
0.704559326171875
 30
0.0
 40
0.2715050578117371
100
AcDbArc
 50
3.02861302657626
 51
65.93536775650149
  0
LWPOLYLINE
  5
21A
330
20C
100
AcDbEntity
  8
0
  6
Continuous
 62
     7
100
AcDbPolyline
 90
       17
 70
     0
 43
0.0
 10
0.0000039203941362
 20
0.3214112818240787
 42
0.0839853902921505
 10
0.0211367860571148
 20
0.2157080322250096
 42
0.0839853902921505
 10
0.0821837557914007
 20
0.1217675686118441
 42
0.0839853902921505
 10
0.1763514410055286
 20
0.050043711650282
 42
0.0839853902921505
 10
0.293160735509579
 20
0.0085179882488561
 42
0.0839853902921505
 10
0.4196129444933945
 20
0.0018114365497618
 42
0.0839853902921505
 10
0.5416362967025565
 20
0.0306703706124684
 42
0.0839853902921505
 10
0.6456518699989446
 20
0.0918833295851635
 42
0.0839853902921505
 10
0.7200846720112412
 20
0.1786384533715155
 42
0.0839853902921505
 10
0.7566517207958374
 20
0.2812815155496951
 42
0.0839853902921505
 10
0.7512837861662373
 20
0.3883902586247046
 42
0.0839853902921505
 10
0.7045782190807471
 20
0.488045478147592
 42
0.0839853902921505
 10
0.6217324776274185
 20
0.5691574077575781
 42
0.0839853902921505
 10
0.511965746923714
 20
0.6226998032423359
 42
0.0839853902921505
 10
0.3874930158434582
 20
0.6427143950885861
 42
0.0839853902921505
 10
0.2621657766875741
 20
0.6269739326972739
 42
0.0839853902921505
 10
0.1499306125606325
 20
0.5772300358146205
 42
-1.0
  0
LWPOLYLINE
  5
22D
330
20C
100
AcDbEntity
  8
0
  6
Continuous
 62
     7
100
AcDbPolyline
 90
       16
 70
     1
 43
0.0
 10
0.6097000623653841
 20
0.3214111328125013
 42
0.0984914033571642
 10
0.5922010478799665
 20
0.38700646967808
 42
0.0984914033571642
 10
0.5423680622464018
 20
0.4426155133976502
 42
0.0984914033571642
 10
0.4677877257902602
 20
0.4797722911621439
 42
0.0984914033571642
 10
0.379814218664556
 20
0.4928200203839465
 42
0.0984914033571642
 10
0.2918407098473495
 20
0.479772302566998
 42
0.0984914033571642
 10
0.2172603685742172
 20
0.4426155344710726
 42
0.0984914033571642
 10
0.1674273757315163
 20
0.3870064972118333
 42
0.0984914033571642
 10
0.149928352742343
 20
0.3214111626148212
 42
0.0984914033571642
 10
0.1674273672277605
 20
0.2558158257492425
 42
0.0984914033571642
 10
0.2172603528613253
 20
0.2002067820296723
 42
0.0984914033571642
 10
0.2918406893174667
 20
0.1630500042651784
 42
0.0984914033571642
 10
0.3798141964431711
 20
0.1500022750433759
 42
0.0984914033571642
 10
0.4677877052603776
 20
0.1630499928603243
 42
0.0984914033571642
 10
0.5423680465335098
 20
0.2002067609562497
 42
0.0984914033571642
 10
0.5922010393762107
 20
0.2558157982154891
 42
0.0984914033571642
  0
ENDBLK
  5
2910
330
20C
100
AcDbEntity
  8
0
100
AcDbBlockEnd
  0
BLOCK
  5
2911
330
240
100
AcDbEntity
  8
0
100
AcDbBlockBegin
  2
KOZU0020
 70
     0
 71
     0
 10
0.0
 20
0.0
 30
0.0
  3
KOZU0020
  1

  0
LINE
  5
242
330
240
100
AcDbEntity
  8
0
  6
Continuous
 62
     7
100
AcDbLine
 10
0.2998504638671875
 20
0.6247100830078125
 30
0.0
 11
0.2998504638671875
 21
0.4747772216796875
 31
0.0
  0
LINE
  5
243
330
240
100
AcDbEntity
  8
0
  6
Continuous
 62
     7
100
AcDbLine
 10
0.2998504638671875
 20
0.6247100830078125
 30
0.0
 11
0.38250732421875
 21
0.6247100830078125
 31
0.0
  0
LINE
  5
244
330
240
100
AcDbEntity
  8
0
  6
Continuous
 62
     7
100
AcDbLine
 10
0.2998504638671875
 20
0.4747772216796875
 30
0.0
 11
0.38250732421875
 21
0.4747772216796875
 31
0.0
  0
LINE
  5
245
330
240
100
AcDbEntity
  8
0
  6
Continuous
 62
     7
100
AcDbLine
 10
0.040374755859375
 20
0.7496337890625
 30
0.0
 11
0.1903076171875
 21
0.7496337890625
 31
0.0
  0
LINE
  5
246
330
240
100
AcDbEntity
  8
0
  6
Continuous
 62
     7
100
AcDbLine
 10
0.0032958984375
 20
0.2998504638671875
 30
0.0
 11
0.1537933349609375
 21
0.2998504638671875
 31
0.0
  0
LWPOLYLINE
  5
247
330
240
100
AcDbEntity
  8
0
  6
Continuous
 62
     7
100
AcDbPolyline
 90
       17
 70
     0
 43
0.0
 10
0.3825073242187499
 20
0.6247087015912673
 42
0.0720186760359958
 10
0.4370235369274738
 20
0.6293263488741415
 42
0.0720186760359958
 10
0.4870621787707834
 20
0.6428000302805351
 42
0.0720186760359958
 10
0.5285134344528218
 20
0.6640231142174304
 42
0.0720186760359958
 10
0.5579727950109364
 20
0.6912524887262289
 42
0.0720186760359958
 10
0.5730206797737127
 20
0.7222517282020291
 42
0.0720186760359958
 10
0.5724211633704741
 20
0.7544747773590675
 42
0.0720186760359958
 10
0.556223485780432
 20
0.785275065958299
 42
0.0720186760359958
 10
0.5257580081138138
 20
0.8121228791126108
 42
0.0720186760359958
 10
0.483526946288108
 20
0.8328131299312073
 42
0.0720186760359958
 10
0.4329988569518956
 20
0.8456464695477531
 42
0.0720186760359958
 10
0.378323755109074
 20
0.8495688594530066
 42
0.0720186760359958
 10
0.3239922616393985
 20
0.8442581426611845
 42
0.0720186760359958
 10
0.2744667758943071
 20
0.8301505033751143
 42
0.0720186760359958
 10
0.233814966206751
 20
0.8084046419429765
 42
0.0720186760359958
 10
0.2053756807769142
 20
0.7808066075188478
 42
0.0720186760359958
 10
0.1914847186184625
 20
0.7496231047900183
 42
-1.0
  0
LWPOLYLINE
  5
25A
330
240
100
AcDbEntity
  8
0
  6
Continuous
 62
     7
100
AcDbPolyline
 90
       17
 70
     0
 43
0.0
 10
0.6254583913558827
 20
0.5524165270221019
 42
0.0606140371991105
 10
0.6761364503959614
 20
0.6024842467793801
 42
0.0606140371991105
 10
0.709679666160341
 20
0.6604105638536779
 42
0.0606140371991105
 10
0.724130611085317
 20
0.7228151652034086
 42
0.0606140371991105
 10
0.7186459945896758
 20
0.7860564057447501
 42
0.0606140371991105
 10
0.6935458736286101
 20
0.8464438179844247
 42
0.0606140371991105
 10
0.6502949756440748
 20
0.9004534707034033
 42
0.0606140371991105
 10
0.5914172238181691
 20
0.9449336093507564
 42
0.0606140371991105
 10
0.520348452542041
 20
0.9772885779214874
 42
0.0606140371991105
 10
0.4412359079471185
 20
0.9956302894847544
 42
0.0606140371991105
 10
0.3586962337241155
 20
0.9988884062401616
 42
0.0606140371991105
 10
0.2775460650626379
 20
0.9868727995015512
 42
0.0606140371991105
 10
0.2025209520081252
 20
0.9602846447313468
 42
0.0606140371991105
 10
0.137999014574309
 20
0.9206755041703554
 42
0.0606140371991105
 10
0.0877454558259065
 20
0.8703567848122685
 42
0.0606140371991105
 10
0.0546928419712183
 20
0.8122648553384221
 42
0.0606140371991105
 10
0.0407699713063321
 20
0.7497896931671896
 42
-1.0
  0
LWPOLYLINE
  5
26D
330
240
100
AcDbEntity
  8
0
  6
Continuous
 62
     7
100
AcDbPolyline
 90
       17
 70
     0
 43
0.0
 10
0.0033061136140956
 20
0.2998382614685792
 42
0.0622391709364255
 10
0.0187132776420724
 20
0.2234211226489875
 42
0.0622391709364255
 10
0.0565038966612749
 20
0.1524731325348526
 42
0.0622391709364255
 10
0.1143537710781417
 20
0.0913577361838877
 42
0.0622391709364255
 10
0.1887050164732904
 20
0.0438336542269209
 42
0.0622391709364255
 10
0.2749848806978247
 20
0.0128237139379017
 42
0.0622391709364255
 10
0.3678869773900583
 20
0.0002350894379913
 42
0.0622391709364255
 10
0.4616976394818927
 20
0.0068420066251918
 42
0.0622391709364255
 10
0.5506473212933599
 20
0.0322381267138541
 42
0.0622391709364255
 10
0.6292654372749469
 20
0.0748615368928092
 42
0.0622391709364255
 10
0.6927168140965181
 20
0.1320908111260405
 42
0.0622391709364255
 10
0.7370990635980739
 20
0.2004062331621394
 42
0.0622391709364255
 10
0.7596825875637071
 20
0.2756062662109942
 42
0.0622391709364255
 10
0.7590784535391638
 20
0.3530659559642591
 42
0.0622391709364255
 10
0.7353238169902911
 20
0.4280213746505882
 42
0.0622391709364255
 10
0.689879636166649
 20
0.4958626122402607
 42
0.0622391709364255
 10
0.6255408202108044
 20
0.5524172952468175
 42
-1.0
  0
LWPOLYLINE
  5
280
330
240
100
AcDbEntity
  8
0
  6
Continuous
 62
     7
100
AcDbPolyline
 90
       17
 70
     0
 43
0.0
 10
0.1537961682386238
 20
0.2998259226264266
 42
0.072552208598998
 10
0.1683883333721301
 20
0.2540874033007816
 42
0.072552208598998
 10
0.2008382066153756
 20
0.2132043599276944
 42
0.072552208598998
 10
0.2484413678675197
 20
0.1805840453938844
 42
0.072552208598998
 10
0.3072304997468011
 20
0.1589450846277049
 42
0.072552208598998
 10
0.3723060296486208
 20
0.1500909004042984
 42
0.072552208598998
 10
0.4382444673232603
 20
0.1547594134425176
 42
0.072552208598998
 10
0.4995504065197117
 20
0.1725615430083036
 42
0.072552208598998
 10
0.5511145202146922
 20
0.2020136334745729
 42
0.072552208598998
 10
0.588639379431718
 20
0.2406611043604806
 42
0.072552208598998
 10
0.6089976072843827
 20
0.2852830186741615
 42
0.072552208598998
 10
0.6104925191597899
 20
0.3321605205327797
 42
0.072552208598998
 10
0.5929995269064073
 20
0.3773867700743321
 42
0.072552208598998
 10
0.5579765221936193
 20
0.4171925452304004
 42
0.072552208598998
 10
0.5083423736785418
 20
0.4482603742298421
 42
0.072552208598998
 10
0.4482336642046919
 20
0.4680010185691426
 42
0.072552208598998
 10
0.382659941911692
 20
0.4747692639525612
 42
-1.0
  0
ENDBLK
  5
2912
330
240
100
AcDbEntity
  8
0
100
AcDbBlockEnd
  0
BLOCK
  5
2913
330
294
100
AcDbEntity
  8
0
100
AcDbBlockBegin
  2
KOZU0021
 70
     0
 71
     0
 10
0.0
 20
0.0
 30
0.0
  3
KOZU0021
  1

  0
LINE
  5
296
330
294
100
AcDbEntity
  8
0
  6
Continuous
 62
     7
100
AcDbLine
 10
0.0
 20
0.0
 30
0.0
 11
7.956653431004014
 21
-18.99853982505042
 31
0.0
  0
LINE
  5
297
330
294
100
AcDbEntity
  8
0
  6
Continuous
 62
     7
100
AcDbLine
 10
0.0
 20
0.0
 30
0.0
 11
2.08125789500376
 21
-2.380832895042123
 31
0.0
  0
LINE
  5
298
330
294
100
AcDbEntity
  8
0
  6
Continuous
 62
     7
100
AcDbLine
 10
0.0
 20
0.0
 30
0.0
 11
0.2365065789777342
 21
-3.153421053035954
 31
0.0
  0
TEXT
  5
299
330
294
100
AcDbEntity
  8
0
  6
Continuous
 62
     7
100
AcDbText
 10
9.195414770262433
 20
-18.19853981312949
 30
0.0
 40
3.200000047683716
  1
Ｆマウント
 41
0.8489270562463692
100
AcDbText
  0
LINE
  5
29A
330
294
100
AcDbEntity
  8
0
  6
Continuous
 62
     7
100
AcDbLine
 10
0.0
 20
0.0
 30
0.0
 11
7.956653431004014
 21
-18.99853982505042
 31
0.0
  0
LINE
  5
29B
330
294
100
AcDbEntity
  8
0
  6
Continuous
 62
     7
100
AcDbLine
 10
7.956653431004014
 20
-18.99853982505042
 30
0.0
 11
25.78575332085462
 21
-18.99853982505042
 31
0.0
  0
ENDBLK
  5
2914
330
294
100
AcDbEntity
  8
0
100
AcDbBlockEnd
  0
BLOCK
  5
2915
330
29D
100
AcDbEntity
  8
0
100
AcDbBlockBegin
  2
KOZU0022
 70
     0
 71
     0
 10
0.0
 20
0.0
 30
0.0
  3
KOZU0022
  1

  0
CIRCLE
  5
29F
330
29D
100
AcDbEntity
  8
0
  6
Continuous
 62
     7
100
AcDbCircle
 10
0.0
 20
0.0
 30
0.0
 40
0.2199999690055847
  0
ENDBLK
  5
2916
330
29D
100
AcDbEntity
  8
0
100
AcDbBlockEnd
  0
BLOCK
  5
2917
330
2A1
100
AcDbEntity
  8
0
100
AcDbBlockBegin
  2
KOZU0023
 70
     0
 71
     0
 10
0.0
 20
0.0
 30
0.0
  3
KOZU0023
  1

  0
CIRCLE
  5
2A3
330
2A1
100
AcDbEntity
  8
0
  6
Continuous
 62
     7
100
AcDbCircle
 10
0.0
 20
0.0
 30
0.0
 40
0.2199999690055847
  0
ENDBLK
  5
2918
330
2A1
100
AcDbEntity
  8
0
100
AcDbBlockEnd
  0
BLOCK
  5
2919
330
2A5
100
AcDbEntity
  8
0
100
AcDbBlockBegin
  2
KOZU0024
 70
     0
 71
     0
 10
0.0
 20
0.0
 30
0.0
  3
KOZU0024
  1

  0
CIRCLE
  5
2A7
330
2A5
100
AcDbEntity
  8
0
  6
Continuous
 62
     7
100
AcDbCircle
 10
0.0
 20
0.0
 30
0.0
 40
0.2199999690055847
  0
ENDBLK
  5
291A
330
2A5
100
AcDbEntity
  8
0
100
AcDbBlockEnd
  0
BLOCK
  5
291B
330
2A9
100
AcDbEntity
  8
0
100
AcDbBlockBegin
  2
KOZU0025
 70
     0
 71
     0
 10
0.0
 20
0.0
 30
0.0
  3
KOZU0025
  1

  0
CIRCLE
  5
2AB
330
2A9
100
AcDbEntity
  8
0
  6
Continuous
 62
     7
100
AcDbCircle
 10
0.0
 20
0.0
 30
0.0
 40
0.2199999690055847
  0
ENDBLK
  5
291C
330
2A9
100
AcDbEntity
  8
0
100
AcDbBlockEnd
  0
BLOCK
  5
291D
330
2AD
100
AcDbEntity
  8
0
100
AcDbBlockBegin
  2
KOZU0026
 70
     0
 71
     0
 10
0.0
 20
0.0
 30
0.0
  3
KOZU0026
  1

  0
CIRCLE
  5
2AF
330
2AD
100
AcDbEntity
  8
0
  6
Continuous
 62
     7
100
AcDbCircle
 10
0.0
 20
0.0
 30
0.0
 40
0.2199999690055847
  0
ENDBLK
  5
291E
330
2AD
100
AcDbEntity
  8
0
100
AcDbBlockEnd
  0
BLOCK
  5
291F
330
2B1
100
AcDbEntity
  8
0
100
AcDbBlockBegin
  2
KOZU0027
 70
     0
 71
     0
 10
0.0
 20
0.0
 30
0.0
  3
KOZU0027
  1

  0
CIRCLE
  5
2B3
330
2B1
100
AcDbEntity
  8
0
  6
Continuous
 62
     7
100
AcDbCircle
 10
0.0
 20
0.0
 30
0.0
 40
0.2199999690055847
  0
ENDBLK
  5
2920
330
2B1
100
AcDbEntity
  8
0
100
AcDbBlockEnd
  0
BLOCK
  5
2921
330
2B5
100
AcDbEntity
  8
0
100
AcDbBlockBegin
  2
KOZU0028
 70
     0
 71
     0
 10
0.0
 20
0.0
 30
0.0
  3
KOZU0028
  1

  0
CIRCLE
  5
2B7
330
2B5
100
AcDbEntity
  8
0
  6
Continuous
 62
     7
100
AcDbCircle
 10
0.0
 20
0.0
 30
0.0
 40
0.2199999690055847
  0
ENDBLK
  5
2922
330
2B5
100
AcDbEntity
  8
0
100
AcDbBlockEnd
  0
BLOCK
  5
2923
330
2B9
100
AcDbEntity
  8
0
100
AcDbBlockBegin
  2
KOZU0029
 70
     0
 71
     0
 10
0.0
 20
0.0
 30
0.0
  3
KOZU0029
  1

  0
CIRCLE
  5
2BB
330
2B9
100
AcDbEntity
  8
0
  6
Continuous
 62
     7
100
AcDbCircle
 10
0.0
 20
0.0
 30
0.0
 40
0.2199999690055847
  0
ENDBLK
  5
2924
330
2B9
100
AcDbEntity
  8
0
100
AcDbBlockEnd
  0
BLOCK
  5
2925
330
2BD
100
AcDbEntity
  8
0
100
AcDbBlockBegin
  2
KOZU0030
 70
     0
 71
     0
 10
0.0
 20
0.0
 30
0.0
  3
KOZU0030
  1

  0
CIRCLE
  5
2BF
330
2BD
100
AcDbEntity
  8
0
  6
Continuous
 62
     7
100
AcDbCircle
 10
0.0
 20
0.0
 30
0.0
 40
0.2199999690055847
  0
ENDBLK
  5
2926
330
2BD
100
AcDbEntity
  8
0
100
AcDbBlockEnd
  0
BLOCK
  5
2927
330
1C56
100
AcDbEntity
  8
0
100
AcDbBlockBegin
  2
*D44
 70
     1
 71
     0
 10
0.0
 20
0.0
 30
0.0
  3
*D44
  1

  0
POINT
  5
1C4D
330
1C56
100
AcDbEntity
  8
DEFPOINTS
  6
ByBlock
 62
     0
100
AcDbPoint
 10
-20.05707206173767
 20
14.13883874396165
 30
0.0
  0
POINT
  5
1C4E
330
1C56
100
AcDbEntity
  8
DEFPOINTS
  6
ByBlock
 62
     0
100
AcDbPoint
 10
-50.05707016233768
 20
14.13883874396165
 30
0.0
  0
LINE
  5
1C4F
330
1C56
100
AcDbEntity
  8
0
  6
ByBlock
 62
     0
370
    -2
100
AcDbLine
 10
-20.05707206173767
 20
16.67883874396165
 30
0.0
 11
-20.05707206173767
 21
28.63997247407464
 31
0.0
  0
LINE
  5
1C50
330
1C56
100
AcDbEntity
  8
0
  6
ByBlock
 62
     0
370
    -2
100
AcDbLine
 10
-50.05707016233768
 20
16.67883874396165
 30
0.0
 11
-50.05707016233768
 21
28.63997247407464
 31
0.0
  0
LINE
  5
1C51
330
1C56
100
AcDbEntity
  8
0
  6
ByBlock
 62
     0
370
    -2
100
AcDbLine
 10
-20.85707206173767
 20
26.09997247407464
 30
0.0
 11
-49.25707016233768
 21
26.09997247407464
 31
0.0
  0
INSERT
  5
1C52
330
1C56
100
AcDbEntity
  8
0
  6
ByBlock
370
    -2
100
AcDbBlockReference
  2
_OPEN30
 10
-20.05707206173767
 20
26.09997247407464
 30
0.0
 41
0.8
 42
0.8
 43
0.8
  0
INSERT
  5
1C53
330
1C56
100
AcDbEntity
  8
0
  6
ByBlock
370
    -2
100
AcDbBlockReference
  2
_OPEN30
 10
-50.05707016233768
 20
26.09997247407464
 30
0.0
 41
0.8
 42
0.8
 43
0.8
 50
180.0
  0
MTEXT
  5
1C54
330
1C56
100
AcDbEntity
  8
0
  6
ByBlock
 62
     0
100
AcDbMText
 10
-34.59615347113498
 20
29.0999724979165
 30
0.0
 40
2.8
 41
0.0
 71
     5
 72
     1
  1
30
 73
     1
 44
1.0
  0
ENDBLK
  5
2928
330
1C56
100
AcDbEntity
  8
1
100
AcDbBlockEnd
  0
BLOCK
  5
2929
330
1C61
100
AcDbEntity
  8
0
100
AcDbBlockBegin
  2
*D45
 70
     1
 71
     0
 10
0.0
 20
0.0
 30
0.0
  3
*D45
  1

  0
POINT
  5
1C58
330
1C61
100
AcDbEntity
  8
DEFPOINTS
  6
ByBlock
 62
     0
100
AcDbPoint
 10
-81.05706819953767
 20
8.88917712046165
 30
0.0
  0
POINT
  5
1C59
330
1C61
100
AcDbEntity
  8
DEFPOINTS
  6
ByBlock
 62
     0
100
AcDbPoint
 10
-20.05707206173767
 20
24.95150318976166
 30
0.0
  0
LINE
  5
1C5A
330
1C61
100
AcDbEntity
  8
0
  6
ByBlock
 62
     0
370
    -2
100
AcDbLine
 10
-81.05706819953767
 20
11.42917712046165
 30
0.0
 11
-81.05706819953767
 21
36.05955078732765
 31
0.0
  0
LINE
  5
1C5B
330
1C61
100
AcDbEntity
  8
0
  6
ByBlock
 62
     0
370
    -2
100
AcDbLine
 10
-20.05707206173767
 20
27.49150318976166
 30
0.0
 11
-20.05707206173767
 21
36.05955078732765
 31
0.0
  0
LINE
  5
1C5C
330
1C61
100
AcDbEntity
  8
0
  6
ByBlock
 62
     0
370
    -2
100
AcDbLine
 10
-80.25706819953767
 20
33.51955078732765
 30
0.0
 11
-20.85707206173767
 21
33.51955078732765
 31
0.0
  0
INSERT
  5
1C5D
330
1C61
100
AcDbEntity
  8
0
  6
ByBlock
370
    -2
100
AcDbBlockReference
  2
_OPEN30
 10
-81.05706819953767
 20
33.51955078732765
 30
0.0
 41
0.8
 42
0.8
 43
0.8
 50
180.0
  0
INSERT
  5
1C5E
330
1C61
100
AcDbEntity
  8
0
  6
ByBlock
370
    -2
100
AcDbBlockReference
  2
_OPEN30
 10
-20.05707206173767
 20
33.51955078732765
 30
0.0
 41
0.8
 42
0.8
 43
0.8
  0
MTEXT
  5
1C5F
330
1C61
100
AcDbEntity
  8
0
  6
ByBlock
 62
     0
100
AcDbMText
 10
-49.11271973619522
 20
36.51955081116951
 30
0.0
 40
2.8
 41
0.0
 71
     5
 72
     1
  1
61
 73
     1
 44
1.0
  0
ENDBLK
  5
292A
330
1C61
100
AcDbEntity
  8
1
100
AcDbBlockEnd
  0
BLOCK
  5
292B
330
211D
100
AcDbEntity
  8
0
100
AcDbBlockBegin
  2
*D46
 70
     1
 71
     0
 10
0.0
 20
0.0
 30
0.0
  3
*D46
  1

  0
POINT
  5
2114
330
211D
100
AcDbEntity
  8
DEFPOINTS
  6
ByBlock
 62
     0
100
AcDbPoint
 10
-49.05707022563768
 20
-9.861159736538333
 30
0.0
  0
POINT
  5
2115
330
211D
100
AcDbEntity
  8
DEFPOINTS
  6
ByBlock
 62
     0
100
AcDbPoint
 10
-21.05707199833768
 20
-9.861159736538333
 30
0.0
  0
LINE
  5
2116
330
211D
100
AcDbEntity
  8
0
  6
ByBlock
 62
     0
370
    -2
100
AcDbLine
 10
-49.05707022563768
 20
-12.40115973653833
 30
0.0
 11
-49.05707022563768
 21
-23.5200461921395
 31
0.0
  0
LINE
  5
2117
330
211D
100
AcDbEntity
  8
0
  6
ByBlock
 62
     0
370
    -2
100
AcDbLine
 10
-21.05707199833768
 20
-12.40115973653833
 30
0.0
 11
-21.05707199833768
 21
-23.5200461921395
 31
0.0
  0
LINE
  5
2118
330
211D
100
AcDbEntity
  8
0
  6
ByBlock
 62
     0
370
    -2
100
AcDbLine
 10
-48.05707022563768
 20
-20.9800461921395
 30
0.0
 11
-22.05707199833768
 21
-20.9800461921395
 31
0.0
  0
SOLID
  5
2119
330
211D
100
AcDbEntity
  8
0
  6
ByBlock
 62
     0
100
AcDbTrace
 10
-49.05707022563768
 20
-20.9800461921395
 30
0.0
 11
-48.05707022563768
 21
-21.1467128588062
 31
0.0
 12
-48.05707022563768
 22
-20.8133795254728
 32
0.0
 13
-48.05707022563768
 23
-20.8133795254728
 33
0.0
  0
SOLID
  5
211A
330
211D
100
AcDbEntity
  8
0
  6
ByBlock
 62
     0
100
AcDbTrace
 10
-21.05707199833768
 20
-20.9800461921395
 30
0.0
 11
-22.05707199833768
 21
-21.1467128588062
 31
0.0
 12
-22.05707199833768
 22
-20.8133795254728
 32
0.0
 13
-22.05707199833768
 23
-20.8133795254728
 33
0.0
  0
MTEXT
  5
211B
330
211D
100
AcDbEntity
  8
0
  6
ByBlock
 62
     0
100
AcDbMText
 10
-35.05707111198768
 20
-17.78004614445578
 30
0.0
 40
3.200000047683716
 41
0.0
 71
     5
 72
     1
  1
28
 73
     1
 44
1.0
  0
ENDBLK
  5
292C
330
211D
100
AcDbEntity
  8
寸法
100
AcDbBlockEnd
  0
BLOCK
  5
292D
330
2262
100
AcDbEntity
  8
0
100
AcDbBlockBegin
  2
*D47
 70
     1
 71
     0
 10
0.0
 20
0.0
 30
0.0
  3
*D47
  1

  0
POINT
  5
2258
330
2262
100
AcDbEntity
  8
DEFPOINTS
  6
ByBlock
 62
     0
100
AcDbPoint
 10
48.67588836817342
 20
12.03433340904731
 30
0.0
  0
POINT
  5
2259
330
2262
100
AcDbEntity
  8
DEFPOINTS
  6
ByBlock
 62
     0
100
AcDbPoint
 10
48.67588836817342
 20
-15.6656665909527
 30
0.0
  0
LINE
  5
225A
330
2262
100
AcDbEntity
  8
0
  6
ByBlock
 62
     0
370
    -2
100
AcDbLine
 10
48.73838836817342
 20
12.03433340904731
 30
0.0
 11
57.78065026107342
 21
12.03433340904731
 31
0.0
  0
LINE
  5
225B
330
2262
100
AcDbEntity
  8
0
  6
ByBlock
 62
     0
370
    -2
100
AcDbLine
 10
48.73838836817342
 20
-15.6656665909527
 30
0.0
 11
57.78065026107342
 21
-15.6656665909527
 31
0.0
  0
LINE
  5
225C
330
2262
100
AcDbEntity
  8
0
  6
ByBlock
 62
     0
370
    -2
100
AcDbLine
 10
57.08065027297341
 20
10.03433340904731
 30
0.0
 11
57.08065027297341
 21
-13.6656665909527
 31
0.0
  0
SOLID
  5
225D
330
2262
100
AcDbEntity
  8
0
  6
ByBlock
 62
     0
100
AcDbTrace
 10
57.08065027297341
 20
12.03433340904731
 30
0.0
 11
56.74731693964002
 21
10.03433340904731
 31
0.0
 12
57.41398360630681
 22
10.03433340904731
 32
0.0
 13
57.41398360630681
 23
10.03433340904731
 33
0.0
  0
LINE
  5
225E
330
2262
100
AcDbEntity
  8
0
  6
ByBlock
 62
     0
370
    -2
100
AcDbLine
 10
57.08065027297341
 20
-15.6656665909527
 30
0.0
 11
57.08065027297341
 21
-26.6731170080027
 31
0.0
  0
SOLID
  5
225F
330
2262
100
AcDbEntity
  8
0
  6
ByBlock
 62
     0
100
AcDbTrace
 10
57.08065027297341
 20
-15.6656665909527
 30
0.0
 11
56.74731693964002
 21
-13.6656665909527
 31
0.0
 12
57.41398360630681
 22
-13.6656665909527
 32
0.0
 13
57.41398360630681
 23
-13.6656665909527
 33
0.0
  0
MTEXT
  5
2260
330
2262
100
AcDbEntity
  8
0
  6
ByBlock
 62
     0
100
AcDbMText
 10
57.08065027297341
 20
-28.1124919877527
 30
0.0
 40
2.6987499595
 41
0.0
 71
     5
 72
     1
  1
ｯ 27.7
 11
6.123031769111886E-17
 21
1.0
 31
0.0
 73
     1
 44
1.0
  0
ENDBLK
  5
292E
330
2262
100
AcDbEntity
  8
図
100
AcDbBlockEnd
  0
BLOCK
  5
292F
330
228A
100
AcDbEntity
  8
0
100
AcDbBlockBegin
  2
*D48
 70
     1
 71
     0
 10
0.0
 20
0.0
 30
0.0
  3
*D48
  1

  0
POINT
  5
2280
330
228A
100
AcDbEntity
  8
DEFPOINTS
  6
ByBlock
 62
     0
100
AcDbPoint
 10
141.8096238178734
 20
10.28433340904731
 30
0.0
  0
POINT
  5
2281
330
228A
100
AcDbEntity
  8
DEFPOINTS
  6
ByBlock
 62
     0
100
AcDbPoint
 10
137.8096238178734
 20
12.1843334090473
 30
0.0
  0
LINE
  5
2282
330
228A
100
AcDbEntity
  8
0
  6
ByBlock
 62
     0
370
    -2
100
AcDbLine
 10
141.8096238178734
 20
10.34683340904731
 30
0.0
 11
141.8096238178734
 21
26.6266067278473
 31
0.0
  0
LINE
  5
2283
330
228A
100
AcDbEntity
  8
0
  6
ByBlock
 62
     0
370
    -2
100
AcDbLine
 10
137.8096238178734
 20
12.2468334090473
 30
0.0
 11
137.8096238178734
 21
26.6266067278473
 31
0.0
  0
LINE
  5
2284
330
228A
100
AcDbEntity
  8
0
  6
ByBlock
 62
     0
370
    -2
100
AcDbLine
 10
143.8096238178734
 20
25.9266067397473
 30
0.0
 11
145.8096238178734
 21
25.9266067397473
 31
0.0
  0
SOLID
  5
2285
330
228A
100
AcDbEntity
  8
0
  6
ByBlock
 62
     0
100
AcDbTrace
 10
141.8096238178734
 20
25.9266067397473
 30
0.0
 11
143.8096238178734
 21
26.2599400730807
 31
0.0
 12
143.8096238178734
 22
25.5932734064139
 32
0.0
 13
143.8096238178734
 23
25.5932734064139
 33
0.0
  0
LINE
  5
2286
330
228A
100
AcDbEntity
  8
0
  6
ByBlock
 62
     0
370
    -2
100
AcDbLine
 10
135.8096238178734
 20
25.9266067397473
 30
0.0
 11
133.8096238178734
 21
25.9266067397473
 31
0.0
  0
SOLID
  5
2287
330
228A
100
AcDbEntity
  8
0
  6
ByBlock
 62
     0
100
AcDbTrace
 10
137.8096238178734
 20
25.9266067397473
 30
0.0
 11
135.8096238178734
 21
26.2599400730807
 31
0.0
 12
135.8096238178734
 22
25.5932734064139
 32
0.0
 13
135.8096238178734
 23
25.5932734064139
 33
0.0
  0
MTEXT
  5
2288
330
228A
100
AcDbEntity
  8
0
  6
ByBlock
 62
     0
100
AcDbMText
 10
139.8096238178734
 20
25.9266067397473
 30
0.0
 40
2.6987499595
 41
0.0
 71
     5
 72
     1
  1
4
 73
     1
 44
1.0
  0
ENDBLK
  5
2930
330
228A
100
AcDbEntity
  8
図
100
AcDbBlockEnd
  0
BLOCK
  5
2931
330
229B
100
AcDbEntity
  8
0
100
AcDbBlockBegin
  2
*D49
 70
     1
 71
     0
 10
0.0
 20
0.0
 30
0.0
  3
*D49
  1

  0
POINT
  5
2291
330
229B
100
AcDbEntity
  8
DEFPOINTS
  6
ByBlock
 62
     0
100
AcDbPoint
 10
155.3356238178734
 20
-1.815666590952702
 30
0.0
  0
POINT
  5
2292
330
229B
100
AcDbEntity
  8
DEFPOINTS
  6
ByBlock
 62
     0
100
AcDbPoint
 10
137.8096238178734
 20
12.1843334090473
 30
0.0
  0
LINE
  5
2293
330
229B
100
AcDbEntity
  8
0
  6
ByBlock
 62
     0
370
    -2
100
AcDbLine
 10
155.3356238178734
 20
-1.753166590952702
 30
0.0
 11
155.3356238178734
 21
34.94517972594729
 31
0.0
  0
LINE
  5
2294
330
229B
100
AcDbEntity
  8
0
  6
ByBlock
 62
     0
370
    -2
100
AcDbLine
 10
137.8096238178734
 20
12.2468334090473
 30
0.0
 11
137.8096238178734
 21
34.94517972594729
 31
0.0
  0
LINE
  5
2295
330
229B
100
AcDbEntity
  8
0
  6
ByBlock
 62
     0
370
    -2
100
AcDbLine
 10
155.3356238178734
 20
34.24517973784729
 30
0.0
 11
157.0123299125559
 21
34.24517973784729
 31
0.0
  0
SOLID
  5
2296
330
229B
100
AcDbEntity
  8
0
  6
ByBlock
 62
     0
100
AcDbTrace
 10
155.3356238178734
 20
34.24517973784729
 30
0.0
 11
153.3356238178734
 21
34.57851307118069
 31
0.0
 12
153.3356238178734
 22
33.91184640451389
 32
0.0
 13
153.3356238178734
 23
33.91184640451389
 33
0.0
  0
LINE
  5
2297
330
229B
100
AcDbEntity
  8
0
  6
ByBlock
 62
     0
370
    -2
100
AcDbLine
 10
137.8096238178734
 20
34.24517973784729
 30
0.0
 11
136.1329177231909
 21
34.24517973784729
 31
0.0
  0
SOLID
  5
2298
330
229B
100
AcDbEntity
  8
0
  6
ByBlock
 62
     0
100
AcDbTrace
 10
137.8096238178734
 20
34.24517973784729
 30
0.0
 11
139.8096238178734
 21
34.57851307118069
 31
0.0
 12
139.8096238178734
 22
33.91184640451389
 32
0.0
 13
139.8096238178734
 23
33.91184640451389
 33
0.0
  0
MTEXT
  5
2299
330
229B
100
AcDbEntity
  8
0
  6
ByBlock
 62
     0
100
AcDbMText
 10
146.5726238178734
 20
34.24517973784729
 30
0.0
 40
2.6987499595
 41
0.0
 71
     5
 72
     1
  1
FB=17.526
 73
     1
 44
1.0
  0
ENDBLK
  5
2932
330
229B
100
AcDbEntity
  8
図
100
AcDbBlockEnd
  0
BLOCK
  5
2933
330
22A8
100
AcDbEntity
  8
0
100
AcDbBlockBegin
  2
*D50
 70
     1
 71
     0
 10
0.0
 20
0.0
 30
0.0
  3
*D50
  1

  0
POINT
  5
229E
330
22A8
100
AcDbEntity
  8
DEFPOINTS
  6
ByBlock
 62
     0
100
AcDbPoint
 10
137.8096238178734
 20
12.1843334090473
 30
0.0
  0
POINT
  5
229F
330
22A8
100
AcDbEntity
  8
DEFPOINTS
  6
ByBlock
 62
     0
100
AcDbPoint
 10
5.547623817873422
 20
14.6843334090473
 30
0.0
  0
LINE
  5
22A0
330
22A8
100
AcDbEntity
  8
0
  6
ByBlock
 62
     0
370
    -2
100
AcDbLine
 10
137.8096238178734
 20
12.2468334090473
 30
0.0
 11
137.8096238178734
 21
26.6266067278473
 31
0.0
  0
LINE
  5
22A1
330
22A8
100
AcDbEntity
  8
0
  6
ByBlock
 62
     0
370
    -2
100
AcDbLine
 10
5.547623817873415
 20
14.7468334090473
 30
0.0
 11
5.547623817873415
 21
26.6266067278473
 31
0.0
  0
LINE
  5
22A2
330
22A8
100
AcDbEntity
  8
0
  6
ByBlock
 62
     0
370
    -2
100
AcDbLine
 10
135.8096238178734
 20
25.9266067397473
 30
0.0
 11
79.41957995305592
 21
25.9266067397473
 31
0.0
  0
SOLID
  5
22A3
330
22A8
100
AcDbEntity
  8
0
  6
ByBlock
 62
     0
100
AcDbTrace
 10
137.8096238178734
 20
25.9266067397473
 30
0.0
 11
135.8096238178734
 21
26.2599400730807
 31
0.0
 12
135.8096238178734
 22
25.5932734064139
 32
0.0
 13
135.8096238178734
 23
25.5932734064139
 33
0.0
  0
LINE
  5
22A4
330
22A8
100
AcDbEntity
  8
0
  6
ByBlock
 62
     0
370
    -2
100
AcDbLine
 10
7.547623817873415
 20
25.9266067397473
 30
0.0
 11
63.93766768269091
 21
25.9266067397473
 31
0.0
  0
SOLID
  5
22A5
330
22A8
100
AcDbEntity
  8
0
  6
ByBlock
 62
     0
100
AcDbTrace
 10
5.547623817873415
 20
25.9266067397473
 30
0.0
 11
7.547623817873415
 21
26.2599400730807
 31
0.0
 12
7.547623817873415
 22
25.5932734064139
 32
0.0
 13
7.547623817873415
 23
25.5932734064139
 33
0.0
  0
MTEXT
  5
22A6
330
22A8
100
AcDbEntity
  8
0
  6
ByBlock
 62
     0
100
AcDbMText
 10
71.67862381787342
 20
25.9266067397473
 30
0.0
 40
2.6987499595
 41
0.0
 71
     5
 72
     1
  1
132.262
 73
     1
 44
1.0
  0
ENDBLK
  5
2934
330
22A8
100
AcDbEntity
  8
図
100
AcDbBlockEnd
  0
BLOCK
  5
2935
330
234D
100
AcDbEntity
  8
0
100
AcDbBlockBegin
  2
*D51
 70
     1
 71
     0
 10
0.0
 20
0.0
 30
0.0
  3
*D51
  1

  0
POINT
  5
2343
330
234D
100
AcDbEntity
  8
DEFPOINTS
  6
ByBlock
 62
     0
100
AcDbPoint
 10
137.8096238178734
 20
12.1843334090473
 30
0.0
  0
POINT
  5
2344
330
234D
100
AcDbEntity
  8
DEFPOINTS
  6
ByBlock
 62
     0
100
AcDbPoint
 10
-67.25237618212658
 20
11.5843334090473
 30
0.0
  0
LINE
  5
2345
330
234D
100
AcDbEntity
  8
0
  6
ByBlock
 62
     0
370
    -2
100
AcDbLine
 10
137.8096238178734
 20
12.2468334090473
 30
0.0
 11
137.8096238178734
 21
34.9451797259473
 31
0.0
  0
LINE
  5
2346
330
234D
100
AcDbEntity
  8
0
  6
ByBlock
 62
     0
370
    -2
100
AcDbLine
 10
-67.25237618212657
 20
11.6468334090473
 30
0.0
 11
-67.25237618212657
 21
34.9451797259473
 31
0.0
  0
LINE
  5
2347
330
234D
100
AcDbEntity
  8
0
  6
ByBlock
 62
     0
370
    -2
100
AcDbLine
 10
135.8096238178734
 20
34.24517973784729
 30
0.0
 11
44.80075492632592
 21
34.24517973784729
 31
0.0
  0
SOLID
  5
2348
330
234D
100
AcDbEntity
  8
0
  6
ByBlock
 62
     0
100
AcDbTrace
 10
137.8096238178734
 20
34.24517973784729
 30
0.0
 11
135.8096238178734
 21
34.57851307118069
 31
0.0
 12
135.8096238178734
 22
33.91184640451389
 32
0.0
 13
135.8096238178734
 23
33.91184640451389
 33
0.0
  0
LINE
  5
2349
330
234D
100
AcDbEntity
  8
0
  6
ByBlock
 62
     0
370
    -2
100
AcDbLine
 10
-65.25237618212657
 20
34.24517973784729
 30
0.0
 11
25.75649270942093
 21
34.24517973784729
 31
0.0
  0
SOLID
  5
234A
330
234D
100
AcDbEntity
  8
0
  6
ByBlock
 62
     0
100
AcDbTrace
 10
-67.25237618212657
 20
34.24517973784729
 30
0.0
 11
-65.25237618212657
 21
34.57851307118069
 31
0.0
 12
-65.25237618212657
 22
33.91184640451389
 32
0.0
 13
-65.25237618212657
 23
33.91184640451389
 33
0.0
  0
MTEXT
  5
234B
330
234D
100
AcDbEntity
  8
0
  6
ByBlock
 62
     0
100
AcDbMText
 10
35.27862381787342
 20
34.24517973784729
 30
0.0
 40
2.6987499595
 41
0.0
 71
     5
 72
     1
  1
(205.062)
 73
     1
 44
1.0
  0
ENDBLK
  5
2936
330
234D
100
AcDbEntity
  8
図
100
AcDbBlockEnd
  0
BLOCK
  5
2937
330
236D
100
AcDbEntity
  8
0
100
AcDbBlockBegin
  2
*D52
 70
     1
 71
     0
 10
0.0
 20
0.0
 30
0.0
  3
*D52
  1

  0
POINT
  5
2363
330
236D
100
AcDbEntity
  8
DEFPOINTS
  6
ByBlock
 62
     0
100
AcDbPoint
 10
-65.25237618212658
 20
13.5843334090473
 30
0.0
  0
POINT
  5
2364
330
236D
100
AcDbEntity
  8
DEFPOINTS
  6
ByBlock
 62
     0
100
AcDbPoint
 10
-65.25237618212658
 20
-17.2156665909527
 30
0.0
  0
LINE
  5
2365
330
236D
100
AcDbEntity
  8
0
  6
ByBlock
 62
     0
370
    -2
100
AcDbLine
 10
-65.31487618212658
 20
13.5843334090473
 30
0.0
 11
-77.17390538332658
 21
13.5843334090473
 31
0.0
  0
LINE
  5
2366
330
236D
100
AcDbEntity
  8
0
  6
ByBlock
 62
     0
370
    -2
100
AcDbLine
 10
-65.31487618212658
 20
-17.2156665909527
 30
0.0
 11
-77.17390538332658
 21
-17.2156665909527
 31
0.0
  0
LINE
  5
2367
330
236D
100
AcDbEntity
  8
0
  6
ByBlock
 62
     0
370
    -2
100
AcDbLine
 10
-76.47390539522658
 20
11.5843334090473
 30
0.0
 11
-76.47390539522658
 21
3.577377079464799
 31
0.0
  0
SOLID
  5
2368
330
236D
100
AcDbEntity
  8
0
  6
ByBlock
 62
     0
100
AcDbTrace
 10
-76.47390539522658
 20
13.5843334090473
 30
0.0
 11
-76.80723872855998
 21
11.5843334090473
 31
0.0
 12
-76.14057206189318
 22
11.5843334090473
 32
0.0
 13
-76.14057206189318
 23
11.5843334090473
 33
0.0
  0
LINE
  5
2369
330
236D
100
AcDbEntity
  8
0
  6
ByBlock
 62
     0
370
    -2
100
AcDbLine
 10
-76.47390539522658
 20
-15.2156665909527
 30
0.0
 11
-76.47390539522658
 21
-7.208710261370204
 31
0.0
  0
SOLID
  5
236A
330
236D
100
AcDbEntity
  8
0
  6
ByBlock
 62
     0
100
AcDbTrace
 10
-76.47390539522658
 20
-17.2156665909527
 30
0.0
 11
-76.80723872855998
 21
-15.2156665909527
 31
0.0
 12
-76.14057206189318
 22
-15.2156665909527
 32
0.0
 13
-76.14057206189318
 23
-15.2156665909527
 33
0.0
  0
MTEXT
  5
236B
330
236D
100
AcDbEntity
  8
0
  6
ByBlock
 62
     0
100
AcDbMText
 10
-76.47390539522658
 20
-1.815666590952702
 30
0.0
 40
2.6987499595
 41
0.0
 71
     5
 72
     1
  1
ｯ 30.8
 11
6.123031769111886E-17
 21
1.0
 31
0.0
 73
     1
 44
1.0
  0
ENDBLK
  5
2938
330
236D
100
AcDbEntity
  8
図
100
AcDbBlockEnd
  0
BLOCK
  5
2939
330
2380
100
AcDbEntity
  8
0
100
AcDbBlockBegin
  2
*D53
 70
     1
 71
     0
 10
0.0
 20
0.0
 30
0.0
  3
*D53
  1

  0
POINT
  5
2377
330
2380
100
AcDbEntity
  8
DEFPOINTS
  6
ByBlock
 62
     0
100
AcDbPoint
 10
155.3356238178734
 20
-1.815666590952702
 30
0.0
  0
POINT
  5
2378
330
2380
100
AcDbEntity
  8
DEFPOINTS
  6
ByBlock
 62
     0
100
AcDbPoint
 10
137.8096238178734
 20
12.1843334090473
 30
0.0
  0
LINE
  5
2379
330
2380
100
AcDbEntity
  8
0
  6
ByBlock
 62
     0
370
    -2
100
AcDbLine
 10
155.3356238178734
 20
-1.753166590952702
 30
0.0
 11
155.3356238178734
 21
34.94517972594729
 31
0.0
  0
LINE
  5
237A
330
2380
100
AcDbEntity
  8
0
  6
ByBlock
 62
     0
370
    -2
100
AcDbLine
 10
137.8096238178734
 20
12.2468334090473
 30
0.0
 11
137.8096238178734
 21
34.94517972594729
 31
0.0
  0
LINE
  5
237B
330
2380
100
AcDbEntity
  8
0
  6
ByBlock
 62
     0
370
    -2
100
AcDbLine
 10
155.3356238178734
 20
34.24517973784729
 30
0.0
 11
137.8096238178734
 21
34.24517973784729
 31
0.0
  0
SOLID
  5
237C
330
2380
100
AcDbEntity
  8
0
  6
ByBlock
 62
     0
100
AcDbTrace
 10
155.3356238178734
 20
34.24517973784729
 30
0.0
 11
153.3356238178734
 21
34.57851307118069
 31
0.0
 12
153.3356238178734
 22
33.91184640451389
 32
0.0
 13
153.3356238178734
 23
33.91184640451389
 33
0.0
  0
SOLID
  5
237D
330
2380
100
AcDbEntity
  8
0
  6
ByBlock
 62
     0
100
AcDbTrace
 10
137.8096238178734
 20
34.24517973784729
 30
0.0
 11
139.8096238178734
 21
34.57851307118069
 31
0.0
 12
139.8096238178734
 22
33.91184640451389
 32
0.0
 13
139.8096238178734
 23
33.91184640451389
 33
0.0
  0
MTEXT
  5
237E
330
2380
100
AcDbEntity
  8
0
  6
ByBlock
 62
     0
100
AcDbMText
 10
146.5726238178734
 20
36.2845547175973
 30
0.0
 40
2.6987499595
 41
0.0
 71
     5
 72
     1
  1
FB=17.526
 73
     1
 44
1.0
  0
ENDBLK
  5
293A
330
2380
100
AcDbEntity
  8
図
100
AcDbBlockEnd
  0
BLOCK
  5
293B
330
238B
100
AcDbEntity
  8
0
100
AcDbBlockBegin
  2
*D54
 70
     1
 71
     0
 10
0.0
 20
0.0
 30
0.0
  3
*D54
  1

  0
POINT
  5
2382
330
238B
100
AcDbEntity
  8
DEFPOINTS
  6
ByBlock
 62
     0
100
AcDbPoint
 10
155.3356238178734
 20
-1.815666590952702
 30
0.0
  0
POINT
  5
2383
330
238B
100
AcDbEntity
  8
DEFPOINTS
  6
ByBlock
 62
     0
100
AcDbPoint
 10
137.8096238178734
 20
12.1843334090473
 30
0.0
  0
LINE
  5
2384
330
238B
100
AcDbEntity
  8
0
  6
ByBlock
 62
     0
370
    -2
100
AcDbLine
 10
155.3356238178734
 20
-1.753166590952702
 30
0.0
 11
155.3356238178734
 21
34.94517972594729
 31
0.0
  0
LINE
  5
2385
330
238B
100
AcDbEntity
  8
0
  6
ByBlock
 62
     0
370
    -2
100
AcDbLine
 10
137.8096238178734
 20
12.2468334090473
 30
0.0
 11
137.8096238178734
 21
34.94517972594729
 31
0.0
  0
LINE
  5
2386
330
238B
100
AcDbEntity
  8
0
  6
ByBlock
 62
     0
370
    -2
100
AcDbLine
 10
155.3356238178734
 20
34.24517973784729
 30
0.0
 11
137.8096238178734
 21
34.24517973784729
 31
0.0
  0
SOLID
  5
2387
330
238B
100
AcDbEntity
  8
0
  6
ByBlock
 62
     0
100
AcDbTrace
 10
155.3356238178734
 20
34.24517973784729
 30
0.0
 11
153.3356238178734
 21
34.57851307118069
 31
0.0
 12
153.3356238178734
 22
33.91184640451389
 32
0.0
 13
153.3356238178734
 23
33.91184640451389
 33
0.0
  0
SOLID
  5
2388
330
238B
100
AcDbEntity
  8
0
  6
ByBlock
 62
     0
100
AcDbTrace
 10
137.8096238178734
 20
34.24517973784729
 30
0.0
 11
139.8096238178734
 21
34.57851307118069
 31
0.0
 12
139.8096238178734
 22
33.91184640451389
 32
0.0
 13
139.8096238178734
 23
33.91184640451389
 33
0.0
  0
MTEXT
  5
2389
330
238B
100
AcDbEntity
  8
0
  6
ByBlock
 62
     0
100
AcDbMText
 10
146.5726238178734
 20
36.3845547175973
 30
0.0
 40
2.6987499595
 41
0.0
 71
     5
 72
     1
  1
FB=17.526
 73
     1
 44
1.0
  0
ENDBLK
  5
293C
330
238B
100
AcDbEntity
  8
図
100
AcDbBlockEnd
  0
BLOCK
  5
293D
330
2396
100
AcDbEntity
  8
0
100
AcDbBlockBegin
  2
*D55
 70
     1
 71
     0
 10
0.0
 20
0.0
 30
0.0
  3
*D55
  1

  0
POINT
  5
238D
330
2396
100
AcDbEntity
  8
DEFPOINTS
  6
ByBlock
 62
     0
100
AcDbPoint
 10
137.8096238178734
 20
12.1843334090473
 30
0.0
  0
POINT
  5
238E
330
2396
100
AcDbEntity
  8
DEFPOINTS
  6
ByBlock
 62
     0
100
AcDbPoint
 10
5.547623817873422
 20
14.6843334090473
 30
0.0
  0
LINE
  5
238F
330
2396
100
AcDbEntity
  8
0
  6
ByBlock
 62
     0
370
    -2
100
AcDbLine
 10
137.8096238178734
 20
12.2468334090473
 30
0.0
 11
137.8096238178734
 21
26.6266067278473
 31
0.0
  0
LINE
  5
2390
330
2396
100
AcDbEntity
  8
0
  6
ByBlock
 62
     0
370
    -2
100
AcDbLine
 10
5.547623817873415
 20
14.7468334090473
 30
0.0
 11
5.547623817873415
 21
26.6266067278473
 31
0.0
  0
LINE
  5
2391
330
2396
100
AcDbEntity
  8
0
  6
ByBlock
 62
     0
370
    -2
100
AcDbLine
 10
135.8096238178734
 20
25.9266067397473
 30
0.0
 11
7.547623817873415
 21
25.9266067397473
 31
0.0
  0
SOLID
  5
2392
330
2396
100
AcDbEntity
  8
0
  6
ByBlock
 62
     0
100
AcDbTrace
 10
137.8096238178734
 20
25.9266067397473
 30
0.0
 11
135.8096238178734
 21
26.2599400730807
 31
0.0
 12
135.8096238178734
 22
25.5932734064139
 32
0.0
 13
135.8096238178734
 23
25.5932734064139
 33
0.0
  0
SOLID
  5
2393
330
2396
100
AcDbEntity
  8
0
  6
ByBlock
 62
     0
100
AcDbTrace
 10
5.547623817873415
 20
25.9266067397473
 30
0.0
 11
7.547623817873415
 21
26.2599400730807
 31
0.0
 12
7.547623817873415
 22
25.5932734064139
 32
0.0
 13
7.547623817873415
 23
25.5932734064139
 33
0.0
  0
MTEXT
  5
2394
330
2396
100
AcDbEntity
  8
0
  6
ByBlock
 62
     0
100
AcDbMText
 10
71.67862381787342
 20
28.0659817194973
 30
0.0
 40
2.6987499595
 41
0.0
 71
     5
 72
     1
  1
132.262
 73
     1
 44
1.0
  0
ENDBLK
  5
293E
330
2396
100
AcDbEntity
  8
図
100
AcDbBlockEnd
  0
BLOCK
  5
293F
330
23A1
100
AcDbEntity
  8
0
100
AcDbBlockBegin
  2
*D56
 70
     1
 71
     0
 10
0.0
 20
0.0
 30
0.0
  3
*D56
  1

  0
POINT
  5
2398
330
23A1
100
AcDbEntity
  8
DEFPOINTS
  6
ByBlock
 62
     0
100
AcDbPoint
 10
137.8096238178734
 20
12.1843334090473
 30
0.0
  0
POINT
  5
2399
330
23A1
100
AcDbEntity
  8
DEFPOINTS
  6
ByBlock
 62
     0
100
AcDbPoint
 10
-67.25237618212658
 20
11.5843334090473
 30
0.0
  0
LINE
  5
239A
330
23A1
100
AcDbEntity
  8
0
  6
ByBlock
 62
     0
370
    -2
100
AcDbLine
 10
137.8096238178734
 20
12.2468334090473
 30
0.0
 11
137.8096238178734
 21
34.9451797259473
 31
0.0
  0
LINE
  5
239B
330
23A1
100
AcDbEntity
  8
0
  6
ByBlock
 62
     0
370
    -2
100
AcDbLine
 10
-67.25237618212657
 20
11.6468334090473
 30
0.0
 11
-67.25237618212657
 21
34.9451797259473
 31
0.0
  0
LINE
  5
239C
330
23A1
100
AcDbEntity
  8
0
  6
ByBlock
 62
     0
370
    -2
100
AcDbLine
 10
135.8096238178734
 20
34.24517973784729
 30
0.0
 11
-65.25237618212657
 21
34.24517973784729
 31
0.0
  0
SOLID
  5
239D
330
23A1
100
AcDbEntity
  8
0
  6
ByBlock
 62
     0
100
AcDbTrace
 10
137.8096238178734
 20
34.24517973784729
 30
0.0
 11
135.8096238178734
 21
34.57851307118069
 31
0.0
 12
135.8096238178734
 22
33.91184640451389
 32
0.0
 13
135.8096238178734
 23
33.91184640451389
 33
0.0
  0
SOLID
  5
239E
330
23A1
100
AcDbEntity
  8
0
  6
ByBlock
 62
     0
100
AcDbTrace
 10
-67.25237618212657
 20
34.24517973784729
 30
0.0
 11
-65.25237618212657
 21
34.57851307118069
 31
0.0
 12
-65.25237618212657
 22
33.91184640451389
 32
0.0
 13
-65.25237618212657
 23
33.91184640451389
 33
0.0
  0
MTEXT
  5
239F
330
23A1
100
AcDbEntity
  8
0
  6
ByBlock
 62
     0
100
AcDbMText
 10
35.27862381787342
 20
36.3845547175973
 30
0.0
 40
2.6987499595
 41
0.0
 71
     5
 72
     1
  1
(205.062)
 73
     1
 44
1.0
  0
ENDBLK
  5
2940
330
23A1
100
AcDbEntity
  8
図
100
AcDbBlockEnd
  0
BLOCK
  5
2941
330
23AC
100
AcDbEntity
  8
0
100
AcDbBlockBegin
  2
*D57
 70
     1
 71
     0
 10
0.0
 20
0.0
 30
0.0
  3
*D57
  1

  0
POINT
  5
23A3
330
23AC
100
AcDbEntity
  8
DEFPOINTS
  6
ByBlock
 62
     0
100
AcDbPoint
 10
-65.25237618212658
 20
13.5843334090473
 30
0.0
  0
POINT
  5
23A4
330
23AC
100
AcDbEntity
  8
DEFPOINTS
  6
ByBlock
 62
     0
100
AcDbPoint
 10
-65.25237618212658
 20
-17.2156665909527
 30
0.0
  0
LINE
  5
23A5
330
23AC
100
AcDbEntity
  8
0
  6
ByBlock
 62
     0
370
    -2
100
AcDbLine
 10
-65.31487618212658
 20
13.5843334090473
 30
0.0
 11
-77.17390538332658
 21
13.5843334090473
 31
0.0
  0
LINE
  5
23A6
330
23AC
100
AcDbEntity
  8
0
  6
ByBlock
 62
     0
370
    -2
100
AcDbLine
 10
-65.31487618212658
 20
-17.2156665909527
 30
0.0
 11
-77.17390538332658
 21
-17.2156665909527
 31
0.0
  0
LINE
  5
23A7
330
23AC
100
AcDbEntity
  8
0
  6
ByBlock
 62
     0
370
    -2
100
AcDbLine
 10
-76.47390539522658
 20
11.5843334090473
 30
0.0
 11
-76.47390539522658
 21
-15.2156665909527
 31
0.0
  0
SOLID
  5
23A8
330
23AC
100
AcDbEntity
  8
0
  6
ByBlock
 62
     0
100
AcDbTrace
 10
-76.47390539522658
 20
13.5843334090473
 30
0.0
 11
-76.80723872855998
 21
11.5843334090473
 31
0.0
 12
-76.14057206189318
 22
11.5843334090473
 32
0.0
 13
-76.14057206189318
 23
11.5843334090473
 33
0.0
  0
SOLID
  5
23A9
330
23AC
100
AcDbEntity
  8
0
  6
ByBlock
 62
     0
100
AcDbTrace
 10
-76.47390539522658
 20
-17.2156665909527
 30
0.0
 11
-76.80723872855998
 21
-15.2156665909527
 31
0.0
 12
-76.14057206189318
 22
-15.2156665909527
 32
0.0
 13
-76.14057206189318
 23
-15.2156665909527
 33
0.0
  0
MTEXT
  5
23AA
330
23AC
100
AcDbEntity
  8
0
  6
ByBlock
 62
     0
100
AcDbMText
 10
-78.61328037497658
 20
-1.815666590952702
 30
0.0
 40
2.6987499595
 41
0.0
 71
     5
 72
     1
  1
ｯ 30.8
 11
6.123031769111886E-17
 21
1.0
 31
0.0
 73
     1
 44
1.0
  0
ENDBLK
  5
2942
330
23AC
100
AcDbEntity
  8
図
100
AcDbBlockEnd
  0
BLOCK
  5
2943
330
23B8
100
AcDbEntity
  8
0
100
AcDbBlockBegin
  2
*D58
 70
     1
 71
     0
 10
0.0
 20
0.0
 30
0.0
  3
*D58
  1

  0
POINT
  5
23AE
330
23B8
100
AcDbEntity
  8
DEFPOINTS
  6
ByBlock
 62
     0
100
AcDbPoint
 10
48.67588836817342
 20
12.03433340904731
 30
0.0
  0
POINT
  5
23AF
330
23B8
100
AcDbEntity
  8
DEFPOINTS
  6
ByBlock
 62
     0
100
AcDbPoint
 10
48.67588836817342
 20
-15.6656665909527
 30
0.0
  0
LINE
  5
23B0
330
23B8
100
AcDbEntity
  8
0
  6
ByBlock
 62
     0
370
    -2
100
AcDbLine
 10
48.73838836817342
 20
12.03433340904731
 30
0.0
 11
57.78065026107342
 21
12.03433340904731
 31
0.0
  0
LINE
  5
23B1
330
23B8
100
AcDbEntity
  8
0
  6
ByBlock
 62
     0
370
    -2
100
AcDbLine
 10
48.73838836817342
 20
-15.6656665909527
 30
0.0
 11
57.78065026107342
 21
-15.6656665909527
 31
0.0
  0
LINE
  5
23B2
330
23B8
100
AcDbEntity
  8
0
  6
ByBlock
 62
     0
370
    -2
100
AcDbLine
 10
57.08065027297341
 20
10.03433340904731
 30
0.0
 11
57.08065027297341
 21
-13.6656665909527
 31
0.0
  0
SOLID
  5
23B3
330
23B8
100
AcDbEntity
  8
0
  6
ByBlock
 62
     0
100
AcDbTrace
 10
57.08065027297341
 20
12.03433340904731
 30
0.0
 11
56.74731693964002
 21
10.03433340904731
 31
0.0
 12
57.41398360630681
 22
10.03433340904731
 32
0.0
 13
57.41398360630681
 23
10.03433340904731
 33
0.0
  0
LINE
  5
23B4
330
23B8
100
AcDbEntity
  8
0
  6
ByBlock
 62
     0
370
    -2
100
AcDbLine
 10
57.08065027297341
 20
-15.6656665909527
 30
0.0
 11
57.08065027297341
 21
-29.5518669675027
 31
0.0
  0
SOLID
  5
23B5
330
23B8
100
AcDbEntity
  8
0
  6
ByBlock
 62
     0
100
AcDbTrace
 10
57.08065027297341
 20
-15.6656665909527
 30
0.0
 11
56.74731693964002
 21
-13.6656665909527
 31
0.0
 12
57.41398360630681
 22
-13.6656665909527
 32
0.0
 13
57.41398360630681
 23
-13.6656665909527
 33
0.0
  0
MTEXT
  5
23B6
330
23B8
100
AcDbEntity
  8
0
  6
ByBlock
 62
     0
100
AcDbMText
 10
54.94127529322341
 20
-28.1124919877527
 30
0.0
 40
2.6987499595
 41
0.0
 71
     5
 72
     1
  1
ｯ 27.7
 11
6.123031769111886E-17
 21
1.0
 31
0.0
 73
     1
 44
1.0
  0
ENDBLK
  5
2944
330
23B8
100
AcDbEntity
  8
図
100
AcDbBlockEnd
  0
BLOCK
  5
2945
330
23C3
100
AcDbEntity
  8
0
100
AcDbBlockBegin
  2
*D59
 70
     1
 71
     0
 10
0.0
 20
0.0
 30
0.0
  3
*D59
  1

  0
POINT
  5
23BA
330
23C3
100
AcDbEntity
  8
DEFPOINTS
  6
ByBlock
 62
     0
100
AcDbPoint
 10
-65.25237618212658
 20
13.5843334090473
 30
0.0
  0
POINT
  5
23BB
330
23C3
100
AcDbEntity
  8
DEFPOINTS
  6
ByBlock
 62
     0
100
AcDbPoint
 10
-65.25237618212658
 20
-17.2156665909527
 30
0.0
  0
LINE
  5
23BC
330
23C3
100
AcDbEntity
  8
0
  6
ByBlock
 62
     0
370
    -2
100
AcDbLine
 10
-65.31487618212658
 20
13.5843334090473
 30
0.0
 11
-77.17390538332658
 21
13.5843334090473
 31
0.0
  0
LINE
  5
23BD
330
23C3
100
AcDbEntity
  8
0
  6
ByBlock
 62
     0
370
    -2
100
AcDbLine
 10
-65.31487618212658
 20
-17.2156665909527
 30
0.0
 11
-77.17390538332658
 21
-17.2156665909527
 31
0.0
  0
LINE
  5
23BE
330
23C3
100
AcDbEntity
  8
0
  6
ByBlock
 62
     0
370
    -2
100
AcDbLine
 10
-76.47390539522658
 20
11.5843334090473
 30
0.0
 11
-76.47390539522658
 21
-15.2156665909527
 31
0.0
  0
SOLID
  5
23BF
330
23C3
100
AcDbEntity
  8
0
  6
ByBlock
 62
     0
100
AcDbTrace
 10
-76.47390539522658
 20
13.5843334090473
 30
0.0
 11
-76.80723872855998
 21
11.5843334090473
 31
0.0
 12
-76.14057206189318
 22
11.5843334090473
 32
0.0
 13
-76.14057206189318
 23
11.5843334090473
 33
0.0
  0
SOLID
  5
23C0
330
23C3
100
AcDbEntity
  8
0
  6
ByBlock
 62
     0
100
AcDbTrace
 10
-76.47390539522658
 20
-17.2156665909527
 30
0.0
 11
-76.80723872855998
 21
-15.2156665909527
 31
0.0
 12
-76.14057206189318
 22
-15.2156665909527
 32
0.0
 13
-76.14057206189318
 23
-15.2156665909527
 33
0.0
  0
MTEXT
  5
23C1
330
23C3
100
AcDbEntity
  8
0
  6
ByBlock
 62
     0
100
AcDbMText
 10
-78.61328037497658
 20
-1.815666590952702
 30
0.0
 40
2.6987499595
 41
0.0
 71
     5
 72
     1
  1
φ30.8
 11
6.123031769111886E-17
 21
1.0
 31
0.0
 73
     1
 44
1.0
  0
ENDBLK
  5
2946
330
23C3
100
AcDbEntity
  8
図
100
AcDbBlockEnd
  0
BLOCK
  5
2947
330
23CF
100
AcDbEntity
  8
0
100
AcDbBlockBegin
  2
*D60
 70
     1
 71
     0
 10
0.0
 20
0.0
 30
0.0
  3
*D60
  1

  0
POINT
  5
23C5
330
23CF
100
AcDbEntity
  8
DEFPOINTS
  6
ByBlock
 62
     0
100
AcDbPoint
 10
48.67588836817342
 20
12.03433340904731
 30
0.0
  0
POINT
  5
23C6
330
23CF
100
AcDbEntity
  8
DEFPOINTS
  6
ByBlock
 62
     0
100
AcDbPoint
 10
48.67588836817342
 20
-15.6656665909527
 30
0.0
  0
LINE
  5
23C7
330
23CF
100
AcDbEntity
  8
0
  6
ByBlock
 62
     0
370
    -2
100
AcDbLine
 10
48.73838836817342
 20
12.03433340904731
 30
0.0
 11
57.78065026107342
 21
12.03433340904731
 31
0.0
  0
LINE
  5
23C8
330
23CF
100
AcDbEntity
  8
0
  6
ByBlock
 62
     0
370
    -2
100
AcDbLine
 10
48.73838836817342
 20
-15.6656665909527
 30
0.0
 11
57.78065026107342
 21
-15.6656665909527
 31
0.0
  0
LINE
  5
23C9
330
23CF
100
AcDbEntity
  8
0
  6
ByBlock
 62
     0
370
    -2
100
AcDbLine
 10
57.08065027297341
 20
10.03433340904731
 30
0.0
 11
57.08065027297341
 21
-13.6656665909527
 31
0.0
  0
SOLID
  5
23CA
330
23CF
100
AcDbEntity
  8
0
  6
ByBlock
 62
     0
100
AcDbTrace
 10
57.08065027297341
 20
12.03433340904731
 30
0.0
 11
56.74731693964002
 21
10.03433340904731
 31
0.0
 12
57.41398360630681
 22
10.03433340904731
 32
0.0
 13
57.41398360630681
 23
10.03433340904731
 33
0.0
  0
LINE
  5
23CB
330
23CF
100
AcDbEntity
  8
0
  6
ByBlock
 62
     0
370
    -2
100
AcDbLine
 10
57.08065027297341
 20
-15.6656665909527
 30
0.0
 11
57.08065027297341
 21
-29.5518669675027
 31
0.0
  0
SOLID
  5
23CC
330
23CF
100
AcDbEntity
  8
0
  6
ByBlock
 62
     0
100
AcDbTrace
 10
57.08065027297341
 20
-15.6656665909527
 30
0.0
 11
56.74731693964002
 21
-13.6656665909527
 31
0.0
 12
57.41398360630681
 22
-13.6656665909527
 32
0.0
 13
57.41398360630681
 23
-13.6656665909527
 33
0.0
  0
MTEXT
  5
23CD
330
23CF
100
AcDbEntity
  8
0
  6
ByBlock
 62
     0
100
AcDbMText
 10
54.94127529322341
 20
-28.1124919877527
 30
0.0
 40
2.6987499595
 41
0.0
 71
     5
 72
     1
  1
φ27.7
 11
6.123031769111886E-17
 21
1.0
 31
0.0
 73
     1
 44
1.0
  0
ENDBLK
  5
2948
330
23CF
100
AcDbEntity
  8
図
100
AcDbBlockEnd
  0
BLOCK
  5
2949
330
23E5
100
AcDbEntity
  8
0
100
AcDbBlockBegin
  2
*D61
 70
     1
 71
     0
 10
0.0
 20
0.0
 30
0.0
  3
*D61
  1

  0
POINT
  5
23DC
330
23E5
100
AcDbEntity
  8
DEFPOINTS
  6
ByBlock
 62
     0
100
AcDbPoint
 10
-65.25237618212658
 20
13.5843334090473
 30
0.0
  0
POINT
  5
23DD
330
23E5
100
AcDbEntity
  8
DEFPOINTS
  6
ByBlock
 62
     0
100
AcDbPoint
 10
-65.25237618212658
 20
-17.2156665909527
 30
0.0
  0
LINE
  5
23DE
330
23E5
100
AcDbEntity
  8
0
  6
ByBlock
 62
     0
370
    -2
100
AcDbLine
 10
-65.31487618212658
 20
13.5843334090473
 30
0.0
 11
-77.17390538332658
 21
13.5843334090473
 31
0.0
  0
LINE
  5
23DF
330
23E5
100
AcDbEntity
  8
0
  6
ByBlock
 62
     0
370
    -2
100
AcDbLine
 10
-65.31487618212658
 20
-17.2156665909527
 30
0.0
 11
-77.17390538332658
 21
-17.2156665909527
 31
0.0
  0
LINE
  5
23E0
330
23E5
100
AcDbEntity
  8
0
  6
ByBlock
 62
     0
370
    -2
100
AcDbLine
 10
-76.47390539522658
 20
11.5843334090473
 30
0.0
 11
-76.47390539522658
 21
-15.2156665909527
 31
0.0
  0
SOLID
  5
23E1
330
23E5
100
AcDbEntity
  8
0
  6
ByBlock
 62
     0
100
AcDbTrace
 10
-76.47390539522658
 20
13.5843334090473
 30
0.0
 11
-76.80723872855998
 21
11.5843334090473
 31
0.0
 12
-76.14057206189318
 22
11.5843334090473
 32
0.0
 13
-76.14057206189318
 23
11.5843334090473
 33
0.0
  0
SOLID
  5
23E2
330
23E5
100
AcDbEntity
  8
0
  6
ByBlock
 62
     0
100
AcDbTrace
 10
-76.47390539522658
 20
-17.2156665909527
 30
0.0
 11
-76.80723872855998
 21
-15.2156665909527
 31
0.0
 12
-76.14057206189318
 22
-15.2156665909527
 32
0.0
 13
-76.14057206189318
 23
-15.2156665909527
 33
0.0
  0
MTEXT
  5
23E3
330
23E5
100
AcDbEntity
  8
0
  6
ByBlock
 62
     0
100
AcDbMText
 10
-78.61328037497658
 20
-1.815666590952702
 30
0.0
 40
2.6987499595
 41
0.0
 71
     5
 72
     1
  1
φ30.8
 11
6.123031769111886E-17
 21
1.0
 31
0.0
 73
     1
 44
1.0
  0
ENDBLK
  5
294A
330
23E5
100
AcDbEntity
  8
図
100
AcDbBlockEnd
  0
BLOCK
  5
294B
330
25FB
100
AcDbEntity
  8
0
100
AcDbBlockBegin
  2
*D62
 70
     1
 71
     0
 10
0.0
 20
0.0
 30
0.0
  3
*D62
  1

  0
POINT
  5
25F1
330
25FB
100
AcDbEntity
  8
DEFPOINTS
  6
ByBlock
 62
     0
100
AcDbPoint
 10
43.47516162398735
 20
1.595416218375817
 30
0.0
  0
POINT
  5
25F2
330
25FB
100
AcDbEntity
  8
DEFPOINTS
  6
ByBlock
 62
     0
100
AcDbPoint
 10
43.47516162398735
 20
-26.10458378162419
 30
0.0
  0
LINE
  5
25F3
330
25FB
100
AcDbEntity
  8
0
  6
ByBlock
 62
     0
370
    -2
100
AcDbLine
 10
43.53766162398735
 20
1.595416218375817
 30
0.0
 11
52.57992351688735
 21
1.595416218375817
 31
0.0
  0
LINE
  5
25F4
330
25FB
100
AcDbEntity
  8
0
  6
ByBlock
 62
     0
370
    -2
100
AcDbLine
 10
43.53766162398735
 20
-26.10458378162419
 30
0.0
 11
52.57992351688735
 21
-26.10458378162419
 31
0.0
  0
LINE
  5
25F5
330
25FB
100
AcDbEntity
  8
0
  6
ByBlock
 62
     0
370
    -2
100
AcDbLine
 10
51.87992352878734
 20
-0.4045837816241828
 30
0.0
 11
51.87992352878734
 21
-24.10458378162419
 31
0.0
  0
SOLID
  5
25F6
330
25FB
100
AcDbEntity
  8
0
  6
ByBlock
 62
     0
100
AcDbTrace
 10
51.87992352878734
 20
1.595416218375817
 30
0.0
 11
51.54659019545394
 21
-0.4045837816241828
 31
0.0
 12
52.21325686212074
 22
-0.4045837816241828
 32
0.0
 13
52.21325686212074
 23
-0.4045837816241828
 33
0.0
  0
LINE
  5
25F7
330
25FB
100
AcDbEntity
  8
0
  6
ByBlock
 62
     0
370
    -2
100
AcDbLine
 10
51.87992352878734
 20
-26.10458378162419
 30
0.0
 11
51.87992352878734
 21
-37.11203419867419
 31
0.0
  0
SOLID
  5
25F8
330
25FB
100
AcDbEntity
  8
0
  6
ByBlock
 62
     0
100
AcDbTrace
 10
51.87992352878734
 20
-26.10458378162419
 30
0.0
 11
51.54659019545394
 21
-24.10458378162419
 31
0.0
 12
52.21325686212074
 22
-24.10458378162419
 32
0.0
 13
52.21325686212074
 23
-24.10458378162419
 33
0.0
  0
MTEXT
  5
25F9
330
25FB
100
AcDbEntity
  8
0
  6
ByBlock
 62
     0
100
AcDbMText
 10
51.87992352878734
 20
-38.55140917842419
 30
0.0
 40
2.6987499595
 41
0.0
 71
     5
 72
     1
  1
ｯ 27.7
 11
6.123031769111886E-17
 21
1.0
 31
0.0
 73
     1
 44
1.0
  0
ENDBLK
  5
294C
330
25FB
100
AcDbEntity
  8
図
100
AcDbBlockEnd
  0
BLOCK
  5
294D
330
265C
100
AcDbEntity
  8
0
100
AcDbBlockBegin
  2
*D63
 70
     1
 71
     0
 10
0.0
 20
0.0
 30
0.0
  3
*D63
  1

  0
POINT
  5
2652
330
265C
100
AcDbEntity
  8
DEFPOINTS
  6
ByBlock
 62
     0
100
AcDbPoint
 10
137.1088970736874
 20
-0.1545837816241828
 30
0.0
  0
POINT
  5
2653
330
265C
100
AcDbEntity
  8
DEFPOINTS
  6
ByBlock
 62
     0
100
AcDbPoint
 10
133.1088970736874
 20
1.745416218375809
 30
0.0
  0
LINE
  5
2654
330
265C
100
AcDbEntity
  8
0
  6
ByBlock
 62
     0
370
    -2
100
AcDbLine
 10
137.1088970736874
 20
-0.0920837816241828
 30
0.0
 11
137.1088970736874
 21
16.18768953717581
 31
0.0
  0
LINE
  5
2655
330
265C
100
AcDbEntity
  8
0
  6
ByBlock
 62
     0
370
    -2
100
AcDbLine
 10
133.1088970736874
 20
1.807916218375809
 30
0.0
 11
133.1088970736874
 21
16.18768953717581
 31
0.0
  0
LINE
  5
2656
330
265C
100
AcDbEntity
  8
0
  6
ByBlock
 62
     0
370
    -2
100
AcDbLine
 10
139.1088970736874
 20
15.48768954907581
 30
0.0
 11
141.1088970736874
 21
15.48768954907581
 31
0.0
  0
SOLID
  5
2657
330
265C
100
AcDbEntity
  8
0
  6
ByBlock
 62
     0
100
AcDbTrace
 10
137.1088970736874
 20
15.48768954907581
 30
0.0
 11
139.1088970736874
 21
15.82102288240921
 31
0.0
 12
139.1088970736874
 22
15.15435621574241
 32
0.0
 13
139.1088970736874
 23
15.15435621574241
 33
0.0
  0
LINE
  5
2658
330
265C
100
AcDbEntity
  8
0
  6
ByBlock
 62
     0
370
    -2
100
AcDbLine
 10
131.1088970736874
 20
15.48768954907581
 30
0.0
 11
129.1088970736874
 21
15.48768954907581
 31
0.0
  0
SOLID
  5
2659
330
265C
100
AcDbEntity
  8
0
  6
ByBlock
 62
     0
100
AcDbTrace
 10
133.1088970736874
 20
15.48768954907581
 30
0.0
 11
131.1088970736874
 21
15.82102288240921
 31
0.0
 12
131.1088970736874
 22
15.15435621574241
 32
0.0
 13
131.1088970736874
 23
15.15435621574241
 33
0.0
  0
MTEXT
  5
265A
330
265C
100
AcDbEntity
  8
0
  6
ByBlock
 62
     0
100
AcDbMText
 10
135.1088970736874
 20
15.48768954907581
 30
0.0
 40
2.6987499595
 41
0.0
 71
     5
 72
     1
  1
4
 73
     1
 44
1.0
  0
ENDBLK
  5
294E
330
265C
100
AcDbEntity
  8
図
100
AcDbBlockEnd
  0
BLOCK
  5
294F
330
26A1
100
AcDbEntity
  8
0
100
AcDbBlockBegin
  2
*D64
 70
     1
 71
     0
 10
0.0
 20
0.0
 30
0.0
  3
*D64
  1

  0
POINT
  5
2697
330
26A1
100
AcDbEntity
  8
DEFPOINTS
  6
ByBlock
 62
     0
100
AcDbPoint
 10
150.6348970736873
 20
-12.25458378162419
 30
0.0
  0
POINT
  5
2698
330
26A1
100
AcDbEntity
  8
DEFPOINTS
  6
ByBlock
 62
     0
100
AcDbPoint
 10
133.1088970736874
 20
1.745416218375809
 30
0.0
  0
LINE
  5
2699
330
26A1
100
AcDbEntity
  8
0
  6
ByBlock
 62
     0
370
    -2
100
AcDbLine
 10
150.6348970736873
 20
-12.19208378162419
 30
0.0
 11
150.6348970736873
 21
24.5062625352758
 31
0.0
  0
LINE
  5
269A
330
26A1
100
AcDbEntity
  8
0
  6
ByBlock
 62
     0
370
    -2
100
AcDbLine
 10
133.1088970736874
 20
1.807916218375809
 30
0.0
 11
133.1088970736874
 21
24.5062625352758
 31
0.0
  0
LINE
  5
269B
330
26A1
100
AcDbEntity
  8
0
  6
ByBlock
 62
     0
370
    -2
100
AcDbLine
 10
150.6348970736873
 20
23.80626254717581
 30
0.0
 11
152.3116031683698
 21
23.80626254717581
 31
0.0
  0
SOLID
  5
269C
330
26A1
100
AcDbEntity
  8
0
  6
ByBlock
 62
     0
100
AcDbTrace
 10
150.6348970736873
 20
23.80626254717581
 30
0.0
 11
148.6348970736873
 21
24.13959588050921
 31
0.0
 12
148.6348970736873
 22
23.47292921384241
 32
0.0
 13
148.6348970736873
 23
23.47292921384241
 33
0.0
  0
LINE
  5
269D
330
26A1
100
AcDbEntity
  8
0
  6
ByBlock
 62
     0
370
    -2
100
AcDbLine
 10
133.1088970736874
 20
23.80626254717581
 30
0.0
 11
131.4321909790048
 21
23.80626254717581
 31
0.0
  0
SOLID
  5
269E
330
26A1
100
AcDbEntity
  8
0
  6
ByBlock
 62
     0
100
AcDbTrace
 10
133.1088970736874
 20
23.80626254717581
 30
0.0
 11
135.1088970736874
 21
24.13959588050921
 31
0.0
 12
135.1088970736874
 22
23.47292921384241
 32
0.0
 13
135.1088970736874
 23
23.47292921384241
 33
0.0
  0
MTEXT
  5
269F
330
26A1
100
AcDbEntity
  8
0
  6
ByBlock
 62
     0
100
AcDbMText
 10
141.8718970736873
 20
23.80626254717581
 30
0.0
 40
2.6987499595
 41
0.0
 71
     5
 72
     1
  1
FB=17.526
 73
     1
 44
1.0
  0
ENDBLK
  5
2950
330
26A1
100
AcDbEntity
  8
図
100
AcDbBlockEnd
  0
BLOCK
  5
2951
330
26AE
100
AcDbEntity
  8
0
100
AcDbBlockBegin
  2
*D65
 70
     1
 71
     0
 10
0.0
 20
0.0
 30
0.0
  3
*D65
  1

  0
POINT
  5
26A4
330
26AE
100
AcDbEntity
  8
DEFPOINTS
  6
ByBlock
 62
     0
100
AcDbPoint
 10
133.1088970736874
 20
1.745416218375809
 30
0.0
  0
POINT
  5
26A5
330
26AE
100
AcDbEntity
  8
DEFPOINTS
  6
ByBlock
 62
     0
100
AcDbPoint
 10
0.3468970736873516
 20
4.245416218375809
 30
0.0
  0
LINE
  5
26A6
330
26AE
100
AcDbEntity
  8
0
  6
ByBlock
 62
     0
370
    -2
100
AcDbLine
 10
133.1088970736874
 20
1.807916218375809
 30
0.0
 11
133.1088970736874
 21
16.18768953717581
 31
0.0
  0
LINE
  5
26A7
330
26AE
100
AcDbEntity
  8
0
  6
ByBlock
 62
     0
370
    -2
100
AcDbLine
 10
0.3468970736873587
 20
4.307916218375809
 30
0.0
 11
0.3468970736873587
 21
16.18768953717581
 31
0.0
  0
LINE
  5
26A8
330
26AE
100
AcDbEntity
  8
0
  6
ByBlock
 62
     0
370
    -2
100
AcDbLine
 10
131.1088970736874
 20
15.48768954907581
 30
0.0
 11
74.46885320886985
 21
15.48768954907581
 31
0.0
  0
SOLID
  5
26A9
330
26AE
100
AcDbEntity
  8
0
  6
ByBlock
 62
     0
100
AcDbTrace
 10
133.1088970736874
 20
15.48768954907581
 30
0.0
 11
131.1088970736874
 21
15.82102288240921
 31
0.0
 12
131.1088970736874
 22
15.15435621574241
 32
0.0
 13
131.1088970736874
 23
15.15435621574241
 33
0.0
  0
LINE
  5
26AA
330
26AE
100
AcDbEntity
  8
0
  6
ByBlock
 62
     0
370
    -2
100
AcDbLine
 10
2.346897073687359
 20
15.48768954907581
 30
0.0
 11
58.98694093850484
 21
15.48768954907581
 31
0.0
  0
SOLID
  5
26AB
330
26AE
100
AcDbEntity
  8
0
  6
ByBlock
 62
     0
100
AcDbTrace
 10
0.3468970736873587
 20
15.48768954907581
 30
0.0
 11
2.346897073687359
 21
15.82102288240921
 31
0.0
 12
2.346897073687359
 22
15.15435621574241
 32
0.0
 13
2.346897073687359
 23
15.15435621574241
 33
0.0
  0
MTEXT
  5
26AC
330
26AE
100
AcDbEntity
  8
0
  6
ByBlock
 62
     0
100
AcDbMText
 10
66.72789707368734
 20
15.48768954907581
 30
0.0
 40
2.6987499595
 41
0.0
 71
     5
 72
     1
  1
132.762
 73
     1
 44
1.0
  0
ENDBLK
  5
2952
330
26AE
100
AcDbEntity
  8
図
100
AcDbBlockEnd
  0
BLOCK
  5
2953
330
26DF
100
AcDbEntity
  8
0
100
AcDbBlockBegin
  2
*D66
 70
     1
 71
     0
 10
0.0
 20
0.0
 30
0.0
  3
*D66
  1

  0
POINT
  5
26D5
330
26DF
100
AcDbEntity
  8
DEFPOINTS
  6
ByBlock
 62
     0
100
AcDbPoint
 10
133.1088970736874
 20
1.745416218375809
 30
0.0
  0
POINT
  5
26D6
330
26DF
100
AcDbEntity
  8
DEFPOINTS
  6
ByBlock
 62
     0
100
AcDbPoint
 10
-72.45310292631265
 20
1.145416218375814
 30
0.0
  0
LINE
  5
26D7
330
26DF
100
AcDbEntity
  8
0
  6
ByBlock
 62
     0
370
    -2
100
AcDbLine
 10
133.1088970736874
 20
1.807916218375809
 30
0.0
 11
133.1088970736874
 21
24.50626253527581
 31
0.0
  0
LINE
  5
26D8
330
26DF
100
AcDbEntity
  8
0
  6
ByBlock
 62
     0
370
    -2
100
AcDbLine
 10
-72.45310292631265
 20
1.207916218375814
 30
0.0
 11
-72.45310292631265
 21
24.50626253527581
 31
0.0
  0
LINE
  5
26D9
330
26DF
100
AcDbEntity
  8
0
  6
ByBlock
 62
     0
370
    -2
100
AcDbLine
 10
131.1088970736874
 20
23.80626254717581
 30
0.0
 11
40.07942192869736
 21
23.80626254717581
 31
0.0
  0
SOLID
  5
26DA
330
26DF
100
AcDbEntity
  8
0
  6
ByBlock
 62
     0
100
AcDbTrace
 10
133.1088970736874
 20
23.80626254717581
 30
0.0
 11
131.1088970736874
 21
24.13959588050921
 31
0.0
 12
131.1088970736874
 22
23.47292921384241
 32
0.0
 13
131.1088970736874
 23
23.47292921384241
 33
0.0
  0
LINE
  5
26DB
330
26DF
100
AcDbEntity
  8
0
  6
ByBlock
 62
     0
370
    -2
100
AcDbLine
 10
-70.45310292631265
 20
23.80626254717581
 30
0.0
 11
20.57637221867735
 21
23.80626254717581
 31
0.0
  0
SOLID
  5
26DC
330
26DF
100
AcDbEntity
  8
0
  6
ByBlock
 62
     0
100
AcDbTrace
 10
-72.45310292631265
 20
23.80626254717581
 30
0.0
 11
-70.45310292631265
 21
24.13959588050921
 31
0.0
 12
-70.45310292631265
 22
23.47292921384241
 32
0.0
 13
-70.45310292631265
 23
23.47292921384241
 33
0.0
  0
MTEXT
  5
26DD
330
26DF
100
AcDbEntity
  8
0
  6
ByBlock
 62
     0
100
AcDbMText
 10
30.32789707368735
 20
23.80626254717581
 30
0.0
 40
2.6987499595
 41
0.0
 71
     5
 72
     1
  1
(205.562)
 73
     1
 44
1.0
  0
ENDBLK
  5
2954
330
26DF
100
AcDbEntity
  8
図
100
AcDbBlockEnd
  0
BLOCK
  5
2955
330
2700
100
AcDbEntity
  8
0
100
AcDbBlockBegin
  2
*D67
 70
     1
 71
     0
 10
0.0
 20
0.0
 30
0.0
  3
*D67
  1

  0
POINT
  5
26F6
330
2700
100
AcDbEntity
  8
DEFPOINTS
  6
ByBlock
 62
     0
100
AcDbPoint
 10
-70.45310292631265
 20
3.145416218375814
 30
0.0
  0
POINT
  5
26F7
330
2700
100
AcDbEntity
  8
DEFPOINTS
  6
ByBlock
 62
     0
100
AcDbPoint
 10
-70.45310292631265
 20
-27.65458378162419
 30
0.0
  0
LINE
  5
26F8
330
2700
100
AcDbEntity
  8
0
  6
ByBlock
 62
     0
370
    -2
100
AcDbLine
 10
-70.51560292631265
 20
3.145416218375814
 30
0.0
 11
-82.37463212751265
 21
3.145416218375814
 31
0.0
  0
LINE
  5
26F9
330
2700
100
AcDbEntity
  8
0
  6
ByBlock
 62
     0
370
    -2
100
AcDbLine
 10
-70.51560292631265
 20
-27.65458378162419
 30
0.0
 11
-82.37463212751265
 21
-27.65458378162419
 31
0.0
  0
LINE
  5
26FA
330
2700
100
AcDbEntity
  8
0
  6
ByBlock
 62
     0
370
    -2
100
AcDbLine
 10
-81.67463213941265
 20
1.145416218375814
 30
0.0
 11
-81.67463213941265
 21
-6.861540111206697
 31
0.0
  0
SOLID
  5
26FB
330
2700
100
AcDbEntity
  8
0
  6
ByBlock
 62
     0
100
AcDbTrace
 10
-81.67463213941265
 20
3.145416218375814
 30
0.0
 11
-82.00796547274605
 21
1.145416218375814
 31
0.0
 12
-81.34129880607925
 22
1.145416218375814
 32
0.0
 13
-81.34129880607925
 23
1.145416218375814
 33
0.0
  0
LINE
  5
26FC
330
2700
100
AcDbEntity
  8
0
  6
ByBlock
 62
     0
370
    -2
100
AcDbLine
 10
-81.67463213941265
 20
-25.65458378162419
 30
0.0
 11
-81.67463213941265
 21
-17.64762745204169
 31
0.0
  0
SOLID
  5
26FD
330
2700
100
AcDbEntity
  8
0
  6
ByBlock
 62
     0
100
AcDbTrace
 10
-81.67463213941265
 20
-27.65458378162419
 30
0.0
 11
-82.00796547274605
 21
-25.65458378162419
 31
0.0
 12
-81.34129880607925
 22
-25.65458378162419
 32
0.0
 13
-81.34129880607925
 23
-25.65458378162419
 33
0.0
  0
MTEXT
  5
26FE
330
2700
100
AcDbEntity
  8
0
  6
ByBlock
 62
     0
100
AcDbMText
 10
-81.67463213941265
 20
-12.25458378162419
 30
0.0
 40
2.6987499595
 41
0.0
 71
     5
 72
     1
  1
ｯ 30.8
 11
6.123031769111886E-17
 21
1.0
 31
0.0
 73
     1
 44
1.0
  0
ENDBLK
  5
2956
330
2700
100
AcDbEntity
  8
図
100
AcDbBlockEnd
  0
BLOCK
  5
2957
330
2711
100
AcDbEntity
  8
0
100
AcDbBlockBegin
  2
*D68
 70
     1
 71
     0
 10
0.0
 20
0.0
 30
0.0
  3
*D68
  1

  0
POINT
  5
2708
330
2711
100
AcDbEntity
  8
DEFPOINTS
  6
ByBlock
 62
     0
100
AcDbPoint
 10
133.1088970736874
 20
1.745416218375809
 30
0.0
  0
POINT
  5
2709
330
2711
100
AcDbEntity
  8
DEFPOINTS
  6
ByBlock
 62
     0
100
AcDbPoint
 10
-72.45310292631265
 20
1.145416218375814
 30
0.0
  0
LINE
  5
270A
330
2711
100
AcDbEntity
  8
0
  6
ByBlock
 62
     0
370
    -2
100
AcDbLine
 10
133.1088970736874
 20
1.807916218375809
 30
0.0
 11
133.1088970736874
 21
24.50626253527581
 31
0.0
  0
LINE
  5
270B
330
2711
100
AcDbEntity
  8
0
  6
ByBlock
 62
     0
370
    -2
100
AcDbLine
 10
-72.45310292631265
 20
1.207916218375814
 30
0.0
 11
-72.45310292631265
 21
24.50626253527581
 31
0.0
  0
LINE
  5
270C
330
2711
100
AcDbEntity
  8
0
  6
ByBlock
 62
     0
370
    -2
100
AcDbLine
 10
131.1088970736874
 20
23.80626254717581
 30
0.0
 11
-70.45310292631265
 21
23.80626254717581
 31
0.0
  0
SOLID
  5
270D
330
2711
100
AcDbEntity
  8
0
  6
ByBlock
 62
     0
100
AcDbTrace
 10
133.1088970736874
 20
23.80626254717581
 30
0.0
 11
131.1088970736874
 21
24.13959588050921
 31
0.0
 12
131.1088970736874
 22
23.47292921384241
 32
0.0
 13
131.1088970736874
 23
23.47292921384241
 33
0.0
  0
SOLID
  5
270E
330
2711
100
AcDbEntity
  8
0
  6
ByBlock
 62
     0
100
AcDbTrace
 10
-72.45310292631265
 20
23.80626254717581
 30
0.0
 11
-70.45310292631265
 21
24.13959588050921
 31
0.0
 12
-70.45310292631265
 22
23.47292921384241
 32
0.0
 13
-70.45310292631265
 23
23.47292921384241
 33
0.0
  0
MTEXT
  5
270F
330
2711
100
AcDbEntity
  8
0
  6
ByBlock
 62
     0
100
AcDbMText
 10
30.32789707368735
 20
26.2456375269258
 30
0.0
 40
2.6987499595
 41
0.0
 71
     5
 72
     1
  1
(205.562)
 73
     1
 44
1.0
  0
ENDBLK
  5
2958
330
2711
100
AcDbEntity
  8
図
100
AcDbBlockEnd
  0
BLOCK
  5
2959
330
271C
100
AcDbEntity
  8
0
100
AcDbBlockBegin
  2
*D69
 70
     1
 71
     0
 10
0.0
 20
0.0
 30
0.0
  3
*D69
  1

  0
POINT
  5
2713
330
271C
100
AcDbEntity
  8
DEFPOINTS
  6
ByBlock
 62
     0
100
AcDbPoint
 10
150.6348970736873
 20
-12.25458378162419
 30
0.0
  0
POINT
  5
2714
330
271C
100
AcDbEntity
  8
DEFPOINTS
  6
ByBlock
 62
     0
100
AcDbPoint
 10
133.1088970736874
 20
1.745416218375809
 30
0.0
  0
LINE
  5
2715
330
271C
100
AcDbEntity
  8
0
  6
ByBlock
 62
     0
370
    -2
100
AcDbLine
 10
150.6348970736873
 20
-12.19208378162419
 30
0.0
 11
150.6348970736873
 21
24.5062625352758
 31
0.0
  0
LINE
  5
2716
330
271C
100
AcDbEntity
  8
0
  6
ByBlock
 62
     0
370
    -2
100
AcDbLine
 10
133.1088970736874
 20
1.807916218375809
 30
0.0
 11
133.1088970736874
 21
24.5062625352758
 31
0.0
  0
LINE
  5
2717
330
271C
100
AcDbEntity
  8
0
  6
ByBlock
 62
     0
370
    -2
100
AcDbLine
 10
150.6348970736873
 20
23.80626254717581
 30
0.0
 11
133.1088970736874
 21
23.80626254717581
 31
0.0
  0
SOLID
  5
2718
330
271C
100
AcDbEntity
  8
0
  6
ByBlock
 62
     0
100
AcDbTrace
 10
150.6348970736873
 20
23.80626254717581
 30
0.0
 11
148.6348970736873
 21
24.13959588050921
 31
0.0
 12
148.6348970736873
 22
23.47292921384241
 32
0.0
 13
148.6348970736873
 23
23.47292921384241
 33
0.0
  0
SOLID
  5
2719
330
271C
100
AcDbEntity
  8
0
  6
ByBlock
 62
     0
100
AcDbTrace
 10
133.1088970736874
 20
23.80626254717581
 30
0.0
 11
135.1088970736874
 21
24.13959588050921
 31
0.0
 12
135.1088970736874
 22
23.47292921384241
 32
0.0
 13
135.1088970736874
 23
23.47292921384241
 33
0.0
  0
MTEXT
  5
271A
330
271C
100
AcDbEntity
  8
0
  6
ByBlock
 62
     0
100
AcDbMText
 10
141.8718970736873
 20
26.2456375269258
 30
0.0
 40
2.6987499595
 41
0.0
 71
     5
 72
     1
  1
FB=17.526
 73
     1
 44
1.0
  0
ENDBLK
  5
295A
330
271C
100
AcDbEntity
  8
図
100
AcDbBlockEnd
  0
BLOCK
  5
295B
330
2727
100
AcDbEntity
  8
0
100
AcDbBlockBegin
  2
*D70
 70
     1
 71
     0
 10
0.0
 20
0.0
 30
0.0
  3
*D70
  1

  0
POINT
  5
271E
330
2727
100
AcDbEntity
  8
DEFPOINTS
  6
ByBlock
 62
     0
100
AcDbPoint
 10
133.1088970736874
 20
1.745416218375809
 30
0.0
  0
POINT
  5
271F
330
2727
100
AcDbEntity
  8
DEFPOINTS
  6
ByBlock
 62
     0
100
AcDbPoint
 10
0.3468970736873516
 20
4.245416218375809
 30
0.0
  0
LINE
  5
2720
330
2727
100
AcDbEntity
  8
0
  6
ByBlock
 62
     0
370
    -2
100
AcDbLine
 10
133.1088970736874
 20
1.807916218375809
 30
0.0
 11
133.1088970736874
 21
16.18768953717581
 31
0.0
  0
LINE
  5
2721
330
2727
100
AcDbEntity
  8
0
  6
ByBlock
 62
     0
370
    -2
100
AcDbLine
 10
0.3468970736873587
 20
4.307916218375809
 30
0.0
 11
0.3468970736873587
 21
16.18768953717581
 31
0.0
  0
LINE
  5
2722
330
2727
100
AcDbEntity
  8
0
  6
ByBlock
 62
     0
370
    -2
100
AcDbLine
 10
131.1088970736874
 20
15.48768954907581
 30
0.0
 11
2.346897073687359
 21
15.48768954907581
 31
0.0
  0
SOLID
  5
2723
330
2727
100
AcDbEntity
  8
0
  6
ByBlock
 62
     0
100
AcDbTrace
 10
133.1088970736874
 20
15.48768954907581
 30
0.0
 11
131.1088970736874
 21
15.82102288240921
 31
0.0
 12
131.1088970736874
 22
15.15435621574241
 32
0.0
 13
131.1088970736874
 23
15.15435621574241
 33
0.0
  0
SOLID
  5
2724
330
2727
100
AcDbEntity
  8
0
  6
ByBlock
 62
     0
100
AcDbTrace
 10
0.3468970736873587
 20
15.48768954907581
 30
0.0
 11
2.346897073687359
 21
15.82102288240921
 31
0.0
 12
2.346897073687359
 22
15.15435621574241
 32
0.0
 13
2.346897073687359
 23
15.15435621574241
 33
0.0
  0
MTEXT
  5
2725
330
2727
100
AcDbEntity
  8
0
  6
ByBlock
 62
     0
100
AcDbMText
 10
66.72789707368734
 20
17.92706452882581
 30
0.0
 40
2.6987499595
 41
0.0
 71
     5
 72
     1
  1
132.762
 73
     1
 44
1.0
  0
ENDBLK
  5
295C
330
2727
100
AcDbEntity
  8
図
100
AcDbBlockEnd
  0
BLOCK
  5
295D
330
2733
100
AcDbEntity
  8
0
100
AcDbBlockBegin
  2
*D71
 70
     1
 71
     0
 10
0.0
 20
0.0
 30
0.0
  3
*D71
  1

  0
POINT
  5
2729
330
2733
100
AcDbEntity
  8
DEFPOINTS
  6
ByBlock
 62
     0
100
AcDbPoint
 10
43.47516162398735
 20
1.595416218375817
 30
0.0
  0
POINT
  5
272A
330
2733
100
AcDbEntity
  8
DEFPOINTS
  6
ByBlock
 62
     0
100
AcDbPoint
 10
43.47516162398735
 20
-26.10458378162419
 30
0.0
  0
LINE
  5
272B
330
2733
100
AcDbEntity
  8
0
  6
ByBlock
 62
     0
370
    -2
100
AcDbLine
 10
43.53766162398735
 20
1.595416218375817
 30
0.0
 11
52.57992351688735
 21
1.595416218375817
 31
0.0
  0
LINE
  5
272C
330
2733
100
AcDbEntity
  8
0
  6
ByBlock
 62
     0
370
    -2
100
AcDbLine
 10
43.53766162398735
 20
-26.10458378162419
 30
0.0
 11
52.57992351688735
 21
-26.10458378162419
 31
0.0
  0
LINE
  5
272D
330
2733
100
AcDbEntity
  8
0
  6
ByBlock
 62
     0
370
    -2
100
AcDbLine
 10
51.87992352878734
 20
-0.4045837816241828
 30
0.0
 11
51.87992352878734
 21
-24.10458378162419
 31
0.0
  0
SOLID
  5
272E
330
2733
100
AcDbEntity
  8
0
  6
ByBlock
 62
     0
100
AcDbTrace
 10
51.87992352878734
 20
1.595416218375817
 30
0.0
 11
51.54659019545394
 21
-0.4045837816241828
 31
0.0
 12
52.21325686212074
 22
-0.4045837816241828
 32
0.0
 13
52.21325686212074
 23
-0.4045837816241828
 33
0.0
  0
LINE
  5
272F
330
2733
100
AcDbEntity
  8
0
  6
ByBlock
 62
     0
370
    -2
100
AcDbLine
 10
51.87992352878734
 20
-26.10458378162419
 30
0.0
 11
51.87992352878734
 21
-39.99078415817419
 31
0.0
  0
SOLID
  5
2730
330
2733
100
AcDbEntity
  8
0
  6
ByBlock
 62
     0
100
AcDbTrace
 10
51.87992352878734
 20
-26.10458378162419
 30
0.0
 11
51.54659019545394
 21
-24.10458378162419
 31
0.0
 12
52.21325686212074
 22
-24.10458378162419
 32
0.0
 13
52.21325686212074
 23
-24.10458378162419
 33
0.0
  0
MTEXT
  5
2731
330
2733
100
AcDbEntity
  8
0
  6
ByBlock
 62
     0
100
AcDbMText
 10
49.44054854903735
 20
-38.55140917842419
 30
0.0
 40
2.6987499595
 41
0.0
 71
     5
 72
     1
  1
ｯ 27.7
 11
6.123031769111886E-17
 21
1.0
 31
0.0
 73
     1
 44
1.0
  0
ENDBLK
  5
295E
330
2733
100
AcDbEntity
  8
図
100
AcDbBlockEnd
  0
BLOCK
  5
295F
330
273E
100
AcDbEntity
  8
0
100
AcDbBlockBegin
  2
*D72
 70
     1
 71
     0
 10
0.0
 20
0.0
 30
0.0
  3
*D72
  1

  0
POINT
  5
2735
330
273E
100
AcDbEntity
  8
DEFPOINTS
  6
ByBlock
 62
     0
100
AcDbPoint
 10
-70.45310292631265
 20
3.145416218375814
 30
0.0
  0
POINT
  5
2736
330
273E
100
AcDbEntity
  8
DEFPOINTS
  6
ByBlock
 62
     0
100
AcDbPoint
 10
-70.45310292631265
 20
-27.65458378162419
 30
0.0
  0
LINE
  5
2737
330
273E
100
AcDbEntity
  8
0
  6
ByBlock
 62
     0
370
    -2
100
AcDbLine
 10
-70.51560292631265
 20
3.145416218375814
 30
0.0
 11
-82.37463212751265
 21
3.145416218375814
 31
0.0
  0
LINE
  5
2738
330
273E
100
AcDbEntity
  8
0
  6
ByBlock
 62
     0
370
    -2
100
AcDbLine
 10
-70.51560292631265
 20
-27.65458378162419
 30
0.0
 11
-82.37463212751265
 21
-27.65458378162419
 31
0.0
  0
LINE
  5
2739
330
273E
100
AcDbEntity
  8
0
  6
ByBlock
 62
     0
370
    -2
100
AcDbLine
 10
-81.67463213941265
 20
1.145416218375814
 30
0.0
 11
-81.67463213941265
 21
-25.65458378162419
 31
0.0
  0
SOLID
  5
273A
330
273E
100
AcDbEntity
  8
0
  6
ByBlock
 62
     0
100
AcDbTrace
 10
-81.67463213941265
 20
3.145416218375814
 30
0.0
 11
-82.00796547274605
 21
1.145416218375814
 31
0.0
 12
-81.34129880607925
 22
1.145416218375814
 32
0.0
 13
-81.34129880607925
 23
1.145416218375814
 33
0.0
  0
SOLID
  5
273B
330
273E
100
AcDbEntity
  8
0
  6
ByBlock
 62
     0
100
AcDbTrace
 10
-81.67463213941265
 20
-27.65458378162419
 30
0.0
 11
-82.00796547274605
 21
-25.65458378162419
 31
0.0
 12
-81.34129880607925
 22
-25.65458378162419
 32
0.0
 13
-81.34129880607925
 23
-25.65458378162419
 33
0.0
  0
MTEXT
  5
273C
330
273E
100
AcDbEntity
  8
0
  6
ByBlock
 62
     0
100
AcDbMText
 10
-84.11400711916265
 20
-12.25458378162419
 30
0.0
 40
2.6987499595
 41
0.0
 71
     5
 72
     1
  1
ｯ 30.8
 11
6.123031769111886E-17
 21
1.0
 31
0.0
 73
     1
 44
1.0
  0
ENDBLK
  5
2960
330
273E
100
AcDbEntity
  8
図
100
AcDbBlockEnd
  0
BLOCK
  5
2961
330
274B
100
AcDbEntity
  8
0
100
AcDbBlockBegin
  2
*D73
 70
     1
 71
     0
 10
0.0
 20
0.0
 30
0.0
  3
*D73
  1

  0
POINT
  5
2742
330
274B
100
AcDbEntity
  8
DEFPOINTS
  6
ByBlock
 62
     0
100
AcDbPoint
 10
-70.45310292631265
 20
3.145416218375814
 30
0.0
  0
POINT
  5
2743
330
274B
100
AcDbEntity
  8
DEFPOINTS
  6
ByBlock
 62
     0
100
AcDbPoint
 10
-70.45310292631265
 20
-27.65458378162419
 30
0.0
  0
LINE
  5
2744
330
274B
100
AcDbEntity
  8
0
  6
ByBlock
 62
     0
370
    -2
100
AcDbLine
 10
-70.51560292631265
 20
3.145416218375814
 30
0.0
 11
-82.37463212751265
 21
3.145416218375814
 31
0.0
  0
LINE
  5
2745
330
274B
100
AcDbEntity
  8
0
  6
ByBlock
 62
     0
370
    -2
100
AcDbLine
 10
-70.51560292631265
 20
-27.65458378162419
 30
0.0
 11
-82.37463212751265
 21
-27.65458378162419
 31
0.0
  0
LINE
  5
2746
330
274B
100
AcDbEntity
  8
0
  6
ByBlock
 62
     0
370
    -2
100
AcDbLine
 10
-81.67463213941265
 20
1.145416218375814
 30
0.0
 11
-81.67463213941265
 21
-25.65458378162419
 31
0.0
  0
SOLID
  5
2747
330
274B
100
AcDbEntity
  8
0
  6
ByBlock
 62
     0
100
AcDbTrace
 10
-81.67463213941265
 20
3.145416218375814
 30
0.0
 11
-82.00796547274605
 21
1.145416218375814
 31
0.0
 12
-81.34129880607925
 22
1.145416218375814
 32
0.0
 13
-81.34129880607925
 23
1.145416218375814
 33
0.0
  0
SOLID
  5
2748
330
274B
100
AcDbEntity
  8
0
  6
ByBlock
 62
     0
100
AcDbTrace
 10
-81.67463213941265
 20
-27.65458378162419
 30
0.0
 11
-82.00796547274605
 21
-25.65458378162419
 31
0.0
 12
-81.34129880607925
 22
-25.65458378162419
 32
0.0
 13
-81.34129880607925
 23
-25.65458378162419
 33
0.0
  0
MTEXT
  5
2749
330
274B
100
AcDbEntity
  8
0
  6
ByBlock
 62
     0
100
AcDbMText
 10
-84.11400711916265
 20
-12.25458378162419
 30
0.0
 40
2.6987499595
 41
0.0
 71
     5
 72
     1
  1
φ 30.8
 11
6.123031769111886E-17
 21
1.0
 31
0.0
 73
     1
 44
1.0
  0
ENDBLK
  5
2962
330
274B
100
AcDbEntity
  8
図
100
AcDbBlockEnd
  0
BLOCK
  5
2963
330
2756
100
AcDbEntity
  8
0
100
AcDbBlockBegin
  2
*D74
 70
     1
 71
     0
 10
0.0
 20
0.0
 30
0.0
  3
*D74
  1

  0
POINT
  5
274D
330
2756
100
AcDbEntity
  8
DEFPOINTS
  6
ByBlock
 62
     0
100
AcDbPoint
 10
-70.45310292631265
 20
3.145416218375814
 30
0.0
  0
POINT
  5
274E
330
2756
100
AcDbEntity
  8
DEFPOINTS
  6
ByBlock
 62
     0
100
AcDbPoint
 10
-70.45310292631265
 20
-27.65458378162419
 30
0.0
  0
LINE
  5
274F
330
2756
100
AcDbEntity
  8
0
  6
ByBlock
 62
     0
370
    -2
100
AcDbLine
 10
-70.51560292631265
 20
3.145416218375814
 30
0.0
 11
-82.37463212751265
 21
3.145416218375814
 31
0.0
  0
LINE
  5
2750
330
2756
100
AcDbEntity
  8
0
  6
ByBlock
 62
     0
370
    -2
100
AcDbLine
 10
-70.51560292631265
 20
-27.65458378162419
 30
0.0
 11
-82.37463212751265
 21
-27.65458378162419
 31
0.0
  0
LINE
  5
2751
330
2756
100
AcDbEntity
  8
0
  6
ByBlock
 62
     0
370
    -2
100
AcDbLine
 10
-81.67463213941265
 20
1.145416218375814
 30
0.0
 11
-81.67463213941265
 21
-25.65458378162419
 31
0.0
  0
SOLID
  5
2752
330
2756
100
AcDbEntity
  8
0
  6
ByBlock
 62
     0
100
AcDbTrace
 10
-81.67463213941265
 20
3.145416218375814
 30
0.0
 11
-82.00796547274605
 21
1.145416218375814
 31
0.0
 12
-81.34129880607925
 22
1.145416218375814
 32
0.0
 13
-81.34129880607925
 23
1.145416218375814
 33
0.0
  0
SOLID
  5
2753
330
2756
100
AcDbEntity
  8
0
  6
ByBlock
 62
     0
100
AcDbTrace
 10
-81.67463213941265
 20
-27.65458378162419
 30
0.0
 11
-82.00796547274605
 21
-25.65458378162419
 31
0.0
 12
-81.34129880607925
 22
-25.65458378162419
 32
0.0
 13
-81.34129880607925
 23
-25.65458378162419
 33
0.0
  0
MTEXT
  5
2754
330
2756
100
AcDbEntity
  8
0
  6
ByBlock
 62
     0
100
AcDbMText
 10
-84.11400711916265
 20
1.145416218375814
 30
0.0
 40
2.6987499595
 41
0.0
 71
     5
 72
     1
  1
φ 30.8
 11
6.123031769111886E-17
 21
1.0
 31
0.0
 73
     1
 44
1.0
  0
ENDBLK
  5
2964
330
2756
100
AcDbEntity
  8
図
100
AcDbBlockEnd
  0
BLOCK
  5
2965
330
2761
100
AcDbEntity
  8
0
100
AcDbBlockBegin
  2
*D75
 70
     1
 71
     0
 10
0.0
 20
0.0
 30
0.0
  3
*D75
  1

  0
POINT
  5
2758
330
2761
100
AcDbEntity
  8
DEFPOINTS
  6
ByBlock
 62
     0
100
AcDbPoint
 10
-70.45310292631265
 20
3.145416218375814
 30
0.0
  0
POINT
  5
2759
330
2761
100
AcDbEntity
  8
DEFPOINTS
  6
ByBlock
 62
     0
100
AcDbPoint
 10
-70.45310292631265
 20
-27.65458378162419
 30
0.0
  0
LINE
  5
275A
330
2761
100
AcDbEntity
  8
0
  6
ByBlock
 62
     0
370
    -2
100
AcDbLine
 10
-70.51560292631265
 20
3.145416218375814
 30
0.0
 11
-82.37463212751265
 21
3.145416218375814
 31
0.0
  0
LINE
  5
275B
330
2761
100
AcDbEntity
  8
0
  6
ByBlock
 62
     0
370
    -2
100
AcDbLine
 10
-70.51560292631265
 20
-27.65458378162419
 30
0.0
 11
-82.37463212751265
 21
-27.65458378162419
 31
0.0
  0
LINE
  5
275C
330
2761
100
AcDbEntity
  8
0
  6
ByBlock
 62
     0
370
    -2
100
AcDbLine
 10
-81.67463213941265
 20
1.145416218375814
 30
0.0
 11
-81.67463213941265
 21
-25.65458378162419
 31
0.0
  0
SOLID
  5
275D
330
2761
100
AcDbEntity
  8
0
  6
ByBlock
 62
     0
100
AcDbTrace
 10
-81.67463213941265
 20
3.145416218375814
 30
0.0
 11
-82.00796547274605
 21
1.145416218375814
 31
0.0
 12
-81.34129880607925
 22
1.145416218375814
 32
0.0
 13
-81.34129880607925
 23
1.145416218375814
 33
0.0
  0
SOLID
  5
275E
330
2761
100
AcDbEntity
  8
0
  6
ByBlock
 62
     0
100
AcDbTrace
 10
-81.67463213941265
 20
-27.65458378162419
 30
0.0
 11
-82.00796547274605
 21
-25.65458378162419
 31
0.0
 12
-81.34129880607925
 22
-25.65458378162419
 32
0.0
 13
-81.34129880607925
 23
-25.65458378162419
 33
0.0
  0
MTEXT
  5
275F
330
2761
100
AcDbEntity
  8
0
  6
ByBlock
 62
     0
100
AcDbMText
 10
-84.11400711916265
 20
1.145416218375814
 30
0.0
 40
2.6987499595
 41
0.0
 71
     5
 72
     1
  1
φ 30.8
 11
6.123031769111886E-17
 21
1.0
 31
0.0
 73
     1
 44
1.0
  0
ENDBLK
  5
2966
330
2761
100
AcDbEntity
  8
図
100
AcDbBlockEnd
  0
BLOCK
  5
2967
330
276C
100
AcDbEntity
  8
0
100
AcDbBlockBegin
  2
*D76
 70
     1
 71
     0
 10
0.0
 20
0.0
 30
0.0
  3
*D76
  1

  0
POINT
  5
2763
330
276C
100
AcDbEntity
  8
DEFPOINTS
  6
ByBlock
 62
     0
100
AcDbPoint
 10
-70.45310292631265
 20
3.145416218375814
 30
0.0
  0
POINT
  5
2764
330
276C
100
AcDbEntity
  8
DEFPOINTS
  6
ByBlock
 62
     0
100
AcDbPoint
 10
-70.45310292631265
 20
-27.65458378162419
 30
0.0
  0
LINE
  5
2765
330
276C
100
AcDbEntity
  8
0
  6
ByBlock
 62
     0
370
    -2
100
AcDbLine
 10
-70.51560292631265
 20
3.145416218375814
 30
0.0
 11
-82.37463212751265
 21
3.145416218375814
 31
0.0
  0
LINE
  5
2766
330
276C
100
AcDbEntity
  8
0
  6
ByBlock
 62
     0
370
    -2
100
AcDbLine
 10
-70.51560292631265
 20
-27.65458378162419
 30
0.0
 11
-82.37463212751265
 21
-27.65458378162419
 31
0.0
  0
LINE
  5
2767
330
276C
100
AcDbEntity
  8
0
  6
ByBlock
 62
     0
370
    -2
100
AcDbLine
 10
-81.67463213941265
 20
1.145416218375814
 30
0.0
 11
-81.67463213941265
 21
-25.65458378162419
 31
0.0
  0
SOLID
  5
2768
330
276C
100
AcDbEntity
  8
0
  6
ByBlock
 62
     0
100
AcDbTrace
 10
-81.67463213941265
 20
3.145416218375814
 30
0.0
 11
-82.00796547274605
 21
1.145416218375814
 31
0.0
 12
-81.34129880607925
 22
1.145416218375814
 32
0.0
 13
-81.34129880607925
 23
1.145416218375814
 33
0.0
  0
SOLID
  5
2769
330
276C
100
AcDbEntity
  8
0
  6
ByBlock
 62
     0
100
AcDbTrace
 10
-81.67463213941265
 20
-27.65458378162419
 30
0.0
 11
-82.00796547274605
 21
-25.65458378162419
 31
0.0
 12
-81.34129880607925
 22
-25.65458378162419
 32
0.0
 13
-81.34129880607925
 23
-25.65458378162419
 33
0.0
  0
MTEXT
  5
276A
330
276C
100
AcDbEntity
  8
0
  6
ByBlock
 62
     0
100
AcDbMText
 10
-84.11400711916265
 20
-25.65458378162419
 30
0.0
 40
2.6987499595
 41
0.0
 71
     5
 72
     1
  1
φ 30.8
 11
6.123031769111886E-17
 21
1.0
 31
0.0
 73
     1
 44
1.0
  0
ENDBLK
  5
2968
330
276C
100
AcDbEntity
  8
図
100
AcDbBlockEnd
  0
BLOCK
  5
2969
330
2782
100
AcDbEntity
  8
0
100
AcDbBlockBegin
  2
*D77
 70
     1
 71
     0
 10
0.0
 20
0.0
 30
0.0
  3
*D77
  1

  0
POINT
  5
2779
330
2782
100
AcDbEntity
  8
DEFPOINTS
  6
ByBlock
 62
     0
100
AcDbPoint
 10
-70.45310292631265
 20
3.145416218375814
 30
0.0
  0
POINT
  5
277A
330
2782
100
AcDbEntity
  8
DEFPOINTS
  6
ByBlock
 62
     0
100
AcDbPoint
 10
-70.45310292631265
 20
-27.65458378162419
 30
0.0
  0
LINE
  5
277B
330
2782
100
AcDbEntity
  8
0
  6
ByBlock
 62
     0
370
    -2
100
AcDbLine
 10
-70.51560292631265
 20
3.145416218375814
 30
0.0
 11
-82.37463212751265
 21
3.145416218375814
 31
0.0
  0
LINE
  5
277C
330
2782
100
AcDbEntity
  8
0
  6
ByBlock
 62
     0
370
    -2
100
AcDbLine
 10
-70.51560292631265
 20
-27.65458378162419
 30
0.0
 11
-82.37463212751265
 21
-27.65458378162419
 31
0.0
  0
LINE
  5
277D
330
2782
100
AcDbEntity
  8
0
  6
ByBlock
 62
     0
370
    -2
100
AcDbLine
 10
-81.67463213941265
 20
1.145416218375814
 30
0.0
 11
-81.67463213941265
 21
-25.65458378162419
 31
0.0
  0
SOLID
  5
277E
330
2782
100
AcDbEntity
  8
0
  6
ByBlock
 62
     0
100
AcDbTrace
 10
-81.67463213941265
 20
3.145416218375814
 30
0.0
 11
-82.00796547274605
 21
1.145416218375814
 31
0.0
 12
-81.34129880607925
 22
1.145416218375814
 32
0.0
 13
-81.34129880607925
 23
1.145416218375814
 33
0.0
  0
SOLID
  5
277F
330
2782
100
AcDbEntity
  8
0
  6
ByBlock
 62
     0
100
AcDbTrace
 10
-81.67463213941265
 20
-27.65458378162419
 30
0.0
 11
-82.00796547274605
 21
-25.65458378162419
 31
0.0
 12
-81.34129880607925
 22
-25.65458378162419
 32
0.0
 13
-81.34129880607925
 23
-25.65458378162419
 33
0.0
  0
MTEXT
  5
2780
330
2782
100
AcDbEntity
  8
0
  6
ByBlock
 62
     0
100
AcDbMText
 10
-84.11400711916265
 20
-25.65458378162419
 30
0.0
 40
2.6987499595
 41
0.0
 71
     5
 72
     1
  1
φ 30.8
 11
6.123031769111886E-17
 21
1.0
 31
0.0
 73
     1
 44
1.0
  0
ENDBLK
  5
296A
330
2782
100
AcDbEntity
  8
図
100
AcDbBlockEnd
  0
BLOCK
  5
296B
330
2796
100
AcDbEntity
  8
0
100
AcDbBlockBegin
  2
*D78
 70
     1
 71
     0
 10
0.0
 20
0.0
 30
0.0
  3
*D78
  1

  0
POINT
  5
278C
330
2796
100
AcDbEntity
  8
DEFPOINTS
  6
ByBlock
 62
     0
100
AcDbPoint
 10
43.47516162398735
 20
1.595416218375817
 30
0.0
  0
POINT
  5
278D
330
2796
100
AcDbEntity
  8
DEFPOINTS
  6
ByBlock
 62
     0
100
AcDbPoint
 10
43.47516162398735
 20
-26.10458378162419
 30
0.0
  0
LINE
  5
278E
330
2796
100
AcDbEntity
  8
0
  6
ByBlock
 62
     0
370
    -2
100
AcDbLine
 10
43.53766162398735
 20
1.595416218375817
 30
0.0
 11
52.57992351688735
 21
1.595416218375817
 31
0.0
  0
LINE
  5
278F
330
2796
100
AcDbEntity
  8
0
  6
ByBlock
 62
     0
370
    -2
100
AcDbLine
 10
43.53766162398735
 20
-26.10458378162419
 30
0.0
 11
52.57992351688735
 21
-26.10458378162419
 31
0.0
  0
LINE
  5
2790
330
2796
100
AcDbEntity
  8
0
  6
ByBlock
 62
     0
370
    -2
100
AcDbLine
 10
51.87992352878734
 20
-0.4045837816241828
 30
0.0
 11
51.87992352878734
 21
-24.10458378162419
 31
0.0
  0
SOLID
  5
2791
330
2796
100
AcDbEntity
  8
0
  6
ByBlock
 62
     0
100
AcDbTrace
 10
51.87992352878734
 20
1.595416218375817
 30
0.0
 11
51.54659019545394
 21
-0.4045837816241828
 31
0.0
 12
52.21325686212074
 22
-0.4045837816241828
 32
0.0
 13
52.21325686212074
 23
-0.4045837816241828
 33
0.0
  0
LINE
  5
2792
330
2796
100
AcDbEntity
  8
0
  6
ByBlock
 62
     0
370
    -2
100
AcDbLine
 10
51.87992352878734
 20
-26.10458378162419
 30
0.0
 11
51.87992352878734
 21
-39.99078415817419
 31
0.0
  0
SOLID
  5
2793
330
2796
100
AcDbEntity
  8
0
  6
ByBlock
 62
     0
100
AcDbTrace
 10
51.87992352878734
 20
-26.10458378162419
 30
0.0
 11
51.54659019545394
 21
-24.10458378162419
 31
0.0
 12
52.21325686212074
 22
-24.10458378162419
 32
0.0
 13
52.21325686212074
 23
-24.10458378162419
 33
0.0
  0
MTEXT
  5
2794
330
2796
100
AcDbEntity
  8
0
  6
ByBlock
 62
     0
100
AcDbMText
 10
49.44054854903735
 20
-38.55140917842419
 30
0.0
 40
2.6987499595
 41
0.0
 71
     5
 72
     1
  1
φ 27.7
 11
6.123031769111886E-17
 21
1.0
 31
0.0
 73
     1
 44
1.0
  0
ENDBLK
  5
296C
330
2796
100
AcDbEntity
  8
図
100
AcDbBlockEnd
  0
BLOCK
  5
296D
330
27A2
100
AcDbEntity
  8
0
100
AcDbBlockBegin
  2
*D79
 70
     1
 71
     0
 10
0.0
 20
0.0
 30
0.0
  3
*D79
  1

  0
POINT
  5
2798
330
27A2
100
AcDbEntity
  8
DEFPOINTS
  6
ByBlock
 62
     0
100
AcDbPoint
 10
45.55766162398734
 20
1.297916218375818
 30
0.0
  0
POINT
  5
2799
330
27A2
100
AcDbEntity
  8
DEFPOINTS
  6
ByBlock
 62
     0
100
AcDbPoint
 10
45.55766162398734
 20
-26.40208378162419
 30
0.0
  0
LINE
  5
279A
330
27A2
100
AcDbEntity
  8
0
  6
ByBlock
 62
     0
370
    -2
100
AcDbLine
 10
45.62016162398734
 20
1.297916218375818
 30
0.0
 11
54.66242351688734
 21
1.297916218375818
 31
0.0
  0
LINE
  5
279B
330
27A2
100
AcDbEntity
  8
0
  6
ByBlock
 62
     0
370
    -2
100
AcDbLine
 10
45.62016162398734
 20
-26.40208378162419
 30
0.0
 11
54.66242351688734
 21
-26.40208378162419
 31
0.0
  0
LINE
  5
279C
330
27A2
100
AcDbEntity
  8
0
  6
ByBlock
 62
     0
370
    -2
100
AcDbLine
 10
53.96242352878734
 20
-0.7020837816241823
 30
0.0
 11
53.96242352878734
 21
-24.40208378162419
 31
0.0
  0
SOLID
  5
279D
330
27A2
100
AcDbEntity
  8
0
  6
ByBlock
 62
     0
100
AcDbTrace
 10
53.96242352878734
 20
1.297916218375818
 30
0.0
 11
53.62909019545394
 21
-0.7020837816241823
 31
0.0
 12
54.29575686212074
 22
-0.7020837816241823
 32
0.0
 13
54.29575686212074
 23
-0.7020837816241823
 33
0.0
  0
LINE
  5
279E
330
27A2
100
AcDbEntity
  8
0
  6
ByBlock
 62
     0
370
    -2
100
AcDbLine
 10
53.96242352878734
 20
-26.40208378162419
 30
0.0
 11
53.96242352878734
 21
-40.28828415817419
 31
0.0
  0
SOLID
  5
279F
330
27A2
100
AcDbEntity
  8
0
  6
ByBlock
 62
     0
100
AcDbTrace
 10
53.96242352878734
 20
-26.40208378162419
 30
0.0
 11
53.62909019545394
 21
-24.40208378162419
 31
0.0
 12
54.29575686212074
 22
-24.40208378162419
 32
0.0
 13
54.29575686212074
 23
-24.40208378162419
 33
0.0
  0
MTEXT
  5
27A0
330
27A2
100
AcDbEntity
  8
0
  6
ByBlock
 62
     0
100
AcDbMText
 10
51.52304854903734
 20
-38.84890917842419
 30
0.0
 40
2.6987499595
 41
0.0
 71
     5
 72
     1
  1
φ 27.7
 11
6.123031769111886E-17
 21
1.0
 31
0.0
 73
     1
 44
1.0
  0
ENDBLK
  5
296E
330
27A2
100
AcDbEntity
  8
図
100
AcDbBlockEnd
  0
BLOCK
  5
296F
330
27AE
100
AcDbEntity
  8
0
100
AcDbBlockBegin
  2
*D80
 70
     1
 71
     0
 10
0.0
 20
0.0
 30
0.0
  3
*D80
  1

  0
POINT
  5
27A4
330
27AE
100
AcDbEntity
  8
DEFPOINTS
  6
ByBlock
 62
     0
100
AcDbPoint
 10
139.1913970736874
 20
-0.4520837816241823
 30
0.0
  0
POINT
  5
27A5
330
27AE
100
AcDbEntity
  8
DEFPOINTS
  6
ByBlock
 62
     0
100
AcDbPoint
 10
135.1913970736874
 20
1.447916218375809
 30
0.0
  0
LINE
  5
27A6
330
27AE
100
AcDbEntity
  8
0
  6
ByBlock
 62
     0
370
    -2
100
AcDbLine
 10
139.1913970736874
 20
-0.3895837816241823
 30
0.0
 11
139.1913970736874
 21
15.89018953717581
 31
0.0
  0
LINE
  5
27A7
330
27AE
100
AcDbEntity
  8
0
  6
ByBlock
 62
     0
370
    -2
100
AcDbLine
 10
135.1913970736874
 20
1.510416218375809
 30
0.0
 11
135.1913970736874
 21
15.89018953717581
 31
0.0
  0
LINE
  5
27A8
330
27AE
100
AcDbEntity
  8
0
  6
ByBlock
 62
     0
370
    -2
100
AcDbLine
 10
141.1913970736874
 20
15.19018954907581
 30
0.0
 11
143.1913970736874
 21
15.19018954907581
 31
0.0
  0
SOLID
  5
27A9
330
27AE
100
AcDbEntity
  8
0
  6
ByBlock
 62
     0
100
AcDbTrace
 10
139.1913970736874
 20
15.19018954907581
 30
0.0
 11
141.1913970736874
 21
15.52352288240921
 31
0.0
 12
141.1913970736874
 22
14.85685621574241
 32
0.0
 13
141.1913970736874
 23
14.85685621574241
 33
0.0
  0
LINE
  5
27AA
330
27AE
100
AcDbEntity
  8
0
  6
ByBlock
 62
     0
370
    -2
100
AcDbLine
 10
133.1913970736874
 20
15.19018954907581
 30
0.0
 11
131.1913970736874
 21
15.19018954907581
 31
0.0
  0
SOLID
  5
27AB
330
27AE
100
AcDbEntity
  8
0
  6
ByBlock
 62
     0
100
AcDbTrace
 10
135.1913970736874
 20
15.19018954907581
 30
0.0
 11
133.1913970736874
 21
15.52352288240921
 31
0.0
 12
133.1913970736874
 22
14.85685621574241
 32
0.0
 13
133.1913970736874
 23
14.85685621574241
 33
0.0
  0
MTEXT
  5
27AC
330
27AE
100
AcDbEntity
  8
0
  6
ByBlock
 62
     0
100
AcDbMText
 10
137.1913970736874
 20
15.19018954907581
 30
0.0
 40
2.6987499595
 41
0.0
 71
     5
 72
     1
  1
4
 73
     1
 44
1.0
  0
ENDBLK
  5
2970
330
27AE
100
AcDbEntity
  8
図
100
AcDbBlockEnd
  0
BLOCK
  5
2971
330
27B9
100
AcDbEntity
  8
0
100
AcDbBlockBegin
  2
*D81
 70
     1
 71
     0
 10
0.0
 20
0.0
 30
0.0
  3
*D81
  1

  0
POINT
  5
27B0
330
27B9
100
AcDbEntity
  8
DEFPOINTS
  6
ByBlock
 62
     0
100
AcDbPoint
 10
152.7173970736874
 20
-12.55208378162419
 30
0.0
  0
POINT
  5
27B1
330
27B9
100
AcDbEntity
  8
DEFPOINTS
  6
ByBlock
 62
     0
100
AcDbPoint
 10
135.1913970736874
 20
1.447916218375809
 30
0.0
  0
LINE
  5
27B2
330
27B9
100
AcDbEntity
  8
0
  6
ByBlock
 62
     0
370
    -2
100
AcDbLine
 10
152.7173970736874
 20
-12.48958378162419
 30
0.0
 11
152.7173970736874
 21
24.2087625352758
 31
0.0
  0
LINE
  5
27B3
330
27B9
100
AcDbEntity
  8
0
  6
ByBlock
 62
     0
370
    -2
100
AcDbLine
 10
135.1913970736874
 20
1.510416218375809
 30
0.0
 11
135.1913970736874
 21
24.2087625352758
 31
0.0
  0
LINE
  5
27B4
330
27B9
100
AcDbEntity
  8
0
  6
ByBlock
 62
     0
370
    -2
100
AcDbLine
 10
152.7173970736874
 20
23.50876254717581
 30
0.0
 11
135.1913970736874
 21
23.50876254717581
 31
0.0
  0
SOLID
  5
27B5
330
27B9
100
AcDbEntity
  8
0
  6
ByBlock
 62
     0
100
AcDbTrace
 10
152.7173970736874
 20
23.50876254717581
 30
0.0
 11
150.7173970736874
 21
23.84209588050921
 31
0.0
 12
150.7173970736874
 22
23.17542921384241
 32
0.0
 13
150.7173970736874
 23
23.17542921384241
 33
0.0
  0
SOLID
  5
27B6
330
27B9
100
AcDbEntity
  8
0
  6
ByBlock
 62
     0
100
AcDbTrace
 10
135.1913970736874
 20
23.50876254717581
 30
0.0
 11
137.1913970736874
 21
23.84209588050921
 31
0.0
 12
137.1913970736874
 22
23.17542921384241
 32
0.0
 13
137.1913970736874
 23
23.17542921384241
 33
0.0
  0
MTEXT
  5
27B7
330
27B9
100
AcDbEntity
  8
0
  6
ByBlock
 62
     0
100
AcDbMText
 10
143.9543970736873
 20
25.94813752692581
 30
0.0
 40
2.6987499595
 41
0.0
 71
     5
 72
     1
  1
FB=17.526
 73
     1
 44
1.0
  0
ENDBLK
  5
2972
330
27B9
100
AcDbEntity
  8
図
100
AcDbBlockEnd
  0
BLOCK
  5
2973
330
27C4
100
AcDbEntity
  8
0
100
AcDbBlockBegin
  2
*D82
 70
     1
 71
     0
 10
0.0
 20
0.0
 30
0.0
  3
*D82
  1

  0
POINT
  5
27BB
330
27C4
100
AcDbEntity
  8
DEFPOINTS
  6
ByBlock
 62
     0
100
AcDbPoint
 10
135.1913970736874
 20
1.447916218375809
 30
0.0
  0
POINT
  5
27BC
330
27C4
100
AcDbEntity
  8
DEFPOINTS
  6
ByBlock
 62
     0
100
AcDbPoint
 10
2.429397073687351
 20
3.947916218375809
 30
0.0
  0
LINE
  5
27BD
330
27C4
100
AcDbEntity
  8
0
  6
ByBlock
 62
     0
370
    -2
100
AcDbLine
 10
135.1913970736874
 20
1.510416218375809
 30
0.0
 11
135.1913970736874
 21
15.89018953717581
 31
0.0
  0
LINE
  5
27BE
330
27C4
100
AcDbEntity
  8
0
  6
ByBlock
 62
     0
370
    -2
100
AcDbLine
 10
2.42939707368734
 20
4.010416218375809
 30
0.0
 11
2.42939707368734
 21
15.89018953717581
 31
0.0
  0
LINE
  5
27BF
330
27C4
100
AcDbEntity
  8
0
  6
ByBlock
 62
     0
370
    -2
100
AcDbLine
 10
133.1913970736874
 20
15.19018954907581
 30
0.0
 11
4.42939707368734
 21
15.19018954907581
 31
0.0
  0
SOLID
  5
27C0
330
27C4
100
AcDbEntity
  8
0
  6
ByBlock
 62
     0
100
AcDbTrace
 10
135.1913970736874
 20
15.19018954907581
 30
0.0
 11
133.1913970736874
 21
15.52352288240921
 31
0.0
 12
133.1913970736874
 22
14.85685621574241
 32
0.0
 13
133.1913970736874
 23
14.85685621574241
 33
0.0
  0
SOLID
  5
27C1
330
27C4
100
AcDbEntity
  8
0
  6
ByBlock
 62
     0
100
AcDbTrace
 10
2.42939707368734
 20
15.19018954907581
 30
0.0
 11
4.42939707368734
 21
15.52352288240921
 31
0.0
 12
4.42939707368734
 22
14.85685621574241
 32
0.0
 13
4.42939707368734
 23
14.85685621574241
 33
0.0
  0
MTEXT
  5
27C2
330
27C4
100
AcDbEntity
  8
0
  6
ByBlock
 62
     0
100
AcDbMText
 10
68.81039707368734
 20
17.62956452882581
 30
0.0
 40
2.6987499595
 41
0.0
 71
     5
 72
     1
  1
132.762
 73
     1
 44
1.0
  0
ENDBLK
  5
2974
330
27C4
100
AcDbEntity
  8
図
100
AcDbBlockEnd
  0
BLOCK
  5
2975
330
27CF
100
AcDbEntity
  8
0
100
AcDbBlockBegin
  2
*D83
 70
     1
 71
     0
 10
0.0
 20
0.0
 30
0.0
  3
*D83
  1

  0
POINT
  5
27C6
330
27CF
100
AcDbEntity
  8
DEFPOINTS
  6
ByBlock
 62
     0
100
AcDbPoint
 10
135.1913970736874
 20
1.447916218375809
 30
0.0
  0
POINT
  5
27C7
330
27CF
100
AcDbEntity
  8
DEFPOINTS
  6
ByBlock
 62
     0
100
AcDbPoint
 10
-70.37060292631266
 20
0.8479162183758149
 30
0.0
  0
LINE
  5
27C8
330
27CF
100
AcDbEntity
  8
0
  6
ByBlock
 62
     0
370
    -2
100
AcDbLine
 10
135.1913970736874
 20
1.510416218375809
 30
0.0
 11
135.1913970736874
 21
24.20876253527581
 31
0.0
  0
LINE
  5
27C9
330
27CF
100
AcDbEntity
  8
0
  6
ByBlock
 62
     0
370
    -2
100
AcDbLine
 10
-70.37060292631264
 20
0.9104162183758149
 30
0.0
 11
-70.37060292631264
 21
24.20876253527581
 31
0.0
  0
LINE
  5
27CA
330
27CF
100
AcDbEntity
  8
0
  6
ByBlock
 62
     0
370
    -2
100
AcDbLine
 10
133.1913970736874
 20
23.50876254717581
 30
0.0
 11
-68.37060292631264
 21
23.50876254717581
 31
0.0
  0
SOLID
  5
27CB
330
27CF
100
AcDbEntity
  8
0
  6
ByBlock
 62
     0
100
AcDbTrace
 10
135.1913970736874
 20
23.50876254717581
 30
0.0
 11
133.1913970736874
 21
23.84209588050921
 31
0.0
 12
133.1913970736874
 22
23.17542921384241
 32
0.0
 13
133.1913970736874
 23
23.17542921384241
 33
0.0
  0
SOLID
  5
27CC
330
27CF
100
AcDbEntity
  8
0
  6
ByBlock
 62
     0
100
AcDbTrace
 10
-70.37060292631264
 20
23.50876254717581
 30
0.0
 11
-68.37060292631264
 21
23.84209588050921
 31
0.0
 12
-68.37060292631264
 22
23.17542921384241
 32
0.0
 13
-68.37060292631264
 23
23.17542921384241
 33
0.0
  0
MTEXT
  5
27CD
330
27CF
100
AcDbEntity
  8
0
  6
ByBlock
 62
     0
100
AcDbMText
 10
32.41039707368735
 20
25.94813752692581
 30
0.0
 40
2.6987499595
 41
0.0
 71
     5
 72
     1
  1
(205.562)
 73
     1
 44
1.0
  0
ENDBLK
  5
2976
330
27CF
100
AcDbEntity
  8
図
100
AcDbBlockEnd
  0
ENDSEC
  0
SECTION
  2
ENTITIES
  0
POINT
  5
387
330
1F
100
AcDbEntity
  8
1
  6
Continuous
 62
     7
100
AcDbPoint
 10
166.8086658059735
 20
-135.0307504174916
 30
0.0
  0
POINT
  5
398
330
1F
100
AcDbEntity
  8
1
  6
Continuous
 62
     7
100
AcDbPoint
 10
-115.1913341940266
 20
-125.5307504174916
 30
0.0
  0
POINT
  5
399
330
1F
100
AcDbEntity
  8
1
  6
Continuous
 62
     7
100
AcDbPoint
 10
-17.69135326751288
 20
-77.0307656762807
 30
0.0
  0
LINE
  5
39E
330
1F
100
AcDbEntity
  8
1
  6
Continuous
 62
     7
370
    30
100
AcDbLine
 10
-115.1913341940266
 20
-125.5307504174916
 30
0.0
 11
159.8086505471844
 21
-125.5307504174916
 31
0.0
  0
LINE
  5
39F
330
1F
100
AcDbEntity
  8
1
  6
Continuous
 62
     7
370
    30
100
AcDbLine
 10
159.8086505471844
 20
65.46924958250838
 30
0.0
 11
159.8086505471844
 21
-125.5307504174916
 31
0.0
  0
LINE
  5
3A0
330
1F
100
AcDbEntity
  8
1
  6
Continuous
 62
     7
100
AcDbLine
 10
-20.19135326751288
 20
-74.5307656762807
 30
0.0
 11
-20.19135326751288
 21
-125.5307504174916
 31
0.0
  0
LINE
  5
3A1
330
1F
100
AcDbEntity
  8
DEFPOINTS
  6
HIDDEN
 62
     7
100
AcDbLine
 10
-130.1913341940266
 20
-135.0307504174916
 30
0.0
 11
166.8086658059735
 21
-135.0307504174916
 31
0.0
  0
LINE
  5
3A2
330
1F
100
AcDbEntity
  8
1
  6
Continuous
 62
     7
100
AcDbLine
 10
-15.19135326751288
 20
-74.5307656762807
 30
0.0
 11
-15.19135326751288
 21
-84.5307656762807
 31
0.0
  0
LINE
  5
3A4
330
1F
100
AcDbEntity
  8
1
  6
Continuous
 62
     7
100
AcDbLine
 10
76.80865054718439
 20
-74.5307656762807
 30
0.0
 11
76.80865054718439
 21
-84.5307656762807
 31
0.0
  0
LINE
  5
3A5
330
1F
100
AcDbEntity
  8
1
  6
Continuous
 62
     7
100
AcDbLine
 10
71.80864673248712
 20
-74.5307656762807
 30
0.0
 11
71.80864673248712
 21
-84.5307656762807
 31
0.0
  0
LINE
  5
3A6
330
1F
100
AcDbEntity
  8
1
  6
Continuous
 62
     7
100
AcDbLine
 10
51.80864673248712
 20
-74.5307656762807
 30
0.0
 11
51.80864673248712
 21
-84.5307656762807
 31
0.0
  0
LINE
  5
3A7
330
1F
100
AcDbEntity
  8
1
  6
Continuous
 62
     7
100
AcDbLine
 10
-20.19135326751288
 20
-79.5307656762807
 30
0.0
 11
159.8086505471844
 21
-79.5307656762807
 31
0.0
  0
LINE
  5
3B0
330
1F
100
AcDbEntity
  8
1
  6
Continuous
 62
     7
100
AcDbLine
 10
18.30864863983575
 20
-84.5307656762807
 30
0.0
 11
18.30864863983575
 21
-125.5307504174916
 31
0.0
  0
LINE
  5
3BA
330
1F
100
AcDbEntity
  8
1
  6
Continuous
 62
     7
100
AcDbLine
 10
60.80864923639685
 20
-83.7628209754446
 30
0.0
 11
62.8086492633192
 21
-80.29871937585047
 31
0.0
  0
LINE
  5
3BB
330
1F
100
AcDbEntity
  8
1
  6
Continuous
 62
     7
100
AcDbLine
 10
148.8086530510941
 20
-83.76282097544457
 30
0.0
 11
150.8086530780164
 21
-80.29871937585044
 31
0.0
  0
LINE
  5
3BE
330
1F
100
AcDbEntity
  8
DEFPOINTS
  6
HIDDEN
 62
     7
100
AcDbLine
 10
166.8086658059735
 20
74.96924958250837
 30
0.0
 11
166.8086658059735
 21
-135.0307504174916
 31
0.0
  0
LINE
  5
3BF
330
1F
100
AcDbEntity
  8
1
  6
Continuous
 62
     7
370
    30
100
AcDbLine
 10
-115.1913341940266
 20
65.46924958250838
 30
0.0
 11
159.8086505471844
 21
65.46924958250838
 31
0.0
  0
LINE
  5
3C0
330
1F
100
AcDbEntity
  8
1
  6
Continuous
 62
     7
370
    30
100
AcDbLine
 10
-115.1913341940266
 20
65.46924958250838
 30
0.0
 11
-115.1913341940266
 21
-125.5307504174916
 31
0.0
  0
LINE
  5
3C2
330
1F
100
AcDbEntity
  8
1
  6
Continuous
 62
     7
100
AcDbLine
 10
-20.19135326751288
 20
-84.5307656762807
 30
0.0
 11
159.8086505471844
 21
-84.5307656762807
 31
0.0
  0
LINE
  5
3C3
330
1F
100
AcDbEntity
  8
1
  6
Continuous
 62
     7
100
AcDbLine
 10
-20.19135326751288
 20
-74.5307656762807
 30
0.0
 11
159.8086505471844
 21
-74.5307656762807
 31
0.0
  0
LINE
  5
3C7
330
1F
100
AcDbEntity
  8
1
  6
Continuous
 62
     7
100
AcDbLine
 10
-20.19135326751287
 20
-103.6736140998297
 30
0.0
 11
159.8086505471844
 21
-103.6736140998297
 31
0.0
  0
LINE
  5
3CC
330
1F
100
AcDbEntity
  8
1
  6
Continuous
 62
     7
100
AcDbLine
 10
-15.52108473076683
 20
-78.98614995638955
 30
0.0
 11
-17.68614824022793
 21
-75.23614995638954
 31
0.0
  0
LINE
  5
3CD
330
1F
100
AcDbEntity
  8
1
  6
Continuous
 62
     7
100
AcDbLine
 10
-17.6861482402279
 20
-75.23614995638955
 30
0.0
 11
-19.85121174968899
 21
-78.98614995638955
 31
0.0
  0
LINE
  5
3CE
330
1F
100
AcDbEntity
  8
1
  6
Continuous
 62
     7
100
AcDbLine
 10
-15.52108473076681
 20
-78.98614995638955
 30
0.0
 11
-19.85121174968899
 21
-78.98614995638955
 31
0.0
  0
TEXT
  5
3E0
330
1F
100
AcDbEntity
  8
1
  6
Continuous
 62
     7
100
AcDbText
 10
-10.25825018294867
 20
-84.0307656762807
 30
0.0
 40
3.0
  1
図　　歴
 41
0.7924526497277711
100
AcDbText
  0
TEXT
  5
3E1
330
1F
100
AcDbEntity
  8
1
  6
Continuous
 62
     7
100
AcDbText
 10
8.919566804088989
 20
-83.7807656762807
 30
0.0
 40
2.5
  1
CHANGE NOTICE
 41
1.00261237008231
100
AcDbText
  0
TEXT
  5
3E4
330
1F
100
AcDbEntity
  8
1
  6
Continuous
 62
     7
100
AcDbText
 10
53.31739164842328
 20
-83.33447919158407
 30
0.0
 40
1.799999237060547
  1
DATE
 41
0.9430185615926484
100
AcDbText
  0
TEXT
  5
3E5
330
1F
100
AcDbEntity
  8
1
  6
Continuous
 62
     7
100
AcDbText
 10
63.31739164842328
 20
-83.33447919158407
 30
0.0
 40
1.799999237060547
  1
NAME
 41
0.9430185615926484
100
AcDbText
  0
TEXT
  5
40D
330
1F
100
AcDbEntity
  8
1
  6
Continuous
 62
     7
100
AcDbText
 10
-19.02126759359247
 20
-78.91829355129866
 30
0.0
 40
3.0
  1
１
 41
0.9004726129419663
100
AcDbText
  0
TEXT
  5
40F
330
1F
100
AcDbEntity
  8
1
  6
Continuous
 62
     7
100
AcDbText
 10
81.74175172439996
 20
-84.0307656762807
 30
0.0
 40
3.0
  1
図　　歴
 41
0.7924526497277711
100
AcDbText
  0
TEXT
  5
410
330
1F
100
AcDbEntity
  8
1
  6
Continuous
 62
     7
100
AcDbText
 10
100.9195687114376
 20
-83.7807656762807
 30
0.0
 40
2.5
  1
CHANGE NOTICE
 41
1.00261237008231
100
AcDbText
  0
TEXT
  5
412
330
1F
100
AcDbEntity
  8
1
  6
Continuous
 62
     7
100
AcDbText
 10
72.79788797208111
 20
-79.04746950963798
 30
0.0
 40
3.0
  1
２
 41
0.9004726129419663
100
AcDbText
  0
TEXT
  5
415
330
1F
100
AcDbEntity
  8
1
  6
Continuous
 62
     7
100
AcDbText
 10
141.3173954631206
 20
-83.33447919158407
 30
0.0
 40
1.799999237060547
  1
DATE
 41
0.9430185615926484
100
AcDbText
  0
TEXT
  5
416
330
1F
100
AcDbEntity
  8
1
  6
Continuous
 62
     7
100
AcDbText
 10
151.3173954631206
 20
-83.33447919158407
 30
0.0
 40
1.799999237060547
  1
NAME
 41
0.9430185615926484
100
AcDbText
  0
INSERT
  5
43A
330
1F
100
AcDbEntity
  8
1
  6
Continuous
 62
     7
100
AcDbBlockReference
  2
KOZU0015
 10
111.1489057047232
 20
-123.8956360414303
 30
0.0
 41
6.0
 42
6.0
 43
6.0
  0
LINE
  5
449
330
1F
100
AcDbEntity
  8
1
  6
Continuous
 62
     7
100
AcDbLine
 10
139.62775011518
 20
-84.63505495013743
 30
0.0
 11
139.62775011518
 21
-103.6736140998297
 31
0.0
  0
LINE
  5
44B
330
1F
100
AcDbEntity
  8
1
  6
Continuous
 62
     7
100
AcDbLine
 10
95.76122337453825
 20
-114.9144587048859
 30
0.0
 11
159.7612233745383
 21
-114.9144587048859
 31
0.0
  0
LINE
  5
44C
330
1F
100
AcDbEntity
  8
1
  6
Continuous
 62
     7
100
AcDbLine
 10
95.62775011517996
 20
-84.63505495013743
 30
0.0
 11
95.62775011517996
 21
-125.6350396913483
 31
0.0
  0
LINE
  5
44D
330
1F
100
AcDbEntity
  8
1
  6
Continuous
 62
     7
100
AcDbLine
 10
114.62775011518
 20
-84.63505495013743
 30
0.0
 11
114.62775011518
 21
-103.6736140998297
 31
0.0
  0
LINE
  5
44E
330
1F
100
AcDbEntity
  8
1
  6
Continuous
 62
     7
100
AcDbLine
 10
127.12775011518
 20
-84.63505495013743
 30
0.0
 11
127.12775011518
 21
-103.6736140998297
 31
0.0
  0
LINE
  5
44F
330
1F
100
AcDbEntity
  8
1
  6
Continuous
 62
     7
100
AcDbLine
 10
57.7944738328805
 20
-103.6736140998297
 30
0.0
 11
57.7944738328805
 21
-125.5960738804328
 31
0.0
  0
LINE
  5
450
330
1F
100
AcDbEntity
  8
1
  6
Continuous
 62
     7
100
AcDbLine
 10
38.29447574022913
 20
-103.6736140998297
 30
0.0
 11
38.29447574022913
 21
-125.5960738804328
 31
0.0
  0
LINE
  5
451
330
1F
100
AcDbEntity
  8
1
  6
CENTER
 62
     7
100
AcDbLine
 10
144.5311058196687
 20
-94.89811498380787
 30
0.0
 11
144.5311058196687
 21
-103.2324808285345
 31
0.0
  0
LINE
  5
452
330
1F
100
AcDbEntity
  8
1
  6
CENTER
 62
     7
100
AcDbLine
 10
140.3845756683015
 20
-99.22845250822196
 30
0.0
 11
158.7201774749421
 21
-99.22845250822196
 31
0.0
  0
LINE
  5
453
330
1F
100
AcDbEntity
  8
1
  6
Continuous
 62
     7
100
AcDbLine
 10
151.0311058196687
 20
-97.22845250822193
 30
0.0
 11
151.0311058196687
 21
-101.228452508222
 31
0.0
  0
LINE
  5
454
330
1F
100
AcDbEntity
  8
1
  6
Continuous
 62
     7
100
AcDbLine
 10
157.5311058196687
 20
-95.72845250822193
 30
0.0
 11
157.5311058196687
 21
-102.728452508222
 31
0.0
  0
LINE
  5
455
330
1F
100
AcDbEntity
  8
1
  6
Continuous
 62
     7
100
AcDbLine
 10
157.5310930548212
 20
-95.72847328928954
 30
0.0
 11
151.0310877902356
 21
-97.22847435891224
 31
0.0
  0
LINE
  5
456
330
1F
100
AcDbEntity
  8
1
  6
Continuous
 62
     7
100
AcDbLine
 10
157.5311107558579
 20
-102.7284720519294
 30
0.0
 11
151.0311203593022
 21
-101.2284744133901
 31
0.0
  0
LINE
  5
457
330
1F
100
AcDbEntity
  8
1
  6
Continuous
 62
     7
100
AcDbLine
 10
130.0789555708976
 20
-101.7002663342268
 30
0.0
 11
137.0100369243275
 21
-94.49194134519031
 31
0.0
  0
CIRCLE
  5
458
330
1F
100
AcDbEntity
  8
1
  6
Continuous
 62
     7
100
AcDbCircle
 10
144.5311058196687
 20
-99.22845250822196
 30
0.0
 40
2.0
  0
CIRCLE
  5
459
330
1F
100
AcDbEntity
  8
1
  6
Continuous
 62
     7
100
AcDbCircle
 10
144.5311058196687
 20
-99.22845250822196
 30
0.0
 40
3.5
  0
TEXT
  5
45A
330
1F
100
AcDbEntity
  8
1
  6
Continuous
 62
     7
100
AcDbText
 10
96.93330277492932
 20
-117.7018008920477
 30
0.0
 40
2.0
  1
図面番号
 41
1.116756992340088
100
AcDbText
  0
TEXT
  5
45B
330
1F
100
AcDbEntity
  8
1
  6
Continuous
 62
     7
100
AcDbText
 10
144.9053966462961
 20
-87.84608913922192
 30
0.0
 40
2.5
  1
第三角法
 41
0.7924525623015541
100
AcDbText
  0
TEXT
  5
45C
330
1F
100
AcDbEntity
  8
1
  6
Continuous
 62
     7
100
AcDbText
 10
129.4051316876129
 20
-88.0415129867352
 30
0.0
 40
3.0
  1
尺　度
 41
0.8011275980652882
100
AcDbText
  0
TEXT
  5
45D
330
1F
100
AcDbEntity
  8
1
  6
Continuous
 62
     7
100
AcDbText
 10
116.9051316876129
 20
-88.0415129867352
 30
0.0
 40
3.0
  1
個　数
 41
0.8011275980652882
100
AcDbText
  0
TEXT
  5
45E
330
1F
100
AcDbEntity
  8
1
  6
Continuous
 62
     7
100
AcDbText
 10
99.95513473937066
 20
-88.0415129867352
 30
0.0
 40
3.0
  1
材　　質
 41
0.7924526497277711
100
AcDbText
  0
TEXT
  5
460
330
1F
100
AcDbEntity
  8
1
  6
Continuous
 62
     7
100
AcDbText
 10
98.85432166460657
 20
-90.99608875775219
 30
0.0
 40
1.799999237060547
  1
MATERIAL
 41
0.9708675251408886
100
AcDbText
  0
TEXT
  5
461
330
1F
100
AcDbEntity
  8
1
  6
Continuous
 62
     7
100
AcDbText
 10
117.8543521821847
 20
-90.99608875775219
 30
0.0
 40
1.799999237060547
  1
QTY.
 41
1.073090087329566
100
AcDbText
  0
TEXT
  5
462
330
1F
100
AcDbEntity
  8
1
  6
Continuous
 62
     7
100
AcDbText
 10
129.2543765962472
 20
-90.99608875775219
 30
0.0
 40
1.799999237060547
  1
SCALE
 41
0.9371196086724451
100
AcDbText
  0
TEXT
  5
463
330
1F
100
AcDbEntity
  8
1
  6
Continuous
 62
     7
100
AcDbText
 10
97.21155941689885
 20
-108.6584600280377
 30
0.0
 40
2.699999809265137
  1
型　　番
 41
0.7924525761883141
100
AcDbText
  0
TEXT
  5
465
330
1F
100
AcDbEntity
  8
1
  6
Continuous
 62
     7
100
AcDbText
 10
129.6747643411508
 20
-97.09608913922192
 30
0.0
 40
3.5
  1
１
 41
0.8965522015080446
100
AcDbText
  0
TEXT
  5
467
330
1F
100
AcDbEntity
  8
1
  6
Continuous
 62
     7
100
AcDbText
 10
134.4247643411508
 20
-103.0960891392219
 30
0.0
 40
3.5
  1
１
 41
0.8965522015080446
100
AcDbText
  0
TEXT
  5
468
330
1F
100
AcDbEntity
  8
1
  6
Continuous
 62
     7
100
AcDbText
 10
141.1516210496774
 20
-90.99608875775219
 30
0.0
 40
1.799999237060547
  1
THIRD ANGLE
 41
0.9934187309461456
100
AcDbText
  0
TEXT
  5
469
330
1F
100
AcDbEntity
  8
1
  6
Continuous
 62
     7
100
AcDbText
 10
141.1516210496774
 20
-93.6960866596687
 30
0.0
 40
1.799999237060547
  1
PROJECTION
 41
0.9336612321840694
100
AcDbText
  0
LINE
  5
46B
330
1F
100
AcDbEntity
  8
1
  6
Continuous
100
AcDbLine
 10
18.2719303069326
 20
-110.6189419870321
 30
0.0
 11
95.61659078453279
 21
-110.5921511772796
 31
0.0
  0
LINE
  5
46D
330
1F
100
AcDbEntity
  8
1
  6
Continuous
 62
     7
100
AcDbLine
 10
76.79447764757776
 20
-103.6736140998297
 30
0.0
 11
76.79447764757776
 21
-125.5960738804328
 31
0.0
  0
TEXT
  5
46E
330
1F
100
AcDbEntity
  8
1
  6
Continuous
 62
     7
100
AcDbText
 10
21.3909540385687
 20
-89.55241675387121
 30
0.0
 40
3.0
  1
名　　称
 41
0.7924526497277711
100
AcDbText
  0
TEXT
  5
474
330
1F
100
AcDbEntity
  8
1
  6
Continuous
 62
     7
100
AcDbText
 10
109.1416130596978
 20
-108.1237772959441
 30
0.0
 40
1.799999237060547
  1
STYLE NUMBER
 41
0.9708675251408886
100
AcDbText
  0
TEXT
  5
475
330
1F
100
AcDbEntity
  8
1
  6
Continuous
 62
     7
100
AcDbText
 10
108.4809534166652
 20
-117.4235442500782
 30
0.0
 40
1.799999237060547
  1
DRAWING NUMBER
 41
0.9708675251408886
100
AcDbText
  0
TEXT
  5
476
330
1F
100
AcDbEntity
  8
1
  6
Continuous
 62
     7
100
AcDbText
 10
36.20818872976956
 20
-88.78265708140351
 30
0.0
 40
1.799999237060547
  1
PRODUCT NAME
 41
0.9708675251408886
100
AcDbText
  0
POINT
  5
477
330
1F
100
AcDbEntity
  8
0
  6
Continuous
100
AcDbPoint
 10
159.808788157259
 20
-125.5307781417065
 30
0.0
  0
POINT
  5
478
330
1F
100
AcDbEntity
  8
0
  6
Continuous
100
AcDbPoint
 10
18.13036361857221
 20
-84.54917000653165
 30
0.0
  0
TEXT
  5
47E
330
1F
100
AcDbEntity
  8
1
  6
Continuous
 62
     7
100
AcDbText
 10
61.64789916206004
 20
-124.0
 30
0.0
 40
2.5
  1
2008.5.22
 41
0.7800000000000001
100
AcDbText
  0
TEXT
  5
47F
330
1F
100
AcDbEntity
  8
1
  6
Continuous
 62
     7
100
AcDbText
 10
80.69430483522758
 20
-123.8686864462178
 30
0.0
 40
2.5
  1
2008.5.22
 41
0.7800000000000001
100
AcDbText
  0
LINE
  5
484
330
1F
100
AcDbEntity
  8
0
  6
Continuous
100
AcDbLine
 10
159.8087832275967
 20
-125.5307910730879
 30
0.0
 11
159.8087746729364
 21
-115.1986810209216
 31
0.0
  0
LINE
  5
485
330
1F
100
AcDbEntity
  8
0
  6
Continuous
100
AcDbLine
 10
159.8087832275967
 20
-125.5307910730879
 30
0.0
 11
149.0411746729364
 21
-125.5307810209216
 31
0.0
  0
TEXT
  5
5CF
330
1F
100
AcDbEntity
  8
1
  6
Continuous
 62
     7
100
AcDbText
 10
22.15330725674576
 20
-107.7356089607982
 30
0.0
 40
3.0
  1
設　　計
 41
0.7924526497277711
100
AcDbText
  0
TEXT
  5
5D0
330
1F
100
AcDbEntity
  8
1
  6
Continuous
 62
     7
100
AcDbText
 10
42.22236634015275
 20
-107.766654123332
 30
0.0
 40
3.0
  1
製　　図
 41
0.7924526497277711
100
AcDbText
  0
TEXT
  5
5D1
330
1F
100
AcDbEntity
  8
1
  6
Continuous
 62
     7
100
AcDbText
 10
60.93512551260429
 20
-107.6275258023472
 30
0.0
 40
3.0
  1
検　　図
 41
0.7924526497277711
100
AcDbText
  0
TEXT
  5
5D2
330
1F
100
AcDbEntity
  8
1
  6
Continuous
 62
     7
100
AcDbText
 10
80.58260278701074
 20
-107.5884318939713
 30
0.0
 40
3.0
  1
承　　認
 41
0.7924526497277711
100
AcDbText
  0
TEXT
  5
5D3
330
1F
100
AcDbEntity
  8
1
  6
Continuous
 62
     7
100
AcDbText
 10
81.0405011854473
 20
-109.7458888478996
 30
0.0
 40
1.6
  1
APPROVED
 41
0.7800000000000001
100
AcDbText
  0
TEXT
  5
5D4
330
1F
100
AcDbEntity
  8
1
  6
Continuous
 62
     7
100
AcDbText
 10
61.72431543094996
 20
-109.969197353732
 30
0.0
 40
1.6
  1
CHECKED
 41
0.7800000000000001
100
AcDbText
  0
TEXT
  5
5D5
330
1F
100
AcDbEntity
  8
1
  6
Continuous
 62
     7
100
AcDbText
 10
44.08294347019517
 20
-109.8575431008158
 30
0.0
 40
1.6
  1
DRAWN
 41
0.782
100
AcDbText
  0
TEXT
  5
5D6
330
1F
100
AcDbEntity
  8
1
  6
Continuous
 62
     7
100
AcDbText
 10
22.86863541612296
 20
-109.8575431008158
 30
0.0
 40
1.6
  1
DESIGNED
 41
0.7800000000000001
100
AcDbText
  0
TEXT
  5
5D8
330
1F
100
AcDbEntity
  8
1
  6
Continuous
 62
     7
100
AcDbText
 10
59.2
 20
-118.5
 30
0.0
 40
2.5
  1
M.Matsumoto
 41
0.65
100
AcDbText
  0
TEXT
  5
5D9
330
1F
100
AcDbEntity
  8
1
  6
Continuous
 62
     7
100
AcDbText
 10
79.80102601316132
 20
-118.5
 30
0.0
 40
2.5
  1
M.Saito
  7
NewStyle1
100
AcDbText
  0
OLE2FRAME
  5
716
330
1F
100
AcDbEntity
  8
0
  6
Continuous
100
AcDbOle2Frame
 70
     2
 10
-0.3748345475148928
 20
-126.6572272174916
 30
0.0
 11
37.65783998271765
 21
-132.370289915166
 31
0.0
 72
     0
 73
   205
 90
    28288
310
0055EE31BF0A4AFDD7BFB84ABF0210AA5FC0000000000000000003E3BD1934D4
310
4240B84ABF0210AA5FC0000000000000000003E3BD1934D44240A7753C6AD98B
310
60C00000000000000000EE31BF0A4AFDD7BFA7753C6AD98B60C0000000000000
310
00000000000001000000000100000100000001000000000001000000006E0000
310
D0CF11E0A1B11AE1000000000000000000000000000000003E000300FEFF0900
310
0600000000000000000000000100000001000000000000000010000002000000
310
01000000FEFFFFFF0000000000000000FFFFFFFFFFFFFFFFFFFFFFFFFFFFFFFF
310
FFFFFFFFFFFFFFFFFFFFFFFFFFFFFFFFFFFFFFFFFFFFFFFFFFFFFFFFFFFFFFFF
310
FFFFFFFFFFFFFFFFFFFFFFFFFFFFFFFFFFFFFFFFFFFFFFFFFFFFFFFFFFFFFFFF
310
FFFFFFFFFFFFFFFFFFFFFFFFFFFFFFFFFFFFFFFFFFFFFFFFFFFFFFFFFFFFFFFF
310
FFFFFFFFFFFFFFFFFFFFFFFFFFFFFFFFFFFFFFFFFFFFFFFFFFFFFFFFFFFFFFFF
310
FFFFFFFFFFFFFFFFFFFFFFFFFFFFFFFFFFFFFFFFFFFFFFFFFFFFFFFFFFFFFFFF
310
FFFFFFFFFFFFFFFFFFFFFFFFFFFFFFFFFFFFFFFFFFFFFFFFFFFFFFFFFFFFFFFF
310
FFFFFFFFFFFFFFFFFFFFFFFFFFFFFFFFFFFFFFFFFFFFFFFFFFFFFFFFFFFFFFFF
310
FFFFFFFFFFFFFFFFFFFFFFFFFFFFFFFFFFFFFFFFFFFFFFFFFFFFFFFFFFFFFFFF
310
FFFFFFFFFFFFFFFFFFFFFFFFFFFFFFFFFFFFFFFFFFFFFFFFFFFFFFFFFFFFFFFF
310
FFFFFFFFFFFFFFFFFFFFFFFFFFFFFFFFFFFFFFFFFFFFFFFFFFFFFFFFFFFFFFFF
310
FFFFFFFFFFFFFFFFFFFFFFFFFFFFFFFFFFFFFFFFFFFFFFFFFFFFFFFFFFFFFFFF
310
FFFFFFFFFFFFFFFFFFFFFFFFFFFFFFFFFFFFFFFFFFFFFFFFFFFFFFFFFFFFFFFF
310
FFFFFFFFFFFFFFFFFFFFFFFFFFFFFFFFFFFFFFFFFFFFFFFFFFFFFFFFFFFFFFFF
310
FDFFFFFF35000000FEFFFFFFFEFFFFFF05000000060000000700000008000000
310
090000000A0000000B0000000C0000000D0000000E0000000F00000010000000
310
1100000012000000130000001400000015000000160000001700000018000000
310
190000001A0000001B0000001C0000001D0000001E0000001F00000020000000
310
2100000022000000230000002400000025000000260000002700000028000000
310
290000002A0000002B0000002C0000002D0000002E0000002F00000030000000
310
31000000320000003300000034000000FEFFFFFFFEFFFFFFFFFFFFFFFFFFFFFF
310
FFFFFFFFFFFFFFFFFFFFFFFFFFFFFFFFFFFFFFFFFFFFFFFFFFFFFFFFFFFFFFFF
310
FFFFFFFFFFFFFFFFFFFFFFFFFFFFFFFFFFFFFFFFFFFFFFFFFFFFFFFFFFFFFFFF
310
FFFFFFFFFFFFFFFFFFFFFFFFFFFFFFFFFFFFFFFFFFFFFFFFFFFFFFFFFFFFFFFF
310
FFFFFFFFFFFFFFFFFFFFFFFFFFFFFFFFFFFFFFFFFFFFFFFFFFFFFFFFFFFFFFFF
310
FFFFFFFFFFFFFFFFFFFFFFFFFFFFFFFFFFFFFFFFFFFFFFFFFFFFFFFFFFFFFFFF
310
FFFFFFFFFFFFFFFFFFFFFFFFFFFFFFFFFFFFFFFFFFFFFFFFFFFFFFFFFFFFFFFF
310
FFFFFFFFFFFFFFFFFFFFFFFFFFFFFFFFFFFFFFFFFFFFFFFFFFFFFFFFFFFFFFFF
310
FFFFFFFFFFFFFFFFFFFFFFFFFFFFFFFFFFFFFFFFFFFFFFFFFFFFFFFFFFFFFFFF
310
FFFFFFFFFFFFFFFFFFFFFFFFFFFFFFFFFFFFFFFFFFFFFFFFFFFFFFFFFFFFFFFF
310
52006F006F007400200045006E00740072007900000000000000000000000000
310
0000000000000000000000000000000000000000000000000000000000000000
310
16000500FFFFFFFFFFFFFFFF020000000A00030000000000C000000000000046
310
000000000000000000000000E0BF9579E12CC801030000000001000000000000
310
010043006F006D0070004F0062006A0000000000000000000000000000000000
310
0000000000000000000000000000000000000000000000000000000000000000
310
1200020104000000FFFFFFFFFFFFFFFF00000000000000000000000000000000
310
0000000000000000000000000000000000000000000000004D00000000000000
310
01004F006C006500310030004E00610074006900760065000000000000000000
310
0000000000000000000000000000000000000000000000000000000000000000
310
1A0002010100000003000000FFFFFFFF00000000000000000000000000000000
310
0000000000000000000000000000000000000000040000000460000000000000
310
01004F006C006500310030004900740065006D004E0061006D00650000000000
310
0000000000000000000000000000000000000000000000000000000000000000
310
1E000201FFFFFFFFFFFFFFFFFFFFFFFF00000000000000000000000000000000
310
0000000000000000000000000000000000000000020000000500000000000000
310
01000000FEFFFFFFFEFFFFFFFEFFFFFFFFFFFFFFFFFFFFFFFFFFFFFFFFFFFFFF
310
FFFFFFFFFFFFFFFFFFFFFFFFFFFFFFFFFFFFFFFFFFFFFFFFFFFFFFFFFFFFFFFF
310
FFFFFFFFFFFFFFFFFFFFFFFFFFFFFFFFFFFFFFFFFFFFFFFFFFFFFFFFFFFFFFFF
310
FFFFFFFFFFFFFFFFFFFFFFFFFFFFFFFFFFFFFFFFFFFFFFFFFFFFFFFFFFFFFFFF
310
FFFFFFFFFFFFFFFFFFFFFFFFFFFFFFFFFFFFFFFFFFFFFFFFFFFFFFFFFFFFFFFF
310
FFFFFFFFFFFFFFFFFFFFFFFFFFFFFFFFFFFFFFFFFFFFFFFFFFFFFFFFFFFFFFFF
310
FFFFFFFFFFFFFFFFFFFFFFFFFFFFFFFFFFFFFFFFFFFFFFFFFFFFFFFFFFFFFFFF
310
FFFFFFFFFFFFFFFFFFFFFFFFFFFFFFFFFFFFFFFFFFFFFFFFFFFFFFFFFFFFFFFF
310
FFFFFFFFFFFFFFFFFFFFFFFFFFFFFFFFFFFFFFFFFFFFFFFFFFFFFFFFFFFFFFFF
310
FFFFFFFFFFFFFFFFFFFFFFFFFFFFFFFFFFFFFFFFFFFFFFFFFFFFFFFFFFFFFFFF
310
FFFFFFFFFFFFFFFFFFFFFFFFFFFFFFFFFFFFFFFFFFFFFFFFFFFFFFFFFFFFFFFF
310
FFFFFFFFFFFFFFFFFFFFFFFFFFFFFFFFFFFFFFFFFFFFFFFFFFFFFFFFFFFFFFFF
310
FFFFFFFFFFFFFFFFFFFFFFFFFFFFFFFFFFFFFFFFFFFFFFFFFFFFFFFFFFFFFFFF
310
FFFFFFFFFFFFFFFFFFFFFFFFFFFFFFFFFFFFFFFFFFFFFFFFFFFFFFFFFFFFFFFF
310
FFFFFFFFFFFFFFFFFFFFFFFFFFFFFFFFFFFFFFFFFFFFFFFFFFFFFFFFFFFFFFFF
310
FFFFFFFFFFFFFFFFFFFFFFFFFFFFFFFFFFFFFFFFFFFFFFFFFFFFFFFFFFFFFFFF
310
0100FEFF030A0000FFFFFFFF0A00030000000000C00000000000004607000000
310
5042727573680007000000504272757368000700000050427275736800F439B2
310
71000000000000000000000000000000FFFFFF0000FFFF0018A31D00D84A2100
310
68A01D00D8A21D00A0A21D00E04B21008080800000FFFF0000121D00E04A2100
310
01000000644B210008000000FFFFFFFFFFFFFF00FFFFFF00FFFFFF0000FFFF00
310
000000008080800080000000C0C0C000140200002F8481000000000000000000
310
0100000200000000000000000000000000000000FFFFFFFF0000000000000000
310
000000000100000001808000000000000000000000400000FFFFFF0000000000
310
0000000000000000000000000000000000000000FFFFFF00E04B210000000000
310
00000000FFFFFFFFFFFFFFFF0000000000000000000000000000000004004000
310
00000000000000000000000004000800000000000000000000000000FFFFFF00
310
FFFFFF0080000000FFFF0000FFFF0000FFFFFF00FFFFFFFFFFFFFFFFFFFFFFFF
310
80808000000000000000000000000000FFFFFF00FFFFFF00FFFFFF0000FFFF00
310
FFFFFF0000FFFF00FFFFFF00FFFFFFFF0000000000000000000000000C000800
310
000000000000000013003A01AA001400708F1D0030DF21000000000058000000
310
00000000000000000000000000000000000000000000000076C3D67300000000
310
00600000424DEA5F0000000000003600000028000000E9000000230000000100
310
180000000000B45F000000000000000000000000000000000000FFFFFFFFFFFF
310
FFFFFFFFFFFFFFFFFFFFFFFFFFFFFFFFFFFFFFFFFFFFFFFFFFFFFFFFFFFFFFFF
310
FFFFFFFFFFFFFFF5F5F5AEAEAE2B2B2B1D1D1D1D1D1D1D1D1D1D1D1D1D1D1D1E
310
1E1E2B2B2B7C7C7CF4F4F4FFFFFFFFFFFFFFFFFFFFFFFFFFFFFFFFFFFFFFFFFF
310
FFFFFFFFFFFFFFFFFFFFFFFFFFFFFFFFFFFFFFFFFFFFFFFFFFFFFFFDFDFDF2F2
310
F2CFCFCF8888884949492C2C2C23232320202020202020202020202020202020
310
2020212121212121222222222222232323242424252525252525262626272727
310
2828282828282828282929292A2A2A2B2B2B2C2C2C2D2D2D3333334444446969
310
69ABABABE4E4E4F4F4F4FFFFFFFFFFFFFFFFFFFFFFFFFFFFFFFFFFFFE7E7E78A
310
8A8A3939393C3C3C3E3E3E4040404040403F3F3F3F3F3F8A8A8AF9F9F9FFFFFF
310
FFFFFFFFFFFFFFFFFFFFFFFFFFFFFFFFFFFFFFFFFFFFFFFFFFFFFFFFFFFFFFFF
310
FFFFFFFFFFFFFFFFFFFFF4F4F4C3C3C37676765353535757575959595858585A
310
5A5A5B5B5B5D5D5D5E5E5E6060606262626060606767679C9C9CE4E4E4FFFFFF
310
FFFFFFFFFFFFF9F9F9A3A3A36969696C6C6C6C6C6C6E6E6E6E6E6E6F6F6F6E6E
310
6EC2C2C2FEFEFEFFFFFFFFFFFFFEFEFEAAAAAA7878787A7A7A7C7C7C7E7E7E7E
310
7E7E808080808080C4C4C4F8F8F8FFFFFFFFFFFFFFFFFFFFFFFFFFFFFFFFFFFF
310
FFFFFFFFFFFFFFFFFFFFFFFFFFFFFFFFFFFFFFFFFFFFFFFFFFFFFFFFFFFFFFFF
310
FFFFFFFFFFFFFFFFFFFFFFFFFFFDFDFDC5C5C5ABABABABABABADADADAEAEAEAE
310
AEAEAFAFAFB1B1B1D5D5D5F7F7F7FFFFFFFFFFFFFFFFFFFFFFFFFFFFFFFEFEFE
310
F1F1F1E4E4E4DDDDDDCECECEC6C6C6C5C5C5C6C6C6C7C7C7C9C9C9C9C9C9CACA
310
CACACACACCCCCCCCCCCCCDCDCDCFCFCFD0D0D0D0D0D0D2D2D2D2D2D2D3D3D3D5
310
D5D5D5D5D5D6D6D6D7D7D7D8D8D8D9D9D9D9D9D9DBDBDBDBDBDBDCDCDCDCDCDC
310
DEDEDEDEDEDEDFDFDFDFDFDFDFDFDFDFDFDFE3E3E300FFFFFFFFFFFFFFFFFFFF
310
FFFFFFFFFFFFFFFFFFFFFFFFFFFFFFFFFFFFFFFFFFFFFFFFFFFFFFFFFFFFFFFF
310
FFFFFFF5F5F5A6A6A61212120404040404040404040404040404040303031010
310
106E6E6EF3F3F3FFFFFFFFFFFFFFFFFFFFFFFFFFFFFFFFFFFFFFFFFFFFFFFFFF
310
FFFFFFFFFFFFFFFFFFFFFFFFFFFFFFFFFFFFFFFFFCFCFCE3E3E38F8F8F282828
310
1212120808080303030303030202020202020202020202020202020202020202
310
0202020202020203030303030303030302020202020202020203030303030303
310
03030303030303030303030303030303030303030404040707070D0D0D181818
310
3F3F3F9E9E9EEDEDEDFFFFFFFFFFFFFFFFFFFFFFFFFFFFFFE1E1E16D6D6D0505
310
05050505060606060606060606060606050505686868F7F7F7FFFFFFFFFFFFFF
310
FFFFFFFFFFFFFFFFFFFFFFFFFFFFFFFFFFFFFFFFFFFFFFFFFFFFFFFFFFFFFFFF
310
FCFCFCEDEDEDA0A0A03939390F0F0F0909090A0A0A0A0A0A0A0A0A0A0A0A0B0B
310
0B0B0B0B0B0B0B0B0B0B131313232323787878D9D9D9FBFBFBFFFFFFFFFFFFFF
310
FFFFF7F7F76F6F6F0C0C0C0D0D0D0D0D0D0E0E0E0E0E0E0E0E0E0E0E0E9A9A9A
310
FCFCFCFFFFFFFFFFFFFDFDFD6969690F0F0F1010101010101010101010101111
310
111313138E8E8EEFEFEFFFFFFFFFFFFFFFFFFFFFFFFFFFFFFFFFFFFFFFFFFFFF
310
FFFFFFFFFFFFFFFFFFFFFFFFFFFFFFFFFFFFFFFFFFFFFFFFFFFFFFFFFFFFFFFF
310
FFFFFFFFFFFFFFFFFFF8F8F86262621C1C1C1818181818181818181818181818
310
181E1E1E7E7E7EE6E6E6FFFFFFFFFFFFFFFFFFFFFFFFFBFBFBE0E0E08A8A8A3E
310
3E3E2323231E1E1E1C1C1C1C1C1C1C1C1C1C1C1C1D1D1D1D1D1D1D1D1D1D1D1D
310
1D1D1D1D1D1D1D1D1D1E1E1E1E1E1E1E1E1E1E1E1E1E1E1E1E1E1E1F1F1F1F1F
310
1F1F1F1F1F1F1F1F1F1F1F1F1F1F1F1F20202020202020202020202020202020
310
202020202020202020202020202039393900FFFFFFFFFFFFFFFFFFFFFFFFFFFF
310
FFFFFFFFFFFFFFFFFFFFFFFFFFFFFFFFFFFFFFFFFFFFFFFFFFFFFFFFFFFFFFF5
310
F5F5A8A8A81212120404040404040505050404040404040303031010106E6E6E
310
F2F2F2FFFFFFFFFFFFFFFFFFFFFFFFFFFFFFFFFFFFFFFFFFFFFFFFFFFFFFFFFF
310
FFFFFFFFFFFFFFFFFFFFFFFFFFFEFEFEE5E5E57E7E7E18181803030304040404
310
0404050505050505050505050505050505050505050505050505050505050505
310
0505050505050505050505050505050505050505050505050505050505050505
310
0505050505050505050504040404040404040404040404040403030307070721
310
21217F7F7FF0F0F0FFFFFFFFFFFFFFFFFFFFFFFFE0E0E06B6B6B030303040404
310
040404040404040404040404020202666666F7F7F7FFFFFFFFFFFFFFFFFFFFFF
310
FFFFFFFFFFFFFFFFFFFFFFFFFFFFFFFFFFFFFFFFFFFFFFFFFFF8F8F8D8D8D875
310
7575191919070707040404040404040404040404040404040404040404030303
310
0303031010104D4D4DAFAFAFECECECFBFBFBFFFFFFFFFFFFFFFFFFFFFFFFF7F7
310
F7696969020202040404040404040404040404040404030303959595FCFCFCFF
310
FFFFFFFFFFFDFDFD606060020202040404040404040404040404040404040404
310
888888EFEFEFFFFFFFFFFFFFFFFFFFFFFFFFFFFFFFFFFFFFFFFFFFFFFFFFFFFF
310
FFFFFFFFFFFFFFFFFFFFFFFFFFFFFFFFFFFFFFFFFFFFFFFFFFFFFFFFFFFFFFFF
310
FFFFFFFFFFF7F7F7575757070707030303040404040404040404040404070707
310
737373E5E5E5FFFFFFFFFFFFFFFFFFFDFDFDCFCFCF4646461212120606060303
310
0304040404040404040404040404040404040404040404040404040404040404
310
0404040404040404040404040404040404040404040404040404040404040404
310
0404040404040404040404040303030303030303030303030303030303030303
310
030303030303030202021D1D1D00FFFFFFFFFFFFFFFFFFFFFFFFFFFFFFFFFFFF
310
FFFFFFFFFFFFFFFFFFFFFFFFFFFFFFFFFFFFFFFFFFFFFFFFFFFFFFF5F5F5A7A7
310
A71212120404040404040404040505050505050404041010106D6D6DF2F2F2FF
310
FFFFFFFFFFFFFFFFFFFFFFFFFFFFFFFFFFFFFFFFFFFFFFFFFFFFFFFFFFFFFFFF
310
FFFFFFFFFFFFFFFFFFF6F6F6AAAAAA1919190303030404040505050505050505
310
0505050505050505050505050505050505050505050505050505050505050505
310
0505050505050505050505050505050505050505050505050505050505050505
310
0505050505050505050505050404040505050404040505050404040505052828
310
28999999FBFBFBFFFFFFFFFFFFFFFFFFE1E1E16C6C6C03030305050504040404
310
0404050505050505020202666666F7F7F7FFFFFFFFFFFFFFFFFFFFFFFFFFFFFF
310
FFFFFFFFFFFFFFFFFFFFFFFFFFFFFFFFFFFFF3F3F3B6B6B65050500F0F0F0303
310
030404040505050505050505050505050505050505050404040A0A0A22222280
310
8080DBDBDBF7F7F7FFFFFFFFFFFFFFFFFFFFFFFFFFFFFFFFFFFFF7F7F7696969
310
020202050505050505040404050505040404030303949494FBFBFBFFFFFFFFFF
310
FFFDFDFD606060020202040404050505050505050505040404040404898989EF
310
EFEFFFFFFFFFFFFFFFFFFFFFFFFFFFFFFFFFFFFFFFFFFFFFFFFFFFFFFFFFFFFF
310
FFFFFFFFFFFFFFFFFFFFFFFFFFFFFFFFFFFFFFFFFFFFFFFFFFFFFFFFFFFFFFFF
310
FFF7F7F7595959080808040404050505050505050505050505070707707070E3
310
E3E3FFFFFFFFFFFFFEFEFEE9E9E94D4D4D080808030303040404050505050505
310
0505050505050505050505050505050505050505050505050505050505050505
310
0505050505050505050505050505050505050505050505050505050505050505
310
0505050505050505050505050505050505040404050505040404050505050505
310
0505050404041D1D1D00FFFFFFFFFFFFFFFFFFFFFFFFFFFFFFFFFFFFFFFFFFFF
310
FFFFFFFFFFFFFFFFFFFFFFFFFFFFFFFFFFFFFFFFFFFFFFF5F5F5A7A7A7121212
310
0404040404040505050505050505050404040F0F0F6A6A6AF2F2F2FFFFFFFFFF
310
FFFFFFFFFFFFFFFFFFFFFFFFFFFFFFFFFFFFFFFFFFFFFFFFFFFFFFFFFFFFFFFF
310
FFFFFFFFFFD5D5D5454545050505040404050505050505050505050505050505
310
0505050404040404040404040404040404040404040404040404040404040404
310
0404040404040404040404040404040404040404040404040404040404040404
310
0404040404050505050505040404050505050505050505040404060606535353
310
E0E0E0FFFFFFFFFFFFFFFFFFE0E0E06B6B6B0303030404040505050505050505
310
05050505020202666666F7F7F7FFFFFFFFFFFFFFFFFFFFFFFFFFFFFFFFFFFFFF
310
FFFFFFFFFFFFFFFFFAFAFAE9E9E99494942C2C2C0A0A0A030303040404050505
310
050505050505050505050505040404050505131313545454B6B6B6EFEFEFFDFD
310
FDFFFFFFFFFFFFFFFFFFFFFFFFFFFFFFFFFFFFFFFFFFF7F7F769696902020204
310
0404050505040404050505040404030303939393FBFBFBFFFFFFFFFFFFFDFDFD
310
606060020202040404050505050505050505040404040404898989EFEFEFFFFF
310
FFFFFFFFFFFFFFFFFFFFFFFFFFFFFFFFFFFFFFFFFFFFFFFFFFFFFFFFFFFFFFFF
310
FFFFFFFFFFFFFFFFFFFFFFFFFFFFFFFFFFFFFFFFFFFFFFFFFFFFFFFFFFF7F7F7
310
575757070707040404050505050505050505040404070707707070E4E4E4FFFF
310
FFFFFFFFF9F9F99F9F9F21212103030305050505050505050505050505050505
310
0505050505050505050505050505050505050505050505050505050505050505
310
0505050505050505050505050505050505050505050505050505050505050505
310
0505050505050505050505050504040405050504040405050505050505050504
310
04041D1D1D00FFFFFFFFFFFFFFFFFFFFFFFFFFFFFFFFFFFFFFFFFFFFFFFFFFFF
310
FFFFFFFFFFFFFFFFFFFFFFFFFFFFFFFFFFFFFFF5F5F5A9A9A912121204040405
310
05050505050505050505050404040E0E0E686868F2F2F2FFFFFFFFFFFFFFFFFF
310
FFFFFFFFFFFFFFFFFFFFFFFFFFFFFFFFFFFFFFFFFFFFFFFFFFFFFFFFFFFFFCFC
310
FCBBBBBB1313130303030505050505050505050505050505050404040505050C
310
0C0C0D0D0D0D0D0D0C0C0C0C0C0C0C0C0C0C0C0C0C0C0C0B0B0B0B0B0B0B0B0B
310
0B0B0B0B0B0B0A0A0A0A0A0A0A0A0A0A0A0A0909090909090909090909090808
310
080404040404040505050505050505050505050404040303032424249B9B9BFD
310
FDFDFFFFFFFFFFFFE0E0E06B6B6B030303040404050505050505050505050505
310
020202656565F6F6F6FFFFFFFFFFFFFFFFFFFFFFFFFFFFFFFFFFFFFFFFFFFFFF
310
FFF6F6F6CACACA66666614141405050504040405050505050504040405050505
310
05050404040303030B0B0B2B2B2B8C8C8CE2E2E2F8F8F8FFFFFFFFFFFFFFFFFF
310
FFFFFFFFFFFFFFFFFFFFFFFFFFFFFFFFFFFFF7F7F76969690202020505050505
310
05050505040404040404030303949494FBFBFBFFFFFFFFFFFFFDFDFD60606002
310
0202040404050505050505050505040404040404868686EDEDEDFFFFFFFFFFFF
310
FFFFFFFFFFFFFFFFFFFFFFFFFFFFFFFFFFFFFFFFFFFFFFFFFFFFFFFFFFFFFFFF
310
FFFFFFFFFFFFFFFFFFFFFFFFFFFFFFFFFFFFFFFFFFFFFFFFFFF7F7F757575707
310
07070404040505050505050505050505050707076E6E6EE3E3E3FFFFFFFFFFFF
310
F4F4F45C5C5C0B0B0B0404040505050505050505050505050505050303030303
310
0302020203030303030303030303030303030303030303030303030303030303
310
0303030303030303030303030303040404040404040404040404040404040404
310
0404040404040404040505050404040505050505050505050505050404041D1D
310
1D00FFFFFFFFFFFFFFFFFFFFFFFFFFFFFFFFFFFFFFFFFFFFFFFFFFFFFFFFFFFF
310
FFFFFFFFFFFFFFFFFFFFFFFFFFFFFFF6F6F6A9A9A91212120404040404040505
310
050505050505050404040E0E0E686868F2F2F2FFFFFFFFFFFFFFFFFFFFFFFFFF
310
FFFFFFFFFFFFFFFFFFFFFFFFFFFFFFFFFFFFFFFFFFFFFFFFFFFFF1F1F1979797
310
0A0A0A0404040505050505050505050505050404040808082B2B2B6161616969
310
696767676666666666666565656565656464646161616060605F5F5F5E5E5E5D
310
5D5D5B5B5B5A5A5A5757575757575454545353535252525151514949492A2A2A
310
0A0A0A0404040505050505050505050404040303030909096D6D6DFDFDFDFFFF
310
FFFFFFFFE0E0E06B6B6B03030304040405050505050505050505050502020265
310
6565F7F7F7FFFFFFFFFFFFFFFFFFFFFFFFFFFFFFFFFFFFFDFDFDEFEFEFA8A8A8
310
4040400D0D0D0202020404040505050505050505050505050404040404040707
310
071515155B5B5BBEBEBEF1F1F1FEFEFEFFFFFFFFFFFFFFFFFFFFFFFFFFFFFFFF
310
FFFFFFFFFFFFFFFFFFFFFFFFFFFFF7F7F7696969020202050505050505050505
310
050505040404030303949494FBFBFBFFFFFFFFFFFFFDFDFD6060600202020404
310
04050505050505050505040404040404878787EEEEEEFFFFFFFFFFFFFFFFFFFF
310
FFFFFFFFFFFFFFFFFFFFFFFFFFFFFFFFFFFFFFFFFFFFFFFFFFFFFFFFFFFFFFFF
310
FFFFFFFFFFFFFFFFFFFFFFFFFFFFFFFFFFFFFFFFFFF7F7F75757570707070404
310
040505050505050505050505050707076D6D6DE3E3E3FFFFFFFFFFFFF2F2F245
310
45450505050404040505050505050505050505050505051616161F1F1F202020
310
2020202020202020202020202020202020202020202020202020202020202020
310
202020202020202020202020202020201F1F1F1F1F1F1F1F1F1F1F1F1F1F1F1F
310
1F1F1A1A1A0808080505050505050505050505050505050404041D1D1D00FFFF
310
FFFFFFFFFFFFFFFFFFFFFFFFFFFFFFFFFFFFFFFFFFFFFFFFFFFFFFFFFFFFFFFF
310
FFFFFFFFFFFFFFFFFFFFFFF6F6F6AAAAAA121212040404050505050505050505
310
0404040303030E0E0E666666F2F2F2FFFFFFFFFFFFFFFFFFFFFFFFFFFFFFFFFF
310
FFFFFFFFFFFFFFFFFFFFFFFFFFFFFFFFFFFFFFFFFFFFEDEDED89898909090904
310
04040505050505050505050505050303032F2F2FBBBBBBE9E9E9EBEBEBEBEBEB
310
EBEBEBEBEBEBEBEBEBEBEBEBEBEBEBEAEAEAEAEAEAEAEAEAEAEAEAE9E9E9E9E9
310
E9E9E9E9E8E8E8E8E8E8E8E8E8E8E8E8E8E8E8E7E7E7E6E6E6B7B7B742424203
310
0303040404050505040404050505030303020202606060FCFCFCFFFFFFFFFFFF
310
E0E0E06A6A6A030303040404050505050505050505050505020202646464F5F5
310
F5FFFFFFFFFFFFFFFFFFFFFFFFFFFFFFF8F8F8DDDDDD8080801E1E1E08080804
310
04040505050505050505050505050505050404040202020C0C0C3737379A9A9A
310
E8E8E8F9F9F9FFFFFFFFFFFFFFFFFFFFFFFFFFFFFFFFFFFFFFFFFFFFFFFFFFFF
310
FFFFFFFFFFFFFFFFFFFFF8F8F869696902020205050505050505050505050504
310
0404030303949494FBFBFBFFFFFFFFFFFFFDFDFD606060020202040404050505
310
050505050505040404040404868686EEEEEEFFFFFFFFFFFFFFFFFFFFFFFFFFFF
310
FFFFFFFFFFFFFFFFFFFFFFFFFFFFFFFFFFFFFFFFFFFFFFFFFFFFFFFFFFFFFFFF
310
FFFFFFFFFFFFFFFFFFFFFFFFFFFFFFFFFFF7F7F7585858070707040404050505
310
0505050505050505050707076D6D6DE2E2E2FFFFFFFFFFFFF2F2F24242420303
310
030404040505050505050505050404040C0C0C8F8F8FD6D6D6DFDFDFDFDFDFDF
310
DFDFDFDFDFDFDFDFDFDFDFDFDFDFDFDFDFDFDFDFDFDFDFDFDFDFDEDEDEDDDDDD
310
DCDCDCDBDBDBDBDBDBDADADAD9D9D9D8D8D8D8D8D8D7D7D7D6D6D6D6D6D6B3B3
310
B31E1E1E0404040505050505050505050505050404041C1C1C00FFFFFFFFFFFF
310
FFFFFFFFFFFFFFFFFFFFFFFFFFFFFFFFFFFFFFFFFFFFFFFFFFFFFFFFFFFFFFFF
310
FFFFFFFFFFFFFFF6F6F6AAAAAA12121204040405050505050504040405050503
310
03030E0E0E676767F2F2F2FFFFFFFFFFFFFFFFFFFFFFFFFFFFFFFFFFFFFFFFFF
310
FFFFFFFFFFFFFFFFFFFFFFFFFFFFFFFFFFFFECECEC8888880909090404040505
310
05050505050505040404020202424242F0F0F0FFFFFFFFFFFFFFFFFFFFFFFFFF
310
FFFFFFFFFFFFFFFFFFFFFFFFFFFFFFFFFFFFFFFFFFFFFFFFFFFFFFFFFFFFFFFF
310
FFFFFFFFFFFFFFFFFFFFFFFFFFFFFFFFFFFFFFFFFFEAEAEA8181810505050404
310
040404040505050404040404040202025F5F5FFCFCFCFFFFFFFFFFFFE0E0E06A
310
6A6A030303040404050505050505050505050505020202656565F6F6F6FFFFFF
310
FFFFFFFFFFFFFFFFFFF4F4F4BBBBBB5656561010100303030404040505050404
310
04050505050505050505040404080808171717666666C9C9C9F4F4F4FFFFFFFF
310
FFFFFFFFFFFFFFFFFFFFFFFFFFFFFFFFFFFFFFFFFFFFFFFFFFFFFFFFFFFFFFFF
310
FFFFFFFFFFFFF7F7F76969690202020505050505050505050505050404040303
310
03939393FAFAFAFFFFFFFFFFFFFDFDFD60606002020204040405050505050505
310
0505040404040404858585EDEDEDFFFFFFFFFFFFFFFFFFFFFFFFFFFFFFFFFFFF
310
FFFFFFFFFFFFFFFFFFFFFFFFFFFFFFFFFFFFFFFFFFFFFFFFFFFFFFFFFFFFFFFF
310
FFFFFFFFFFFFFFFFFFFFFFFFFFF7F7F758585807070704040405050505050505
310
05050505050707076D6D6DE3E3E3FFFFFFFFFFFFF2F2F2434343040404040404
310
0505050505050505050404040D0D0DA3A3A3F4F4F4FFFFFFFFFFFFFFFFFFFFFF
310
FFFFFFFFFFFFFFFFFFFFFFFFFFFFFFFFFFFFFFFFFFFFFFFFFFFFFFFFFFFFFFFE
310
FEFEFEFEFEFEFEFEFEFEFEFEFEFEFEFEFEFEFEFEFEFEFEFDFDFDDBDBDB242424
310
0404040505050505050505050505050404041C1C1C00FFFFFFFFFFFFFFFFFFFF
310
FFFFFFFFFFFFFFFFFFFFFFFFFFFFFFFFFFFFFFFFFFFFFFFFFFFFFFFFFFFFFFFF
310
FFFFFFF6F6F6ABABAB1212120404040505050404040505050404040404040E0E
310
0E666666F2F2F2FFFFFFFFFFFFFFFFFFFFFFFFFFFFFFFFFFFFFFFFFFFFFFFFFF
310
FFFFFFFFFFFFFFFFFFFFFFFFFFFFECECEC888888090909040404050505050505
310
050505040404020202464646F5F5F5FFFFFFFFFFFFFFFFFFFFFFFFFFFFFFFFFF
310
FFFFFFFFFFFFFFFFFFFFFFFFFFFFFFFFFFFFFFFFFFFFFFFFFFFFFFFFFFFFFFFF
310
FFFFFFFFFFFFFFFFFFFFFFFFFFFFFFFFFFEFEFEF898989050505040404050505
310
0404040505050303030101015E5E5EFCFCFCFFFFFFFFFFFFE0E0E06B6B6B0303
310
03040404050505050505050505050505020202636363F4F4F4FFFFFFFFFFFFFB
310
FBFBECECEC9B9B9B2F2F2F0B0B0B030303040404050505050505040404050505
310
0505050404040F0F0F414141A3A3A3EBEBEBFBFBFBFFFFFFFFFFFFFFFFFFFFFF
310
FFFFFFFFFFFFFFFFFFFFFFFFFFFFFFFFFFFFFFFFFFFFFFFFFFFFFFFFFFFFFFFF
310
FFFFF7F7F7696969020202050505050505050505050505040404030303939393
310
FAFAFAFFFFFFFFFFFFFDFDFD6060600202020404040505050505050505050404
310
04040404858585EDEDEDFFFFFFFFFFFFFFFFFFFFFFFFFFFFFFFFFFFFFFFFFFFF
310
FFFFFFFFFFFFFFFFFFFFFFFFFFFFFFFFFFFFFFFFFFFFFFFFFFFFFFFFFFFFFFFF
310
FFFFFFFFFFFFFFFFFFF7F7F75858580808080404040505050505050505050505
310
050707076D6D6DE3E3E3FFFFFFFFFFFFF2F2F242424203030304040405050505
310
05050505050404040D0D0DA2A2A2F4F4F4FFFFFFFFFFFFFFFFFFFFFFFFFFFFFF
310
FFFFFFFFFFFFFFFFFFFFFFFFFFFFFFFFFFFFFFFFFFFFFFFFFFFFFFFFFFFFFFFF
310
FFFFFFFFFFFFFFFFFFFFFFFFFFFFFFFFFFFFFFFEFEFEDDDDDD24242404040405
310
05050505050505050505050404041D1D1D00FFFFFFFFFFFFFFFFFFFFFFFFFFFF
310
FFFFFFFFFFFFFFFFFFFFFFFFFFFFFFFFFFFFFFFFFFFFFFFFFFFFFFFFFFFFFFF6
310
F6F6ABABAB1212120404040505050505050404040505050404040E0E0E656565
310
F2F2F2FFFFFFFFFFFFFFFFFFFFFFFFFFFFFFFFFFFFFFFFFFFFFFFFFFFFFFFFFF
310
FFFFFFFFFFFFFFFFFFFFECECEC88888809090904040405050505050505050504
310
0404020202454545F5F5F5FFFFFFFFFFFFFFFFFFFFFFFFFFFFFFFFFFFFFFFFFF
310
FFFFFFFFFFFFFFFFFFFFFFFFFFFFFFFFFFFFFFFFFFFFFFFFFFFFFFFFFFFFFFFF
310
FFFFFFFFFFFFFFFFFFFFFFFFFFEFEFEF8A8A8A05050504040405050504040404
310
04040404040101015E5E5EFCFCFCFFFFFFFFFFFFE0E0E06A6A6A030303040404
310
050505050505050505050505020202646464F5F5F5FFFFFFF6F6F6CCCCCC6A6A
310
6A1515150606060404040505050505050404040404040505050404040A0A0A20
310
2020757575D5D5D5F5F5F5FFFFFFFFFFFFFFFFFFFFFFFFFFFFFFFFFFFFFFFFFF
310
FFFFFFFFFFFFFFFFFFFFFFFFFFFFFFFFFFFFFFFFFFFFFFFFFFFFFFFFFFFFF8F8
310
F8696969020202050505050505050505050505040404030303939393FBFBFBFF
310
FFFFFFFFFFFDFDFD606060020202040404050505050505050505040404040404
310
858585EDEDEDFFFFFFFFFFFFFFFFFFFFFFFFFFFFFFFFFFFFFFFFFFFFFFFFFFFF
310
FFFFFFFFFFFFFFFFFFFFFFFFFFFFFFFFFFFFFFFFFFFFFFFFFFFFFFFFFFFFFFFF
310
FFFFFFFFFFF7F7F7585858070707040404050505050505050505050505070707
310
6C6C6CE2E2E2FFFFFFFFFFFFF3F3F34343430404040404040505050505050505
310
050505050D0D0D979797DDDDDDE5E5E5E6E6E6E6E6E6E6E6E6E6E6E6E7E7E7E7
310
E7E7E7E7E7E7E7E7E7E7E7E8E8E8E7E7E7E8E8E8E8E8E8E8E8E8E8E8E8E8E8E8
310
E8E8E8E9E9E9E9E9E9E9E9E9E9E9E9E9E9E9CFCFCF2222220404040505050505
310
050505050505050404041C1C1C00FFFFFFFFFFFFFFFFFFFFFFFFFFFFFFFFFFFF
310
FFFFFFFFFFFFFFFFFFFFFFFFFFFFFFFFFFFFFFFFFFFFFFFFFFFFFFF6F6F6ADAD
310
AD1313130404040404040505050505050404040404040E0E0E656565F2F2F2FF
310
FFFFFFFFFFFFFFFFFFFFFFFFFFFFFFFFFFFFFFFFFFFFFFFFFFFFFFFFFFFFFFFF
310
FFFFFFFFFFFFEDEDED8A8A8A0909090404040404040505050505050404040303
310
03454545F5F5F5FFFFFFFFFFFFFFFFFFFFFFFFFFFFFFFFFFFFFFFFFFFFFFFFFF
310
FFFFFFFFFFFFFFFFFFFFFFFFFFFFFFFFFFFFFFFFFFFFFFFFFFFFFFFFFFFFFFFF
310
FFFFFFFFFFFFFFFFFFEFEFEF8A8A8A0505050404040404040505050404040404
310
040202025E5E5EFCFCFCFFFFFFFFFFFFDFDFDF6A6A6A03030304040405050505
310
0505050505050505020202646464F3F3F3F0F0F0A9A9A93F3F3F0E0E0E020202
310
0404040505050505050505050505050505050505051111114D4D4DB1B1B1EDED
310
EDFCFCFCFFFFFFFFFFFFFFFFFFFFFFFFFFFFFFFFFFFFFFFFFFFFFFFFFFFFFFFF
310
FFFFFFFFFFFFFFFFFFFFFFFFFFFFFFFFFFFFFFFFFFFFFFFFFFFFF8F8F8696969
310
020202050505050505050505050505040404030303939393FAFAFAFFFFFFFFFF
310
FFFDFDFD606060020202040404050505050505050505040404040404858585ED
310
EDEDFFFFFFFFFFFFFFFFFFFFFFFFFFFFFFFFFFFFFFFFFFFFFFFFFFFFFFFFFFFF
310
FFFFFFFFFFFFFFFFFFFFFFFFFFFFFFFFFFFFFFFFFFFFFFFFFFFFFFFFFFFFFFFF
310
FFF7F7F75858580707070404040505050505050505050505050707076C6C6CE2
310
E2E2FFFFFFFFFFFFF2F2F2454545040404040404050505050505050505050505
310
0505052A2A2A4242424545454646464646464A4A4A4B4B4B4D4D4D4D4D4D4E4E
310
4E4F4F4F51515152525251515153535354545454545457575757575757575759
310
59595A5A5A5A5A5A5B5B5B5C5C5C5050500D0D0D040404050505050505050505
310
0505050404041C1C1C00FFFFFFFFFFFFFFFFFFFFFFFFFFFFFFFFFFFFFFFFFFFF
310
FFFFFFFFFFFFFFFFFFFFFFFFFFFFFFFFFFFFFFFFFFFFFFF6F6F6ADADAD131313
310
0404040505050404040404040505050303030D0D0D646464F1F1F1FFFFFFFFFF
310
FFFFFFFFFFFFFFFFFFFFFFFFFFFFFFFFFFFFFFFFFFFFFFFFFFFFFFFFFFFFFFFF
310
FFFFEDEDED8A8A8A0A0A0A040404050505040404050505040404030303454545
310
F5F5F5FFFFFFFFFFFFFFFFFFFFFFFFFFFFFFFFFFFFFFFFFFFFFFFFFFFFFFFFFF
310
FFFFFFFFFFFFFFFFFFFFFFFFFFFFFFFFFFFFFFFFFFFFFFFFFFFFFFFFFFFFFFFF
310
FFFFFFFFFFEFEFEF8A8A8A050505040404040404050505040404040404020202
310
5E5E5EFCFCFCFFFFFFFFFFFFDFDFDF6969690303030404040505050505050505
310
050505050202025F5F5FD5D5D58282821D1D1D08080804040405050505050505
310
05050505050505050404040C0C0C2A2A2A848484DFDFDFF7F7F7FFFFFFFFFFFF
310
FFFFFFFFFFFFFFFFFFFFFFFFFFFFFFFFFFFFFFFFFFFFFFFFFFFFFFFFFFFFFFFF
310
FFFFFFFFFFFFFFFFFFFFFFFFFFFFFFFFFFFFFFFFFFFFF8F8F869696902020205
310
0505050505050505050505040404030303939393FAFAFAFFFFFFFFFFFFFDFDFD
310
606060020202040404050505050505050505040404040404848484ECECECFFFF
310
FFFFFFFFFFFFFFFFFFFFFFFFFFFFFFFFFFFFFFFFFFFFFFFFFFFFFFFFFFFFFFFF
310
FFFFFFFFFFFFFFFFFFFFFFFFFFFFFFFFFFFFFFFFFFFFFFFFFFFFFFFFFFF7F7F7
310
5858580707070404040505050505050505050505050707076A6A6AE2E2E2FFFF
310
FFFFFFFFF5F5F56060600C0C0C04040405050505050505050505050505050505
310
0505070707070707070707070707080808080808080808080808080808090909
310
0909090909090909090909090909090909090A0A0A0A0A0A0A0A0A0A0A0A0A0A
310
0A0A0A0A0B0B0B0B0B0B09090905050505050505050505050505050505050504
310
04041C1C1C00FFFFFFFFFFFFFFFFFFFFFFFFFFFFFFFFFFFFFFFFFFFFFFFFFFFF
310
FFFFFFFFFFFFFFFFFFFFFFFFFFFFFFFFFFFFFFF6F6F6ADADAD13131304040404
310
04040505050505050404040404040D0D0D626262F1F1F1FFFFFFFFFFFFFFFFFF
310
FFFFFFFFFFFFFFFFFFFFFFFFFFFFFFFFFFFFFFFFFFFFFFFFFFFFFFFFFFFFEDED
310
ED8B8B8B0A0A0A040404040404050505050505040404030303454545F5F5F5FF
310
FFFFFFFFFFFFFFFFFFFFFFFFFFFFFFFFFFFFFFFFFFFFFFFFFFFFFFFFFFFFFFFF
310
FFFFFFFFFFFFFFFFFFFFFFFFFFFFFFFFFFFFFFFFFFFFFFFFFFFFFFFFFFFFFFFF
310
FFEFEFEF8A8A8A0505050404040404040505050505050303030101015E5E5EFC
310
FCFCFFFFFFFFFFFFDEDEDE686868030303040404050505050505050505050505
310
0202021D1D1D3333331010100303030404040505050505050505050505050505
310
05040404030303434343B7B7B7F0F0F0FEFEFEFFFFFFFFFFFFFFFFFFFFFFFFFF
310
FFFFFFFFFFFFFFFFFFFFFFFFFFFFFFFFFFFFFFFFFFFFFFFFFFFFFFFFFFFFFFFF
310
FFFFFFFFFFFFFFFFFFFFFFFFFFFFFFFFFFFFF8F8F86969690202020505050505
310
05050505050505040404030303939393FAFAFAFFFFFFFFFFFFFDFDFD60606002
310
0202040404050505050505050505040404040404848484ECECECFFFFFFFFFFFF
310
FFFFFFFFFFFFFFFFFFFFFFFFFFFFFFFFFFFFFFFFFFFFFFFFFFFFFFFFFFFFFFFF
310
FFFFFFFFFFFFFFFFFFFFFFFFFFFFFFFFFFFFFFFFFFFFFFFFFFF7F7F758585808
310
08080404040505050505050505050505050707076A6A6AE1E1E1FFFFFFFFFFFF
310
FAFAFAA5A5A52323230303030505050505050505050505050505050505050404
310
0404040404040404040404040404040404040404040404040404040404040404
310
0404040404040404040404040404040404040404040404040404040404040404
310
0404040404040404040505050505050505050505050505050505050404041C1C
310
1C00FFFFFFFFFFFFFFFFFFFFFFFFFFFFFFFFFFFFFFFFFFFFFFFFFFFFFFFFFFFF
310
FFFFFFFFFFFFFFFFFFFFFFFFFFFFFFF7F7F7AFAFAF1313130404040404040505
310
050505050505050404040D0D0D626262F1F1F1FFFFFFFFFFFFFFFFFFFFFFFFFF
310
FFFFFFFFFFFFFFFFFFFFFFFFFFFFFFFFFFFFFFFFFFFFFFFFFFFFEDEDED8A8A8A
310
0A0A0A040404050505050505050505040404020202434343F5F5F5FFFFFFFFFF
310
FFFFFFFFFFFFFFFFFFFFFFFFFFFFFFFFFFFFFFFFFFFFFFFFFFFFFFFFFFFFFFFF
310
FFFFFFFFFFFFFFFFFFFFFFFFFFFFFFFFFFFFFFFFFFFFFFFFFFFFFFFFFFEFEFEF
310
8A8A8A0505050505050505050404040404040404040101015E5E5EFCFCFCFFFF
310
FFFFFFFFDFDFDF6A6A6A0303030404040505050505050505050404040303031E
310
1E1E373737141414050505040404050505050505050505050505050505040404
310
0303033E3E3EB1B1B1EFEFEFFEFEFEFFFFFFFFFFFFFFFFFFFFFFFFFFFFFFFFFF
310
FFFFFFFFFFFFFFFFFFFFFFFFFFFFFFFFFFFFFFFFFFFFFFFFFFFFFFFFFFFFFFFF
310
FFFFFFFFFFFFFFFFFFFFFFFFFFFFF8F8F8696969020202050505050505050505
310
050505040404030303929292FAFAFAFFFFFFFFFFFFFDFDFD6060600202020404
310
04050505050505050505040404040404838383ECECECFFFFFFFFFFFFFFFFFFFF
310
FFFFFFFFFFFFFFFFFFFFFFFFFFFFFFFFFFFFFFFFFFFFFFFFFFFFFFFFFFFFFFFF
310
FFFFFFFFFFFFFFFFFFFFFFFFFFFFFFFFFFFFFFFFFFF7F7F75757570707070404
310
040505050505050505050404040707076C6C6CE2E2E2FFFFFFFFFFFFFEFEFEEB
310
EBEB5555550A0A0A030303040404050505050505050505050505050505050505
310
0505050505050505050505050505050505050505050505050505050505050505
310
0505050505050505050505050505050505050505050505050505050505050505
310
05050505050505050505050505050505050505050505050404041C1C1C00FFFF
310
FFFFFFFFFFFFFFFFFFFFFFFFFFFFFFFFFFFFFFFFFFFFFFFFFFFFFFFFFFFFFFFF
310
FFFFFFFFFFFFFFFFFFFFFFF7F7F7AEAEAE131313040404040404050505050505
310
0505050303030D0D0D626262F1F1F1FFFFFFFFFFFFFFFFFFFFFFFFFFFFFFFFFF
310
FFFFFFFFFFFFFFFFFFFFFEFEFEFCFCFCFFFFFFFFFFFFEDEDED8A8A8A0A0A0A04
310
0404050505040404050505040404020202444444F5F5F5FFFFFFFFFFFFFFFFFF
310
FFFFFFFFFFFFFFFFFFFFFFFFFFFFFFFFFFFFFFFFFFFFFFFFFFFFFFFFFFFFFFFF
310
FFFFFFFFFFFFFFFFFFFFFFFFFFFFFFFFFFFFFFFFFFFFFFFFFFEFEFEF8A8A8A05
310
05050404040505050505050505050303030101015E5E5EFCFCFCFFFFFFFFFFFF
310
E0E0E06A6A6A0303030404040505050505050505050505050202025E5E5EDDDD
310
DD9898982D2D2D0B0B0B0404040505050505050505050505050505050404040B
310
0B0B2424247E7E7EDEDEDEF7F7F7FFFFFFFFFFFFFFFFFFFFFFFFFFFFFFFFFFFF
310
FFFFFFFFFFFFFFFFFFFFFFFFFFFFFFFFFFFFFFFFFFFFFFFFFFFFFFFFFFFFFFFF
310
FFFFFFFFFFFFFFFFFFFFF8F8F869696902020205050505050505050505050504
310
0404030303929292FAFAFAFFFFFFFFFFFFFDFDFD606060020202040404050505
310
050505050505040404040404858585EDEDEDFFFFFFFFFFFFFFFFFFFFFFFFFFFF
310
FFFFFFFFFFFFFFFFFFFFFFFFFFFFFFFFFFFFFFFFFFFFFFFFFFFFFFFFFFFFFFFF
310
FFFFFFFFFFFFFFFFFFFFFFFFFFFFFFFFFFF7F7F7585858080808040404050505
310
0505050505050505050707076B6B6BE2E2E2FFFFFFFFFFFFFFFFFFFEFEFED9D9
310
D94D4D4D15151505050503030304040404040404040404040404040404040404
310
0404040404040404040404040404040404040404040404040404040404040404
310
0404040404040404040404040404040404040404040404040404040404040404
310
040505050505050505050505050505050505050404041C1C1C00FFFFFFFFFFFF
310
FFFFFFFFFFFFFFFFFFFFFFFFFFFFFFFFFFFFFFFFFFFFFFFFFFFFFFFFFFFFFFFF
310
FFFFFFFFFFFFFFF7F7F7AEAEAE13131304040405050505050505050505050504
310
04040E0E0E646464F2F2F2FFFFFFFFFFFFFFFFFFFFFFFFFFFFFFFFFFFFFFFFFF
310
FFFFFFFFFFFFFFFFFFFFFFFFFFFFFFFFFFFFEDEDED8A8A8A0909090404040404
310
04050505040404040404020202454545F5F5F5FFFFFFFFFFFFFFFFFFFFFFFFFF
310
FFFFFFFFFFFFFFFFFFFFFFFFFFFFFFFFFFFFFFFFFFFFFFFFFFFFFFFFFFFFFFFF
310
FFFFFFFFFFFFFFFFFFFFFFFFFFFFFFFFFFFFFFFFFFEFEFEF8A8A8A0606060606
310
060505050606060505050303030101015E5E5EFCFCFCFFFFFFFFFFFFDEDEDE68
310
6868030303040404050505050505050505050505020202636363F3F3F3F3F3F3
310
BCBCBC5858581212120404040404040505050505050505050505050505050404
310
041010104F4F4FB4B4B4EFEFEFFEFEFEFFFFFFFFFFFFFFFFFFFFFFFFFFFFFFFF
310
FFFFFFFFFFFFFFFFFFFFFFFFFFFFFFFFFFFFFFFFFFFFFFFFFFFFFFFFFFFFFFFF
310
FFFFFFFFFFFFF8F8F86969690202020505050505050505050505050404040303
310
03929292FAFAFAFFFFFFFFFFFFFDFDFD60606002020204040405050505050505
310
0505040404040404848484ECECECFFFFFFFFFFFFFFFFFFFFFFFFFFFFFFFFFFFF
310
FFFFFFFFFFFFFFFFFFFFFFFFFFFFFFFFFFFFFFFFFFFFFFFFFFFFFFFFFFFFFFFF
310
FFFFFFFFFFFFFFFFFFFFFFFFFFF7F7F758585808080804040405050505050505
310
05050505050707076B6B6BE2E2E2FFFFFFFFFFFFFFFFFFFFFFFFFDFDFDE2E2E2
310
9494943C3C3C2121211C1C1C1919191919191919191919191818181818181818
310
1818181818181818181817171717171717171717171717171717171717171716
310
1616161616161616161616161616161616161616161616151515121212060606
310
0505050505050505050505050505050404041C1C1C00FFFFFFFFFFFFFFFFFFFF
310
FFFFFFFFFFFFFFFFFFFFFFFFFFFFFFFFFFFFFFFFFFFFFFFFFFFFFFFFFFFFFFFF
310
FFFFFFF6F6F6ACACAC1212120404040404040505050505050505050303030D0D
310
0D646464F1F1F1FFFFFFFFFFFFFFFFFFFFFFFFFFFFFFFFFFFFFFFFFFFFFFFFFF
310
FFFFFFFFFFFFFFFFFFFFFFFFFFFFECECEC898989090909040404050505040404
310
050505040404030303454545F5F5F5FFFFFFFFFFFFFFFFFFFFFFFFFFFFFFFFFF
310
FFFFFFFFFFFFFFFFFFFFFFFFFFFFFFFFFFFFFFFFFFFFFFFFFFFFFFFFFFFFFFFF
310
FFFFFFFFFFFFFFFFFFFFFFFFFFFFFFFFFFEFEFEF8A8A8A050505040404040404
310
0404040404040404040101015E5E5EFCFCFCFFFFFFFFFFFFDEDEDE6868680303
310
03040404050505050505050505050505020202616161F1F1F1FFFFFFF9F9F9E0
310
E0E0878787232323090909040404050505050505050505050505050505040404
310
0A0A0A252525818181DEDEDEF7F7F7FFFFFFFFFFFFFFFFFFFFFFFFFFFFFFFFFF
310
FFFFFFFFFFFFFFFFFFFFFFFFFFFFFFFFFFFFFFFFFFFFFFFFFFFFFFFFFFFFFFFF
310
FFFFF7F7F7696969020202050505050505050505050505040404030303929292
310
FAFAFAFFFFFFFFFFFFFDFDFD6060600202020404040505050505050505050404
310
04040404848484ECECECFFFFFFFFFFFFFFFFFFFFFFFFFFFFFFFFFFFFFFFFFFFF
310
FFFFFFFFFFFFFFFFFFFFFFFFFFFFFFFFFFFFFFFFFFFFFFFFFFFFFFFFFFFFFFFF
310
FFFFFFFFFFFFFFFFFFF7F7F75757570707070404040505050505050505050505
310
050707076A6A6AE2E2E2FFFFFFFFFFFFFFFFFFFFFFFFFFFFFFFEFEFEF2F2F2E3
310
E3E3D6D6D6C3C3C3B5B5B5B3B3B3B1B1B1B0B0B0AEAEAEAEAEAEACACACABABAB
310
ABABABABABABA9A9A9A8A8A8A8A8A8A6A6A6A5A5A5A5A5A5A4A4A4A3A3A3A2A2
310
A2A2A2A2A0A0A09F9F9F9E9E9E9E9E9E9D9D9D9C9C9C83838316161603030305
310
05050505050505050505050404041C1C1C00FFFFFFFFFFFFFFFFFFFFFFFFFFFF
310
FFFFFFFFFFFFFFFFFFFFFFFFFFFFFFFFFFFFFFFFFFFFFFFFFFFFFFFFFFFFFFF6
310
F6F6ACACAC1313130404040404040505050505050505050303030D0D0D636363
310
F1F1F1FFFFFFFFFFFFFFFFFFFFFFFFFFFFFFFFFFFFFFFFFFFFFFFFFFFFFFFFFF
310
FFFFFFFFFFFFFFFFFFFFEDEDED8989890A0A0A04040405050505050505050504
310
0404020202424242F1F1F1FFFFFFFFFFFFFFFFFFFFFFFFFFFFFFFFFFFFFFFFFF
310
FFFFFFFFFFFFFFFFFFFFFFFFFFFFFFFFFFFFFFFFFFFFFFFFFFFFFFFFFFFFFFFF
310
FFFFFFFFFFFFFFFFFFFFFFFFFFEDEDED86868605050504040405050505050505
310
05050303030202025F5F5FFCFCFCFFFFFFFFFFFFDEDEDE686868030303040404
310
050505050505050505050505020202636363F3F3F3FFFFFFFFFFFFFEFEFEF0F0
310
F0B3B3B34D4D4D10101003030304040405050505050505050505050505050504
310
04041111114F4F4FB2B2B2EFEFEFFDFDFDFFFFFFFFFFFFFFFFFFFFFFFFFFFFFF
310
FFFFFFFFFFFFFFFFFFFFFFFFFFFFFFFFFFFFFFFFFFFFFFFFFFFFFFFFFFFFF8F8
310
F8696969020202050505050505050505050505040404030303939393FAFAFAFF
310
FFFFFFFFFFFDFDFD606060020202040404050505050505050505040404040404
310
838383ECECECFFFFFFFFFFFFFFFFFFFFFFFFFFFFFFFFFFFFFFFFFFFFFFFFFFFF
310
FFFFFFFFFFFFFFFFFFFFFFFFFFFFFFFFFFFFFFFFFFFFFFFFFFFFFFFFFFFFFFFF
310
FFFFFFFFFFF7F7F7585858080808040404050505050505050505050505070707
310
6A6A6AE2E2E2FFFFFFFFFFFFFFFFFFFFFFFFFFFFFFFFFFFFFFFFFFFFFFFFFDFD
310
FDFAFAFAF8F8F8F8F8F8F7F7F7F7F7F7F7F7F7F7F7F7F7F7F7F6F6F6F6F6F6F6
310
F6F6F6F6F6F6F6F6F6F6F6F6F6F6F5F5F5F5F5F5F5F5F5F5F5F5F5F5F5F5F5F5
310
F5F5F5F4F4F4F4F4F4F4F4F4F4F4F4F4F4F4D8D8D82323230404040909090505
310
050505050505050404041C1C1C00FFFFFFFFFFFFFFFFFFFFFFFFFFFFFFFFFFFF
310
FFFFFFFFFFFFFFFFFFFFFFFFFFFFFFFFFFFFFFFFFFFFFFFFFFFFFFF6F6F6AAAA
310
AA1212120404040404040505050505050505050303030D0D0D646464F1F1F1FF
310
FFFFFFFFFFFFFFFFFFFFFFFFFFFFFFFFFFFFFFFFFFFFFFFFFFFFFFFFFFFFFFFF
310
FFFFFFFFFFFFECECEC8888880909090404040505050505050505050505050303
310
03303030BFBFBFEAEAEAEDEDEDEDEDEDEDEDEDEEEEEEEEEEEEEEEEEEEEEEEEEE
310
EEEEEFEFEFEFEFEFEFEFEFEFEFEFF0F0F0F0F0F0F0F0F0F0F0F0F1F1F1F0F0F0
310
F1F1F1F1F1F1F0F0F0CBCBCB5B5B5B0404040404040505050505050404040404
310
040101015E5E5EFCFCFCFFFFFFFFFFFFDEDEDE67676703030304040405050505
310
0505050505050505020202646464F4F4F4FFFFFFFFFFFFFFFFFFFFFFFFF7F7F7
310
D7D7D77A7A7A1C1C1C0808080404040505050505050505050505050505050404
310
040A0A0A242424818181DDDDDDF7F7F7FFFFFFFFFFFFFFFFFFFFFFFFFFFFFFFF
310
FFFFFFFFFFFFFFFFFFFFFFFFFFFFFFFFFFFFFFFFFFFFFFFFFFFFF8F8F8696969
310
020202050505050505050505050505040404030303939393FAFAFAFFFFFFFFFF
310
FFFDFDFD606060020202040404050505050505050505040404040404848484EC
310
ECECFFFFFFFFFFFFFFFFFFFFFFFFFFFFFFFFFFFFFFFFFFFFFFFFFFFFFFFFFFFF
310
FFFFFFFFFFFFFFFFFFFFFFFFFFFFFFFFFFFFFFFFFFFFFFFFFFFFFFFFFFFFFFFF
310
FFEFEFEF4C4C4C0505050404040505050505050505050505050707076A6A6AE2
310
E2E2FFFFFFFFFFFFFFFFFFFFFFFFFFFFFFFFFFFFFFFFFFFFFFFFFFFFFFFFFFFF
310
FFFFFFFFFFFFFFFFFFFFFFFFFFFFFFFFFFFFFFFFFFFFFFFFFFFFFFFFFFFFFFFF
310
FFFFFFFFFFFFFFFFFFFFFFFFFFFFFFFFFFFFFFFFFFFFFFFFFFFFFFFFFFFFFFFF
310
FFFFFFFFFFFFFFFFFFFFFFFFFFFFE2E2E2252525030303050505050505050505
310
0505050404041C1C1C00FFFFFFFFFFFFFFFFFFFFFFFFFFFFFFFFFFFFFFFFFFFF
310
FFFFFFFFFFFFFFFFFFFFFFFFFFFFFFFFFFFFFFFFFFFFFFF6F6F6A9A9A9121212
310
0404040505050505050505050505050303030E0E0E656565F2F2F2FFFFFFFFFF
310
FFFFFFFFFFFFFFFFFFFFFFFFFFFFFFFFFFFFFFFFFFFFFFFFFFFFFFFFFFFFFFFF
310
FFFFF0F0F09494940A0A0A040404050505050505050505050505040404090909
310
2D2D2D6767677272727373737575757676767878787979797979797B7B7B7C7C
310
7C7E7E7E7E7E7E7F7F7F8282828585858484848686868989898787878A8A8A8A
310
8A8A8484845252520F0F0F040404050505050505040404050505040404030303
310
626262FCFCFCFFFFFFFFFFFFDFDFDF6969690303030404040505050505050505
310
05050505020202636363F3F3F3FFFFFFFFFFFFFFFFFFFFFFFFFFFFFFFCFCFCEE
310
EEEEA9A9A94343430E0E0E030303040404050505050505050505050505050505
310
0404041111114E4E4EB2B2B2EFEFEFFDFDFDFFFFFFFFFFFFFFFFFFFFFFFFFFFF
310
FFFFFFFFFFFFFFFFFFFFFFFFFFFFFFFFFFFFFFFFFFFFF6F6F668686802020205
310
0505050505050505050505040404030303939393FAFAFAFFFFFFFFFFFFFDFDFD
310
606060020202040404050505050505050505040404040404777777D1D1D1DFDF
310
DFDFDFDFDFDFDFDFDFDFDFDFDFE0E0E0E0E0E0E0E0E0E0E0E0E0E0E0E0E0E0E0
310
E0E0E1E1E1E1E1E1E1E1E1E1E1E1E1E1E1E1E1E1E1E1E1E2E2E2DFDFDFADADAD
310
2E2E2E0404040505050505050505050505050505050707076C6C6CE2E2E2FFFF
310
FFFFFFFFFFFFFFFFFFFFFFFFFFFFFFFFFFFFFFFFFFFFFFFFFFFFFFFFFFFFFFFF
310
FFFFFFFFFFFFFFFFFFFFFFFFFFFFFFFFFFFFFFFFFFFFFFFFFFFFFFFFFFFFFFFF
310
FFFFFFFFFFFFFFFFFFFFFFFFFFFFFFFFFFFFFFFFFFFFFFFFFFFFFFFFFFFFFFFF
310
FFFFFFFFFFFFFFFCFCFCCDCDCD21212104040405050505050505050505050504
310
04041C1C1C00FFFFFFFFFFFFFFFFFFFFFFFFFFFFFFFFFFFFFFFFFFFFFFFFFFFF
310
FFFFFFFFFFFFFFFFFFFFFFFFFFFFFFFFFFFFFFF6F6F6AAAAAA12121204040405
310
05050505050505050505050404040D0D0D636363F1F1F1FFFFFFFFFFFFFFFFFF
310
FFFFFFFFFFFFFFFFFFFFFFFFFFFFFFFFFFFFFFFFFFFFFFFFFFFFFFFFFFFFFBFB
310
FBB9B9B91212120303030505050505050505050505050505050404040505050D
310
0D0D0E0E0E0E0E0E0F0F0F0F0F0F0F0F0F101010101010101010101010101010
310
1010101010101111111111111111111212121212121212121212121212121111
310
110B0B0B040404050505050505050505050505040404030303151515818181FD
310
FDFDFFFFFFFFFFFFDEDEDE676767030303040404050505050505050505050505
310
020202656565F5F5F5FFFFFFFFFFFFFFFFFFFFFFFFFFFFFFFFFFFFFFFFFFF6F6
310
F6D2D2D272727218181807070704040405050505050505050505050505050504
310
04040A0A0A2323237D7D7DDADADAF7F7F7FFFFFFFFFFFFFFFFFFFFFFFFFFFFFF
310
FFFFFFFFFFFFFFFFFFFFFFFFFFFFFFFFFFFFF6F6F66868680202020505050505
310
05050505050505040404030303939393FAFAFAFFFFFFFFFFFFFCFCFC60606002
310
02020404040505050505050505050505050404041212121E1E1E202020202020
310
2121212121212222222222222323232424242424242525252727272727272828
310
282A2A2A2A2A2A2B2B2B2B2B2B2C2C2C2D2D2D2F2F2F2B2B2B1B1B1B09090905
310
0505050505050505050505050505040404080808868686EBEBEBFFFFFFFFFFFF
310
FEFEFEF2F2F2E2E2E2DEDEDEDEDEDEDFDFDFDFDFDFDFDFDFDFDFDFDFDFDFDFDF
310
DFDFDFDFDFDFDFDFDFDFDFDFDFDFDFDFDFDFDFDFDFDFDFDFDFDFDFDFDFDFDFDF
310
DFDFDFDFDFDFDFDFDFDFDFDFDFDFDFDFDFE0E0E0E0E0E0E0E0E0E0E0E0E0E0E0
310
E0E0E0D1D1D16363630E0E0E0404040505050505050505050505050404041E1E
310
1E00FFFFFFFFFFFFFFFFFFFFFFFFFFFFFFFFFFFFFFFFFFFFFFFFFFFFFFFFFFFF
310
FFFFFFFFFFFFFFFFFFFFFFFFFFFFFFF5F5F5A9A9A91212120404040505050505
310
050505050505050404040D0D0D646464F1F1F1FFFFFFFFFFFFFFFFFFFFFFFFFF
310
FFFFFFFFFFFFFFFFFFFFFFFFFFFFFFFFFFFFFFFFFFFFFFFFFFFFFFFFFFD2D2D2
310
3F3F3F0505050505050505050505050505050505050505050505050404040505
310
0504040404040404040404040404040404040404040404040404040404040404
310
0404040404040404040404040404040404040404040404040404040404050505
310
050505050505050505050505050505050505030303383838BDBDBDFEFEFEFFFF
310
FFFFFFFFDDDDDD67676703030304040405050505050505050505050502020264
310
6464F5F5F5FFFFFFFFFFFFFFFFFFFFFFFFFFFFFFFFFFFFFFFFFFFFFFFFFCFCFC
310
EDEDEDA3A3A33C3C3C0E0E0E0303030505050505050505050505050505050404
310
040404041010104A4A4AAEAEAEEEEEEEFCFCFCFFFFFFFFFFFFFFFFFFFFFFFFFF
310
FFFFFFFFFFFFFFFFFFFFFFFFFFFFF6F6F6686868020202050505050505050505
310
050505040404030303939393FAFAFAFFFFFFFFFFFFFDFDFD6060600202020404
310
0405050505050505050505050505050504040402020202020202020202020202
310
0202020202030303020202020202020202020202030303030303030303030303
310
0303030303030303030303030303030303030303030303030505050505050505
310
05050505050505050505040404111111B3B3B3FAFAFAFFFFFFFFFFFFFAFAFAA6
310
A6A63A3A3A202020202020202020202020202020202020202020202020202020
310
2020202020202020202020202020202020202020202020202020202020202020
310
202020202121212222222222222323232323232424242525252525252727271F
310
1F1F0C0C0C0505050505050505050505050505050505050303032A2A2A00FFFF
310
FFFFFFFFFFFFFFFFFFFFFFFFFFFFFFFFFFFFFFFFFFFFFFFFFFFFFFFFFFFFFFFF
310
FFFFFFFFFFFFFFFFFFFFFFF6F6F6AAAAAA121212040404050505050505050505
310
0505050404040D0D0D616161F1F1F1FFFFFFFFFFFFFFFFFFFFFFFFFFFFFFFFFF
310
FFFFFFFFFFFFFFFFFFFFFFFFFFFFFFFFFFFFFFFFFFFFFFFFFFF3F3F3A3A3A317
310
1717040404050505050505050505050505050505050505050505060606040404
310
0505050505050505050505050505050505050505050505050505050505050505
310
0505050504040405050504040405050505050505050505050505050505050505
310
05050505050505050505050303030C0C0C6C6C6CF4F4F4FFFFFFFFFFFFFFFFFF
310
DEDEDE676767030303040404050505050505050505050505020202626262F2F2
310
F2FFFFFFFFFFFFFFFFFFFFFFFFFFFFFFFFFFFFFFFFFFFFFFFFFFFFFFFFFFFFF5
310
F5F5CCCCCC6A6A6A151515070707040404050505050505050505050505050505
310
040404090909202020797979D5D5D5F6F6F6FFFFFFFFFFFFFFFFFFFFFFFFFFFF
310
FFFFFFFFFFFFFFFFFFFFF7F7F769696902020205050505050505050505050504
310
0404030303929292FAFAFAFFFFFFFFFFFFFCFCFC606060020202040404050505
310
0505050505050505050505050505050505050505050505050505050505050505
310
0505050505050505050505050505050505050505050505050505050505050504
310
0404040404040404040404040404050505050505050505050505050505050505
310
050505050505050505414141D2D2D2FFFFFFFFFFFFFFFFFFF9F9F99E9E9E2020
310
2002020204040403030303030303030303030303030303030303030303030303
310
0303030303030303030303020202020202020202020202020202020202020202
310
0202020202020202020202020303030202020202020202020303030303030404
310
040505050505050505050505050505050404040F0F0F76767600FFFFFFFFFFFF
310
FFFFFFFFFFFFFFFFFFFFFFFFFFFFFFFFFFFFFFFFFFFFFFFFFFFFFFFFFFFFFFFF
310
FFFFFFFFFFFFFFF6F6F6AAAAAA12121204040404040405050505050505050504
310
04040C0C0C606060F1F1F1FFFFFFFFFFFFFFFFFFFFFFFFFFFFFFFFFFFFFFFFFF
310
FFFFFFFFFFFFFFFFFFFFFFFFFFFFFFFFFFFFFFFFFFFEFEFEE1E1E17777771616
310
1603030304040405050505050505050505050505050504040405050505050505
310
0505050505050505050505050505050505050505050505050505050505040404
310
0505050404040505050505050505050505050505050505050505050505050505
310
050404040303030A0A0A555555D3D3D3FEFEFEFFFFFFFFFFFFFFFFFFDEDEDE67
310
6767030303040404050505050505050505050505020202626262F2F2F2FFFFFF
310
FFFFFFFFFFFFFFFFFFFFFFFFFFFFFFFFFFFFFFFFFFFFFFFFFFFFFFFFFFFFFBFB
310
FBEBEBEB9C9C9C3636360C0C0C03030305050505050505050505050505050504
310
04040404040F0F0F464646AAAAAAEDEDEDFCFCFCFFFFFFFFFFFFFFFFFFFFFFFF
310
FFFFFFFFFFFFF7F7F76969690202020505050505050505050505050404040303
310
03929292FAFAFAFFFFFFFFFFFFFDFDFD60606002020204040405050505050505
310
0505050505050505050505050505050505050505050505050505050505050505
310
0505050505050505050505050505050505050505050505050505050505050505
310
0505050505050505050505050505050505050505050505050505050505050503
310
03031B1B1BABABABF6F6F6FFFFFFFFFFFFFFFFFFF9F9F99F9F9F202020040404
310
0505050505050505050505050505050505050505050505050505050505050505
310
0505050505050505050505050505050505050505050505050505050505050505
310
0505050505050505050505050505050505050505050505050505050505050505
310
050505050505050505050505040404303030D4D4D400FFFFFFFFFFFFFFFFFFFF
310
FFFFFFFFFFFFFFFFFFFFFFFFFFFFFFFFFFFFFFFFFFFFFFFFFFFFFFFFFFFFFFFF
310
FFFFFFF6F6F6ACACAC1212120404040505050505050505050505050404040C0C
310
0C5F5F5FF1F1F1FFFFFFFFFFFFFFFFFFFFFFFFFFFFFFFFFFFFFFFFFFFFFFFFFF
310
FFFFFFFFFFFFFFFFFFFFFFFFFFFFFFFFFFFFFFFFFCFCFCDFDFDF858585222222
310
1010100606060202020303030404040404040404040404040404040404040404
310
0404040404040404040404040404040404040404040404040404040404040404
310
0404040404040404040404040404040404040404040404040404030303090909
310
181818595959D0D0D0FAFAFAFFFFFFFFFFFFFFFFFFFFFFFFE0E0E06A6A6A0303
310
03040404050505050505050505050505020202636363F4F4F4FFFFFFFFFFFFFF
310
FFFFFFFFFFFFFFFFFFFFFFFFFFFFFFFFFFFFFFFFFFFFFFFFFFFFFFFFFFFFFFFF
310
F4F4F4C5C5C56262621414140606060404040404040404040404040404040404
310
040303030808081C1C1C757575D2D2D2F5F5F5FFFFFFFFFFFFFFFFFFFFFFFFFF
310
FFFFF7F7F7696969020202040404040404040404040404040404030303929292
310
FAFAFAFFFFFFFFFFFFFDFDFD6060600202020404040404040404040404040404
310
0404040404040404040404040404040404040404040404040404040404040404
310
0404040404040404040404040404040404040404040404040404040404040404
310
0404040404040404040404040404040404040404040404040606061C1C1C8B8B
310
8BE9E9E9FFFFFFFFFFFFFFFFFFFFFFFFF9F9F9A0A0A021212104040405050505
310
0505050505050505050505050505050505050505050505050505050505050505
310
0505050505050505050505050505050505050505050505050505050505050505
310
0505050505050505050505050505050505050505050505050505050505050504
310
04040404040505052A2A2AABABABF6F6F600E7E7E7E7E7E7E7E7E7E7E7E7E7E7
310
E7E7E7E7E7E7E7E7E7E7E8E8E8E8E8E8E8E8E8E8E8E8E8E8E8E8E8E8E8E8E8E2
310
E2E2A3A3A31111110404040505050505050505050505050404040B0B0B595959
310
E2E2E2EFEFEFEFEFEFF0F0F0F0F0F0F0F0F0F0F0F0F0F0F0F1F1F1F1F1F1F1F1
310
F1F1F1F1F2F2F2F2F2F2F2F2F2F2F2F2F4F4F4F9F9F9EFEFEFCACACA7B7B7B3D
310
3D3D2121211E1E1E1D1D1D1D1D1D1D1D1D1D1D1D1D1D1D1C1C1C1C1C1C1C1C1C
310
1C1C1C1C1C1C1C1C1C1B1B1B1B1B1B1B1B1B1B1B1B1B1B1B1B1B1B1B1B1B1A1A
310
1A1A1A1A1A1A1A1A1A1A1A1A1A1919191A1A1A1C1C1C272727525252A6A6A6E8
310
E8E8FBFBFBFFFFFFFFFFFFFFFFFFFFFFFFFFFFFFDFDFDF696969030303040404
310
050505050505050505050505020202636363F4F4F4FFFFFFFFFFFFFFFFFFFFFF
310
FFFFFFFFFFFFFFFFFFFFFFFFFFFFFFFFFFFFFFFFFFFFFFFFFFFFFFFFFFFFFFFA
310
FAFAE8E8E8959595323232131313121212121212111111111111111111111111
310
1010101010101E1E1E4B4B4BB2B2B2F8F8F8FFFFFFFFFFFFFFFFFFFFFFFFF7F7
310
F77070700D0D0D0E0E0E0E0E0E0D0D0D0D0D0D0D0D0D0D0D0D979797FAFAFAFF
310
FFFFFFFFFFFDFDFD6767670B0B0B0B0B0B0B0B0B0B0B0B0B0B0B0B0B0B0A0A0A
310
0A0A0A0A0A0A0A0A0A0A0A0A0909090909090909090808080808080808080808
310
0807070707070707070707070707070706060606060606060606060606060605
310
05050505050505050606060909090F0F0F191919393939A4A4A4EAEAEAFDFDFD
310
FFFFFFFFFFFFFFFFFFFFFFFFF9F9F99F9F9F2121210202020303030303030202
310
0202020203030303030303030302020202020202020202020202020202020203
310
0303020202030303030303030303030303030303030303030303030303030303
310
0303030303030303030303030404040404040404040303030303030A0A0A1515
310
15373737B1B1B1F1F1F1FEFEFE004E4E4E4C4C4C4E4E4E4E4E4E4E4E4E4F4F4F
310
4F4F4F5151515353535454545454545555555656565656565757575656563B3B
310
3B0707070404040505050505050505050505050404040707072D2D2D7B7B7B81
310
81818181818282828484848484848585858787878A8A8A8B8B8B8B8B8B8D8D8D
310
8E8E8E909090939393929292A5A5A5E3E3E3FEFEFEFBFBFBEEEEEEE4E4E4DCDC
310
DCD1D1D1CCCCCCCBCBCBC9C9C9C9C9C9C8C8C8C6C6C6C6C6C6C4C4C4C3C3C3C3
310
C3C3C2C2C2C0C0C0C0C0C0C0C0C0BEBEBEBDBDBDBDBDBDBCBCBCBABABAB9B9B9
310
B8B8B8B7B7B7B6B6B6B5B5B5B8B8B8C6C6C6DADADAE8E8E8F6F6F6FFFFFFFFFF
310
FFFFFFFFFFFFFFFFFFFFFFFFFFFFFFFFE0E0E06B6B6B03030304040405050504
310
0404050505050505020202636363F4F4F4FFFFFFFFFFFFFFFFFFFFFFFFFFFFFF
310
FFFFFFFFFFFFFFFFFFFFFFFFFFFFFFFFFFFFFFFFFFFFFFFFFFFFFFFFFFFFFFFF
310
FFF3F3F3C2C2C29191918686868787878484848484848282828181817F7F7F7C
310
7C7C7B7B7B7C7C7C939393D7D7D7FFFFFFFFFFFFFFFFFFFFFFFFFBFBFBA9A9A9
310
6F6F6F6F6F6F6D6D6D6C6C6C6C6C6C6B6B6B676767BDBDBDFCFCFCFFFFFFFFFF
310
FFFDFDFD9B9B9B6060606060605F5F5F5D5D5D5D5D5D5C5C5C5A5A5A5A5A5A57
310
57575656565656565353535151515050504E4E4E4D4D4D4B4B4B4B4B4B484848
310
4747474646464545454444444242424141414040403F3F3F3D3D3D3C3C3C3B3B
310
3B3A3A3A3F3F3F525252757575ACACACDADADAF5F5F5FEFEFEFFFFFFFFFFFFFF
310
FFFFFFFFFFFFFFFFFBFBFBB0B0B03F3F3F272727282828272727252525252525
310
2222222323232222222121212020202020202020202020202020202020202020
310
2020202020202020202020202020202020202020202020202020202020202020
310
20202020202020202020202020202020202121212A2A2A575757999999DADADA
310
F7F7F7FEFEFEFFFFFF000D0D0D08080808080808080808080808080808080809
310
09090909090909090909090909090A0A0A0A0A0A0A0A0A0A0A0A080808040404
310
0505050505050505050505050505050505050404040707071010101111111111
310
1111111111111111111112121212121212121212121212121213131313131313
310
1313141414131313393939BFBFBFFBFBFBFFFFFFFFFFFFFFFFFFFFFFFFFDFDFD
310
FCFCFCFCFCFCFBFBFBFBFBFBFBFBFBFBFBFBFBFBFBFBFBFBFAFAFAFAFAFAFAFA
310
FAFAFAFAFAFAFAFAFAFAFAFAFAF9F9F9F9F9F9F9F9F9F9F9F9F9F9F9F9F9F9F8
310
F8F8F8F8F8F8F8F8F9F9F9FBFBFBFEFEFEFFFFFFFFFFFFFFFFFFFFFFFFFFFFFF
310
FFFFFFFFFFFFFFFFFFFFFFFFE0E0E06B6B6B0303030606060606060505050404
310
04050505020202636363F4F4F4FFFFFFFFFFFFFFFFFFFFFFFFFFFFFFFFFFFFFF
310
FFFFFFFFFFFFFFFFFFFFFFFFFFFFFFFFFFFFFFFFFFFFFFFFFFFFFFFFFFFFFFFF
310
FAFAFAF2F2F2F0F0F0F0F0F0F0F0F0F0F0F0F0F0F0EFEFEFEFEFEFEFEFEFEEEE
310
EEEEEEEEEFEFEFF8F8F8FFFFFFFFFFFFFFFFFFFFFFFFFFFFFFF4F4F4ECECECEC
310
ECECECECECECECECECECECECECECEBEBEBF6F6F6FFFFFFFFFFFFFFFFFFFFFFFF
310
F2F2F2EAEAEAEAEAEAEAEAEAE9E9E9E9E9E9E9E9E9E9E9E9E9E9E9E8E8E8E8E8
310
E8E8E8E8E8E8E8E7E7E7E7E7E7E7E7E7E7E7E7E6E6E6E6E6E6E6E6E6E6E6E6E6
310
E6E6E5E5E5E5E5E5E5E5E5E5E5E5E5E5E5E4E4E4E4E4E4E4E4E4E4E4E4E4E4E4
310
E4E4E4E8E8E8EDEDEDF6F6F6FDFDFDFFFFFFFFFFFFFFFFFFFFFFFFFFFFFFFFFF
310
FFFFFFFFFEFEFEF4F4F4E4E4E4E0E0E0E1E1E1E0E0E0E0E0E0E0E0E0E0E0E0E0
310
E0E0E0E0E0DFDFDFDFDFDFDFDFDFDFDFDFDFDFDFDFDFDFDFDFDFDFDFDFDFDFDF
310
DFDFDFDFDFDFDFDFDFDFDFDFDFDFDFDFDFDFDFDFDFDFDFDFDFDFDFDEDEDEDDDD
310
DDDCDCDCDCDCDCDCDCDCDCDCDCDFDFDFE1E1E1E8E8E8F3F3F3FEFEFEFFFFFFFF
310
FFFFFFFFFF000707070404040404040404040404040404040404040404040404
310
0404040404040404040404040404040404040404040405050505050505050505
310
0505050505050505050505040404050505040404040404040404040404040404
310
0404040404040404040404040404040404040404040404040404040404040404
310
040303032A2A2ABBBBBBFBFBFBFFFFFFFFFFFFFFFFFFFFFFFFFFFFFFFFFFFFFF
310
FFFFFFFFFFFFFFFFFFFFFFFFFFFFFFFFFFFFFFFFFFFFFFFFFFFFFFFFFFFFFFFF
310
FFFFFFFFFFFFFFFFFFFFFFFFFFFFFFFFFFFFFFFFFFFFFFFFFFFFFFFFFFFFFFFF
310
FFFFFFFFFFFFFFFFFFFFFFFFFFFFFFFFFFFFFFFFFFFFFFFFFFFFFFFFFFFFFFFF
310
FFFFFFFFFFFFFFFFE0E0E06B6B6B030303040404040404040404040404050505
310
020202636363F4F4F4FFFFFFFFFFFFFFFFFFFFFFFFFFFFFFFFFFFFFFFFFFFFFF
310
FFFFFFFFFFFFFFFFFFFFFFFFFFFFFFFFFFFFFFFFFFFFFFFFFFFFFFFFFFFFFFFF
310
FFFFFFFFFFFFFFFFFFFFFFFFFFFFFFFFFFFFFFFFFFFFFFFFFFFFFFFFFFFFFFFF
310
FFFFFFFFFFFFFFFFFFFFFFFFFFFFFFFFFFFFFEFEFEECECECDFDFDFDFDFDFDFDF
310
DFDFDFDFDFDFDFDFDFDFDFDFDFF1F1F1FEFEFEFFFFFFFFFFFFFFFFFFFFFFFFFF
310
FFFFFFFFFFFFFFFFFFFFFFFFFFFFFFFFFFFFFFFFFFFFFFFFFFFFFFFFFFFFFFFF
310
FFFFFFFFFFFFFFFFFFFFFFFFFFFFFFFFFFFFFFFFFFFFFFFFFFFFFFFFFFFFFFFF
310
FFFFFFFFFFFFFFFFFFFFFFFFFFFFFFFFFFFFFFFFFFFFFFFFFFFFFFFFFFFFFFFF
310
FFFFFFFFFFFFFFFFFFFFFFFFFFFFFFFFFFFFFFFFFFFFFFFFFFFFFFFFFFFFFFFF
310
FFFFFFFFFFFFFFFFFFFFFFFFFFFFFFFFFFFFFFFFFFFFFFFFFFFFFFFFFFFFFFFF
310
FFFFFFFFFFFFFFFFFFFFFFFFFFFFFFFFFFFFFFFFFFFFFFFFFFFFFFFFFFFFFFFF
310
FFFFFFFFFFFFFFFFFFFFFFFFFFFFFFFFFFFFFFFFFFFFFFFFFFFFFFFFFFFFFFFF
310
FFFFFFFFFFFFFFFFFFFFFFFFFFFFFFFFFFFFFFFFFFFFFFFFFFFFFFFFFFFFFFFF
310
FF00060606040404040404040404050505050505050505050505050505050505
310
0505050505050505050505050505050505050505050505050505050505050505
310
0505050505050505050507070704040404040405050505050505050505050505
310
0505050505050505050505050505050505050505050505050505050505030303
310
2A2A2ABBBBBBFBFBFBFFFFFFFFFFFFFFFFFFFFFFFFFFFFFFFFFFFFFFFFFFFFFF
310
FFFFFFFFFFFFFFFFFFFFFFFFFFFFFFFFFFFFFFFFFFFFFFFFFFFFFFFFFFFFFFFF
310
FFFFFFFFFFFFFFFFFFFFFFFFFFFFFFFFFFFFFFFFFFFFFFFFFFFFFFFFFFFFFFFF
310
FFFFFFFFFFFFFFFFFFFFFFFFFFFFFFFFFFFFFFFFFFFFFFFFFFFFFFFFFFFFFFFF
310
FFFFFFFFE0E0E06B6B6B03030304040404040404040405050505050502020263
310
6363F4F4F4FFFFFFFFFFFFFFFFFFFFFFFFFFFFFFFFFFFFFFFFFFFFFFFFFFFFFF
310
FFFFFFFFFFFFFFFFFFFFFFFFFFFFFFFFFFFFFFFFFFFFFFFFFFFFFFFFFFFFFFFF
310
FFFFFFFFFFFFFFFFFFFFFFFFFFFFFFFFFFFFFFFFFFFFFFFFFFFFFFFFFFFFFFFF
310
FFFFFFFFFFFFFFFFFFFFFFFFFFFFF8F8F87C7C7C202020202020202020202020
310
212121222222222222A0A0A0FBFBFBFFFFFFFFFFFFFFFFFFFFFFFFFFFFFFFFFF
310
FFFFFFFFFFFFFFFFFFFFFFFFFFFFFFFFFFFFFFFFFFFFFFFFFFFFFFFFFFFFFFFF
310
FFFFFFFFFFFFFFFFFFFFFFFFFFFFFFFFFFFFFFFFFFFFFFFFFFFFFFFFFFFFFFFF
310
FFFFFFFFFFFFFFFFFFFFFFFFFFFFFFFFFFFFFFFFFFFFFFFFFFFFFFFFFFFFFFFF
310
FFFFFFFFFFFFFFFFFFFFFFFFFFFFFFFFFFFFFFFFFFFFFFFFFFFFFFFFFFFFFFFF
310
FFFFFFFFFFFFFFFFFFFFFFFFFFFFFFFFFFFFFFFFFFFFFFFFFFFFFFFFFFFFFFFF
310
FFFFFFFFFFFFFFFFFFFFFFFFFFFFFFFFFFFFFFFFFFFFFFFFFFFFFFFFFFFFFFFF
310
FFFFFFFFFFFFFFFFFFFFFFFFFFFFFFFFFFFFFFFFFFFFFFFFFFFFFFFFFFFFFFFF
310
FFFFFFFFFFFFFFFFFFFFFFFFFFFFFFFFFFFFFFFFFFFFFFFFFFFFFFFFFF000606
310
0606060605050504040405050505050505050505050505050505050505050505
310
0505050505050505050505050505050505050505050505050505050505050505
310
0505050505050505050404040505050505050505050505050505050505050505
310
050505050505050505050505050505050505050505050404040303032A2A2ABD
310
BDBDFBFBFBFFFFFFFFFFFFFFFFFFFFFFFFFFFFFFFFFFFFFFFFFFFFFFFFFFFFFF
310
FFFFFFFFFFFFFFFFFFFFFFFFFFFFFFFFFFFFFFFFFFFFFFFFFFFFFFFFFFFFFFFF
310
FFFFFFFFFFFFFFFFFFFFFFFFFFFFFFFFFFFFFFFFFFFFFFFFFFFFFFFFFFFFFFFF
310
FFFFFFFFFFFFFFFFFFFFFFFFFFFFFFFFFFFFFFFFFFFFFFFFFFFFFFFFFFFFFFFF
310
E1E1E16C6C6C030303040404050505050505050505050505020202646464F5F5
310
F5FFFFFFFFFFFFFFFFFFFFFFFFFFFFFFFFFFFFFFFFFFFFFFFFFFFFFFFFFFFFFF
310
FFFFFFFFFFFFFFFFFFFFFFFFFFFFFFFFFFFFFFFFFFFFFFFFFFFFFFFFFFFFFFFF
310
FFFFFFFFFFFFFFFFFFFFFFFFFFFFFFFFFFFFFFFFFFFFFFFFFFFFFFFFFFFFFFFF
310
FFFFFFFFFFFFFFFFFFFFF9F9F96A6A6A01010102020202020202020202020202
310
0202020202939393FAFAFAFFFFFFFFFFFFFFFFFFFFFFFFFFFFFFFFFFFFFFFFFF
310
FFFFFFFFFFFFFFFFFFFFFFFFFFFFFFFFFFFFFFFFFFFFFFFFFFFFFFFFFFFFFFFF
310
FFFFFFFFFFFFFFFFFFFFFFFFFFFFFFFFFFFFFFFFFFFFFFFFFFFFFFFFFFFFFFFF
310
FFFFFFFFFFFFFFFFFFFFFFFFFFFFFFFFFFFFFFFFFFFFFFFFFFFFFFFFFFFFFFFF
310
FFFFFFFFFFFFFFFFFFFFFFFFFFFFFFFFFFFFFFFFFFFFFFFFFFFFFFFFFFFFFFFF
310
FFFFFFFFFFFFFFFFFFFFFFFFFFFFFFFFFFFFFFFFFFFFFFFFFFFFFFFFFFFFFFFF
310
FFFFFFFFFFFFFFFFFFFFFFFFFFFFFFFFFFFFFFFFFFFFFFFFFFFFFFFFFFFFFFFF
310
FFFFFFFFFFFFFFFFFFFFFFFFFFFFFFFFFFFFFFFFFFFFFFFFFFFFFFFFFFFFFFFF
310
FFFFFFFFFFFFFFFFFFFFFFFFFFFFFFFFFFFFFFFFFFFFFFFFFF00060606040404
310
0404040505050505050505050404040505050505050505050505050505050505
310
0505050505050505050505050505050505050505050505050505050505050505
310
0505050505050505050505050505050505050505050505050505050505050505
310
0505050505050505050505050505050404040505050303032A2A2ABDBDBDFBFB
310
FBFFFFFFFFFFFFFFFFFFFFFFFFFFFFFFFFFFFFFFFFFFFFFFFFFFFFFFFFFFFFFF
310
FFFFFFFFFFFFFFFFFFFFFFFFFFFFFFFFFFFFFFFFFFFFFFFFFFFFFFFFFFFFFFFF
310
FFFFFFFFFFFFFFFFFFFFFFFFFFFFFFFFFFFFFFFFFFFFFFFFFFFFFFFFFFFFFFFF
310
FFFFFFFFFFFFFFFFFFFFFFFFFFFFFFFFFFFFFFFFFFFFFFFFFFFFFFFFE0E0E06B
310
6B6B030303040404050505050505050505040404020202636363F4F4F4FFFFFF
310
FFFFFFFFFFFFFFFFFFFFFFFFFFFFFFFFFFFFFFFFFFFFFFFFFFFFFFFFFFFFFFFF
310
FFFFFFFFFFFFFFFFFFFFFFFFFFFFFFFFFFFFFFFFFFFFFFFFFFFFFFFFFFFFFFFF
310
FFFFFFFFFFFFFFFFFFFFFFFFFFFFFFFFFFFFFFFFFFFFFFFFFFFFFFFFFFFFFFFF
310
FFFFFFFFFFFFF9F9F96A6A6A0202020505050505050505050505050404040303
310
03939393FBFBFBFFFFFFFFFFFFFFFFFFFFFFFFFFFFFFFFFFFFFFFFFFFFFFFFFF
310
FFFFFFFFFFFFFFFFFFFFFFFFFFFFFFFFFFFFFFFFFFFFFFFFFFFFFFFFFFFFFFFF
310
FFFFFFFFFFFFFFFFFFFFFFFFFFFFFFFFFFFFFFFFFFFFFFFFFFFFFFFFFFFFFFFF
310
FFFFFFFFFFFFFFFFFFFFFFFFFFFFFFFFFFFFFFFFFFFFFFFFFFFFFFFFFFFFFFFF
310
FFFFFFFFFFFFFFFFFFFFFFFFFFFFFFFFFFFFFFFFFFFFFFFFFFFFFFFFFFFFFFFF
310
FFFFFFFFFFFFFFFFFFFFFFFFFFFFFFFFFFFFFFFFFFFFFFFFFFFFFFFFFFFFFFFF
310
FFFFFFFFFFFFFFFFFFFFFFFFFFFFFFFFFFFFFFFFFFFFFFFFFFFFFFFFFFFFFFFF
310
FFFFFFFFFFFFFFFFFFFFFFFFFFFFFFFFFFFFFFFFFFFFFFFFFFFFFFFFFFFFFFFF
310
FFFFFFFFFFFFFFFFFFFFFFFFFFFFFFFFFFFFFFFFFF0006060602020203030303
310
0303030303030303030303030303030303030303040404040404040404040404
310
0404040404040404040404040404040404040404040404040404040404040404
310
0404040404040404040404040404040404040404040404040404040404040404
310
04040404040404040404040404040404040303032B2B2BBEBEBEFCFCFCFFFFFF
310
FFFFFFFFFFFFFFFFFFFFFFFFFFFFFFFFFFFFFFFFFFFFFFFFFFFFFFFFFFFFFFFF
310
FFFFFFFFFFFFFFFFFFFFFFFFFFFFFFFFFFFFFFFFFFFFFFFFFFFFFFFFFFFFFFFF
310
FFFFFFFFFFFFFFFFFFFFFFFFFFFFFFFFFFFFFFFFFFFFFFFFFFFFFFFFFFFFFFFF
310
FFFFFFFFFFFFFFFFFFFFFFFFFFFFFFFFFFFFFFFFFFFFFFFFE1E1E16C6C6C0303
310
03040404040404040404040404040404020202636363F4F4F4FFFFFFFFFFFFFF
310
FFFFFFFFFFFFFFFFFFFFFFFFFFFFFFFFFFFFFFFFFFFFFFFFFFFFFFFFFFFFFFFF
310
FFFFFFFFFFFFFFFFFFFFFFFFFFFFFFFFFFFFFFFFFFFFFFFFFFFFFFFFFFFFFFFF
310
FFFFFFFFFFFFFFFFFFFFFFFFFFFFFFFFFFFFFFFFFFFFFFFFFFFFFFFFFFFFFFFF
310
FFFFFAFAFA6B6B6B020202040404040404040404040404040404030303939393
310
FAFAFAFFFFFFFFFFFFFFFFFFFFFFFFFFFFFFFFFFFFFFFFFFFFFFFFFFFFFFFFFF
310
FFFFFFFFFFFFFFFFFFFFFFFFFFFFFFFFFFFFFFFFFFFFFFFFFFFFFFFFFFFFFFFF
310
FFFFFFFFFFFFFFFFFFFFFFFFFFFFFFFFFFFFFFFFFFFFFFFFFFFFFFFFFFFFFFFF
310
FFFFFFFFFFFFFFFFFFFFFFFFFFFFFFFFFFFFFFFFFFFFFFFFFFFFFFFFFFFFFFFF
310
FFFFFFFFFFFFFFFFFFFFFFFFFFFFFFFFFFFFFFFFFFFFFFFFFFFFFFFFFFFFFFFF
310
FFFFFFFFFFFFFFFFFFFFFFFFFFFFFFFFFFFFFFFFFFFFFFFFFFFFFFFFFFFFFFFF
310
FFFFFFFFFFFFFFFFFFFFFFFFFFFFFFFFFFFFFFFFFFFFFFFFFFFFFFFFFFFFFFFF
310
FFFFFFFFFFFFFFFFFFFFFFFFFFFFFFFFFFFFFFFFFFFFFFFFFFFFFFFFFFFFFFFF
310
FFFFFFFFFFFFFFFFFFFFFFFFFFFFFFFFFF002222221E1E1E1E1E1E1E1E1E1E1E
310
1E1E1E1E1E1E1E1D1D1D1D1D1D1D1D1D1D1D1D1C1C1C1C1C1C1C1C1C1C1C1C1C
310
1C1C1C1C1C1B1B1B1B1B1B1B1B1B1B1B1B1B1B1B1A1A1A1A1A1A1A1A1A1A1A1A
310
1A1A1A1A1A1A1919191919191919191919191919191818181818181818181818
310
181818181818181717171717171717173D3D3DC2C2C2FCFCFCFFFFFFFFFFFFFF
310
FFFFFFFFFFFFFFFFFFFFFFFFFFFFFFFFFFFFFFFFFFFFFFFFFFFFFFFFFFFFFFFF
310
FFFFFFFFFFFFFFFFFFFFFFFFFFFFFFFFFFFFFFFFFFFFFFFFFFFFFFFFFFFFFFFF
310
FFFFFFFFFFFFFFFFFFFFFFFFFFFFFFFFFFFFFFFFFFFFFFFFFFFFFFFFFFFFFFFF
310
FFFFFFFFFFFFFFFFFFFFFFFFFFFFFFFFFFFFFFFFE1E1E17373731010100F0F0F
310
0F0F0F0F0F0F0E0E0E0E0E0E0D0D0D6A6A6AF4F4F4FFFFFFFFFFFFFFFFFFFFFF
310
FFFFFFFFFFFFFFFFFFFFFFFFFFFFFFFFFFFFFFFFFFFFFFFFFFFFFFFFFFFFFFFF
310
FFFFFFFFFFFFFFFFFFFFFFFFFFFFFFFFFFFFFFFFFFFFFFFFFFFFFFFFFFFFFFFF
310
FFFFFFFFFFFFFFFFFFFFFFFFFFFFFFFFFFFFFFFFFFFFFFFFFFFFFFFFFFFFF9F9
310
F96D6D6D050505060606050505050505050505050505040404949494FAFAFAFF
310
FFFFFFFFFFFFFFFFFFFFFFFFFFFFFFFFFFFFFFFFFFFFFFFFFFFFFFFFFFFFFFFF
310
FFFFFFFFFFFFFFFFFFFFFFFFFFFFFFFFFFFFFFFFFFFFFFFFFFFFFFFFFFFFFFFF
310
FFFFFFFFFFFFFFFFFFFFFFFFFFFFFFFFFFFFFFFFFFFFFFFFFFFFFFFFFFFFFFFF
310
FFFFFFFFFFFFFFFFFFFFFFFFFFFFFFFFFFFFFFFFFFFFFFFFFFFFFFFFFFFFFFFF
310
FFFFFFFFFFFFFFFFFFFFFFFFFFFFFFFFFFFFFFFFFFFFFFFFFFFFFFFFFFFFFFFF
310
FFFFFFFFFFFFFFFFFFFFFFFFFFFFFFFFFFFFFFFFFFFFFFFFFFFFFFFFFFFFFFFF
310
FFFFFFFFFFFFFFFFFFFFFFFFFFFFFFFFFFFFFFFFFFFFFFFFFFFFFFFFFFFFFFFF
310
FFFFFFFFFFFFFFFFFFFFFFFFFFFFFFFFFFFFFFFFFFFFFFFFFFFFFFFFFFFFFFFF
310
FFFFFFFFFFFFFFFFFFFFFFFFFF00000000000000000000000000000000000000
310
0000000000000000000000000000000000000000000000000000000000000000
310
0000000000000000000000000000000000000000000000000000000000000000
310
0000000000000000000000000000000000000000000000000000000000000000
310
0000000000000000000000000000000000000000000000000000000000000000
310
0000000000000000000000000000000000000000000000000000000000000000
310
0000000000000000000000000000000000000000000000000000000000000000
310
0000000000000000000000000000000000000000000000000000000000000000
310
0000000000000000000000000000000000000000000000000000000000000000
310
0000000000000000000000000000000000000000000000000000000000000000
310
0000000000000000000000000000000000000000000000000000000000000000
310
0000000000000000000000000000000000000000000000000000000000000000
310
0000000000000000000000000000000000000000000000000000000000000000
310
0000000000000000000000000000000000000000000000000000000000000000
310
0000000000000000000000000000000000000000000000000000000000000000
310
0000000000000000000000000000000000000000000000000000000000000000
310
0000000000000000000000000000000000000000000000000000000000000000
310
01004F006C006500000000000000000000000000000000000000000000000000
310
0000000000000000000000000000000000000000000000000000000000000000
310
0A000200FFFFFFFFFFFFFFFFFFFFFFFF00000000000000000000000000000000
310
0000000000000000000000000000000000000000030000001400000000000000
310
0000000000000000000000000000000000000000000000000000000000000000
310
0000000000000000000000000000000000000000000000000000000000000000
310
00000000FFFFFFFFFFFFFFFFFFFFFFFF00000000000000000000000000000000
310
0000000000000000000000000000000000000000000000000000000000000000
310
0000000000000000000000000000000000000000000000000000000000000000
310
0000000000000000000000000000000000000000000000000000000000000000
310
00000000FFFFFFFFFFFFFFFFFFFFFFFF00000000000000000000000000000000
310
0000000000000000000000000000000000000000000000000000000000000000
310
0000000000000000000000000000000000000000000000000000000000000000
310
0000000000000000000000000000000000000000000000000000000000000000
310
00000000FFFFFFFFFFFFFFFFFFFFFFFF00000000000000000000000000000000
310
0000000000000000000000000000000000000000000000000000000000000000
  1
OLE
  0
TEXT
  5
717
330
1F
100
AcDbEntity
  8
1
  6
Continuous
 62
     7
370
    30
100
AcDbText
 10
76.85753287843289
 20
-131.1696406068661
 30
0.0
 40
4.0
  1
株式会社 トキナー
100
AcDbText
  0
TEXT
  5
718
330
1F
100
AcDbEntity
  8
1
  6
Continuous
 62
     7
370
    30
100
AcDbText
 10
123.9997386043922
 20
-130.8352987222848
 30
0.0
 40
4.0
  1
Tokina Co. ,Ltd.
 41
0.7000000000000001
100
AcDbText
  0
TEXT
  5
7B6
330
1F
100
AcDbEntity
  8
1
  6
Continuous
 62
     7
370
    30
100
AcDbText
 10
110.4761864660803
 20
-123.6006134311902
 30
0.0
 40
3.200000047683716
  1
TSTM-033
100
AcDbText
  0
TEXT
  5
7B7
330
1F
100
AcDbEntity
  8
1
  6
Continuous
 62
     7
370
    30
100
AcDbText
 10
110.2030161957262
 20
-113.364497406189
 30
0.0
 40
3.5
  1
KCM-Z4
100
AcDbText
  0
LINE
  5
C19
330
1F
100
AcDbEntity
  8
1
  6
Continuous
 62
     7
100
AcDbLine
 10
76.45753313554485
 20
-78.9344795730538
 30
0.0
 11
74.29246962608374
 21
-75.18447957305379
 31
0.0
  0
LINE
  5
C1A
330
1F
100
AcDbEntity
  8
1
  6
Continuous
 62
     7
100
AcDbLine
 10
74.29246962608377
 20
-75.1844795730538
 30
0.0
 11
72.12740611662268
 21
-78.9344795730538
 31
0.0
  0
LINE
  5
C1B
330
1F
100
AcDbEntity
  8
1
  6
Continuous
 62
     7
100
AcDbLine
 10
76.45753313554486
 20
-78.9344795730538
 30
0.0
 11
72.12740611662268
 21
-78.9344795730538
 31
0.0
  0
LINE
  5
CBC
330
1F
100
AcDbEntity
  8
1
  6
Continuous
 62
     7
100
AcDbLine
 10
139.6278
 20
-74.5307656762807
 30
0.0
 11
139.6278
 21
-84.5307656762807
 31
0.0
  0
TEXT
  5
CC2
330
1F
100
AcDbEntity
  8
1
  6
Continuous
 62
     7
100
AcDbText
 10
-19.08574449850841
 20
-84.0307656762807
 30
0.0
 40
3.0
  1
No
 41
0.6000000000000001
100
AcDbText
  0
POINT
  5
CD4
330
1F
100
AcDbEntity
  8
0
  6
Continuous
100
AcDbPoint
 10
18.13036361857221
 20
-84.54917000653167
 30
0.0
  0
TEXT
  5
CD9
330
1F
100
AcDbEntity
  8
1
  6
Continuous
 62
     7
100
AcDbText
 10
72.93542895417711
 20
-84.0307656762807
 30
0.0
 40
3.0
  1
No
 41
0.6000000000000001
100
AcDbText
  0
LINE
  5
CDA
330
1F
100
AcDbEntity
  8
0
  6
Continuous
100
AcDbLine
 10
159.8086505471844
 20
-74.5307656762807
 30
0.0
 11
159.8086505471844
 21
-79.5307656762807
 31
0.0
  0
LINE
  5
CDB
330
1F
100
AcDbEntity
  8
0
  6
Continuous
100
AcDbLine
 10
159.8086505471844
 20
-74.5307656762807
 30
0.0
 11
139.8086505471844
 21
-74.5307656762807
 31
0.0
  0
TEXT
  5
109F
330
1F
100
AcDbEntity
  8
1
  6
Continuous
 62
     7
100
AcDbText
 10
43.50954302179181
 20
-118.6571792168237
 30
0.0
 40
2.5
  1
図面登録
 41
0.8
100
AcDbText
  0
TEXT
  5
10A0
330
1F
100
AcDbEntity
  8
1
  6
Continuous
 62
     7
100
AcDbText
 10
42.70370972506029
 20
-123.9940505185989
 30
0.0
 40
2.5
  1
2008.5.22
 41
0.7000000000000001
100
AcDbText
  0
TEXT
  5
23E9
330
1F
100
AcDbEntity
  8
1
  6
Continuous
 62
     7
370
    30
100
AcDbText
 10
35.4366524424117
 20
-97.89502911166359
 30
0.0
 40
4.0
  1
外 観 図
 41
1.2
100
AcDbText
  0
LINE
  5
25E7
330
1F
100
AcDbEntity
  8
Layer1
100
AcDbLine
 10
1.929397073687351
 20
-5.176060216624194
 30
0.0
 11
-2.570602926312649
 21
-5.176060216624194
 31
0.0
  0
LINE
  5
25E8
330
1F
100
AcDbEntity
  8
Layer1
100
AcDbLine
 10
1.929397073687351
 20
-1.952757150024183
 30
0.0
 11
-2.570602926312649
 21
-1.952757150024183
 31
0.0
  0
LINE
  5
25E9
330
1F
100
AcDbEntity
  8
Layer1
100
AcDbLine
 10
1.929397073687351
 20
0.7390514203758158
 30
0.0
 11
-2.570602926312649
 21
0.7390514203758158
 31
0.0
  0
LINE
  5
25EA
330
1F
100
AcDbEntity
  8
Layer1
100
AcDbLine
 10
1.929397073687351
 20
2.76438697277581
 30
0.0
 11
-2.570602926312649
 21
2.76438697277581
 31
0.0
  0
LINE
  5
25EB
330
1F
100
AcDbEntity
  8
Layer1
100
AcDbLine
 10
1.929397073687351
 20
4.021690725475807
 30
0.0
 11
-2.570602926312649
 21
4.021690725475807
 31
0.0
  0
LINE
  5
25EC
330
1F
100
AcDbEntity
  8
Layer1
100
AcDbLine
 10
-14.82082759351265
 20
4.447916218375809
 30
0.0
 11
-14.82082759351265
 21
-29.55208378162419
 31
0.0
  0
LINE
  5
25ED
330
1F
100
AcDbEntity
  8
Layer1
100
AcDbLine
 10
-26.82082759351265
 20
4.447916218375809
 30
0.0
 11
-26.82082759351265
 21
-29.55208378162419
 31
0.0
  0
LINE
  5
25EE
330
1F
100
AcDbEntity
  8
Layer1
100
AcDbLine
 10
-14.07082759351265
 20
3.697916218375809
 30
0.0
 11
-14.07082759351265
 21
-28.80208378162419
 31
0.0
  0
DIMENSION
  5
25EF
330
1F
100
AcDbEntity
  8
Dimension
100
AcDbDimension
  2
*D79
 10
53.96242352878734
 20
-26.40208378162419
 30
0.0
 11
51.52304854903734
 21
-38.84890917842419
 31
0.0
 70
    32
  1
φ <>
 71
     0
 72
     0
 41
0.0
 42
-1.0
 53
90.0
  3
VELDIM0
100
AcDbAlignedDimension
 13
45.55766162398734
 23
1.297916218375818
 33
0.0
 14
45.55766162398734
 24
-26.40208378162419
 34
0.0
 50
90.0
100
AcDbRotatedDimension
1001
ACAD
1000
DSTYLE
1002
{
1070
   145
1040
1.0
1002
}
  0
CIRCLE
  5
25FC
330
1F
100
AcDbEntity
  8
Layer1
100
AcDbCircle
 10
-5.570602926312649
 20
-12.55208378162419
 30
0.0
 40
1.25
  0
CIRCLE
  5
25FD
330
1F
100
AcDbEntity
  8
Layer1
100
AcDbCircle
 10
-5.570602926312649
 20
-12.55208378162419
 30
0.0
 40
1.5
  0
CIRCLE
  5
25FE
330
1F
100
AcDbEntity
  8
Layer1
100
AcDbCircle
 10
-0.3206029263126489
 20
-12.55208378162419
 30
0.0
 40
1.0
  0
LINE
  5
25FF
330
1F
100
AcDbEntity
  8
Layer1
  6
BORDER
100
AcDbLine
 10
-0.3206029263126489
 20
-10.52846765582419
 30
0.0
 11
-0.3206029263126489
 21
-14.57569990742418
 31
0.0
  0
LINE
  5
2600
330
1F
100
AcDbEntity
  8
Layer1
  6
BORDER
100
AcDbLine
 10
-5.570602926312649
 20
-9.84429257162418
 30
0.0
 11
-5.570602926312649
 21
-15.25987499152419
 31
0.0
  0
LINE
  5
2601
330
1F
100
AcDbEntity
  8
Layer1
100
AcDbLine
 10
-14.82082759351265
 20
-12.55208378162419
 30
0.0
 11
-26.82082759351265
 21
-12.55208378162419
 31
0.0
  0
LINE
  5
2602
330
1F
100
AcDbEntity
  8
Layer1
100
AcDbLine
 10
-14.82082759351265
 20
-8.769227904324183
 30
0.0
 11
-26.82082759351265
 21
-8.769227904324183
 31
0.0
  0
LINE
  5
2603
330
1F
100
AcDbEntity
  8
Layer1
100
AcDbLine
 10
-14.82082759351265
 20
-5.176060216624194
 30
0.0
 11
-26.82082759351265
 21
-5.176060216624194
 31
0.0
  0
LINE
  5
2604
330
1F
100
AcDbEntity
  8
Layer1
100
AcDbLine
 10
-14.82082759351265
 20
-1.952757150024183
 30
0.0
 11
-26.82082759351265
 21
-1.952757150024183
 31
0.0
  0
LINE
  5
2605
330
1F
100
AcDbEntity
  8
Layer1
100
AcDbLine
 10
-14.82082759351265
 20
0.7390514203758158
 30
0.0
 11
-26.82082759351265
 21
0.7390514203758158
 31
0.0
  0
LINE
  5
2606
330
1F
100
AcDbEntity
  8
Layer1
100
AcDbLine
 10
-14.82082759351265
 20
2.76438697277581
 30
0.0
 11
-26.82082759351265
 21
2.76438697277581
 31
0.0
  0
LINE
  5
2607
330
1F
100
AcDbEntity
  8
Layer1
100
AcDbLine
 10
31.43139707368735
 20
1.297916218375818
 30
0.0
 11
31.43139707368735
 21
-26.40208378162419
 31
0.0
  0
LINE
  5
2608
330
1F
100
AcDbEntity
  8
Layer1
100
AcDbLine
 10
27.43139707368735
 20
1.297916218375818
 30
0.0
 11
27.43139707368735
 21
-26.40208378162419
 31
0.0
  0
LINE
  5
2609
330
1F
100
AcDbEntity
  8
Layer1
100
AcDbLine
 10
33.93139707368735
 20
1.297916218375818
 30
0.0
 11
33.93139707368735
 21
-26.40208378162419
 31
0.0
  0
LINE
  5
260A
330
1F
100
AcDbEntity
  8
Layer1
100
AcDbLine
 10
32.68139707368735
 20
0.0479162183758177
 30
0.0
 11
32.68139707368735
 21
-25.15208378162419
 31
0.0
  0
LINE
  5
260B
330
1F
100
AcDbEntity
  8
Layer1
  6
BORDER
100
AcDbLine
 10
27.68139707368735
 20
-29.05208378162419
 30
0.0
 11
27.68139707368735
 21
3.947916218375809
 31
0.0
  0
LINE
  5
260C
330
1F
100
AcDbEntity
  8
Layer1
  6
BORDER
100
AcDbLine
 10
32.68139707368735
 20
-29.05208378162419
 30
0.0
 11
32.68139707368735
 21
3.947916218375809
 31
0.0
  0
LINE
  5
260D
330
1F
100
AcDbEntity
  8
Layer1
100
AcDbLine
 10
27.68139707368735
 20
1.047916218375818
 30
0.0
 11
27.68139707368735
 21
-26.15208378162419
 31
0.0
  0
LINE
  5
260E
330
1F
100
AcDbEntity
  8
Layer1
100
AcDbLine
 10
10.43139707368735
 20
1.697916218375809
 30
0.0
 11
10.43139707368735
 21
-26.80208378162419
 31
0.0
  0
LINE
  5
260F
330
1F
100
AcDbEntity
  8
Layer1
100
AcDbLine
 10
-3.070602926312649
 20
3.947916218375809
 30
0.0
 11
-3.070602926312649
 21
-29.05208378162419
 31
0.0
  0
LINE
  5
2610
330
1F
100
AcDbEntity
  8
Layer1
100
AcDbLine
 10
-14.82082759351265
 20
4.021690725475807
 30
0.0
 11
-26.82082759351265
 21
4.021690725475807
 31
0.0
  0
LINE
  5
2611
330
1F
100
AcDbEntity
  8
Layer1
100
AcDbLine
 10
-14.82082759351265
 20
-16.33493965882418
 30
0.0
 11
-26.82082759351265
 21
-16.33493965882418
 31
0.0
  0
LINE
  5
2612
330
1F
100
AcDbEntity
  8
Layer1
100
AcDbLine
 10
1.929397073687351
 20
-12.55208378162419
 30
0.0
 11
-2.570602926312649
 21
-12.55208378162419
 31
0.0
  0
LINE
  5
2613
330
1F
100
AcDbEntity
  8
Layer1
100
AcDbLine
 10
1.929397073687351
 20
-16.33493965882418
 30
0.0
 11
-2.570602926312649
 21
-16.33493965882418
 31
0.0
  0
LINE
  5
2614
330
1F
100
AcDbEntity
  8
Layer1
100
AcDbLine
 10
1.929397073687351
 20
-8.769227904324183
 30
0.0
 11
-2.570602926312649
 21
-8.769227904324183
 31
0.0
  0
LINE
  5
2615
330
1F
100
AcDbEntity
  8
Layer1
100
AcDbLine
 10
2.429397073687351
 20
3.947916218375809
 30
0.0
 11
2.429397073687351
 21
-29.05208378162419
 31
0.0
  0
LINE
  5
2616
330
1F
100
AcDbEntity
  8
Layer1
100
AcDbLine
 10
9.431397073687346
 20
2.697916218375809
 30
0.0
 11
9.431397073687346
 21
-27.80208378162419
 31
0.0
  0
LINE
  5
2617
330
1F
100
AcDbEntity
  8
Layer1
100
AcDbLine
 10
1.929397073687351
 20
4.447916218375809
 30
0.0
 11
-2.570602926312649
 21
4.447916218375809
 31
0.0
  0
LINE
  5
2618
330
1F
100
AcDbEntity
  8
Layer1
100
AcDbLine
 10
1.929397073687351
 20
4.447916218375809
 30
0.0
 11
2.429397073687351
 21
3.947916218375809
 31
0.0
  0
LINE
  5
2619
330
1F
100
AcDbEntity
  8
Layer1
100
AcDbLine
 10
-2.570602926312649
 20
4.447916218375809
 30
0.0
 11
-2.570602926312649
 21
-29.55208378162419
 31
0.0
  0
LINE
  5
261A
330
1F
100
AcDbEntity
  8
Layer1
100
AcDbLine
 10
1.929397073687351
 20
4.447916218375809
 30
0.0
 11
1.929397073687351
 21
-29.55208378162419
 31
0.0
  0
LINE
  5
261B
330
1F
100
AcDbEntity
  8
Layer1
100
AcDbLine
 10
-8.070602926312649
 20
3.697916218375809
 30
0.0
 11
-8.070602926312649
 21
-28.80208378162419
 31
0.0
  0
LINE
  5
261C
330
1F
100
AcDbEntity
  8
Layer1
100
AcDbLine
 10
-3.070602926312649
 20
-28.80208378162419
 30
0.0
 11
-8.070602926312649
 21
-28.80208378162419
 31
0.0
  0
LINE
  5
261D
330
1F
100
AcDbEntity
  8
Layer1
100
AcDbLine
 10
-8.57082759351265
 20
3.697916218375809
 30
0.0
 11
-8.57082759351265
 21
-28.80208378162419
 31
0.0
  0
LINE
  5
261E
330
1F
100
AcDbEntity
  8
Layer1
  6
BORDER
100
AcDbLine
 10
-8.070602926312649
 20
2.447916218375809
 30
0.0
 11
-8.57082759351265
 21
2.447916218375809
 31
0.0
  0
LINE
  5
261F
330
1F
100
AcDbEntity
  8
Layer1
100
AcDbLine
 10
-27.57082759351265
 20
3.697916218375809
 30
0.0
 11
-27.57082759351265
 21
-28.80208378162419
 31
0.0
  0
LINE
  5
2620
330
1F
100
AcDbEntity
  8
Layer1
100
AcDbLine
 10
27.93139707368735
 20
1.297916218375818
 30
0.0
 11
27.93139707368735
 21
-26.40208378162419
 31
0.0
  0
LINE
  5
2621
330
1F
100
AcDbEntity
  8
Layer1
100
AcDbLine
 10
-2.570602926312649
 20
4.447916218375809
 30
0.0
 11
-3.070602926312649
 21
3.947916218375809
 31
0.0
  0
LINE
  5
2622
330
1F
100
AcDbEntity
  8
Layer1
100
AcDbLine
 10
9.431397073687346
 20
2.697916218375809
 30
0.0
 11
10.43139707368735
 21
1.697916218375809
 31
0.0
  0
LINE
  5
2623
330
1F
100
AcDbEntity
  8
Layer1
100
AcDbLine
 10
27.93139707368735
 20
1.297916218375818
 30
0.0
 11
27.68139707368735
 21
1.047916218375818
 31
0.0
  0
LINE
  5
2624
330
1F
100
AcDbEntity
  8
Layer1
100
AcDbLine
 10
32.68139707368735
 20
0.0479162183758177
 30
0.0
 11
33.93139707368735
 21
1.297916218375818
 31
0.0
  0
LINE
  5
2625
330
1F
100
AcDbEntity
  8
Layer1
100
AcDbLine
 10
32.68139707368735
 20
0.0479162183758177
 30
0.0
 11
31.43139707368735
 21
1.297916218375818
 31
0.0
  0
LINE
  5
2626
330
1F
100
AcDbEntity
  8
Layer1
100
AcDbLine
 10
31.43139707368735
 20
1.297916218375818
 30
0.0
 11
27.93139707368735
 21
1.297916218375818
 31
0.0
  0
LINE
  5
2627
330
1F
100
AcDbEntity
  8
Layer1
100
AcDbLine
 10
27.43139707368735
 20
1.297916218375818
 30
0.0
 11
27.68139707368735
 21
1.047916218375818
 31
0.0
  0
LINE
  5
2628
330
1F
100
AcDbEntity
  8
Layer1
100
AcDbLine
 10
-14.07082759351265
 20
3.697916218375809
 30
0.0
 11
-14.82082759351265
 21
4.447916218375809
 31
0.0
  0
LINE
  5
2629
330
1F
100
AcDbEntity
  8
Layer1
100
AcDbLine
 10
-14.07082759351265
 20
3.697916218375809
 30
0.0
 11
-8.57082759351265
 21
3.697916218375809
 31
0.0
  0
LINE
  5
262A
330
1F
100
AcDbEntity
  8
Layer1
100
AcDbLine
 10
2.429397073687351
 20
2.697916218375809
 30
0.0
 11
9.431397073687346
 21
2.697916218375809
 31
0.0
  0
LINE
  5
262B
330
1F
100
AcDbEntity
  8
Layer1
100
AcDbLine
 10
-14.82082759351265
 20
4.447916218375809
 30
0.0
 11
-26.82082759351265
 21
4.447916218375809
 31
0.0
  0
LINE
  5
262C
330
1F
100
AcDbEntity
  8
Layer1
100
AcDbLine
 10
-26.82082759351265
 20
4.447916218375809
 30
0.0
 11
-27.57082759351265
 21
3.697916218375809
 31
0.0
  0
CIRCLE
  5
262D
330
1F
100
AcDbEntity
  8
Layer1
100
AcDbCircle
 10
-0.3206029263126489
 20
-12.55208378162419
 30
0.0
 40
0.7999999999999972
  0
LINE
  5
262E
330
1F
100
AcDbEntity
  8
Layer1
100
AcDbLine
 10
-2.570602926312649
 20
-29.55208378162419
 30
0.0
 11
1.929397073687351
 21
-29.55208378162419
 31
0.0
  0
LINE
  5
262F
330
1F
100
AcDbEntity
  8
Layer1
100
AcDbLine
 10
2.429397073687351
 20
-27.80208378162419
 30
0.0
 11
9.431397073687346
 21
-27.80208378162419
 31
0.0
  0
LINE
  5
2630
330
1F
100
AcDbEntity
  8
Layer1
100
AcDbLine
 10
27.43139707368735
 20
-26.40208378162419
 30
0.0
 11
27.68139707368735
 21
-26.15208378162419
 31
0.0
  0
LINE
  5
2631
330
1F
100
AcDbEntity
  8
Layer1
100
AcDbLine
 10
32.68139707368735
 20
-25.15208378162419
 30
0.0
 11
31.43139707368735
 21
-26.40208378162419
 31
0.0
  0
LINE
  5
2632
330
1F
100
AcDbEntity
  8
Layer1
100
AcDbLine
 10
31.43139707368735
 20
-26.40208378162419
 30
0.0
 11
27.93139707368735
 21
-26.40208378162419
 31
0.0
  0
LINE
  5
2633
330
1F
100
AcDbEntity
  8
Layer1
100
AcDbLine
 10
27.93139707368735
 20
-26.40208378162419
 30
0.0
 11
27.68139707368735
 21
-26.15208378162419
 31
0.0
  0
LINE
  5
2634
330
1F
100
AcDbEntity
  8
Layer1
100
AcDbLine
 10
27.43139707368735
 20
1.297916218375818
 30
0.0
 11
10.43139707368735
 21
1.297916218375818
 31
0.0
  0
LINE
  5
2635
330
1F
100
AcDbEntity
  8
Layer1
100
AcDbLine
 10
-3.070602926312649
 20
3.697916218375809
 30
0.0
 11
-8.070602926312649
 21
3.697916218375809
 31
0.0
  0
LINE
  5
2636
330
1F
100
AcDbEntity
  8
Layer1
100
AcDbLine
 10
32.68139707368735
 20
-25.15208378162419
 30
0.0
 11
33.93139707368735
 21
-26.40208378162419
 31
0.0
  0
LINE
  5
2637
330
1F
100
AcDbEntity
  8
Layer1
100
AcDbLine
 10
-14.82082759351265
 20
-29.12585828872419
 30
0.0
 11
-26.82082759351265
 21
-29.12585828872419
 31
0.0
  0
LINE
  5
2638
330
1F
100
AcDbEntity
  8
Layer1
100
AcDbLine
 10
-14.82082759351265
 20
-27.86855453592419
 30
0.0
 11
-26.82082759351265
 21
-27.86855453592419
 31
0.0
  0
LINE
  5
2639
330
1F
100
AcDbEntity
  8
Layer1
100
AcDbLine
 10
-14.82082759351265
 20
-25.84321898352419
 30
0.0
 11
-26.82082759351265
 21
-25.84321898352419
 31
0.0
  0
LINE
  5
263A
330
1F
100
AcDbEntity
  8
Layer1
100
AcDbLine
 10
-14.82082759351265
 20
-23.15141041322418
 30
0.0
 11
-26.82082759351265
 21
-23.15141041322418
 31
0.0
  0
LINE
  5
263B
330
1F
100
AcDbEntity
  8
Layer1
100
AcDbLine
 10
-14.82082759351265
 20
-19.92810734662419
 30
0.0
 11
-26.82082759351265
 21
-19.92810734662419
 31
0.0
  0
LINE
  5
263C
330
1F
100
AcDbEntity
  8
Layer1
100
AcDbLine
 10
-26.82082759351265
 20
-29.55208378162419
 30
0.0
 11
-27.57082759351265
 21
-28.80208378162419
 31
0.0
  0
LINE
  5
263D
330
1F
100
AcDbEntity
  8
Layer1
100
AcDbLine
 10
-14.82082759351265
 20
-29.55208378162419
 30
0.0
 11
-26.82082759351265
 21
-29.55208378162419
 31
0.0
  0
LINE
  5
263E
330
1F
100
AcDbEntity
  8
Layer1
100
AcDbLine
 10
27.43139707368735
 20
-26.40208378162419
 30
0.0
 11
10.43139707368735
 21
-26.40208378162419
 31
0.0
  0
LINE
  5
263F
330
1F
100
AcDbEntity
  8
Layer1
100
AcDbLine
 10
-14.07082759351265
 20
-28.80208378162419
 30
0.0
 11
-8.57082759351265
 21
-28.80208378162419
 31
0.0
  0
LINE
  5
2640
330
1F
100
AcDbEntity
  8
Layer1
  6
BORDER
100
AcDbLine
 10
-8.070602926312649
 20
-27.55208378162419
 30
0.0
 11
-8.57082759351265
 21
-27.55208378162419
 31
0.0
  0
LINE
  5
2641
330
1F
100
AcDbEntity
  8
Layer1
100
AcDbLine
 10
-14.07082759351265
 20
-28.80208378162419
 30
0.0
 11
-14.82082759351265
 21
-29.55208378162419
 31
0.0
  0
LINE
  5
2642
330
1F
100
AcDbEntity
  8
Layer1
100
AcDbLine
 10
1.929397073687351
 20
-29.12585828872419
 30
0.0
 11
-2.570602926312649
 21
-29.12585828872419
 31
0.0
  0
LINE
  5
2643
330
1F
100
AcDbEntity
  8
Layer1
100
AcDbLine
 10
1.929397073687351
 20
-27.86855453592419
 30
0.0
 11
-2.570602926312649
 21
-27.86855453592419
 31
0.0
  0
LINE
  5
2644
330
1F
100
AcDbEntity
  8
Layer1
100
AcDbLine
 10
1.929397073687351
 20
-25.84321898352419
 30
0.0
 11
-2.570602926312649
 21
-25.84321898352419
 31
0.0
  0
LINE
  5
2645
330
1F
100
AcDbEntity
  8
Layer1
100
AcDbLine
 10
1.929397073687351
 20
-23.15141041322418
 30
0.0
 11
-2.570602926312649
 21
-23.15141041322418
 31
0.0
  0
LINE
  5
2646
330
1F
100
AcDbEntity
  8
Layer1
100
AcDbLine
 10
1.929397073687351
 20
-19.92810734662419
 30
0.0
 11
-2.570602926312649
 21
-19.92810734662419
 31
0.0
  0
LINE
  5
2647
330
1F
100
AcDbEntity
  8
Layer1
100
AcDbLine
 10
120.9913970736873
 20
2.797916218375818
 30
0.0
 11
120.9913970736873
 21
1.297916218375818
 31
0.0
  0
LINE
  5
2648
330
1F
100
AcDbEntity
  8
Layer1
100
AcDbLine
 10
123.1184480567874
 20
7.297916218375818
 30
0.0
 11
123.1184480567874
 21
3.297916218375818
 31
0.0
  0
LINE
  5
2649
330
1F
100
AcDbEntity
  8
Layer1
100
AcDbLine
 10
121.2643460905874
 20
7.297916218375818
 30
0.0
 11
121.2643460905874
 21
3.297916218375818
 31
0.0
  0
LINE
  5
264A
330
1F
100
AcDbEntity
  8
Layer1
100
AcDbLine
 10
120.4280413167873
 20
7.297916218375818
 30
0.0
 11
120.4280413167873
 21
3.297916218375818
 31
0.0
  0
LINE
  5
264B
330
1F
100
AcDbEntity
  8
Layer1
100
AcDbLine
 10
119.6913970736874
 20
7.797916218375818
 30
0.0
 11
124.6913970736874
 21
7.797916218375818
 31
0.0
  0
LINE
  5
264C
330
1F
100
AcDbEntity
  8
Layer1
100
AcDbLine
 10
119.6913970736874
 20
7.797916218375818
 30
0.0
 11
119.1913970736874
 21
7.297916218375818
 31
0.0
  0
LINE
  5
264D
330
1F
100
AcDbEntity
  8
Layer1
100
AcDbLine
 10
147.5732857546318
 20
-41.86196659122419
 30
0.0
 11
126.6267901713318
 21
-41.86196659122419
 31
0.0
  0
MTEXT
  5
264E
330
1F
100
AcDbEntity
  8
Layer1
100
AcDbMText
 10
140.9273915868429
 20
-37.78839214890196
 30
0.0
 40
2.998611021000002
 41
39.6655723552
 71
     1
 72
     1
  1
\W0.8;\f平成角ゴシック;\W1.0;山
 73
     1
 44
1.0
  0
MTEXT
  5
264F
330
1F
100
AcDbEntity
  8
Layer1
100
AcDbMText
 10
120.3015197589207
 20
-38.0026039316353
 30
0.0
 40
2.698749959499999
 41
28.07410879630001
 71
     1
 72
     1
  1
\W0.8;\fGeneva;\W1.0;M25.4X32
 73
     1
 44
1.0
  0
DIMENSION
  5
2650
330
1F
100
AcDbEntity
  8
Dimension
100
AcDbDimension
  2
*D80
 10
135.1913970736874
 20
15.19018954907581
 30
0.0
 11
137.1913970736874
 21
15.19018954907581
 31
0.0
 70
    32
  1
<>
 71
     0
 72
     0
 41
0.0
 42
-1.0
  3
VELDIM0
100
AcDbAlignedDimension
 13
139.1913970736874
 23
-0.4520837816241823
 33
0.0
 14
135.1913970736874
 24
1.447916218375809
 34
0.0
100
AcDbRotatedDimension
  0
LINE
  5
265D
330
1F
100
AcDbEntity
  8
Layer1
100
AcDbLine
 10
149.1818631677874
 20
-9.016549875624193
 30
0.0
 11
156.2529309795873
 21
-16.08761768752419
 31
0.0
  0
LINE
  5
265E
330
1F
100
AcDbEntity
  8
Layer1
100
AcDbLine
 10
149.1818631677874
 20
-16.08761768752419
 30
0.0
 11
156.2529309795873
 21
-9.016549875624193
 31
0.0
  0
LINE
  5
265F
330
1F
100
AcDbEntity
  8
Layer1
100
AcDbLine
 10
138.5913970736873
 20
0.147916218375812
 30
0.0
 11
136.1913970736874
 21
0.147916218375812
 31
0.0
  0
LINE
  5
2660
330
1F
100
AcDbEntity
  8
Layer1
100
AcDbLine
 10
138.9913970736874
 20
-0.2520837816241936
 30
0.0
 11
136.1913970736874
 21
-0.2520837816241936
 31
0.0
  0
LINE
  5
2661
330
1F
100
AcDbEntity
  8
Layer1
100
AcDbLine
 10
139.1913970736874
 20
-0.4520837816241823
 30
0.0
 11
138.5913970736873
 21
0.147916218375812
 31
0.0
  0
LINE
  5
2662
330
1F
100
AcDbEntity
  8
Layer1
100
AcDbLine
 10
136.1913970736874
 20
-0.5520837816241908
 30
0.0
 11
135.1913970736874
 21
-0.5520837816241908
 31
0.0
  0
LINE
  5
2663
330
1F
100
AcDbEntity
  8
Layer1
100
AcDbLine
 10
134.1913970736874
 20
2.447916218375809
 30
0.0
 11
126.1913970736874
 21
2.447916218375809
 31
0.0
  0
LINE
  5
2664
330
1F
100
AcDbEntity
  8
Layer1
100
AcDbLine
 10
134.1913970736874
 20
-1.061417134824183
 30
0.0
 11
126.1913970736874
 21
-1.061417134824183
 31
0.0
  0
LINE
  5
2665
330
1F
100
AcDbEntity
  8
Layer1
100
AcDbLine
 10
134.1913970736874
 20
-27.55208378162419
 30
0.0
 11
134.1913970736874
 21
2.447916218375809
 31
0.0
  0
LINE
  5
2666
330
1F
100
AcDbEntity
  8
Layer1
100
AcDbLine
 10
126.1913970736874
 20
-27.55208378162419
 30
0.0
 11
126.1913970736874
 21
2.447916218375809
 31
0.0
  0
LINE
  5
2667
330
1F
100
AcDbEntity
  8
Layer1
100
AcDbLine
 10
122.1913972059873
 20
-17.85296582492418
 30
0.0
 11
122.1913970736874
 21
-19.85296582492418
 31
0.0
  0
LINE
  5
2668
330
1F
100
AcDbEntity
  8
Layer1
100
AcDbLine
 10
137.3913970736874
 20
-25.25208378162419
 30
0.0
 11
147.7178602504179
 21
-41.84026083415827
 31
0.0
  0
LINE
  5
2669
330
1F
100
AcDbEntity
  8
Layer1
100
AcDbLine
 10
137.3913970736874
 20
-25.25208378162419
 30
0.0
 11
139.0149914619874
 21
-26.72377940482419
 31
0.0
  0
LINE
  5
266A
330
1F
100
AcDbEntity
  8
Layer1
100
AcDbLine
 10
137.3913970736874
 20
-25.25208378162419
 30
0.0
 11
138.0616232477874
 21
-27.33840677202419
 31
0.0
  0
LINE
  5
266B
330
1F
100
AcDbEntity
  8
Layer1
100
AcDbLine
 10
10.43139707368735
 20
-26.80208378162419
 30
0.0
 11
9.431397073687346
 21
-27.80208378162419
 31
0.0
  0
LINE
  5
266C
330
1F
100
AcDbEntity
  8
Layer1
100
AcDbLine
 10
-3.070602926312649
 20
-29.05208378162419
 30
0.0
 11
-2.570602926312649
 21
-29.55208378162419
 31
0.0
  0
LINE
  5
266D
330
1F
100
AcDbEntity
  8
Layer1
100
AcDbLine
 10
1.929397073687351
 20
-29.55208378162419
 30
0.0
 11
2.429397073687351
 21
-29.05208378162419
 31
0.0
  0
LINE
  5
266E
330
1F
100
AcDbEntity
  8
Layer1
100
AcDbLine
 10
120.6913970736874
 20
2.797916218375818
 30
0.0
 11
120.6913970736874
 21
1.297916218375818
 31
0.0
  0
LINE
  5
266F
330
1F
100
AcDbEntity
  8
Layer1
100
AcDbLine
 10
124.6913970736874
 20
2.797916218375818
 30
0.0
 11
119.6913970736874
 21
2.797916218375818
 31
0.0
  0
LINE
  5
2670
330
1F
100
AcDbEntity
  8
Layer1
100
AcDbLine
 10
125.1913970736874
 20
3.297916218375818
 30
0.0
 11
119.1913970736874
 21
3.297916218375818
 31
0.0
  0
LINE
  5
2671
330
1F
100
AcDbEntity
  8
Layer1
100
AcDbLine
 10
123.6913970736874
 20
2.797916218375818
 30
0.0
 11
123.6913970736874
 21
1.297916218375818
 31
0.0
  0
LINE
  5
2672
330
1F
100
AcDbEntity
  8
Layer1
100
AcDbLine
 10
125.1913970736874
 20
7.297916218375818
 30
0.0
 11
125.1913970736874
 21
3.297916218375818
 31
0.0
  0
LINE
  5
2673
330
1F
100
AcDbEntity
  8
Layer1
100
AcDbLine
 10
134.1913970736874
 20
-27.32420007672419
 30
0.0
 11
126.1913970736874
 21
-27.32420007672419
 31
0.0
  0
LINE
  5
2674
330
1F
100
AcDbEntity
  8
Layer1
100
AcDbLine
 10
134.1913970736874
 20
2.220032513575816
 30
0.0
 11
126.1913970736874
 21
2.220032513575816
 31
0.0
  0
LINE
  5
2675
330
1F
100
AcDbEntity
  8
Layer1
100
AcDbLine
 10
134.1913970736874
 20
-9.947361116624194
 30
0.0
 11
126.1913970736874
 21
-9.947361116624194
 31
0.0
  0
LINE
  5
2676
330
1F
100
AcDbEntity
  8
Layer1
100
AcDbLine
 10
134.1913970736874
 20
-12.55208378162419
 30
0.0
 11
126.1913970736874
 21
-12.55208378162419
 31
0.0
  0
LINE
  5
2677
330
1F
100
AcDbEntity
  8
Layer1
100
AcDbLine
 10
134.1913970736874
 20
-2.910269636324188
 30
0.0
 11
126.1913970736874
 21
-2.910269636324188
 31
0.0
  0
LINE
  5
2678
330
1F
100
AcDbEntity
  8
Layer1
100
AcDbLine
 10
134.1913970736874
 20
-7.421781631724187
 30
0.0
 11
126.1913970736874
 21
-7.421781631724187
 31
0.0
  0
LINE
  5
2679
330
1F
100
AcDbEntity
  8
Layer1
100
AcDbLine
 10
134.1913970736874
 20
1.543305530175815
 30
0.0
 11
126.1913970736874
 21
1.543305530175815
 31
0.0
  0
LINE
  5
267A
330
1F
100
AcDbEntity
  8
Layer1
100
AcDbLine
 10
134.1913970736874
 20
0.4382972751758132
 30
0.0
 11
126.1913970736874
 21
0.4382972751758132
 31
0.0
  0
LINE
  5
267B
330
1F
100
AcDbEntity
  8
Layer1
100
AcDbLine
 10
125.1913970736874
 20
-26.40208378162419
 30
0.0
 11
33.93139707368735
 21
-26.40208378162419
 31
0.0
  0
LINE
  5
267C
330
1F
100
AcDbEntity
  8
Layer1
100
AcDbLine
 10
138.5913970736873
 20
-25.25208378162419
 30
0.0
 11
136.1913970736874
 21
-25.25208378162419
 31
0.0
  0
LINE
  5
267D
330
1F
100
AcDbEntity
  8
Layer1
100
AcDbLine
 10
139.1913970736874
 20
-24.65208378162419
 30
0.0
 11
138.5913970736873
 21
-25.25208378162419
 31
0.0
  0
LINE
  5
267E
330
1F
100
AcDbEntity
  8
Layer1
100
AcDbLine
 10
134.1913970736874
 20
-27.55208378162419
 30
0.0
 11
135.1913970736874
 21
-26.55208378162419
 31
0.0
  0
LINE
  5
267F
330
1F
100
AcDbEntity
  8
Layer1
100
AcDbLine
 10
136.1913970736874
 20
-24.55208378162419
 30
0.0
 11
135.1913970736874
 21
-24.55208378162419
 31
0.0
  0
ELLIPSE
  5
2680
330
1F
100
AcDbEntity
  8
Layer1
100
AcDbEllipse
 10
122.1913970736874
 20
-20.45104203632418
 30
0.0
 11
3.000000000000028
 21
-7.105427357601002E-14
 31
0.0
210
0.0
220
0.0
230
-1.0
 40
0.8660254038
 41
3.141592555304183
 42
6.28318549362356
  0
LINE
  5
2681
330
1F
100
AcDbEntity
  8
Layer1
100
AcDbLine
 10
119.1913970736874
 20
7.297916218375818
 30
0.0
 11
125.1913970736874
 21
7.297916218375818
 31
0.0
  0
LINE
  5
2682
330
1F
100
AcDbEntity
  8
Layer1
100
AcDbLine
 10
122.1913970736874
 20
7.297916218375818
 30
0.0
 11
122.1913970736874
 21
3.297916218375818
 31
0.0
  0
LINE
  5
2683
330
1F
100
AcDbEntity
  8
Layer1
  6
BORDER
100
AcDbLine
 10
122.1913970736874
 20
10.05212180057582
 30
0.0
 11
122.1913970736874
 21
-0.9562893637241814
 31
0.0
  0
LINE
  5
2684
330
1F
100
AcDbEntity
  8
Layer1
100
AcDbLine
 10
119.1913970736874
 20
3.297916218375818
 30
0.0
 11
119.6913970736874
 21
2.797916218375818
 31
0.0
  0
LINE
  5
2685
330
1F
100
AcDbEntity
  8
Layer1
100
AcDbLine
 10
125.1913970736874
 20
3.297916218375818
 30
0.0
 11
124.6913970736874
 21
2.797916218375818
 31
0.0
  0
LINE
  5
2686
330
1F
100
AcDbEntity
  8
Layer1
100
AcDbLine
 10
123.3913970736873
 20
2.797916218375818
 30
0.0
 11
123.3913970736873
 21
1.297916218375818
 31
0.0
  0
LINE
  5
2687
330
1F
100
AcDbEntity
  8
Layer1
100
AcDbLine
 10
120.9913970736873
 20
1.297916218375818
 30
0.0
 11
33.93139707368735
 21
1.297916218375818
 31
0.0
  0
LINE
  5
2688
330
1F
100
AcDbEntity
  8
Layer1
100
AcDbLine
 10
134.1913970736874
 20
-24.04275042832419
 30
0.0
 11
126.1913970736874
 21
-24.04275042832419
 31
0.0
  0
LINE
  5
2689
330
1F
100
AcDbEntity
  8
Layer1
100
AcDbLine
 10
134.1913970736874
 20
-25.54246483832419
 30
0.0
 11
126.1913970736874
 21
-25.54246483832419
 31
0.0
  0
LINE
  5
268A
330
1F
100
AcDbEntity
  8
Layer1
100
AcDbLine
 10
134.1913970736874
 20
-26.64747309342419
 30
0.0
 11
126.1913970736874
 21
-26.64747309342419
 31
0.0
  0
LINE
  5
268B
330
1F
100
AcDbEntity
  8
Layer1
100
AcDbLine
 10
134.1913970736874
 20
-15.15680644662419
 30
0.0
 11
126.1913970736874
 21
-15.15680644662419
 31
0.0
  0
LINE
  5
268C
330
1F
100
AcDbEntity
  8
Layer1
100
AcDbLine
 10
134.1913970736874
 20
-22.19389792692419
 30
0.0
 11
126.1913970736874
 21
-22.19389792692419
 31
0.0
  0
LINE
  5
268D
330
1F
100
AcDbEntity
  8
Layer1
100
AcDbLine
 10
134.1913970736874
 20
-17.68238593142419
 30
0.0
 11
126.1913970736874
 21
-17.68238593142419
 31
0.0
  0
LINE
  5
268E
330
1F
100
AcDbEntity
  8
Layer1
100
AcDbLine
 10
134.1913970736874
 20
-20.05208378162419
 30
0.0
 11
126.1913970736874
 21
-20.05208378162419
 31
0.0
  0
LINE
  5
268F
330
1F
100
AcDbEntity
  8
Layer1
100
AcDbLine
 10
134.1913970736874
 20
-5.052083781624191
 30
0.0
 11
126.1913970736874
 21
-5.052083781624191
 31
0.0
  0
LINE
  5
2690
330
1F
100
AcDbEntity
  8
Layer1
100
AcDbLine
 10
138.5913970736873
 20
-25.25208378162419
 30
0.0
 11
138.5913970736873
 21
0.147916218375812
 31
0.0
  0
LINE
  5
2691
330
1F
100
AcDbEntity
  8
Layer1
100
AcDbLine
 10
136.1913970736874
 20
0.147916218375812
 30
0.0
 11
136.1913970736874
 21
-25.25208378162419
 31
0.0
  0
LINE
  5
2692
330
1F
100
AcDbEntity
  8
Layer1
100
AcDbLine
 10
139.1913970736874
 20
-0.4520837816241823
 30
0.0
 11
139.1913970736874
 21
-24.65208378162419
 31
0.0
  0
LINE
  5
2693
330
1F
100
AcDbEntity
  8
Layer1
100
AcDbLine
 10
135.1913970736874
 20
1.447916218375809
 30
0.0
 11
135.1913970736874
 21
-26.55208378162419
 31
0.0
  0
LINE
  5
2694
330
1F
100
AcDbEntity
  8
Layer1
100
AcDbLine
 10
125.1913970736874
 20
1.447916218375809
 30
0.0
 11
125.1913970736874
 21
-26.55208378162419
 31
0.0
  0
DIMENSION
  5
2695
330
1F
100
AcDbEntity
  8
Dimension
100
AcDbDimension
  2
*D81
 10
135.1913970736874
 20
23.50876254717581
 30
0.0
 11
143.9543970736873
 21
25.94813752692581
 31
0.0
 70
    32
  1
FB=<>
 71
     0
 72
     0
 41
0.0
 42
-1.0
  3
VELDIM0
100
AcDbAlignedDimension
 13
152.7173970736874
 23
-12.55208378162419
 33
0.0
 14
135.1913970736874
 24
1.447916218375809
 34
0.0
100
AcDbRotatedDimension
1001
ACAD
1000
DSTYLE
1002
{
1070
   145
1040
1.0
1002
}
  0
DIMENSION
  5
26A2
330
1F
100
AcDbEntity
  8
Dimension
100
AcDbDimension
  2
*D82
 10
2.42939707368734
 20
15.19018954907581
 30
0.0
 11
68.81039707368734
 21
17.62956452882581
 31
0.0
 70
    32
  1
<>
 71
     0
 72
     0
 41
0.0
 42
-1.0
  3
VELDIM0
100
AcDbAlignedDimension
 13
135.1913970736874
 23
1.447916218375809
 33
0.0
 14
2.429397073687351
 24
3.947916218375809
 34
0.0
100
AcDbRotatedDimension
1001
ACAD
1000
DSTYLE
1002
{
1070
   145
1040
1.0
1002
}
  0
LINE
  5
26AF
330
1F
100
AcDbEntity
  8
Layer1
100
AcDbLine
 10
125.1913970736874
 20
-26.55208378162419
 30
0.0
 11
126.1913970736874
 21
-27.55208378162419
 31
0.0
  0
LINE
  5
26B0
330
1F
100
AcDbEntity
  8
Layer1
100
AcDbLine
 10
120.4280413167873
 20
-18.34915422862419
 30
0.0
 11
120.4280413167873
 21
-20.34915422862419
 31
0.0
  0
LINE
  5
26B1
330
1F
100
AcDbEntity
  8
Layer1
100
AcDbLine
 10
119.7643460905874
 20
7.297916218375818
 30
0.0
 11
119.7643460905874
 21
3.297916218375818
 31
0.0
  0
LINE
  5
26B2
330
1F
100
AcDbEntity
  8
Layer1
100
AcDbLine
 10
125.0445666225873
 20
7.297916218375818
 30
0.0
 11
125.0445666225873
 21
3.297916218375818
 31
0.0
  0
LINE
  5
26B3
330
1F
100
AcDbEntity
  8
Layer1
100
AcDbLine
 10
124.6184480567874
 20
7.297916218375818
 30
0.0
 11
124.6184480567874
 21
3.297916218375818
 31
0.0
  0
LINE
  5
26B4
330
1F
100
AcDbEntity
  8
Layer1
100
AcDbLine
 10
119.3382275247873
 20
7.297916218375818
 30
0.0
 11
119.3382275247873
 21
3.297916218375818
 31
0.0
  0
LINE
  5
26B5
330
1F
100
AcDbEntity
  8
Layer1
100
AcDbLine
 10
119.1913970736874
 20
3.297916218375818
 30
0.0
 11
119.1913970736874
 21
7.297916218375818
 31
0.0
  0
LINE
  5
26B6
330
1F
100
AcDbEntity
  8
Layer1
100
AcDbLine
 10
124.6913970736874
 20
7.797916218375818
 30
0.0
 11
125.1913970736874
 21
7.297916218375818
 31
0.0
  0
LINE
  5
26B7
330
1F
100
AcDbEntity
  8
Layer1
100
AcDbLine
 10
123.9547528305873
 20
7.297916218375818
 30
0.0
 11
123.9547528305873
 21
3.297916218375818
 31
0.0
  0
LINE
  5
26B8
330
1F
100
AcDbEntity
  8
Layer1
100
AcDbLine
 10
-92.88109672671266
 20
13.50876277927581
 30
0.0
 11
-99.09021469211265
 21
33.50876277927581
 31
0.0
  0
LINE
  5
26B9
330
1F
100
AcDbEntity
  8
Layer1
100
AcDbLine
 10
-102.1947736748127
 20
23.50876277927581
 30
0.0
 11
-99.09021469211265
 21
33.50876277927581
 31
0.0
  0
LINE
  5
26BA
330
1F
100
AcDbEntity
  8
Layer1
100
AcDbLine
 10
-109.156235365646
 20
-12.55208378162419
 30
0.0
 11
-109.156235365646
 21
24.86499890917581
 31
0.0
  0
LINE
  5
26BB
330
1F
100
AcDbEntity
  8
Layer1
100
AcDbLine
 10
-109.156235365646
 20
23.50876277927581
 30
0.0
 11
-102.1947736748127
 21
23.50876277927581
 31
0.0
  0
LINE
  5
26BC
330
1F
100
AcDbEntity
  8
Layer1
100
AcDbLine
 10
-109.156235365646
 20
23.50876277927581
 30
0.0
 11
-107.039568810246
 21
24.07592187337582
 31
0.0
  0
LINE
  5
26BD
330
1F
100
AcDbEntity
  8
Layer1
100
AcDbLine
 10
-109.156235365646
 20
23.50876277927581
 30
0.0
 11
-107.039568810246
 21
22.94160368507582
 31
0.0
  0
LINE
  5
26BE
330
1F
100
AcDbEntity
  8
Layer1
100
AcDbLine
 10
-110.5704489280341
 20
-13.96629734398229
 30
0.0
 11
-107.7420218033079
 21
-11.1378702192161
 31
0.0
  0
MTEXT
  5
26BF
330
1F
100
AcDbEntity
  8
Layer1
100
AcDbMText
 10
-105.5361854737793
 20
-31.50835309872418
 30
0.0
 40
2.698749959499999
 41
29.971875
 71
     1
 72
     1
  1
\W0.8;\fGeneva;\W1.0;M 22.5XP 0.5
 73
     1
 44
1.0
  0
LINE
  5
26C0
330
1F
100
AcDbEntity
  8
Dimension
100
AcDbLine
 10
-79.41497298721266
 20
-35.30093445279086
 30
0.0
 11
-101.8424940744127
 21
-35.30093445279086
 31
0.0
  0
MTEXT
  5
26C1
330
1F
100
AcDbEntity
  8
Layer1
100
AcDbMText
 10
-98.89673674677933
 20
-36.67410923189085
 30
0.0
 40
2.698749959499999
 41
28.2977926582
 71
     1
 72
     1
  1
\W0.8;\fGeneva;\W1.0;(\f平成角ゴシック;\W1.0;ﾌｨﾙﾀｰﾈｼﾞ\fGeneva;\W1.0;)
 73
     1
 44
1.0
  0
LINE
  5
26C2
330
1F
100
AcDbEntity
  8
Layer1
100
AcDbLine
 10
121.2643460905874
 20
-17.98012472562419
 30
0.0
 11
121.2643460905874
 21
-19.98012472562419
 31
0.0
  0
LINE
  5
26C3
330
1F
100
AcDbEntity
  8
Layer1
100
AcDbLine
 10
123.1184480567874
 20
-17.98012472562419
 30
0.0
 11
123.1184480567874
 21
-19.98012472562419
 31
0.0
  0
LINE
  5
26C4
330
1F
100
AcDbEntity
  8
Layer1
100
AcDbLine
 10
123.9547528305873
 20
-18.34915422862419
 30
0.0
 11
123.9547528305873
 21
-20.34915422862419
 31
0.0
  0
LINE
  5
26C5
330
1F
100
AcDbEntity
  8
Layer1
100
AcDbLine
 10
119.1913970736874
 20
-20.45104203632418
 30
0.0
 11
119.1913970736874
 21
-22.45104203632419
 31
0.0
  0
LINE
  5
26C6
330
1F
100
AcDbEntity
  8
Layer1
100
AcDbLine
 10
119.3382275247873
 20
-19.64819233432419
 30
0.0
 11
119.3382275247873
 21
-21.64819233432419
 31
0.0
  0
LINE
  5
26C7
330
1F
100
AcDbEntity
  8
Layer1
100
AcDbLine
 10
119.7643460905874
 20
-18.92393115492419
 30
0.0
 11
119.7643460905874
 21
-20.92393115492419
 31
0.0
  0
LINE
  5
26C8
330
1F
100
AcDbEntity
  8
Layer1
100
AcDbLine
 10
124.6184480567874
 20
-18.92393115492419
 30
0.0
 11
124.6184480567874
 21
-20.92393115492419
 31
0.0
  0
LINE
  5
26C9
330
1F
100
AcDbEntity
  8
Layer1
100
AcDbLine
 10
125.0445666225873
 20
-19.64819233432419
 30
0.0
 11
125.0445666225873
 21
-21.64819233432419
 31
0.0
  0
LINE
  5
26CA
330
1F
100
AcDbEntity
  8
Layer1
100
AcDbLine
 10
125.1913970736874
 20
-20.45104203632418
 30
0.0
 11
125.1913970736874
 21
-22.45104203632419
 31
0.0
  0
ELLIPSE
  5
26CB
330
1F
100
AcDbEntity
  8
Layer1
100
AcDbEllipse
 10
122.1913970736874
 20
-22.70104203632419
 30
0.0
 11
2.500000000000028
 21
-5.684341886080801E-14
 31
0.0
210
0.0
220
0.0
230
-1.0
 40
0.8660254038
 41
0.0
 42
6.283185307179586
  0
ELLIPSE
  5
26CC
330
1F
100
AcDbEntity
  8
Layer1
100
AcDbEllipse
 10
122.1913970736874
 20
-22.45104203632419
 30
0.0
 11
3.000000000000028
 21
-7.105427357601002E-14
 31
0.0
210
0.0
220
0.0
230
-1.0
 40
0.8660254038
 41
0.0
 42
6.283185307179586
  0
LINE
  5
26CD
330
1F
100
AcDbEntity
  8
Layer1
100
AcDbLine
 10
134.1913970736874
 20
-27.55208378162419
 30
0.0
 11
126.1913970736874
 21
-27.55208378162419
 31
0.0
  0
LINE
  5
26CE
330
1F
100
AcDbEntity
  8
Layer1
100
AcDbLine
 10
138.9913970736874
 20
-24.85208378162419
 30
0.0
 11
136.1913970736874
 21
-24.85208378162419
 31
0.0
  0
LINE
  5
26CF
330
1F
100
AcDbEntity
  8
Layer1
100
AcDbLine
 10
134.1913970736874
 20
2.447916218375809
 30
0.0
 11
135.1913970736874
 21
1.447916218375809
 31
0.0
  0
LINE
  5
26D0
330
1F
100
AcDbEntity
  8
Layer1
100
AcDbLine
 10
125.1913970736874
 20
1.447916218375809
 30
0.0
 11
126.1913970736874
 21
2.447916218375809
 31
0.0
  0
LINE
  5
26D1
330
1F
100
AcDbEntity
  8
Layer1
100
AcDbLine
 10
123.3913970736873
 20
1.297916218375818
 30
0.0
 11
120.9913970736873
 21
1.297916218375818
 31
0.0
  0
LINE
  5
26D2
330
1F
100
AcDbEntity
  8
Layer1
100
AcDbLine
 10
125.1913970736874
 20
1.297916218375818
 30
0.0
 11
123.3913970736873
 21
1.297916218375818
 31
0.0
  0
DIMENSION
  5
26D3
330
1F
100
AcDbEntity
  8
Dimension
100
AcDbDimension
  2
*D83
 10
-70.37060292631264
 20
23.50876254717581
 30
0.0
 11
32.41039707368735
 21
25.94813752692581
 31
0.0
 70
    32
  1
(<>)
 71
    15
 72
   143
 41
0.0
 42
-1.0
  3
VELDIM0
100
AcDbAlignedDimension
 13
135.1913970736874
 23
1.447916218375809
 33
0.0
 14
-70.37060292631266
 24
0.8479162183758149
 34
0.0
100
AcDbRotatedDimension
1001
ACAD
1000
DSTYLE
1002
{
1070
   145
1040
1.0
1002
}
  0
LINE
  5
26E0
330
1F
100
AcDbEntity
  8
Layer1
  6
BORDER
100
AcDbLine
 10
-89.77653774401266
 20
-12.55208378162419
 30
0.0
 11
152.7173970736874
 21
-12.55208378162419
 31
0.0
  0
LINE
  5
26E1
330
1F
100
AcDbEntity
  8
Layer1
100
AcDbLine
 10
-27.57082759351265
 20
-28.05208378162419
 30
0.0
 11
-57.57082759351265
 21
-28.05208378162419
 31
0.0
  0
LINE
  5
26E2
330
1F
100
AcDbEntity
  8
Layer1
100
AcDbLine
 10
-27.57082759351265
 20
2.947916218375809
 30
0.0
 11
-57.57082759351265
 21
2.947916218375809
 31
0.0
  0
MTEXT
  5
26E3
330
1F
100
AcDbEntity
  8
Layer1
100
AcDbMText
 10
-88.51902834261266
 20
28.35211595387581
 30
0.0
 40
2.698749959500006
 41
31.9780289106
 71
     1
 72
     1
  1
\W0.8;\fGeneva;\W1.0;W.D.=96
 73
     1
 44
1.0
  0
LINE
  5
26E4
330
1F
100
AcDbEntity
  8
Layer1
100
AcDbLine
 10
-68.37060292631266
 20
2.847916218375815
 30
0.0
 11
-70.37060292631266
 21
0.8479162183758149
 31
0.0
  0
LINE
  5
26E5
330
1F
100
AcDbEntity
  8
Layer1
100
AcDbLine
 10
-68.37060292631266
 20
2.847916218375815
 30
0.0
 11
-57.77060292631265
 21
2.847916218375815
 31
0.0
  0
LINE
  5
26E6
330
1F
100
AcDbEntity
  8
Layer1
100
AcDbLine
 10
-68.37060292631266
 20
-27.95208378162419
 30
0.0
 11
-57.77060292631265
 21
-27.95208378162419
 31
0.0
  0
LINE
  5
26E7
330
1F
100
AcDbEntity
  8
Layer1
100
AcDbLine
 10
-68.37060292631266
 20
-27.95208378162419
 30
0.0
 11
-70.37060292631266
 21
-25.95208378162419
 31
0.0
  0
LINE
  5
26E8
330
1F
100
AcDbEntity
  8
Layer1
100
AcDbLine
 10
-57.77060292631265
 20
-26.35208378162419
 30
0.0
 11
-57.57082759351265
 21
-26.35208378162419
 31
0.0
  0
LINE
  5
26E9
330
1F
100
AcDbEntity
  8
Layer1
100
AcDbLine
 10
-57.77060292631265
 20
2.847916218375815
 30
0.0
 11
-57.77060292631265
 21
-27.95208378162419
 31
0.0
  0
LINE
  5
26EA
330
1F
100
AcDbEntity
  8
Layer1
100
AcDbLine
 10
-57.77060292631265
 20
1.247916218375806
 30
0.0
 11
-57.57082759351265
 21
1.247916218375806
 31
0.0
  0
LINE
  5
26EB
330
1F
100
AcDbEntity
  8
Layer1
100
AcDbLine
 10
-70.37060292631266
 20
-25.95208378162419
 30
0.0
 11
-70.37060292631266
 21
0.8479162183758149
 31
0.0
  0
LINE
  5
26EC
330
1F
100
AcDbEntity
  8
Layer1
100
AcDbLine
 10
-68.37060292631266
 20
2.847916218375815
 30
0.0
 11
-68.37060292631266
 21
-27.95208378162419
 31
0.0
  0
LINE
  5
26ED
330
1F
100
AcDbEntity
  8
Layer1
100
AcDbLine
 10
-57.57082759351265
 20
2.947916218375809
 30
0.0
 11
-57.57082759351265
 21
-28.05208378162419
 31
0.0
  0
LINE
  5
26EE
330
1F
100
AcDbEntity
  8
Layer1
100
AcDbLine
 10
-89.77653774401266
 20
23.50876277927581
 30
0.0
 11
-70.37060292631266
 21
23.50876277927581
 31
0.0
  0
LINE
  5
26EF
330
1F
100
AcDbEntity
  8
Layer1
100
AcDbLine
 10
-70.37060292631266
 20
23.50876277927581
 30
0.0
 11
-72.48726948171266
 21
22.94160368507582
 31
0.0
  0
LINE
  5
26F0
330
1F
100
AcDbEntity
  8
Layer1
100
AcDbLine
 10
-70.37060292631266
 20
23.50876277927581
 30
0.0
 11
-72.48726948171266
 21
24.07592187337582
 31
0.0
  0
LINE
  5
26F1
330
1F
100
AcDbEntity
  8
Dimension
100
AcDbLine
 10
-70.37060292631266
 20
-12.55208378162419
 30
0.0
 11
-79.26265711069321
 21
-35.23700041749161
 31
0.0
  0
LINE
  5
26F2
330
1F
100
AcDbEntity
  8
Dimension
100
AcDbLine
 10
-70.37060292631266
 20
-12.55208378162419
 30
0.0
 11
-71.46412316211266
 21
-14.45107304922419
 31
0.0
  0
LINE
  5
26F3
330
1F
100
AcDbEntity
  8
Dimension
100
AcDbLine
 10
-70.37060292631266
 20
-12.55208378162419
 30
0.0
 11
-72.26711386391266
 21
-13.64989661092419
 31
0.0
  0
LINE
  5
2701
330
1F
100
AcDbEntity
  8
Layer1
100
AcDbLine
 10
-110.5704489279841
 20
-11.13787021921609
 30
0.0
 11
-107.7420218032579
 21
-13.96629734398228
 31
0.0
  0
LINE
  5
2702
330
1F
100
AcDbEntity
  8
Layer1
  6
BORDER
100
AcDbLine
 10
-109.156235365646
 20
-12.55208378162419
 30
0.0
 11
-102.1947736748127
 21
-12.55208378162419
 31
0.0
  0
LINE
  5
2703
330
1F
100
AcDbEntity
  8
Layer1
  6
BORDER
100
AcDbLine
 10
-102.1947736748127
 20
-12.55208378162419
 30
0.0
 11
-99.09021469211265
 21
-2.552083781624191
 31
0.0
  0
LINE
  5
2704
330
1F
100
AcDbEntity
  8
Layer1
  6
BORDER
100
AcDbLine
 10
-92.88109672671266
 20
-22.55208378162419
 30
0.0
 11
-99.09021469211265
 21
-2.552083781624191
 31
0.0
  0
LINE
  5
2705
330
1F
100
AcDbEntity
  8
Layer1
  6
BORDER
100
AcDbLine
 10
-92.88109672671266
 20
-22.55208378162419
 30
0.0
 11
-89.77653774401266
 21
-12.55208378162419
 31
0.0
  0
LINE
  5
2706
330
1F
100
AcDbEntity
  8
Layer1
100
AcDbLine
 10
-92.88109672671266
 20
13.50876277927581
 30
0.0
 11
-89.77653774401266
 21
23.50876277927581
 31
0.0
  0
POINT
  5
2783
330
1F
100
AcDbEntity
  8
Dimension
100
AcDbPoint
 10
-68.37060292631266
 20
2.847916218375815
 30
0.0
  0
POINT
  5
2784
330
1F
100
AcDbEntity
  8
Dimension
100
AcDbPoint
 10
-68.37060292631266
 20
-27.95208378162419
 30
0.0
  0
LINE
  5
2785
330
1F
100
AcDbEntity
  8
Dimension
370
    -2
100
AcDbLine
 10
-68.43310292631266
 20
2.847916218375815
 30
0.0
 11
-80.29213212751266
 21
2.847916218375815
 31
0.0
  0
LINE
  5
2786
330
1F
100
AcDbEntity
  8
Dimension
370
    -2
100
AcDbLine
 10
-68.43310292631266
 20
-27.95208378162419
 30
0.0
 11
-80.29213212751266
 21
-27.95208378162419
 31
0.0
  0
LINE
  5
2787
330
1F
100
AcDbEntity
  8
Dimension
370
    -2
100
AcDbLine
 10
-79.59213213941266
 20
0.8479162183758149
 30
0.0
 11
-79.59213213941266
 21
-25.95208378162419
 31
0.0
  0
SOLID
  5
2788
330
1F
100
AcDbEntity
  8
Dimension
100
AcDbTrace
 10
-79.59213213941266
 20
2.847916218375815
 30
0.0
 11
-79.92546547274605
 21
0.8479162183758149
 31
0.0
 12
-79.25879880607926
 22
0.8479162183758149
 32
0.0
 13
-79.25879880607926
 23
0.8479162183758149
 33
0.0
  0
SOLID
  5
2789
330
1F
100
AcDbEntity
  8
Dimension
100
AcDbTrace
 10
-79.59213213941266
 20
-27.95208378162419
 30
0.0
 11
-79.92546547274605
 21
-25.95208378162419
 31
0.0
 12
-79.25879880607926
 22
-25.95208378162419
 32
0.0
 13
-79.25879880607926
 23
-25.95208378162419
 33
0.0
  0
MTEXT
  5
278A
330
1F
100
AcDbEntity
  8
Dimension
100
AcDbMText
 10
-81.81619877735987
 20
-10.33996916749162
 30
0.0
 40
2.698749959500006
 41
0.0
 71
     5
 72
     1
  1
φ 30.8
 11
0.0
 21
1.0
 31
0.0
 73
     1
 44
1.0
  0
ENDSEC
  0
SECTION
  2
OBJECTS
  0
DICTIONARY
  5
C
330
0
100
AcDbDictionary
281
     1
  3
ACAD_COLOR
350
6C
  3
ACAD_GROUP
350
D
  3
ACAD_LAYOUT
350
1A
  3
ACAD_MATERIAL
350
6B
  3
ACAD_MLINESTYLE
350
17
  3
ACAD_PLOTSETTINGS
350
19
  3
ACAD_PLOTSTYLENAME
350
E
  3
ACAD_TABLESTYLE
350
92
  3
ACDBHEADERROUNDTRIPXREC
350
2978
  3
AcDbVariableDictionary
350
59
  3
DWGPROPS
350
297B
  0
DICTIONARY
  5
6C
102
{ACAD_REACTORS
330
C
102
}
330
C
100
AcDbDictionary
281
     1
  0
DICTIONARY
  5
D
102
{ACAD_REACTORS
330
C
102
}
330
C
100
AcDbDictionary
281
     1
  0
DICTIONARY
  5
1A
102
{ACAD_REACTORS
330
C
102
}
330
C
100
AcDbDictionary
281
     1
  3
Model
350
22
  3
ﾚｲｱｳﾄ1
350
1D
  0
DICTIONARY
  5
6B
102
{ACAD_REACTORS
330
C
102
}
330
C
100
AcDbDictionary
281
     1
  0
DICTIONARY
  5
17
102
{ACAD_REACTORS
330
C
102
}
330
C
100
AcDbDictionary
281
     1
  3
Standard
350
18
  0
DICTIONARY
  5
19
102
{ACAD_REACTORS
330
C
102
}
330
C
100
AcDbDictionary
281
     1
  0
ACDBDICTIONARYWDFLT
  5
E
102
{ACAD_REACTORS
330
C
102
}
330
C
100
AcDbDictionary
281
     1
  3
Normal
350
F
100
AcDbDictionaryWithDefault
340
F
  0
DICTIONARY
  5
92
102
{ACAD_REACTORS
330
C
102
}
330
C
100
AcDbDictionary
281
     1
  0
DICTIONARY
  5
2978
102
{ACAD_REACTORS
330
C
102
}
330
C
100
AcDbDictionary
281
     1
  3
COLORDICT
350
2979
  3
MATERIALDICT
350
297A
  0
DICTIONARY
  5
59
102
{ACAD_REACTORS
330
C
102
}
330
C
100
AcDbDictionary
281
     1
  3
CTABLESTYLE
350
98
  3
DIMASSOC
350
2977
  0
XRECORD
  5
297B
102
{ACAD_REACTORS
330
C
102
}
330
C
100
AcDbXrecord
280
     1
  1
DWGPROPS COOKIE
  2

  3

  4

  6

  7

  8
fottrem
  9

300
=
301
=
302
=
303
=
304
=
305
=
306
=
307
=
308
=
309
=
 40
0.0
 41
2453353.717125822
 42
2454580.122863299
  1

 90
        0
  0
LAYOUT
  5
22
102
{ACAD_REACTORS
330
1A
102
}
330
1A
100
AcDbPlotSettings
  1

  2
Brother HL-5040 series
  4
A4
  6

 40
5.027083396911621
 41
5.027085304260254
 42
5.027084350585938
 43
5.027069091796875
 44
209.9733276367188
 45
296.9259948730469
 46
0.0
 47
0.0
 48
169.772
 49
-137.1425
140
-132.4865
141
78.2586
142
0.0
143
0.0
 70
 11952
 72
     1
 73
     0
 74
     4
  7

 75
     0
147
0.951995999472482
148
130.1913299560547
149
135.0307464599609
100
AcDbLayout
  1
Model
 70
     1
 71
     0
 10
-130.1913299560547
 20
-135.0307464599609
 11
166.8086700439453
 21
74.96925354003906
 12
0.0
 22
0.0
 32
0.0
 14
-115.1913341940266
 24
-135.0307504174916
 34
0.0
 15
166.8086658059735
 25
65.46924958250838
 35
0.0
146
0.0
 13
0.0
 23
0.0
 33
0.0
 16
1.0
 26
0.0
 36
0.0
 17
0.0
 27
1.0
 37
0.0
 76
     0
330
1F
  0
LAYOUT
  5
1D
102
{ACAD_REACTORS
330
1A
102
}
330
1A
100
AcDbPlotSettings
  1

  2
\\NOBE\(Colour) EPSON PM-D750
  4

  6

 40
0.0
 41
0.0
 42
0.0
 43
0.0
 44
0.0
 45
0.0
 46
0.0
 47
0.0
 48
0.0
 49
0.0
140
0.0
141
0.0
142
1.0
143
1.0
 70
   688
 72
     0
 73
     0
 74
     5
  7

 75
    16
147
1.0
148
0.0
149
0.0
100
AcDbLayout
  1
ﾚｲｱｳﾄ1
 70
     1
 71
     1
 10
-130.1913299560547
 20
-135.0307464599609
 11
166.8086700439453
 21
74.96925354003906
 12
0.0
 22
0.0
 32
0.0
 14
1.000000000000000E+20
 24
1.000000000000000E+20
 34
1.000000000000000E+20
 15
-1.000000000000000E+20
 25
-1.000000000000000E+20
 35
-1.000000000000000E+20
146
0.0
 13
0.0
 23
0.0
 33
0.0
 16
1.0
 26
0.0
 36
0.0
 17
0.0
 27
1.0
 37
0.0
 76
     0
330
73
  0
MLINESTYLE
  5
18
102
{ACAD_REACTORS
330
17
102
}
330
17
100
AcDbMlineStyle
  2
Standard
 70
     0
  3

 62
   256
 51
90.0
 52
90.0
 71
     2
 49
0.5
 62
   256
  6
BYLAYER
 49
-0.5
 62
   256
  6
BYLAYER
  0
ACDBPLACEHOLDER
  5
F
102
{ACAD_REACTORS
330
E
102
}
330
E
  0
XRECORD
  5
2979
102
{ACAD_REACTORS
330
2978
102
}
330
2978
100
AcDbXrecord
280
     1
340
6C
  0
XRECORD
  5
297A
102
{ACAD_REACTORS
330
2978
102
}
330
2978
100
AcDbXrecord
280
     1
340
6B
  0
DICTIONARYVAR
  5
98
102
{ACAD_REACTORS
330
59
102
}
330
59
100
DictionaryVariables
280
     0
  1
STANDARD
  0
DICTIONARYVAR
  5
2977
102
{ACAD_REACTORS
330
59
102
}
330
59
100
DictionaryVariables
280
     0
  1
1
  0
ENDSEC
  0
EOF
