  0
SECTION
  2
HEADER
  9
$ACADVER
  1
AC1015
  9
$ACADMAINTVER
 70
    13
  9
$DWGCODEPAGE
  3
ANSI_932
  9
$INSBASE
 10
0.0
 20
0.0
 30
0.0
  9
$EXTMIN
 10
-352.2583508937
 20
-42.59849646746999
 30
0.0
  9
$EXTMAX
 10
64.58078363123199
 20
251.6368758729599
 30
0.0
  9
$LIMMIN
 10
-354.629
 20
-43.78333689299999
  9
$LIMMAX
 10
65.37099999999998
 20
253.2166631069999
  9
$ORTHOMODE
 70
     0
  9
$REGENMODE
 70
     1
  9
$FILLMODE
 70
     1
  9
$QTEXTMODE
 70
     0
  9
$MIRRTEXT
 70
     1
  9
$LTSCALE
 40
0.2
  9
$ATTMODE
 70
     1
  9
$TEXTSIZE
 40
3.2
  9
$TRACEWID
 40
1.0
  9
$TEXTSTYLE
  7
KCADTEXTSTANDARD
  9
$CLAYER
  8
0
  9
$CELTYPE
  6
CONTINUOUS
  9
$CECOLOR
 62
     5
  9
$CELTSCALE
 40
1.0
  9
$DISPSILH
 70
     0
  9
$DIMSCALE
 40
1.0
  9
$DIMASZ
 40
3.0
  9
$DIMEXO
 40
1.0
  9
$DIMDLI
 40
8.0
  9
$DIMRND
 40
0.0
  9
$DIMDLE
 40
0.0
  9
$DIMEXE
 40
1.0
  9
$DIMTP
 40
0.0
  9
$DIMTM
 40
0.0
  9
$DIMTXT
 40
3.2
  9
$DIMCEN
 40
2.5
  9
$DIMTSZ
 40
0.0
  9
$DIMTOL
 70
     0
  9
$DIMLIM
 70
     0
  9
$DIMTIH
 70
     0
  9
$DIMTOH
 70
     0
  9
$DIMSE1
 70
     0
  9
$DIMSE2
 70
     0
  9
$DIMTAD
 70
     1
  9
$DIMZIN
 70
     8
  9
$DIMBLK
  1

  9
$DIMASO
 70
     1
  9
$DIMSHO
 70
     1
  9
$DIMPOST
  1

  9
$DIMAPOST
  1

  9
$DIMALT
 70
     0
  9
$DIMALTD
 70
     2
  9
$DIMALTF
 40
25.4
  9
$DIMLFAC
 40
1.0
  9
$DIMTOFL
 70
     1
  9
$DIMTVP
 40
0.0
  9
$DIMTIX
 70
     0
  9
$DIMSOXD
 70
     0
  9
$DIMSAH
 70
     1
  9
$DIMBLK1
  1
KCAD_OPEN30
  9
$DIMBLK2
  1
KCAD_OPEN30
  9
$DIMSTYLE
  2
STANDARD
  9
$DIMCLRD
 70
     0
  9
$DIMCLRE
 70
     0
  9
$DIMCLRT
 70
     0
  9
$DIMTFAC
 40
0.667
  9
$DIMGAP
 40
0.5333000000000001
  9
$DIMJUST
 70
     0
  9
$DIMSD1
 70
     0
  9
$DIMSD2
 70
     0
  9
$DIMTOLJ
 70
     1
  9
$DIMTZIN
 70
     8
  9
$DIMALTZ
 70
     0
  9
$DIMALTTZ
 70
     0
  9
$DIMUPT
 70
     0
  9
$DIMDEC
 70
     3
  9
$DIMTDEC
 70
     3
  9
$DIMALTU
 70
     2
  9
$DIMALTTD
 70
     2
  9
$DIMTXSTY
  7
KCADDIMSTANDARD
  9
$DIMAUNIT
 70
     0
  9
$DIMADEC
 70
     3
  9
$DIMALTRND
 40
0.0
  9
$DIMAZIN
 70
     2
  9
$DIMDSEP
 70
    46
  9
$DIMATFIT
 70
     3
  9
$DIMFRAC
 70
     0
  9
$DIMLDRBLK
  1
KCAD_OPEN
  9
$DIMLUNIT
 70
     2
  9
$DIMLWD
 70
    -2
  9
$DIMLWE
 70
    -2
  9
$DIMTMOVE
 70
     0
  9
$LUNITS
 70
     2
  9
$LUPREC
 70
     4
  9
$SKETCHINC
 40
1.0
  9
$FILLETRAD
 40
5.0
  9
$AUNITS
 70
     0
  9
$AUPREC
 70
     0
  9
$MENU
  1
.
  9
$ELEVATION
 40
0.0
  9
$PELEVATION
 40
0.0
  9
$THICKNESS
 40
0.0
  9
$LIMCHECK
 70
     0
  9
$CHAMFERA
 40
5.0
  9
$CHAMFERB
 40
5.0
  9
$CHAMFERC
 40
5.0
  9
$CHAMFERD
 40
0.7853981633974483
  9
$SKPOLY
 70
     0
  9
$TDCREATE
 40
2453313.373268402
  9
$TDUCREATE
 40
2453312.998268402
  9
$TDUPDATE
 40
2453313.374233576
  9
$TDUUPDATE
 40
2453312.999233576
  9
$TDINDWG
 40
0.0009653472
  9
$TDUSRTIMER
 40
0.0009653472
  9
$USRTIMER
 70
     1
  9
$ANGBASE
 50
0.0
  9
$ANGDIR
 70
     0
  9
$PDMODE
 70
     0
  9
$PDSIZE
 40
0.0
  9
$PLINEWID
 40
0.0
  9
$SPLFRAME
 70
     0
  9
$SPLINETYPE
 70
     6
  9
$SPLINESEGS
 70
     8
  9
$HANDSEED
  5
9F4
  9
$SURFTAB1
 70
     6
  9
$SURFTAB2
 70
     6
  9
$SURFTYPE
 70
     6
  9
$SURFU
 70
     6
  9
$SURFV
 70
     6
  9
$UCSBASE
  2

  9
$UCSNAME
  2

  9
$UCSORG
 10
0.0
 20
0.0
 30
0.0
  9
$UCSXDIR
 10
1.0
 20
0.0
 30
0.0
  9
$UCSYDIR
 10
0.0
 20
1.0
 30
0.0
  9
$UCSORTHOREF
  2

  9
$UCSORTHOVIEW
 70
     0
  9
$UCSORGTOP
 10
0.0
 20
0.0
 30
0.0
  9
$UCSORGBOTTOM
 10
0.0
 20
0.0
 30
0.0
  9
$UCSORGLEFT
 10
0.0
 20
0.0
 30
0.0
  9
$UCSORGRIGHT
 10
0.0
 20
0.0
 30
0.0
  9
$UCSORGFRONT
 10
0.0
 20
0.0
 30
0.0
  9
$UCSORGBACK
 10
0.0
 20
0.0
 30
0.0
  9
$PUCSBASE
  2

  9
$PUCSNAME
  2

  9
$PUCSORG
 10
0.0
 20
0.0
 30
0.0
  9
$PUCSXDIR
 10
1.0
 20
0.0
 30
0.0
  9
$PUCSYDIR
 10
0.0
 20
1.0
 30
0.0
  9
$PUCSORTHOREF
  2

  9
$PUCSORTHOVIEW
 70
     0
  9
$PUCSORGTOP
 10
0.0
 20
0.0
 30
0.0
  9
$PUCSORGBOTTOM
 10
0.0
 20
0.0
 30
0.0
  9
$PUCSORGLEFT
 10
0.0
 20
0.0
 30
0.0
  9
$PUCSORGRIGHT
 10
0.0
 20
0.0
 30
0.0
  9
$PUCSORGFRONT
 10
0.0
 20
0.0
 30
0.0
  9
$PUCSORGBACK
 10
0.0
 20
0.0
 30
0.0
  9
$USERI1
 70
     0
  9
$USERI2
 70
     0
  9
$USERI3
 70
     0
  9
$USERI4
 70
   257
  9
$USERI5
 70
     0
  9
$USERR1
 40
0.0
  9
$USERR2
 40
0.0
  9
$USERR3
 40
0.0
  9
$USERR4
 40
0.0
  9
$USERR5
 40
0.0
  9
$WORLDVIEW
 70
     1
  9
$SHADEDGE
 70
     3
  9
$SHADEDIF
 70
    70
  9
$TILEMODE
 70
     1
  9
$MAXACTVP
 70
    48
  9
$PINSBASE
 10
0.0
 20
0.0
 30
0.0
  9
$PLIMCHECK
 70
     0
  9
$PEXTMIN
 10
0.0
 20
0.0
 30
0.0
  9
$PEXTMAX
 10
0.0
 20
0.0
 30
0.0
  9
$PLIMMIN
 10
0.0
 20
0.0
  9
$PLIMMAX
 10
12.0
 20
9.0
  9
$UNITMODE
 70
     0
  9
$VISRETAIN
 70
     1
  9
$PLINEGEN
 70
     0
  9
$PSLTSCALE
 70
     1
  9
$TREEDEPTH
 70
  3020
  9
$CMLSTYLE
  2
STANDARD
  9
$CMLJUST
 70
     0
  9
$CMLSCALE
 40
20.0
  9
$PROXYGRAPHICS
 70
     1
  9
$MEASUREMENT
 70
     1
  9
$CELWEIGHT
370
    50
  9
$ENDCAPS
280
     0
  9
$JOINSTYLE
280
     0
  9
$LWDISPLAY
290
     0
  9
$INSUNITS
 70
     0
  9
$HYPERLINKBASE
  1

  9
$STYLESHEET
  1

  9
$XEDIT
290
     1
  9
$CEPSNTYPE
380
     0
  9
$PSTYLEMODE
290
     1
  9
$FINGERPRINTGUID
  2
{1989D620-E742-11D2-9219-00105A146177}
  9
$VERSIONGUID
  2
{0A9482F3-ED88-4CDB-9E9D-C94A1D9D2FB8}
  9
$EXTNAMES
290
     1
  9
$PSVPSCALE
 40
0.0
  9
$OLESTARTUP
290
     0
  0
ENDSEC
  0
SECTION
  2
CLASSES
  0
CLASS
  1
ACDBDICTIONARYWDFLT
  2
AcDbDictionaryWithDefault
  3
AutoCAD 2000
 90
        0
280
     0
281
     0
  0
CLASS
  1
ACDBPLACEHOLDER
  2
AcDbPlaceHolder
  3
AutoCAD 2000
 90
        0
280
     0
281
     0
  0
CLASS
  1
LAYOUT
  2
AcDbLayout
  3
AutoCAD 2000
 90
        0
280
     0
281
     0
  0
CLASS
  1
DICTIONARYVAR
  2
AcDbDictionaryVar
  3
AutoCAD 2000
 90
        0
280
     0
281
     0
  0
ENDSEC
  0
SECTION
  2
TABLES
  0
TABLE
  2
VPORT
  5
8
330
0
100
AcDbSymbolTable
 70
     3
  0
VPORT
  5
9F3
330
8
100
AcDbSymbolTableRecord
100
AcDbViewportTableRecord
  2
*Active
 70
     0
 10
0.0
 20
0.0
 11
1.0
 21
1.0
 12
-128.9917677320906
 22
123.6346752015031
 13
0.0
 23
0.0
 14
10.0
 24
10.0
 15
10.0
 25
10.0
 16
0.0
 26
0.0
 36
1.0
 17
0.0
 27
0.0
 37
0.0
 40
297.354475227431
 41
2.2
 42
50.0
 43
0.0
 44
0.0
 50
0.0
 51
0.0
 71
     0
 72
 20000
 73
     1
 74
     1
 75
     0
 76
     0
 77
     0
 78
     0
281
     0
 65
     1
110
0.0
120
0.0
130
0.0
111
1.0
121
0.0
131
0.0
112
0.0
122
1.0
132
0.0
 79
     0
146
0.0
  0
ENDTAB
  0
TABLE
  2
LTYPE
  5
5
330
0
100
AcDbSymbolTable
 70
     6
  0
LTYPE
  5
12
330
5
100
AcDbSymbolTableRecord
100
AcDbLinetypeTableRecord
  2
BYBLOCK
 70
     0
  3

 72
    65
 73
     0
 40
0.0
  0
LTYPE
  5
13
330
5
100
AcDbSymbolTableRecord
100
AcDbLinetypeTableRecord
  2
BYLAYER
 70
     0
  3

 72
    65
 73
     0
 40
0.0
  0
LTYPE
  5
14
330
5
100
AcDbSymbolTableRecord
100
AcDbLinetypeTableRecord
  2
CONTINUOUS
 70
     0
  3
Solid line
 72
    65
 73
     0
 40
0.0
  0
LTYPE
  5
180
330
5
100
AcDbSymbolTableRecord
100
AcDbLinetypeTableRecord
  2
CENTER
 70
     0
  3
Center ____ _ ____ _ ____ _ ____ _ ____ _ ____
 72
    65
 73
     4
 40
50.8
 49
31.75
 74
     0
 49
-6.349999999999999
 74
     0
 49
6.349999999999999
 74
     0
 49
-6.349999999999999
 74
     0
  0
LTYPE
  5
181
330
5
100
AcDbSymbolTableRecord
100
AcDbLinetypeTableRecord
  2
DASHED
 70
     0
  3
Dashed __ __ __ __ __ __ __ __ __ __ __ __ __ _
 72
    65
 73
     2
 40
19.05
 49
12.7
 74
     0
 49
-6.349999999999999
 74
     0
  0
LTYPE
  5
182
330
5
100
AcDbSymbolTableRecord
100
AcDbLinetypeTableRecord
  2
HIDDEN
 70
     0
  3
Hidden __ __ __ __ __ __ __ __ __ __ __ __ __ _
 72
    65
 73
     2
 40
9.525
 49
6.349999999999999
 74
     0
 49
-3.174999999999999
 74
     0
  0
LTYPE
  5
183
330
5
100
AcDbSymbolTableRecord
100
AcDbLinetypeTableRecord
  2
PHANTOM
 70
     0
  3
Phantom ______  __  __  ______  __  __  ______
 72
    65
 73
     6
 40
63.5
 49
31.75
 74
     0
 49
-6.349999999999999
 74
     0
 49
6.349999999999999
 74
     0
 49
-6.349999999999999
 74
     0
 49
6.349999999999999
 74
     0
 49
-6.349999999999999
 74
     0
  0
LTYPE
  5
221
330
5
100
AcDbSymbolTableRecord
100
AcDbLinetypeTableRecord
  2
RUPTURE
 70
     0
  3
Rupture line
 72
    65
 73
     4
 40
45.72
 49
25.4
 74
     0
 49
-5.08
 74
     4
 75
   131
340
17F
 46
5.08
 50
0.0
 44
-5.08
 45
0.0
 49
-10.16
 74
     4
 75
   131
340
17F
 46
5.08
 50
180.0
 44
5.08
 45
0.0
 49
-5.08
 74
     0
  0
ENDTAB
  0
TABLE
  2
LAYER
  5
2
330
0
100
AcDbSymbolTable
 70
    19
  0
LAYER
  5
E
330
2
100
AcDbSymbolTableRecord
100
AcDbLayerTableRecord
  2
0
 70
     0
 62
     7
  6
CONTINUOUS
370
    -3
390
1D5
  0
LAYER
  5
20
330
2
100
AcDbSymbolTableRecord
100
AcDbLayerTableRecord
  2
KCAD_DIMS
 70
     0
 62
   134
  6
CONTINUOUS
370
    15
390
1D5
  0
LAYER
  5
4F
330
2
100
AcDbSymbolTableRecord
100
AcDbLayerTableRecord
  2
DEFPOINTS
 70
     0
 62
     7
  6
CONTINUOUS
290
     0
370
    -3
390
1D5
  0
LAYER
  5
20B
330
2
100
AcDbSymbolTableRecord
100
AcDbLayerTableRecord
  2
KCAD_ASST
 70
     0
 62
   134
  6
CONTINUOUS
370
    15
390
1D5
  0
LAYER
  5
20C
330
2
100
AcDbSymbolTableRecord
100
AcDbLayerTableRecord
  2
KCAD_RASTER
 70
     0
 62
     7
  6
CONTINUOUS
370
    30
390
1D5
  0
LAYER
  5
20D
330
2
100
AcDbSymbolTableRecord
100
AcDbLayerTableRecord
  2
SYBCENTER
 70
     0
 62
   134
  6
CENTER
370
    15
390
1D5
  0
LAYER
  5
20E
330
2
100
AcDbSymbolTableRecord
100
AcDbLayerTableRecord
  2
SYBHIDE
 70
     0
 62
   134
  6
HIDDEN
370
    15
390
1D5
  0
LAYER
  5
20F
330
2
100
AcDbSymbolTableRecord
100
AcDbLayerTableRecord
  2
SYBOUTLINE
 70
     0
 62
     7
  6
CONTINUOUS
370
    30
390
1D5
  0
LAYER
  5
210
330
2
100
AcDbSymbolTableRecord
100
AcDbLayerTableRecord
  2
SYBTHREAD
 70
     0
 62
   134
  6
CONTINUOUS
370
    15
390
1D5
  0
LAYER
  5
211
330
2
100
AcDbSymbolTableRecord
100
AcDbLayerTableRecord
  2
SYBTHRHID
 70
     0
 62
   134
  6
HIDDEN
370
    15
390
1D5
  0
LAYER
  5
282
330
2
100
AcDbSymbolTableRecord
100
AcDbLayerTableRecord
  2
KCAD_UIR_TMP_LAYER_
 70
     0
 62
     7
  6
CONTINUOUS
370
    -3
390
1D5
  0
LAYER
  5
2A8
330
2
100
AcDbSymbolTableRecord
100
AcDbLayerTableRecord
  2
KCAD_CPM_MAX_LAYER
 70
     3
 62
     7
  6
CONTINUOUS
370
    -3
390
1D5
  0
LAYER
  5
2F1
330
2
100
AcDbSymbolTableRecord
100
AcDbLayerTableRecord
  2
1
 70
     0
 62
     7
  6
CONTINUOUS
370
    -3
390
1D5
  0
LAYER
  5
306
330
2
100
AcDbSymbolTableRecord
100
AcDbLayerTableRecord
  2
99
 70
     0
 62
     7
  6
CONTINUOUS
370
    -3
390
1D5
  0
LAYER
  5
38F
330
2
100
AcDbSymbolTableRecord
100
AcDbLayerTableRecord
  2
2
 70
     0
 62
     7
  6
CONTINUOUS
370
    -3
390
1D5
  0
LAYER
  5
39A
330
2
100
AcDbSymbolTableRecord
100
AcDbLayerTableRecord
  2
7
 70
     0
 62
     7
  6
CONTINUOUS
370
    -3
390
1D5
  0
LAYER
  5
3E0
330
2
100
AcDbSymbolTableRecord
100
AcDbLayerTableRecord
  2
4
 70
     0
 62
     7
  6
CONTINUOUS
370
    -3
390
1D5
  0
LAYER
  5
4E4
330
2
100
AcDbSymbolTableRecord
100
AcDbLayerTableRecord
  2
3
 70
     0
 62
     7
  6
CONTINUOUS
370
    -3
390
1D5
  0
LAYER
  5
895
330
2
100
AcDbSymbolTableRecord
100
AcDbLayerTableRecord
  2
6
 70
     0
 62
     7
  6
CONTINUOUS
370
    -3
390
1D5
  0
ENDTAB
  0
TABLE
  2
STYLE
  5
3
330
0
100
AcDbSymbolTable
 70
     5
  0
STYLE
  5
F
330
3
100
AcDbSymbolTableRecord
100
AcDbTextStyleTableRecord
  2
STANDARD
 70
     0
 40
0.0
 41
1.0
 50
0.0
 71
     0
 42
3.2
  3
txt.shx
  4
bigfont.shx
  0
STYLE
  5
17F
330
3
100
AcDbSymbolTableRecord
100
AcDbTextStyleTableRecord
  2

 70
     1
 40
0.0
 41
1.0
 50
0.0
 71
     0
 42
3.2
  3
ltypeshp.shx
  4

  0
STYLE
  5
189
330
3
100
AcDbSymbolTableRecord
100
AcDbTextStyleTableRecord
  2
KCADDIMSTANDARD
 70
     0
 40
0.0
 41
1.0
 50
0.0
 71
     0
 42
3.2
  3
txt.shx
  4
bigfont.shx
  0
STYLE
  5
18A
330
3
100
AcDbSymbolTableRecord
100
AcDbTextStyleTableRecord
  2
KCADTEXTSTANDARD
 70
     0
 40
0.0
 41
1.0
 50
0.0
 71
     0
 42
3.2
  3
txt.shx
  4
bigfont.shx
  0
STYLE
  5
1AD
330
3
100
AcDbSymbolTableRecord
100
AcDbTextStyleTableRecord
  2
KCADTEXT2
 70
     0
 40
0.0
 41
1.0
 50
0.0
 71
     0
 42
3.2
  3
txt.shx
  4
extfont.shx
  0
ENDTAB
  0
TABLE
  2
VIEW
  5
6
330
0
100
AcDbSymbolTable
 70
     0
  0
ENDTAB
  0
TABLE
  2
UCS
  5
7
330
0
100
AcDbSymbolTable
 70
     0
  0
ENDTAB
  0
TABLE
  2
APPID
  5
9
330
0
100
AcDbSymbolTable
 70
     3
  0
APPID
  5
10
330
9
100
AcDbSymbolTableRecord
100
AcDbRegAppTableRecord
  2
ACAD
 70
     0
  0
APPID
  5
2F0
330
9
100
AcDbSymbolTableRecord
100
AcDbRegAppTableRecord
  2
Sigma
 70
     0
  0
APPID
  5
56F
330
9
100
AcDbSymbolTableRecord
100
AcDbRegAppTableRecord
  2
KCAD_DIM_EXT
 70
     0
  0
ENDTAB
  0
TABLE
  2
DIMSTYLE
  5
A
330
0
100
AcDbSymbolTable
 70
     1
100
AcDbDimStyleTable
 71
     1
340
1D
  0
DIMSTYLE
105
1D
102
{ACAD_REACTORS
330
546
330
582
330
5BE
330
5FA
330
636
330
672
330
6AE
330
6EA
330
726
330
766
330
7A2
330
7DE
330
81A
330
856
330
9B4
102
}
330
A
100
AcDbSymbolTableRecord
100
AcDbDimStyleTableRecord
  2
STANDARD
 70
     0
340
F
  0
ENDTAB
  0
TABLE
  2
BLOCK_RECORD
  5
1
330
0
100
AcDbSymbolTable
 70
    42
  0
BLOCK_RECORD
  5
18
330
1
100
AcDbSymbolTableRecord
100
AcDbBlockTableRecord
  2
*MODEL_SPACE
340
1D8
  0
BLOCK_RECORD
  5
22C
330
1
100
AcDbSymbolTableRecord
100
AcDbBlockTableRecord
  2
*Paper_Space
340
22F
  0
BLOCK_RECORD
  5
21
330
1
100
AcDbSymbolTableRecord
100
AcDbBlockTableRecord
  2
KCAD_OPEN
340
0
  0
BLOCK_RECORD
  5
3C
330
1
100
AcDbSymbolTableRecord
100
AcDbBlockTableRecord
  2
KCAD_DOTSMALL
340
0
  0
BLOCK_RECORD
  5
44
330
1
100
AcDbSymbolTableRecord
100
AcDbBlockTableRecord
  2
KCAD_NONE
340
0
  0
BLOCK_RECORD
  5
FC
330
1
100
AcDbSymbolTableRecord
100
AcDbBlockTableRecord
  2
_CLOSED
340
0
  0
BLOCK_RECORD
  5
103
330
1
100
AcDbSymbolTableRecord
100
AcDbBlockTableRecord
  2
_DOT
340
0
  0
BLOCK_RECORD
  5
10B
330
1
100
AcDbSymbolTableRecord
100
AcDbBlockTableRecord
  2
_CLOSEDBLANK
340
0
  0
BLOCK_RECORD
  5
111
330
1
100
AcDbSymbolTableRecord
100
AcDbBlockTableRecord
  2
_OBLIQUE
340
0
  0
BLOCK_RECORD
  5
115
330
1
100
AcDbSymbolTableRecord
100
AcDbBlockTableRecord
  2
_ARCHTICK
340
0
  0
BLOCK_RECORD
  5
11C
330
1
100
AcDbSymbolTableRecord
100
AcDbBlockTableRecord
  2
_OPEN
340
0
  0
BLOCK_RECORD
  5
122
330
1
100
AcDbSymbolTableRecord
100
AcDbBlockTableRecord
  2
_ORIGIN
340
0
  0
BLOCK_RECORD
  5
127
330
1
100
AcDbSymbolTableRecord
100
AcDbBlockTableRecord
  2
_OPEN90
340
0
  0
BLOCK_RECORD
  5
12D
330
1
100
AcDbSymbolTableRecord
100
AcDbBlockTableRecord
  2
_OPEN30
340
0
102
{BLKREFS
331
561
331
562
331
56A
331
56B
331
574
331
575
331
57B
331
57C
331
59D
331
59E
331
5A6
331
5A7
331
5B0
331
5B1
331
5B7
331
5B8
331
5D9
331
5DA
331
5E2
331
5E3
331
5EC
331
5ED
331
5F3
331
5F4
331
615
331
616
331
61E
331
61F
331
628
331
629
331
62F
331
630
331
651
331
652
331
65A
331
65B
331
664
331
665
331
66B
331
66C
331
68D
331
68E
331
696
331
697
331
6A0
331
6A1
331
6A7
331
6A8
331
6C9
331
6CA
331
6D2
331
6D3
331
6DC
331
6DD
331
6E3
331
6E4
331
705
331
706
331
70E
331
70F
331
718
331
719
331
71F
331
720
331
741
331
742
331
74A
331
74B
331
754
331
755
331
75B
331
75C
331
781
331
782
331
78A
331
78B
331
794
331
795
331
79B
331
79C
331
7BD
331
7BE
331
7C6
331
7C7
331
7D0
331
7D1
331
7D7
331
7D8
331
7F9
331
7FA
331
802
331
803
331
80C
331
80D
331
813
331
814
331
835
331
836
331
83E
331
83F
331
848
331
849
331
84F
331
850
331
871
331
872
331
87A
331
87B
331
884
331
885
331
88D
331
88E
331
9CF
331
9D0
331
9D8
331
9D9
331
9E2
331
9E3
331
9E9
331
9EA
102
}
  0
BLOCK_RECORD
  5
133
330
1
100
AcDbSymbolTableRecord
100
AcDbBlockTableRecord
  2
_DOTBLANK
340
0
  0
BLOCK_RECORD
  5
138
330
1
100
AcDbSymbolTableRecord
100
AcDbBlockTableRecord
  2
_DOTSMALL
340
0
  0
BLOCK_RECORD
  5
13F
330
1
100
AcDbSymbolTableRecord
100
AcDbBlockTableRecord
  2
_BOXFILLED
340
0
  0
BLOCK_RECORD
  5
144
330
1
100
AcDbSymbolTableRecord
100
AcDbBlockTableRecord
  2
_BOXBLANK
340
0
  0
BLOCK_RECORD
  5
14C
330
1
100
AcDbSymbolTableRecord
100
AcDbBlockTableRecord
  2
_DATUMFILLED
340
0
  0
BLOCK_RECORD
  5
150
330
1
100
AcDbSymbolTableRecord
100
AcDbBlockTableRecord
  2
_DATUMBLANK
340
0
  0
BLOCK_RECORD
  5
156
330
1
100
AcDbSymbolTableRecord
100
AcDbBlockTableRecord
  2
_INTEGRAL
340
0
  0
BLOCK_RECORD
  5
1F1
330
1
100
AcDbSymbolTableRecord
100
AcDbBlockTableRecord
  2
_Origin2
340
0
  0
BLOCK_RECORD
  5
1F7
330
1
100
AcDbSymbolTableRecord
100
AcDbBlockTableRecord
  2
KCAD_OPEN30
340
0
102
{BLKREFS
331
54B
331
54C
331
557
331
558
331
587
331
588
331
593
331
594
331
5C3
331
5C4
331
5CF
331
5D0
331
5FF
331
600
331
60B
331
60C
331
63B
331
63C
331
647
331
648
331
677
331
678
331
683
331
684
331
6B3
331
6B4
331
6BF
331
6C0
331
6EF
331
6F0
331
6FB
331
6FC
331
72B
331
72C
331
737
331
738
331
76B
331
76C
331
777
331
778
331
7A7
331
7A8
331
7B3
331
7B4
331
7E3
331
7E4
331
7EF
331
7F0
331
81F
331
820
331
82B
331
82C
331
85B
331
85C
331
867
331
868
331
9B9
331
9BA
331
9C5
331
9C6
102
}
  0
BLOCK_RECORD
  5
222
330
1
100
AcDbSymbolTableRecord
100
AcDbBlockTableRecord
  2
_None
340
0
  0
BLOCK_RECORD
  5
283
330
1
100
AcDbSymbolTableRecord
100
AcDbBlockTableRecord
  2
_Small
340
0
  0
BLOCK_RECORD
  5
287
330
1
100
AcDbSymbolTableRecord
100
AcDbBlockTableRecord
  2
KCAD_OPEN_2
340
0
  0
BLOCK_RECORD
  5
28E
330
1
100
AcDbSymbolTableRecord
100
AcDbBlockTableRecord
  2
KCAD_OPEN30_2
340
0
  0
BLOCK_RECORD
  5
2AD
330
1
100
AcDbSymbolTableRecord
100
AcDbBlockTableRecord
  2
KCAD_OPEN30ANG
340
0
310
2800000020000000200000000100080000000000000400000000000000000000000000000000000000000000000080000080000000808000800000008000800080800000C0C0C000C0DCC000F0CAA6000020400000206000002080000020A0000020C0000020E00000400000004020000040400000406000004080000040A0
310
000040C0000040E00000600000006020000060400000606000006080000060A0000060C0000060E00000800000008020000080400000806000008080000080A0000080C0000080E00000A0000000A0200000A0400000A0600000A0800000A0A00000A0C00000A0E00000C0000000C0200000C0400000C0600000C0800000C0
310
A00000C0C00000C0E00000E0000000E0200000E0400000E0600000E0800000E0A00000E0C00000E0E00040000000400020004000400040006000400080004000A0004000C0004000E00040200000402020004020400040206000402080004020A0004020C0004020E000404000004040200040404000404060004040800040
310
40A0004040C0004040E00040600000406020004060400040606000406080004060A0004060C0004060E00040800000408020004080400040806000408080004080A0004080C0004080E00040A0000040A0200040A0400040A0600040A0800040A0A00040A0C00040A0E00040C0000040C0200040C0400040C0600040C08000
310
40C0A00040C0C00040C0E00040E0000040E0200040E0400040E0600040E0800040E0A00040E0C00040E0E00080000000800020008000400080006000800080008000A0008000C0008000E00080200000802020008020400080206000802080008020A0008020C0008020E00080400000804020008040400080406000804080
310
008040A0008040C0008040E00080600000806020008060400080606000806080008060A0008060C0008060E00080800000808020008080400080806000808080008080A0008080C0008080E00080A0000080A0200080A0400080A0600080A0800080A0A00080A0C00080A0E00080C0000080C0200080C0400080C0600080C0
310
800080C0A00080C0C00080C0E00080E0000080E0200080E0400080E0600080E0800080E0A00080E0C00080E0E000C0000000C0002000C0004000C0006000C0008000C000A000C000C000C000E000C0200000C0202000C0204000C0206000C0208000C020A000C020C000C020E000C0400000C0402000C0404000C0406000C0
310
408000C040A000C040C000C040E000C0600000C0602000C0604000C0606000C0608000C060A000C060C000C060E000C0800000C0802000C0804000C0806000C0808000C080A000C080C000C080E000C0A00000C0A02000C0A04000C0A06000C0A08000C0A0A000C0A0C000C0A0E000C0C00000C0C02000C0C04000C0C06000
310
C0C08000C0C0A000F0FBFF00A4A0A000808080000000FF0000FF000000FFFF00FF000000FF00FF00FFFF0000FFFFFF0000000000000000000000000000000000000000000000000000000000000000000000000000000000000000000000000000000000000000000000000000000000000000000000000000000000000000
310
00000000000000000000000000000000000000000000000000000000000000000000000000000000000000000000000000000000000000000000000000000000000000000000000000000000000000000000000000000000000000000000000000000000000000000000000000000000000000000000000000000000000000
310
000000000000000000000000000000000000000000000000000000000000000000000000000000000000000000000000000000FFFF0000000000000000000000000000000000000000000000000000000000000000FFFFFFFF0000000000000000000000000000000000000000000000000000000000000000FFFFFFFF0000
310
000000000000000000000000000000000000000000000000000000000000FFFFFF0000000000000000000000000000000000000000000000000000000000000000FFFFFFFF0000000000000000000000000000000000000000000000000000000000000000FFFFFF0000000000000000000000000000000000000000000000
310
000000000000000000FFFFFFFF0000000000000000000000000000000000000000000000000000000000000000FFFFFFFF00000000000000000000000000000000000000000000000000000000000000FFFFFF00000000000000000000000000000000000000000000000000FFFFFFFF000000000000000000000000000000
310
000000000000000000FFFFFFFF000000000000000000000000000000000000000000000000FFFFFFFF000000000000000000000000000000000000000000000000FFFFFFFF000000000000000000000000000000000000000000000000FFFFFFFF000000000000000000000000000000000000000000000000FFFFFFFF0000
310
0000000000000000000000000000000000000000000000FFFFFF0000000000000000000000000000000000000000000000000000000000000000000000000000000000000000000000000000000000000000000000000000000000000000000000000000000000000000000000000000000000000000000000000000000000
310
00000000000000000000000000000000000000000000000000000000000000000000000000000000000000000000000000000000000000000000000000000000000000000000000000000000000000000000000000000000000000000000000000000000000000000000000000000000000000000000000000000000000000
310
0000000000000000000000000000000000000000000000000000000000000000000000000000000000000000000000000000000000000000
  0
BLOCK_RECORD
  5
2B6
330
1
100
AcDbSymbolTableRecord
100
AcDbBlockTableRecord
  2
KCAD_DOTANG
340
0
310
2800000020000000200000000100080000000000000400000000000000000000000000000000000000000000000080000080000000808000800000008000800080800000C0C0C000C0DCC000F0CAA6000020400000206000002080000020A0000020C0000020E00000400000004020000040400000406000004080000040A0
310
000040C0000040E00000600000006020000060400000606000006080000060A0000060C0000060E00000800000008020000080400000806000008080000080A0000080C0000080E00000A0000000A0200000A0400000A0600000A0800000A0A00000A0C00000A0E00000C0000000C0200000C0400000C0600000C0800000C0
310
A00000C0C00000C0E00000E0000000E0200000E0400000E0600000E0800000E0A00000E0C00000E0E00040000000400020004000400040006000400080004000A0004000C0004000E00040200000402020004020400040206000402080004020A0004020C0004020E000404000004040200040404000404060004040800040
310
40A0004040C0004040E00040600000406020004060400040606000406080004060A0004060C0004060E00040800000408020004080400040806000408080004080A0004080C0004080E00040A0000040A0200040A0400040A0600040A0800040A0A00040A0C00040A0E00040C0000040C0200040C0400040C0600040C08000
310
40C0A00040C0C00040C0E00040E0000040E0200040E0400040E0600040E0800040E0A00040E0C00040E0E00080000000800020008000400080006000800080008000A0008000C0008000E00080200000802020008020400080206000802080008020A0008020C0008020E00080400000804020008040400080406000804080
310
008040A0008040C0008040E00080600000806020008060400080606000806080008060A0008060C0008060E00080800000808020008080400080806000808080008080A0008080C0008080E00080A0000080A0200080A0400080A0600080A0800080A0A00080A0C00080A0E00080C0000080C0200080C0400080C0600080C0
310
800080C0A00080C0C00080C0E00080E0000080E0200080E0400080E0600080E0800080E0A00080E0C00080E0E000C0000000C0002000C0004000C0006000C0008000C000A000C000C000C000E000C0200000C0202000C0204000C0206000C0208000C020A000C020C000C020E000C0400000C0402000C0404000C0406000C0
310
408000C040A000C040C000C040E000C0600000C0602000C0604000C0606000C0608000C060A000C060C000C060E000C0800000C0802000C0804000C0806000C0808000C080A000C080C000C080E000C0A00000C0A02000C0A04000C0A06000C0A08000C0A0A000C0A0C000C0A0E000C0C00000C0C02000C0C04000C0C06000
310
C0C08000C0C0A000F0FBFF00A4A0A000808080000000FF0000FF000000FFFF00FF000000FF00FF00FFFF0000FFFFFF0000000000000000FF00000000000000000000000000000000FF0000000000000000000000000000FF00000000000000000000000000000000FF000000000000000000000000000000FF000000000000
310
0000000000000000FF0000000000000000000000000000000000FF000000000000000000000000FF000000000000000000000000000000000000FF000000000000000000000000FF00000000000000000000000000000000000000FF00000000000000000000FF0000000000000000000000000000000000000000FF000000
310
00000000000000FF000000000000000000000000000000000000000000FF0000000000000000FF0000000000000000000000000000000000000000000000FF000000000000FF000000000000000000000000000000000000000000000000FF000000000000FF00000000000000000000000000000000000000000000000000
310
FF00000000FF0000000000000000000000000000000000000000000000000000FF00000000FF000000000000000000000000000000000000000000000000000000FF0000FF0000000000000000000000000000000000000000000000000000000000FFFF000000000000000000000000000000000000000000000000000000
310
0000FFFFFFFF00000000000000000000000000000000000000000000000000000000FFFFFF00FF0000000000000000000000FFFFFFFFFFFFFFFFFFFFFFFFFFFFFFFFFFFFFFFFFFFFFFFFFFFFFFFFFFFFFFFF00000000000000000000000000000000FFFFFFFF00000000000000000000000000000000000000000000000000
310
00000000FFFF0000000000000000000000000000000000000000000000000000000000FF0000FF000000000000000000000000000000000000000000000000000000FF00000000FF0000000000000000000000000000000000000000000000000000FF00000000FF0000000000000000000000000000000000000000000000
310
0000FF000000000000FF000000000000000000000000000000000000000000000000FF000000000000FF0000000000000000000000000000000000000000000000FF0000000000000000FF000000000000000000000000000000000000000000FF00000000000000000000FF00000000000000000000000000000000000000
310
00FF00000000000000000000FF00000000000000000000000000000000000000FF000000000000000000000000FF000000000000000000000000000000000000FF000000000000000000000000FF0000000000000000000000000000000000FF0000000000000000000000000000FF000000000000000000000000000000FF
310
00000000000000000000000000000000FF0000000000000000000000000000FF00000000000000000000000000000000FF00000000000000
  0
BLOCK_RECORD
  5
547
330
1
100
AcDbSymbolTableRecord
100
AcDbBlockTableRecord
  2
*D27
340
0
  0
BLOCK_RECORD
  5
583
330
1
100
AcDbSymbolTableRecord
100
AcDbBlockTableRecord
  2
*D28
340
0
  0
BLOCK_RECORD
  5
5BF
330
1
100
AcDbSymbolTableRecord
100
AcDbBlockTableRecord
  2
*D29
340
0
  0
BLOCK_RECORD
  5
5FB
330
1
100
AcDbSymbolTableRecord
100
AcDbBlockTableRecord
  2
*D30
340
0
  0
BLOCK_RECORD
  5
637
330
1
100
AcDbSymbolTableRecord
100
AcDbBlockTableRecord
  2
*D31
340
0
  0
BLOCK_RECORD
  5
673
330
1
100
AcDbSymbolTableRecord
100
AcDbBlockTableRecord
  2
*D32
340
0
  0
BLOCK_RECORD
  5
6AF
330
1
100
AcDbSymbolTableRecord
100
AcDbBlockTableRecord
  2
*D33
340
0
  0
BLOCK_RECORD
  5
6EB
330
1
100
AcDbSymbolTableRecord
100
AcDbBlockTableRecord
  2
*D34
340
0
  0
BLOCK_RECORD
  5
727
330
1
100
AcDbSymbolTableRecord
100
AcDbBlockTableRecord
  2
*D35
340
0
  0
BLOCK_RECORD
  5
767
330
1
100
AcDbSymbolTableRecord
100
AcDbBlockTableRecord
  2
*D36
340
0
  0
BLOCK_RECORD
  5
7A3
330
1
100
AcDbSymbolTableRecord
100
AcDbBlockTableRecord
  2
*D37
340
0
  0
BLOCK_RECORD
  5
7DF
330
1
100
AcDbSymbolTableRecord
100
AcDbBlockTableRecord
  2
*D38
340
0
  0
BLOCK_RECORD
  5
81B
330
1
100
AcDbSymbolTableRecord
100
AcDbBlockTableRecord
  2
*D39
340
0
  0
BLOCK_RECORD
  5
857
330
1
100
AcDbSymbolTableRecord
100
AcDbBlockTableRecord
  2
*D40
340
0
  0
BLOCK_RECORD
  5
9B5
330
1
100
AcDbSymbolTableRecord
100
AcDbBlockTableRecord
  2
*D41
340
0
  0
ENDTAB
  0
ENDSEC
  0
SECTION
  2
BLOCKS
  0
BLOCK
  5
19
330
18
100
AcDbEntity
  8
0
100
AcDbBlockBegin
  2
*MODEL_SPACE
 70
     0
 10
0.0
 20
0.0
 30
0.0
  3
*MODEL_SPACE
  1

  0
ENDBLK
  5
1A
330
18
100
AcDbEntity
  8
0
100
AcDbBlockEnd
  0
BLOCK
  5
22D
330
22C
100
AcDbEntity
 67
     1
  8
0
 62
    54
370
    30
100
AcDbBlockBegin
  2
*Paper_Space
 70
     0
 10
0.0
 20
0.0
 30
0.0
  3
*Paper_Space
  1

  0
ENDBLK
  5
22E
330
22C
100
AcDbEntity
 67
     1
  8
0
 62
    54
370
    30
100
AcDbBlockEnd
  0
BLOCK
  5
25
330
21
100
AcDbEntity
  8
KCAD_DIMS
100
AcDbBlockBegin
  2
KCAD_OPEN
 70
     0
 10
0.0
 20
0.0
 30
0.0
  3
KCAD_OPEN
  1

  0
LINE
  5
22
330
21
100
AcDbEntity
  8
0
  6
Continuous
 62
     0
370
    -2
100
AcDbLine
 10
0.0
 20
0.0
 30
0.0
 11
-1.0
 21
0.0
 31
0.0
  0
LINE
  5
23
330
21
100
AcDbEntity
  8
0
  6
Continuous
 62
     0
370
    -2
100
AcDbLine
 10
0.0
 20
0.0
 30
0.0
 11
-1.0
 21
0.158384
 31
0.0
  0
LINE
  5
24
330
21
100
AcDbEntity
  8
0
  6
Continuous
 62
     0
370
    -2
100
AcDbLine
 10
0.0
 20
0.0
 30
0.0
 11
-1.0
 21
-0.158384
 31
0.0
  0
ENDBLK
  5
26
330
21
100
AcDbEntity
  8
KCAD_DIMS
100
AcDbBlockEnd
  0
BLOCK
  5
42
330
3C
100
AcDbEntity
  8
KCAD_DIMS
100
AcDbBlockBegin
  2
KCAD_DOTSMALL
 70
     0
 10
0.0
 20
0.0
 30
0.0
  3
KCAD_DOTSMALL
  1

  0
LWPOLYLINE
  5
3D
330
3C
100
AcDbEntity
  8
KCAD_DIMS
 62
     0
100
AcDbPolyline
 90
        2
 70
     1
 43
0.5
 10
0.06252
 20
0.0
 42
1.0
 10
-0.06262
 20
0.0
 42
1.0
  0
LINE
  5
41
330
3C
100
AcDbEntity
  8
0
  6
Continuous
 62
     0
370
    -2
100
AcDbLine
 10
0.0
 20
0.0
 30
0.0
 11
-1.0
 21
0.0
 31
0.0
  0
ENDBLK
  5
43
330
3C
100
AcDbEntity
  8
0
100
AcDbBlockEnd
  0
BLOCK
  5
46
330
44
100
AcDbEntity
  8
KCAD_DIMS
100
AcDbBlockBegin
  2
KCAD_NONE
 70
     0
 10
0.0
 20
0.0
 30
0.0
  3
KCAD_NONE
  1

  0
LINE
  5
45
330
44
100
AcDbEntity
  8
0
  6
Continuous
 62
     0
370
    -2
100
AcDbLine
 10
0.0
 20
0.0
 30
0.0
 11
-1.0
 21
0.0
 31
0.0
  0
ENDBLK
  5
47
330
44
100
AcDbEntity
  8
0
100
AcDbBlockEnd
  0
BLOCK
  5
FD
330
FC
100
AcDbEntity
  8
0
100
AcDbBlockBegin
  2
_CLOSED
 70
     0
 10
0.0
 20
0.0
 30
0.0
  3
_CLOSED
  1

  0
LINE
  5
FE
330
FC
100
AcDbEntity
  8
0
  6
Continuous
 62
     0
370
    -2
100
AcDbLine
 10
-1.0
 20
0.166667
 30
0.0
 11
0.0
 21
0.0
 31
0.0
  0
LINE
  5
FF
330
FC
100
AcDbEntity
  8
0
  6
Continuous
 62
     0
370
    -2
100
AcDbLine
 10
0.0
 20
0.0
 30
0.0
 11
-1.0
 21
-0.166667
 31
0.0
  0
LINE
  5
100
330
FC
100
AcDbEntity
  8
0
  6
Continuous
 62
     0
370
    -2
100
AcDbLine
 10
-1.0
 20
0.166667
 30
0.0
 11
-1.0
 21
-0.166667
 31
0.0
  0
LINE
  5
101
330
FC
100
AcDbEntity
  8
0
  6
Continuous
 62
     0
370
    -2
100
AcDbLine
 10
0.0
 20
0.0
 30
0.0
 11
-1.0
 21
0.0
 31
0.0
  0
ENDBLK
  5
102
330
FC
100
AcDbEntity
  8
0
100
AcDbBlockEnd
  0
BLOCK
  5
104
330
103
100
AcDbEntity
  8
0
100
AcDbBlockBegin
  2
_DOT
 70
     0
 10
0.0
 20
0.0
 30
0.0
  3
_DOT
  1

  0
LWPOLYLINE
  5
105
330
103
100
AcDbEntity
  8
0
  6
ByBlock
 62
     0
100
AcDbPolyline
 90
        2
 70
     1
 43
0.5
 10
-0.25
 20
0.0
 42
1.0
 10
0.25
 20
0.0
 42
1.0
  0
LINE
  5
109
330
103
100
AcDbEntity
  8
0
  6
Continuous
 62
     0
370
    -2
100
AcDbLine
 10
-0.5
 20
0.0
 30
0.0
 11
-1.0
 21
0.0
 31
0.0
  0
ENDBLK
  5
10A
330
103
100
AcDbEntity
  8
0
100
AcDbBlockEnd
  0
BLOCK
  5
10C
330
10B
100
AcDbEntity
  8
0
100
AcDbBlockBegin
  2
_CLOSEDBLANK
 70
     0
 10
0.0
 20
0.0
 30
0.0
  3
_CLOSEDBLANK
  1

  0
LINE
  5
10D
330
10B
100
AcDbEntity
  8
0
  6
Continuous
 62
     0
370
    -2
100
AcDbLine
 10
-1.0
 20
0.166667
 30
0.0
 11
0.0
 21
0.0
 31
0.0
  0
LINE
  5
10E
330
10B
100
AcDbEntity
  8
0
  6
Continuous
 62
     0
370
    -2
100
AcDbLine
 10
0.0
 20
0.0
 30
0.0
 11
-1.0
 21
-0.166667
 31
0.0
  0
LINE
  5
10F
330
10B
100
AcDbEntity
  8
0
  6
Continuous
 62
     0
370
    -2
100
AcDbLine
 10
-1.0
 20
0.166667
 30
0.0
 11
-1.0
 21
-0.166667
 31
0.0
  0
ENDBLK
  5
110
330
10B
100
AcDbEntity
  8
0
100
AcDbBlockEnd
  0
BLOCK
  5
112
330
111
100
AcDbEntity
  8
0
100
AcDbBlockBegin
  2
_OBLIQUE
 70
     0
 10
0.0
 20
0.0
 30
0.0
  3
_OBLIQUE
  1

  0
LINE
  5
113
330
111
100
AcDbEntity
  8
0
  6
Continuous
 62
     0
370
    -2
100
AcDbLine
 10
-0.5
 20
-0.5
 30
0.0
 11
0.5
 21
0.5
 31
0.0
  0
ENDBLK
  5
114
330
111
100
AcDbEntity
  8
0
100
AcDbBlockEnd
  0
BLOCK
  5
116
330
115
100
AcDbEntity
  8
0
100
AcDbBlockBegin
  2
_ARCHTICK
 70
     0
 10
0.0
 20
0.0
 30
0.0
  3
_ARCHTICK
  1

  0
LWPOLYLINE
  5
117
330
115
100
AcDbEntity
  8
0
  6
ByBlock
 62
     0
100
AcDbPolyline
 90
        2
 70
     0
 43
0.15
 10
-0.5
 20
-0.5
 10
0.5
 20
0.5
  0
ENDBLK
  5
11B
330
115
100
AcDbEntity
  8
0
100
AcDbBlockEnd
  0
BLOCK
  5
11D
330
11C
100
AcDbEntity
  8
0
100
AcDbBlockBegin
  2
_OPEN
 70
     0
 10
0.0
 20
0.0
 30
0.0
  3
_OPEN
  1

  0
LINE
  5
11E
330
11C
100
AcDbEntity
  8
0
  6
Continuous
 62
     0
370
    -2
100
AcDbLine
 10
-1.0
 20
0.166667
 30
0.0
 11
0.0
 21
0.0
 31
0.0
  0
LINE
  5
11F
330
11C
100
AcDbEntity
  8
0
  6
Continuous
 62
     0
370
    -2
100
AcDbLine
 10
0.0
 20
0.0
 30
0.0
 11
-1.0
 21
-0.166667
 31
0.0
  0
LINE
  5
120
330
11C
100
AcDbEntity
  8
0
  6
Continuous
 62
     0
370
    -2
100
AcDbLine
 10
0.0
 20
0.0
 30
0.0
 11
-1.0
 21
0.0
 31
0.0
  0
ENDBLK
  5
121
330
11C
100
AcDbEntity
  8
0
100
AcDbBlockEnd
  0
BLOCK
  5
123
330
122
100
AcDbEntity
  8
0
100
AcDbBlockBegin
  2
_ORIGIN
 70
     0
 10
0.0
 20
0.0
 30
0.0
  3
_ORIGIN
  1

  0
CIRCLE
  5
124
330
122
100
AcDbEntity
  8
0
  6
ByBlock
 62
     0
100
AcDbCircle
 10
0.0
 20
0.0
 30
0.0
 40
0.5
  0
LINE
  5
125
330
122
100
AcDbEntity
  8
0
  6
Continuous
 62
     0
370
    -2
100
AcDbLine
 10
0.0
 20
0.0
 30
0.0
 11
-1.0
 21
0.0
 31
0.0
  0
ENDBLK
  5
126
330
122
100
AcDbEntity
  8
0
100
AcDbBlockEnd
  0
BLOCK
  5
128
330
127
100
AcDbEntity
  8
0
100
AcDbBlockBegin
  2
_OPEN90
 70
     0
 10
0.0
 20
0.0
 30
0.0
  3
_OPEN90
  1

  0
LINE
  5
129
330
127
100
AcDbEntity
  8
0
  6
Continuous
 62
     0
370
    -2
100
AcDbLine
 10
-0.5
 20
0.5
 30
0.0
 11
0.0
 21
0.0
 31
0.0
  0
LINE
  5
12A
330
127
100
AcDbEntity
  8
0
  6
Continuous
 62
     0
370
    -2
100
AcDbLine
 10
0.0
 20
0.0
 30
0.0
 11
-0.5
 21
-0.5
 31
0.0
  0
LINE
  5
12B
330
127
100
AcDbEntity
  8
0
  6
Continuous
 62
     0
370
    -2
100
AcDbLine
 10
0.0
 20
0.0
 30
0.0
 11
-1.0
 21
0.0
 31
0.0
  0
ENDBLK
  5
12C
330
127
100
AcDbEntity
  8
0
100
AcDbBlockEnd
  0
BLOCK
  5
12E
330
12D
100
AcDbEntity
  8
0
100
AcDbBlockBegin
  2
_OPEN30
 70
     0
 10
0.0
 20
0.0
 30
0.0
  3
_OPEN30
  1

  0
LINE
  5
12F
330
12D
100
AcDbEntity
  8
0
  6
Continuous
 62
     0
370
    -2
100
AcDbLine
 10
-1.0
 20
0.267949
 30
0.0
 11
0.0
 21
0.0
 31
0.0
  0
LINE
  5
130
330
12D
100
AcDbEntity
  8
0
  6
Continuous
 62
     0
370
    -2
100
AcDbLine
 10
0.0
 20
0.0
 30
0.0
 11
-1.0
 21
-0.267949
 31
0.0
  0
LINE
  5
131
330
12D
100
AcDbEntity
  8
0
  6
Continuous
 62
     0
370
    -2
100
AcDbLine
 10
0.0
 20
0.0
 30
0.0
 11
-1.0
 21
0.0
 31
0.0
  0
ENDBLK
  5
132
330
12D
100
AcDbEntity
  8
0
100
AcDbBlockEnd
  0
BLOCK
  5
134
330
133
100
AcDbEntity
  8
0
100
AcDbBlockBegin
  2
_DOTBLANK
 70
     0
 10
0.0
 20
0.0
 30
0.0
  3
_DOTBLANK
  1

  0
CIRCLE
  5
135
330
133
100
AcDbEntity
  8
0
  6
ByBlock
 62
     0
100
AcDbCircle
 10
0.0
 20
0.0
 30
0.0
 40
0.5
  0
LINE
  5
136
330
133
100
AcDbEntity
  8
0
  6
Continuous
 62
     0
370
    -2
100
AcDbLine
 10
-0.5
 20
0.0
 30
0.0
 11
-1.0
 21
0.0
 31
0.0
  0
ENDBLK
  5
137
330
133
100
AcDbEntity
  8
0
100
AcDbBlockEnd
  0
BLOCK
  5
139
330
138
100
AcDbEntity
  8
0
100
AcDbBlockBegin
  2
_DOTSMALL
 70
     0
 10
0.0
 20
0.0
 30
0.0
  3
_DOTSMALL
  1

  0
LWPOLYLINE
  5
13A
330
138
100
AcDbEntity
  8
0
  6
ByBlock
 62
     0
100
AcDbPolyline
 90
        2
 70
     1
 43
0.5
 10
-0.0625
 20
0.0
 42
1.0
 10
0.0625
 20
0.0
 42
1.0
  0
ENDBLK
  5
13E
330
138
100
AcDbEntity
  8
0
100
AcDbBlockEnd
  0
BLOCK
  5
140
330
13F
100
AcDbEntity
  8
0
100
AcDbBlockBegin
  2
_BOXFILLED
 70
     0
 10
0.0
 20
0.0
 30
0.0
  3
_BOXFILLED
  1

  0
SOLID
  5
141
330
13F
100
AcDbEntity
  8
0
  6
ByBlock
 62
     0
100
AcDbTrace
 10
-0.5
 20
0.5
 30
0.0
 11
0.5
 21
0.5
 31
0.0
 12
-0.5
 22
-0.5
 32
0.0
 13
0.5
 23
-0.5
 33
0.0
  0
LINE
  5
142
330
13F
100
AcDbEntity
  8
0
  6
Continuous
 62
     0
370
    -2
100
AcDbLine
 10
-0.5
 20
0.0
 30
0.0
 11
-1.0
 21
0.0
 31
0.0
  0
ENDBLK
  5
143
330
13F
100
AcDbEntity
  8
0
100
AcDbBlockEnd
  0
BLOCK
  5
145
330
144
100
AcDbEntity
  8
0
100
AcDbBlockBegin
  2
_BOXBLANK
 70
     0
 10
0.0
 20
0.0
 30
0.0
  3
_BOXBLANK
  1

  0
LINE
  5
146
330
144
100
AcDbEntity
  8
0
  6
Continuous
 62
     0
370
    -2
100
AcDbLine
 10
-0.5
 20
-0.5
 30
0.0
 11
0.5
 21
-0.5
 31
0.0
  0
LINE
  5
147
330
144
100
AcDbEntity
  8
0
  6
Continuous
 62
     0
370
    -2
100
AcDbLine
 10
0.5
 20
-0.5
 30
0.0
 11
0.5
 21
0.5
 31
0.0
  0
LINE
  5
148
330
144
100
AcDbEntity
  8
0
  6
Continuous
 62
     0
370
    -2
100
AcDbLine
 10
0.5
 20
0.5
 30
0.0
 11
-0.5
 21
0.5
 31
0.0
  0
LINE
  5
149
330
144
100
AcDbEntity
  8
0
  6
Continuous
 62
     0
370
    -2
100
AcDbLine
 10
-0.5
 20
0.5
 30
0.0
 11
-0.5
 21
-0.5
 31
0.0
  0
LINE
  5
14A
330
144
100
AcDbEntity
  8
0
  6
Continuous
 62
     0
370
    -2
100
AcDbLine
 10
-0.5
 20
0.0
 30
0.0
 11
-1.0
 21
0.0
 31
0.0
  0
ENDBLK
  5
14B
330
144
100
AcDbEntity
  8
0
100
AcDbBlockEnd
  0
BLOCK
  5
14D
330
14C
100
AcDbEntity
  8
0
100
AcDbBlockBegin
  2
_DATUMFILLED
 70
     0
 10
0.0
 20
0.0
 30
0.0
  3
_DATUMFILLED
  1

  0
SOLID
  5
14E
330
14C
100
AcDbEntity
  8
0
  6
ByBlock
 62
     0
100
AcDbTrace
 10
0.0
 20
0.5773500000000001
 30
0.0
 11
-1.0
 21
0.0
 31
0.0
 12
0.0
 22
-0.5773500000000001
 32
0.0
 13
0.0
 23
-0.5773500000000001
 33
0.0
  0
ENDBLK
  5
14F
330
14C
100
AcDbEntity
  8
0
100
AcDbBlockEnd
  0
BLOCK
  5
151
330
150
100
AcDbEntity
  8
0
100
AcDbBlockBegin
  2
_DATUMBLANK
 70
     0
 10
0.0
 20
0.0
 30
0.0
  3
_DATUMBLANK
  1

  0
LINE
  5
152
330
150
100
AcDbEntity
  8
0
  6
Continuous
 62
     0
370
    -2
100
AcDbLine
 10
0.0
 20
0.5773500000000001
 30
0.0
 11
-1.0
 21
0.0
 31
0.0
  0
LINE
  5
153
330
150
100
AcDbEntity
  8
0
  6
Continuous
 62
     0
370
    -2
100
AcDbLine
 10
-1.0
 20
0.0
 30
0.0
 11
0.0
 21
-0.5773500000000001
 31
0.0
  0
LINE
  5
154
330
150
100
AcDbEntity
  8
0
  6
Continuous
 62
     0
370
    -2
100
AcDbLine
 10
0.0
 20
-0.5773500000000001
 30
0.0
 11
0.0
 21
0.5773500000000001
 31
0.0
  0
ENDBLK
  5
155
330
150
100
AcDbEntity
  8
0
100
AcDbBlockEnd
  0
BLOCK
  5
157
330
156
100
AcDbEntity
  8
0
100
AcDbBlockBegin
  2
_INTEGRAL
 70
     0
 10
0.0
 20
0.0
 30
0.0
  3
_INTEGRAL
  1

  0
ARC
  5
158
330
156
100
AcDbEntity
  8
0
  6
ByBlock
 62
     0
100
AcDbCircle
 10
0.444888
 20
-0.091335
 30
0.0
 40
0.454167
100
AcDbArc
 50
102.0
 51
168.0
  0
ARC
  5
159
330
156
100
AcDbEntity
  8
0
  6
ByBlock
 62
     0
100
AcDbCircle
 10
-0.444888
 20
0.091335
 30
0.0
 40
0.454167
100
AcDbArc
 50
282.0
 51
348.0
  0
ENDBLK
  5
15A
330
156
100
AcDbEntity
  8
0
100
AcDbBlockEnd
  0
BLOCK
  5
1F5
330
1F1
100
AcDbEntity
  8
0
 62
     7
370
    30
100
AcDbBlockBegin
  2
_Origin2
 70
     0
 10
0.0
 20
0.0
 30
0.0
  3
_Origin2
  1

  0
CIRCLE
  5
1F2
330
1F1
100
AcDbEntity
  8
0
  6
Continuous
 62
     0
370
    -2
100
AcDbCircle
 10
0.0
 20
0.0
 30
0.0
 40
0.5
  0
CIRCLE
  5
1F3
330
1F1
100
AcDbEntity
  8
0
  6
Continuous
 62
     0
370
    -2
100
AcDbCircle
 10
0.0
 20
0.0
 30
0.0
 40
0.25
  0
LINE
  5
1F4
330
1F1
100
AcDbEntity
  8
0
  6
Continuous
 62
     0
370
    -2
100
AcDbLine
 10
-0.5
 20
0.0
 30
0.0
 11
-1.0
 21
0.0
 31
0.0
  0
ENDBLK
  5
1F6
330
1F1
100
AcDbEntity
  8
0
 62
     7
370
    30
100
AcDbBlockEnd
  0
BLOCK
  5
1FB
330
1F7
100
AcDbEntity
  8
0
 62
     7
370
    30
100
AcDbBlockBegin
  2
KCAD_OPEN30
 70
     0
 10
0.0
 20
0.0
 30
0.0
  3
KCAD_OPEN30
  1

  0
LINE
  5
1F8
330
1F7
100
AcDbEntity
  8
0
  6
Continuous
 62
     0
370
    -2
100
AcDbLine
 10
0.0
 20
0.0
 30
0.0
 11
-1.0
 21
0.0
 31
0.0
  0
LINE
  5
1F9
330
1F7
100
AcDbEntity
  8
0
  6
Continuous
 62
     0
370
    -2
100
AcDbLine
 10
0.0
 20
0.0
 30
0.0
 11
-1.0
 21
0.2679491924311227
 31
0.0
  0
LINE
  5
1FA
330
1F7
100
AcDbEntity
  8
0
  6
Continuous
 62
     0
370
    -2
100
AcDbLine
 10
0.0
 20
0.0
 30
0.0
 11
-1.0
 21
-0.2679491924311227
 31
0.0
  0
ENDBLK
  5
1FC
330
1F7
100
AcDbEntity
  8
0
 62
     7
370
    30
100
AcDbBlockEnd
  0
BLOCK
  5
223
330
222
100
AcDbEntity
  8
0
 62
    54
370
    30
100
AcDbBlockBegin
  2
_None
 70
     0
 10
0.0
 20
0.0
 30
0.0
  3
_None
  1

  0
ENDBLK
  5
224
330
222
100
AcDbEntity
  8
0
 62
    54
370
    30
100
AcDbBlockEnd
  0
BLOCK
  5
285
330
283
100
AcDbEntity
  8
0
 62
     7
370
    50
100
AcDbBlockBegin
  2
_Small
 70
     0
 10
0.0
 20
0.0
 30
0.0
  3
_Small
  1

  0
CIRCLE
  5
284
330
283
100
AcDbEntity
  8
0
  6
ByBlock
 62
     0
370
    -2
100
AcDbCircle
 10
0.0
 20
0.0
 30
0.0
 40
0.25
  0
ENDBLK
  5
286
330
283
100
AcDbEntity
  8
0
 62
     7
370
    50
100
AcDbBlockEnd
  0
BLOCK
  5
28C
330
287
100
AcDbEntity
  8
0
 62
     7
370
    50
100
AcDbBlockBegin
  2
KCAD_OPEN_2
 70
     0
 10
0.0
 20
0.0
 30
0.0
  3
KCAD_OPEN_2
  1

  0
LINE
  5
288
330
287
100
AcDbEntity
  8
0
  6
Continuous
 62
     0
370
    -2
100
AcDbLine
 10
0.0
 20
0.0
 30
0.0
 11
-2.0
 21
0.0
 31
0.0
  0
LINE
  5
289
330
287
100
AcDbEntity
  8
0
  6
Continuous
 62
     0
370
    -2
100
AcDbLine
 10
0.0
 20
0.0
 30
0.0
 11
-2.0
 21
0.3167688806490725
 31
0.0
  0
LINE
  5
28A
330
287
100
AcDbEntity
  8
0
  6
Continuous
 62
     0
370
    -2
100
AcDbLine
 10
0.0
 20
0.0
 30
0.0
 11
-2.0
 21
-0.3167688806490725
 31
0.0
  0
LINE
  5
28B
330
287
100
AcDbEntity
  8
0
  6
Continuous
 62
     0
370
    -2
100
AcDbLine
 10
-2.0
 20
0.0
 30
0.0
 11
-4.0
 21
0.0
 31
0.0
  0
ENDBLK
  5
28D
330
287
100
AcDbEntity
  8
0
 62
     7
370
    50
100
AcDbBlockEnd
  0
BLOCK
  5
293
330
28E
100
AcDbEntity
  8
0
 62
     7
370
    50
100
AcDbBlockBegin
  2
KCAD_OPEN30_2
 70
     0
 10
0.0
 20
0.0
 30
0.0
  3
KCAD_OPEN30_2
  1

  0
LINE
  5
28F
330
28E
100
AcDbEntity
  8
0
  6
Continuous
 62
     0
370
    -2
100
AcDbLine
 10
0.0
 20
0.0
 30
0.0
 11
-2.0
 21
0.0
 31
0.0
  0
LINE
  5
290
330
28E
100
AcDbEntity
  8
0
  6
Continuous
 62
     0
370
    -2
100
AcDbLine
 10
0.0
 20
0.0
 30
0.0
 11
-2.0
 21
0.5358983848622455
 31
0.0
  0
LINE
  5
291
330
28E
100
AcDbEntity
  8
0
  6
Continuous
 62
     0
370
    -2
100
AcDbLine
 10
0.0
 20
0.0
 30
0.0
 11
-2.0
 21
-0.5358983848622455
 31
0.0
  0
LINE
  5
292
330
28E
100
AcDbEntity
  8
0
  6
Continuous
 62
     0
370
    -2
100
AcDbLine
 10
-2.0
 20
0.0
 30
0.0
 11
-4.0
 21
0.0
 31
0.0
  0
ENDBLK
  5
294
330
28E
100
AcDbEntity
  8
0
 62
     7
370
    50
100
AcDbBlockEnd
  0
BLOCK
  5
2AE
330
2AD
100
AcDbEntity
  8
0
 62
     3
370
    80
100
AcDbBlockBegin
  2
KCAD_OPEN30ANG
 70
     0
 10
0.0
 20
0.0
 30
0.0
  3
KCAD_OPEN30ANG
  1

  0
LINE
  5
2D7
330
2AD
100
AcDbEntity
  8
0
  6
Continuous
 62
     0
370
    -2
100
AcDbLine
 10
0.0
 20
0.0
 30
0.0
 11
-1.0
 21
-0.267949
 31
0.0
  0
LINE
  5
2D8
330
2AD
100
AcDbEntity
  8
0
  6
Continuous
 62
     0
370
    -2
100
AcDbLine
 10
-1.0
 20
0.267949
 30
0.0
 11
0.0
 21
0.0
 31
0.0
  0
ENDBLK
  5
2AF
330
2AD
100
AcDbEntity
  8
0
 62
     3
370
    80
100
AcDbBlockEnd
  0
BLOCK
  5
2B7
330
2B6
100
AcDbEntity
  8
0
 62
     3
370
    80
100
AcDbBlockBegin
  2
KCAD_DOTANG
 70
     0
 10
0.0
 20
0.0
 30
0.0
  3
KCAD_DOTANG
  1

  0
LWPOLYLINE
  5
2DD
330
2B6
100
AcDbEntity
  8
0
  6
ByBlock
 62
     0
100
AcDbPolyline
 90
        2
 70
     1
 43
0.5
 10
-0.25
 20
0.0
 42
1.0
 10
0.25
 20
0.0
 42
1.0
  0
ENDBLK
  5
2B8
330
2B6
100
AcDbEntity
  8
0
 62
     3
370
    80
100
AcDbBlockEnd
  0
BLOCK
  5
551
330
547
100
AcDbEntity
  8
0
 62
     5
370
    50
100
AcDbBlockBegin
  2
*D27
 70
     1
 10
0.0
 20
0.0
 30
0.0
  3
*D27
  1

  0
LINE
  5
579
330
547
100
AcDbEntity
  8
KCAD_DIMS
 62
     0
370
    -2
100
AcDbLine
 10
-86.56644120414
 20
180.66854804994
 30
0.0
 11
-148.0261434082999
 21
180.66854804994
 31
0.0
  0
LINE
  5
57A
330
547
100
AcDbEntity
  8
KCAD_DIMS
 62
     0
370
    -2
100
AcDbLine
 10
-86.56644120414
 20
150.66854804994
 30
0.0
 11
-148.0261434082999
 21
150.66854804994
 31
0.0
  0
INSERT
  5
57B
330
547
100
AcDbEntity
  8
KCAD_DIMS
 62
     0
370
    -2
100
AcDbBlockReference
  2
_OPEN30
 10
-86.56644120414
 20
180.66854804994
 30
0.0
 41
2.5
 42
2.5
 43
2.5
 50
90.0
  0
INSERT
  5
57C
330
547
100
AcDbEntity
  8
KCAD_DIMS
 62
     0
370
    -2
100
AcDbBlockReference
  2
_OPEN30
 10
-86.56644120414
 20
150.66854804994
 30
0.0
 41
2.5
 42
2.5
 43
2.5
 50
270.0
  0
LINE
  5
57D
330
547
100
AcDbEntity
  8
KCAD_DIMS
 62
     0
370
    -2
100
AcDbLine
 10
-86.56644120414
 20
178.1685480499399
 30
0.0
 11
-86.56644120414
 21
153.1685480499399
 31
0.0
  0
POINT
  5
57E
330
547
100
AcDbEntity
  8
DEFPOINTS
 62
     0
370
    50
100
AcDbPoint
 10
-148.0261434082999
 20
180.66854804994
 30
0.0
  0
POINT
  5
57F
330
547
100
AcDbEntity
  8
DEFPOINTS
 62
     0
370
    50
100
AcDbPoint
 10
-148.0261434082999
 20
150.66854804994
 30
0.0
  0
POINT
  5
580
330
547
100
AcDbEntity
  8
DEFPOINTS
 62
     0
370
    50
100
AcDbPoint
 10
-86.56644120414
 20
150.66854804994
 30
0.0
  0
MTEXT
  5
581
330
547
100
AcDbEntity
  8
KCAD_DIMS
 62
     0
100
AcDbMText
 10
-88.69977420414
 20
165.6685480499399
 30
0.0
 40
3.2
 41
0.0
 71
     5
 72
     1
  1
\A1;φ30
  7
KCADDIMSTANDARD
 11
0.0000000000000001
 21
1.0
 31
0.0
 73
     1
 44
1.0
  0
ENDBLK
  5
552
330
547
100
AcDbEntity
  8
0
 62
     5
370
    50
100
AcDbBlockEnd
  0
BLOCK
  5
58D
330
583
100
AcDbEntity
  8
0
 62
     5
370
    50
100
AcDbBlockBegin
  2
*D28
 70
     1
 10
0.0
 20
0.0
 30
0.0
  3
*D28
  1

  0
LINE
  5
5B5
330
583
100
AcDbEntity
  8
KCAD_DIMS
 62
     0
370
    -2
100
AcDbLine
 10
-203.5261434082999
 20
120.7530865172599
 30
0.0
 11
-203.5261434082999
 21
110.84493595164
 31
0.0
  0
LINE
  5
5B6
330
583
100
AcDbEntity
  8
KCAD_DIMS
 62
     0
370
    -2
100
AcDbLine
 10
-164.5261434082999
 20
120.7530865172599
 30
0.0
 11
-164.5261434082999
 21
109.84493595164
 31
0.0
  0
INSERT
  5
5B7
330
583
100
AcDbEntity
  8
KCAD_DIMS
 62
     0
370
    -2
100
AcDbBlockReference
  2
_OPEN30
 10
-203.5261434082999
 20
120.7530865172599
 30
0.0
 41
2.5
 42
2.5
 43
2.5
 50
180.0
  0
INSERT
  5
5B8
330
583
100
AcDbEntity
  8
KCAD_DIMS
 62
     0
370
    -2
100
AcDbBlockReference
  2
_OPEN30
 10
-164.5261434082999
 20
120.7530865172599
 30
0.0
 41
2.5
 42
2.5
 43
2.5
  0
LINE
  5
5B9
330
583
100
AcDbEntity
  8
KCAD_DIMS
 62
     0
370
    -2
100
AcDbLine
 10
-201.0261434083
 20
120.7530865172599
 30
0.0
 11
-167.0261434082999
 21
120.7530865172599
 31
0.0
  0
POINT
  5
5BA
330
583
100
AcDbEntity
  8
DEFPOINTS
 62
     0
370
    50
100
AcDbPoint
 10
-203.5261434082999
 20
110.84493595164
 30
0.0
  0
POINT
  5
5BB
330
583
100
AcDbEntity
  8
DEFPOINTS
 62
     0
370
    50
100
AcDbPoint
 10
-164.5261434082999
 20
109.84493595164
 30
0.0
  0
POINT
  5
5BC
330
583
100
AcDbEntity
  8
DEFPOINTS
 62
     0
370
    50
100
AcDbPoint
 10
-164.5261434082999
 20
120.7530865172599
 30
0.0
  0
MTEXT
  5
5BD
330
583
100
AcDbEntity
  8
KCAD_DIMS
 62
     0
100
AcDbMText
 10
-184.0261434082999
 20
122.88641951726
 30
0.0
 40
3.2
 41
0.0
 71
     5
 72
     1
  1
\A1;φ39
  7
KCADDIMSTANDARD
 73
     1
 44
1.0
  0
ENDBLK
  5
58E
330
583
100
AcDbEntity
  8
0
 62
     5
370
    50
100
AcDbBlockEnd
  0
BLOCK
  5
5C9
330
5BF
100
AcDbEntity
  8
0
 62
     5
370
    50
100
AcDbBlockBegin
  2
*D29
 70
     1
 10
0.0
 20
0.0
 30
0.0
  3
*D29
  1

  0
LINE
  5
5F1
330
5BF
100
AcDbEntity
  8
KCAD_DIMS
 62
     0
370
    -2
100
AcDbLine
 10
-67.36700564439999
 20
109.84493595164
 30
0.0
 11
-164.5261434082999
 21
109.84493595164
 31
0.0
  0
LINE
  5
5F2
330
5BF
100
AcDbEntity
  8
KCAD_DIMS
 62
     0
370
    -2
100
AcDbLine
 10
-67.36700564439999
 20
74.844935951639
 30
0.0
 11
-142.9440921263
 21
74.844935951639
 31
0.0
  0
INSERT
  5
5F3
330
5BF
100
AcDbEntity
  8
KCAD_DIMS
 62
     0
370
    -2
100
AcDbBlockReference
  2
_OPEN30
 10
-67.36700564439999
 20
109.84493595164
 30
0.0
 41
2.5
 42
2.5
 43
2.5
 50
90.0
  0
INSERT
  5
5F4
330
5BF
100
AcDbEntity
  8
KCAD_DIMS
 62
     0
370
    -2
100
AcDbBlockReference
  2
_OPEN30
 10
-67.36700564439999
 20
74.844935951639
 30
0.0
 41
2.5
 42
2.5
 43
2.5
 50
270.0
  0
LINE
  5
5F5
330
5BF
100
AcDbEntity
  8
KCAD_DIMS
 62
     0
370
    -2
100
AcDbLine
 10
-67.36700564439999
 20
107.34493595164
 30
0.0
 11
-67.36700564439999
 21
77.344935951639
 31
0.0
  0
POINT
  5
5F6
330
5BF
100
AcDbEntity
  8
DEFPOINTS
 62
     0
370
    50
100
AcDbPoint
 10
-164.5261434082999
 20
109.84493595164
 30
0.0
  0
POINT
  5
5F7
330
5BF
100
AcDbEntity
  8
DEFPOINTS
 62
     0
370
    50
100
AcDbPoint
 10
-142.9440921263
 20
74.844935951639
 30
0.0
  0
POINT
  5
5F8
330
5BF
100
AcDbEntity
  8
DEFPOINTS
 62
     0
370
    50
100
AcDbPoint
 10
-67.36700564439999
 20
74.84493595163899
 30
0.0
  0
MTEXT
  5
5F9
330
5BF
100
AcDbEntity
  8
KCAD_DIMS
 62
     0
100
AcDbMText
 10
-69.50033864439999
 20
92.34493595164
 30
0.0
 40
3.2
 41
0.0
 71
     5
 72
     1
  1
\A1;35
  7
KCADDIMSTANDARD
 11
0.0000000000000001
 21
1.0
 31
0.0
 73
     1
 44
1.0
  0
ENDBLK
  5
5CA
330
5BF
100
AcDbEntity
  8
0
 62
     5
370
    50
100
AcDbBlockEnd
  0
BLOCK
  5
605
330
5FB
100
AcDbEntity
  8
0
 62
     5
370
    50
100
AcDbBlockBegin
  2
*D30
 70
     1
 10
0.0
 20
0.0
 30
0.0
  3
*D30
  1

  0
LINE
  5
62D
330
5FB
100
AcDbEntity
  8
KCAD_DIMS
 62
     0
370
    -2
100
AcDbLine
 10
-67.36700564439999
 20
74.844935951639
 30
0.0
 11
-146.5261434082999
 21
74.844935951639
 31
0.0
  0
LINE
  5
62E
330
5FB
100
AcDbEntity
  8
KCAD_DIMS
 62
     0
370
    -2
100
AcDbLine
 10
-67.36700564439999
 20
51.84493595163999
 30
0.0
 11
-168.5261434082999
 21
51.84493595163999
 31
0.0
  0
INSERT
  5
62F
330
5FB
100
AcDbEntity
  8
KCAD_DIMS
 62
     0
370
    -2
100
AcDbBlockReference
  2
_OPEN30
 10
-67.36700564439999
 20
74.844935951639
 30
0.0
 41
2.5
 42
2.5
 43
2.5
 50
90.0
  0
INSERT
  5
630
330
5FB
100
AcDbEntity
  8
KCAD_DIMS
 62
     0
370
    -2
100
AcDbBlockReference
  2
_OPEN30
 10
-67.36700564439999
 20
51.84493595163999
 30
0.0
 41
2.5
 42
2.5
 43
2.5
 50
270.0
  0
LINE
  5
631
330
5FB
100
AcDbEntity
  8
KCAD_DIMS
 62
     0
370
    -2
100
AcDbLine
 10
-67.36700564439999
 20
72.344935951639
 30
0.0
 11
-67.36700564439999
 21
54.34493595163999
 31
0.0
  0
POINT
  5
632
330
5FB
100
AcDbEntity
  8
DEFPOINTS
 62
     0
370
    50
100
AcDbPoint
 10
-146.5261434082999
 20
74.844935951639
 30
0.0
  0
POINT
  5
633
330
5FB
100
AcDbEntity
  8
DEFPOINTS
 62
     0
370
    50
100
AcDbPoint
 10
-168.5261434082999
 20
51.84493595163999
 30
0.0
  0
POINT
  5
634
330
5FB
100
AcDbEntity
  8
DEFPOINTS
 62
     0
370
    50
100
AcDbPoint
 10
-67.36700564439999
 20
51.84493595163996
 30
0.0
  0
MTEXT
  5
635
330
5FB
100
AcDbEntity
  8
KCAD_DIMS
 62
     0
100
AcDbMText
 10
-69.50033864439999
 20
63.34493595164
 30
0.0
 40
3.2
 41
0.0
 71
     5
 72
     1
  1
\A1;23
  7
KCADDIMSTANDARD
 11
0.0000000000000001
 21
1.0
 31
0.0
 73
     1
 44
1.0
  0
ENDBLK
  5
606
330
5FB
100
AcDbEntity
  8
0
 62
     5
370
    50
100
AcDbBlockEnd
  0
BLOCK
  5
641
330
637
100
AcDbEntity
  8
0
 62
     5
370
    50
100
AcDbBlockBegin
  2
*D31
 70
     1
 10
0.0
 20
0.0
 30
0.0
  3
*D31
  1

  0
LINE
  5
669
330
637
100
AcDbEntity
  8
KCAD_DIMS
 62
     0
370
    -2
100
AcDbLine
 10
-184.0261434082999
 20
34.07622856806
 30
0.0
 11
-184.0261434082999
 21
54.844935951639
 31
0.0
  0
LINE
  5
66A
330
637
100
AcDbEntity
  8
KCAD_DIMS
 62
     0
370
    -2
100
AcDbLine
 10
-146.5261434082999
 20
34.07622856806
 30
0.0
 11
-146.5261434082999
 21
59.844935951639
 31
0.0
  0
INSERT
  5
66B
330
637
100
AcDbEntity
  8
KCAD_DIMS
 62
     0
370
    -2
100
AcDbBlockReference
  2
_OPEN30
 10
-184.0261434082999
 20
34.07622856806
 30
0.0
 41
2.5
 42
2.5
 43
2.5
 50
180.0
  0
INSERT
  5
66C
330
637
100
AcDbEntity
  8
KCAD_DIMS
 62
     0
370
    -2
100
AcDbBlockReference
  2
_OPEN30
 10
-146.5261434082999
 20
34.07622856806
 30
0.0
 41
2.5
 42
2.5
 43
2.5
  0
LINE
  5
66D
330
637
100
AcDbEntity
  8
KCAD_DIMS
 62
     0
370
    -2
100
AcDbLine
 10
-181.5261434083
 20
34.07622856806
 30
0.0
 11
-149.0261434082999
 21
34.07622856806
 31
0.0
  0
POINT
  5
66E
330
637
100
AcDbEntity
  8
DEFPOINTS
 62
     0
370
    50
100
AcDbPoint
 10
-184.0261434082999
 20
54.844935951639
 30
0.0
  0
POINT
  5
66F
330
637
100
AcDbEntity
  8
DEFPOINTS
 62
     0
370
    50
100
AcDbPoint
 10
-146.5261434082999
 20
59.844935951639
 30
0.0
  0
POINT
  5
670
330
637
100
AcDbEntity
  8
DEFPOINTS
 62
     0
370
    50
100
AcDbPoint
 10
-146.5261434082999
 20
34.07622856806
 30
0.0
  0
MTEXT
  5
671
330
637
100
AcDbEntity
  8
KCAD_DIMS
 62
     0
100
AcDbMText
 10
-165.2761434082999
 20
36.20956156806
 30
0.0
 40
3.2
 41
0.0
 71
     5
 72
     1
  1
\A1;37.5
  7
KCADDIMSTANDARD
 73
     1
 44
1.0
  0
ENDBLK
  5
642
330
637
100
AcDbEntity
  8
0
 62
     5
370
    50
100
AcDbBlockEnd
  0
BLOCK
  5
67D
330
673
100
AcDbEntity
  8
0
 62
     5
370
    50
100
AcDbBlockBegin
  2
*D32
 70
     1
 10
0.0
 20
0.0
 30
0.0
  3
*D32
  1

  0
LINE
  5
6A5
330
673
100
AcDbEntity
  8
KCAD_DIMS
 62
     0
370
    -2
100
AcDbLine
 10
-230.9568312271
 20
51.84493595163999
 30
0.0
 11
-184.0261434082999
 21
51.84493595163999
 31
0.0
  0
LINE
  5
6A6
330
673
100
AcDbEntity
  8
KCAD_DIMS
 62
     0
370
    -2
100
AcDbLine
 10
-230.9568312271
 20
109.84493595164
 30
0.0
 11
-184.0261434082999
 21
109.84493595164
 31
0.0
  0
INSERT
  5
6A7
330
673
100
AcDbEntity
  8
KCAD_DIMS
 62
     0
370
    -2
100
AcDbBlockReference
  2
_OPEN30
 10
-230.9568312271
 20
51.84493595163999
 30
0.0
 41
2.5
 42
2.5
 43
2.5
 50
270.0
  0
INSERT
  5
6A8
330
673
100
AcDbEntity
  8
KCAD_DIMS
 62
     0
370
    -2
100
AcDbBlockReference
  2
_OPEN30
 10
-230.9568312271
 20
109.84493595164
 30
0.0
 41
2.5
 42
2.5
 43
2.5
 50
90.0
  0
LINE
  5
6A9
330
673
100
AcDbEntity
  8
KCAD_DIMS
 62
     0
370
    -2
100
AcDbLine
 10
-230.9568312271
 20
54.34493595163999
 30
0.0
 11
-230.9568312271
 21
107.34493595164
 31
0.0
  0
POINT
  5
6AA
330
673
100
AcDbEntity
  8
DEFPOINTS
 62
     0
370
    50
100
AcDbPoint
 10
-184.0261434082999
 20
51.84493595163999
 30
0.0
  0
POINT
  5
6AB
330
673
100
AcDbEntity
  8
DEFPOINTS
 62
     0
370
    50
100
AcDbPoint
 10
-184.0261434082999
 20
109.84493595164
 30
0.0
  0
POINT
  5
6AC
330
673
100
AcDbEntity
  8
DEFPOINTS
 62
     0
370
    50
100
AcDbPoint
 10
-230.9568312271
 20
109.84493595164
 30
0.0
  0
MTEXT
  5
6AD
330
673
100
AcDbEntity
  8
KCAD_DIMS
 62
     0
100
AcDbMText
 10
-233.0901642270999
 20
80.844935951639
 30
0.0
 40
3.2
 41
0.0
 71
     5
 72
     1
  1
\A1;58
  7
KCADDIMSTANDARD
 11
0.0000000000000001
 21
1.0
 31
0.0
 73
     1
 44
1.0
  0
ENDBLK
  5
67E
330
673
100
AcDbEntity
  8
0
 62
     5
370
    50
100
AcDbBlockEnd
  0
BLOCK
  5
6B9
330
6AF
100
AcDbEntity
  8
0
 62
     5
370
    50
100
AcDbBlockBegin
  2
*D33
 70
     1
 10
0.0
 20
0.0
 30
0.0
  3
*D33
  1

  0
LINE
  5
6E1
330
6AF
100
AcDbEntity
  8
KCAD_DIMS
 62
     0
370
    -2
100
AcDbLine
 10
-225.1012483537
 20
89.844935951639
 30
0.0
 11
-199.5261434082999
 21
89.844935951639
 31
0.0
  0
LINE
  5
6E2
330
6AF
100
AcDbEntity
  8
KCAD_DIMS
 62
     0
370
    -2
100
AcDbLine
 10
-225.1012483537
 20
109.84493595164
 30
0.0
 11
-201.0261434083
 21
109.84493595164
 31
0.0
  0
INSERT
  5
6E3
330
6AF
100
AcDbEntity
  8
KCAD_DIMS
 62
     0
370
    -2
100
AcDbBlockReference
  2
_OPEN30
 10
-225.1012483537
 20
89.844935951639
 30
0.0
 41
2.5
 42
2.5
 43
2.5
 50
270.0
  0
INSERT
  5
6E4
330
6AF
100
AcDbEntity
  8
KCAD_DIMS
 62
     0
370
    -2
100
AcDbBlockReference
  2
_OPEN30
 10
-225.1012483537
 20
109.84493595164
 30
0.0
 41
2.5
 42
2.5
 43
2.5
 50
90.0
  0
LINE
  5
6E5
330
6AF
100
AcDbEntity
  8
KCAD_DIMS
 62
     0
370
    -2
100
AcDbLine
 10
-225.1012483537
 20
92.344935951639
 30
0.0
 11
-225.1012483537
 21
107.34493595164
 31
0.0
  0
POINT
  5
6E6
330
6AF
100
AcDbEntity
  8
DEFPOINTS
 62
     0
370
    50
100
AcDbPoint
 10
-199.5261434082999
 20
89.844935951639
 30
0.0
  0
POINT
  5
6E7
330
6AF
100
AcDbEntity
  8
DEFPOINTS
 62
     0
370
    50
100
AcDbPoint
 10
-201.0261434083
 20
109.84493595164
 30
0.0
  0
POINT
  5
6E8
330
6AF
100
AcDbEntity
  8
DEFPOINTS
 62
     0
370
    50
100
AcDbPoint
 10
-225.1012483537
 20
109.84493595164
 30
0.0
  0
MTEXT
  5
6E9
330
6AF
100
AcDbEntity
  8
KCAD_DIMS
 62
     0
100
AcDbMText
 10
-227.2345813537
 20
99.844935951639
 30
0.0
 40
3.2
 41
0.0
 71
     5
 72
     1
  1
\A1;20
  7
KCADDIMSTANDARD
 11
0.0000000000000001
 21
1.0
 31
0.0
 73
     1
 44
1.0
  0
ENDBLK
  5
6BA
330
6AF
100
AcDbEntity
  8
0
 62
     5
370
    50
100
AcDbBlockEnd
  0
BLOCK
  5
6F5
330
6EB
100
AcDbEntity
  8
0
 62
     5
370
    50
100
AcDbBlockBegin
  2
*D34
 70
     1
 10
0.0
 20
0.0
 30
0.0
  3
*D34
  1

  0
LINE
  5
71D
330
6EB
100
AcDbEntity
  8
KCAD_DIMS
 62
     0
370
    -2
100
AcDbLine
 10
-219.7672878645
 20
99.844935951639
 30
0.0
 11
-199.5261434082999
 21
99.844935951639
 31
0.0
  0
LINE
  5
71E
330
6EB
100
AcDbEntity
  8
KCAD_DIMS
 62
     0
370
    -2
100
AcDbLine
 10
-219.7672878645
 20
109.84493595164
 30
0.0
 11
-201.0261434083
 21
109.84493595164
 31
0.0
  0
INSERT
  5
71F
330
6EB
100
AcDbEntity
  8
KCAD_DIMS
 62
     0
370
    -2
100
AcDbBlockReference
  2
_OPEN30
 10
-219.7672878645
 20
99.844935951639
 30
0.0
 41
2.5
 42
2.5
 43
2.5
 50
270.0
  0
INSERT
  5
720
330
6EB
100
AcDbEntity
  8
KCAD_DIMS
 62
     0
370
    -2
100
AcDbBlockReference
  2
_OPEN30
 10
-219.7672878645
 20
109.84493595164
 30
0.0
 41
2.5
 42
2.5
 43
2.5
 50
90.0
  0
LINE
  5
721
330
6EB
100
AcDbEntity
  8
KCAD_DIMS
 62
     0
370
    -2
100
AcDbLine
 10
-219.7672878645
 20
102.344935951639
 30
0.0
 11
-219.7672878645
 21
107.34493595164
 31
0.0
  0
POINT
  5
722
330
6EB
100
AcDbEntity
  8
DEFPOINTS
 62
     0
370
    50
100
AcDbPoint
 10
-199.5261434082999
 20
99.844935951639
 30
0.0
  0
POINT
  5
723
330
6EB
100
AcDbEntity
  8
DEFPOINTS
 62
     0
370
    50
100
AcDbPoint
 10
-201.0261434083
 20
109.84493595164
 30
0.0
  0
POINT
  5
724
330
6EB
100
AcDbEntity
  8
DEFPOINTS
 62
     0
370
    50
100
AcDbPoint
 10
-219.7672878645
 20
109.84493595164
 30
0.0
  0
MTEXT
  5
725
330
6EB
100
AcDbEntity
  8
KCAD_DIMS
 62
     0
100
AcDbMText
 10
-221.9006208644999
 20
104.8449359516399
 30
0.0
 40
3.2
 41
0.0
 71
     5
 72
     1
  1
\A1;10
  7
KCADDIMSTANDARD
 11
0.0000000000000001
 21
1.0
 31
0.0
 73
     1
 44
1.0
  0
ENDBLK
  5
6F6
330
6EB
100
AcDbEntity
  8
0
 62
     5
370
    50
100
AcDbBlockEnd
  0
BLOCK
  5
731
330
727
100
AcDbEntity
  8
0
 62
     5
370
    50
100
AcDbBlockBegin
  2
*D35
 70
     1
 10
0.0
 20
0.0
 30
0.0
  3
*D35
  1

  0
LINE
  5
759
330
727
100
AcDbEntity
  8
KCAD_DIMS
 62
     0
370
    -2
100
AcDbLine
 10
-230.9568312271
 20
51.84493595163999
 30
0.0
 11
-199.5261434082999
 21
51.84493595163999
 31
0.0
  0
LINE
  5
75A
330
727
100
AcDbEntity
  8
KCAD_DIMS
 62
     0
370
    -2
100
AcDbLine
 10
-230.9568312271
 20
21.844935951639
 30
0.0
 11
-184.0261434082999
 21
21.84493595163899
 31
0.0
  0
INSERT
  5
75B
330
727
100
AcDbEntity
  8
KCAD_DIMS
 62
     0
370
    -2
100
AcDbBlockReference
  2
_OPEN30
 10
-230.9568312271
 20
51.84493595163999
 30
0.0
 41
2.5
 42
2.5
 43
2.5
 50
90.0
  0
INSERT
  5
75C
330
727
100
AcDbEntity
  8
KCAD_DIMS
 62
     0
370
    -2
100
AcDbBlockReference
  2
_OPEN30
 10
-230.9568312271
 20
21.844935951639
 30
0.0
 41
2.5
 42
2.5
 43
2.5
 50
270.0
  0
LINE
  5
75D
330
727
100
AcDbEntity
  8
KCAD_DIMS
 62
     0
370
    -2
100
AcDbLine
 10
-230.9568312271
 20
49.34493595163999
 30
0.0
 11
-230.9568312271
 21
24.344935951639
 31
0.0
  0
POINT
  5
75E
330
727
100
AcDbEntity
  8
DEFPOINTS
 62
     0
370
    50
100
AcDbPoint
 10
-199.5261434082999
 20
51.84493595163999
 30
0.0
  0
POINT
  5
75F
330
727
100
AcDbEntity
  8
DEFPOINTS
 62
     0
370
    50
100
AcDbPoint
 10
-184.0261434082999
 20
21.84493595163899
 30
0.0
  0
POINT
  5
760
330
727
100
AcDbEntity
  8
DEFPOINTS
 62
     0
370
    50
100
AcDbPoint
 10
-230.9568312271
 20
21.84493595163901
 30
0.0
  0
MTEXT
  5
761
330
727
100
AcDbEntity
  8
KCAD_DIMS
 62
     0
100
AcDbMText
 10
-233.0901642270999
 20
36.844935951639
 30
0.0
 40
3.2
 41
0.0
 71
     5
 72
     1
  1
\A1;\A1;W.D.
  7
KCADDIMSTANDARD
 11
0.0000000000000001
 21
1.0
 31
0.0
 73
     1
 44
1.0
  0
ENDBLK
  5
732
330
727
100
AcDbEntity
  8
0
 62
     5
370
    50
100
AcDbBlockEnd
  0
BLOCK
  5
771
330
767
100
AcDbEntity
  8
0
 62
     5
370
    50
100
AcDbBlockBegin
  2
*D36
 70
     1
 10
0.0
 20
0.0
 30
0.0
  3
*D36
  1

  0
LINE
  5
799
330
767
100
AcDbEntity
  8
KCAD_DIMS
 62
     0
370
    -2
100
AcDbLine
 10
-184.0261434082999
 20
114.8966697621899
 30
0.0
 11
-184.0261434082999
 21
51.08197298873999
 31
0.0
  0
LINE
  5
79A
330
767
100
AcDbEntity
  8
KCAD_DIMS
 62
     0
370
    -2
100
AcDbLine
 10
-106.5261434083
 20
114.8966697621899
 30
0.0
 11
-106.5261434083
 21
74.844935951639
 31
0.0
  0
INSERT
  5
79B
330
767
100
AcDbEntity
  8
KCAD_DIMS
 62
     0
370
    -2
100
AcDbBlockReference
  2
_OPEN30
 10
-184.0261434082999
 20
114.8966697621899
 30
0.0
 41
2.5
 42
2.5
 43
2.5
 50
180.0
  0
INSERT
  5
79C
330
767
100
AcDbEntity
  8
KCAD_DIMS
 62
     0
370
    -2
100
AcDbBlockReference
  2
_OPEN30
 10
-106.5261434083
 20
114.8966697621899
 30
0.0
 41
2.5
 42
2.5
 43
2.5
  0
LINE
  5
79D
330
767
100
AcDbEntity
  8
KCAD_DIMS
 62
     0
370
    -2
100
AcDbLine
 10
-181.5261434083
 20
114.8966697621899
 30
0.0
 11
-109.0261434083
 21
114.8966697621899
 31
0.0
  0
POINT
  5
79E
330
767
100
AcDbEntity
  8
DEFPOINTS
 62
     0
370
    50
100
AcDbPoint
 10
-184.0261434082999
 20
51.08197298873999
 30
0.0
  0
POINT
  5
79F
330
767
100
AcDbEntity
  8
DEFPOINTS
 62
     0
370
    50
100
AcDbPoint
 10
-106.5261434083
 20
74.844935951639
 30
0.0
  0
POINT
  5
7A0
330
767
100
AcDbEntity
  8
DEFPOINTS
 62
     0
370
    50
100
AcDbPoint
 10
-106.5261434083
 20
114.8966697621899
 30
0.0
  0
MTEXT
  5
7A1
330
767
100
AcDbEntity
  8
KCAD_DIMS
 62
     0
100
AcDbMText
 10
-145.2761434082999
 20
117.0300027621899
 30
0.0
 40
3.2
 41
0.0
 71
     5
 72
     1
  1
\A1;77.5～８７．５
  7
KCADDIMSTANDARD
 73
     1
 44
1.0
  0
ENDBLK
  5
772
330
767
100
AcDbEntity
  8
0
 62
     5
370
    50
100
AcDbBlockEnd
  0
BLOCK
  5
7AD
330
7A3
100
AcDbEntity
  8
0
 62
     5
370
    50
100
AcDbBlockBegin
  2
*D37
 70
     1
 10
0.0
 20
0.0
 30
0.0
  3
*D37
  1

  0
LINE
  5
7D5
330
7A3
100
AcDbEntity
  8
KCAD_DIMS
 62
     0
370
    -2
100
AcDbLine
 10
-87.23953621825
 20
82.84493595163899
 30
0.0
 11
-106.5261434083
 21
82.84493595163899
 31
0.0
  0
LINE
  5
7D6
330
7A3
100
AcDbEntity
  8
KCAD_DIMS
 62
     0
370
    -2
100
AcDbLine
 10
-87.23953621825
 20
66.844935951639
 30
0.0
 11
-106.5261434083
 21
66.844935951639
 31
0.0
  0
INSERT
  5
7D7
330
7A3
100
AcDbEntity
  8
KCAD_DIMS
 62
     0
370
    -2
100
AcDbBlockReference
  2
_OPEN30
 10
-87.23953621825
 20
82.84493595163899
 30
0.0
 41
2.5
 42
2.5
 43
2.5
 50
90.0
  0
INSERT
  5
7D8
330
7A3
100
AcDbEntity
  8
KCAD_DIMS
 62
     0
370
    -2
100
AcDbBlockReference
  2
_OPEN30
 10
-87.23953621825
 20
66.844935951639
 30
0.0
 41
2.5
 42
2.5
 43
2.5
 50
270.0
  0
LINE
  5
7D9
330
7A3
100
AcDbEntity
  8
KCAD_DIMS
 62
     0
370
    -2
100
AcDbLine
 10
-87.23953621825
 20
80.34493595163899
 30
0.0
 11
-87.23953621825
 21
69.344935951639
 31
0.0
  0
POINT
  5
7DA
330
7A3
100
AcDbEntity
  8
DEFPOINTS
 62
     0
370
    50
100
AcDbPoint
 10
-106.5261434083
 20
82.84493595163899
 30
0.0
  0
POINT
  5
7DB
330
7A3
100
AcDbEntity
  8
DEFPOINTS
 62
     0
370
    50
100
AcDbPoint
 10
-106.5261434083
 20
66.844935951639
 30
0.0
  0
POINT
  5
7DC
330
7A3
100
AcDbEntity
  8
DEFPOINTS
 62
     0
370
    50
100
AcDbPoint
 10
-87.23953621825
 20
66.84493595163899
 30
0.0
  0
MTEXT
  5
7DD
330
7A3
100
AcDbEntity
  8
KCAD_DIMS
 62
     0
100
AcDbMText
 10
-89.37286921824998
 20
75.733668871496
 30
0.0
 40
3.2
 41
0.0
 71
     5
 72
     1
  1
\A1;φ16
  7
KCADDIMSTANDARD
 11
0.0000000000000001
 21
1.0
 31
0.0
 73
     1
 44
1.0
  0
ENDBLK
  5
7AE
330
7A3
100
AcDbEntity
  8
0
 62
     5
370
    50
100
AcDbBlockEnd
  0
BLOCK
  5
7E9
330
7DF
100
AcDbEntity
  8
0
 62
     5
370
    50
100
AcDbBlockBegin
  2
*D38
 70
     1
 10
0.0
 20
0.0
 30
0.0
  3
*D38
  1

  0
LINE
  5
811
330
7DF
100
AcDbEntity
  8
KCAD_DIMS
 62
     0
370
    -2
100
AcDbLine
 10
-81.31291345249
 20
84.344935951639
 30
0.0
 11
-120.0261434083
 21
84.344935951639
 31
0.0
  0
LINE
  5
812
330
7DF
100
AcDbEntity
  8
KCAD_DIMS
 62
     0
370
    -2
100
AcDbLine
 10
-81.31291345249
 20
65.344935951639
 30
0.0
 11
-120.0261434083
 21
65.344935951639
 31
0.0
  0
INSERT
  5
813
330
7DF
100
AcDbEntity
  8
KCAD_DIMS
 62
     0
370
    -2
100
AcDbBlockReference
  2
_OPEN30
 10
-81.31291345249
 20
84.344935951639
 30
0.0
 41
2.5
 42
2.5
 43
2.5
 50
90.0
  0
INSERT
  5
814
330
7DF
100
AcDbEntity
  8
KCAD_DIMS
 62
     0
370
    -2
100
AcDbBlockReference
  2
_OPEN30
 10
-81.31291345249
 20
65.344935951639
 30
0.0
 41
2.5
 42
2.5
 43
2.5
 50
270.0
  0
LINE
  5
815
330
7DF
100
AcDbEntity
  8
KCAD_DIMS
 62
     0
370
    -2
100
AcDbLine
 10
-81.31291345249
 20
81.844935951639
 30
0.0
 11
-81.31291345249
 21
67.844935951639
 31
0.0
  0
POINT
  5
816
330
7DF
100
AcDbEntity
  8
DEFPOINTS
 62
     0
370
    50
100
AcDbPoint
 10
-120.0261434083
 20
84.344935951639
 30
0.0
  0
POINT
  5
817
330
7DF
100
AcDbEntity
  8
DEFPOINTS
 62
     0
370
    50
100
AcDbPoint
 10
-120.0261434083
 20
65.344935951639
 30
0.0
  0
POINT
  5
818
330
7DF
100
AcDbEntity
  8
DEFPOINTS
 62
     0
370
    50
100
AcDbPoint
 10
-81.31291345249
 20
65.34493595163898
 30
0.0
  0
MTEXT
  5
819
330
7DF
100
AcDbEntity
  8
KCAD_DIMS
 62
     0
100
AcDbMText
 10
-83.44624645248998
 20
75.6348918254
 30
0.0
 40
3.2
 41
0.0
 71
     5
 72
     1
  1
\A1;φ19
  7
KCADDIMSTANDARD
 11
0.0000000000000001
 21
1.0
 31
0.0
 73
     1
 44
1.0
  0
ENDBLK
  5
7EA
330
7DF
100
AcDbEntity
  8
0
 62
     5
370
    50
100
AcDbBlockEnd
  0
BLOCK
  5
825
330
81B
100
AcDbEntity
  8
0
 62
     5
370
    50
100
AcDbBlockBegin
  2
*D39
 70
     1
 10
0.0
 20
0.0
 30
0.0
  3
*D39
  1

  0
LINE
  5
84D
330
81B
100
AcDbEntity
  8
KCAD_DIMS
 62
     0
370
    -2
100
AcDbLine
 10
-157.5687930386
 20
89.844935951639
 30
0.0
 11
-146.5261434082999
 21
89.844935951639
 31
0.0
  0
LINE
  5
84E
330
81B
100
AcDbEntity
  8
KCAD_DIMS
 62
     0
370
    -2
100
AcDbLine
 10
-157.5687930386
 20
59.844935951639
 30
0.0
 11
-146.5261434082999
 21
59.844935951639
 31
0.0
  0
INSERT
  5
84F
330
81B
100
AcDbEntity
  8
KCAD_DIMS
 62
     0
370
    -2
100
AcDbBlockReference
  2
_OPEN30
 10
-157.5687930386
 20
89.844935951639
 30
0.0
 41
2.5
 42
2.5
 43
2.5
 50
90.0
  0
INSERT
  5
850
330
81B
100
AcDbEntity
  8
KCAD_DIMS
 62
     0
370
    -2
100
AcDbBlockReference
  2
_OPEN30
 10
-157.5687930386
 20
59.844935951639
 30
0.0
 41
2.5
 42
2.5
 43
2.5
 50
270.0
  0
LINE
  5
851
330
81B
100
AcDbEntity
  8
KCAD_DIMS
 62
     0
370
    -2
100
AcDbLine
 10
-157.5687930386
 20
87.344935951639
 30
0.0
 11
-157.5687930386
 21
62.344935951639
 31
0.0
  0
POINT
  5
852
330
81B
100
AcDbEntity
  8
DEFPOINTS
 62
     0
370
    50
100
AcDbPoint
 10
-146.5261434082999
 20
89.844935951639
 30
0.0
  0
POINT
  5
853
330
81B
100
AcDbEntity
  8
DEFPOINTS
 62
     0
370
    50
100
AcDbPoint
 10
-146.5261434082999
 20
59.844935951639
 30
0.0
  0
POINT
  5
854
330
81B
100
AcDbEntity
  8
DEFPOINTS
 62
     0
370
    50
100
AcDbPoint
 10
-157.5687930386
 20
59.844935951639
 30
0.0
  0
MTEXT
  5
855
330
81B
100
AcDbEntity
  8
KCAD_DIMS
 62
     0
100
AcDbMText
 10
-159.7021260386
 20
81.361862612614
 30
0.0
 40
3.2
 41
0.0
 71
     5
 72
     1
  1
\A1;φ30
  7
KCADDIMSTANDARD
 11
0.0000000000000001
 21
1.0
 31
0.0
 73
     1
 44
1.0
  0
ENDBLK
  5
826
330
81B
100
AcDbEntity
  8
0
 62
     5
370
    50
100
AcDbBlockEnd
  0
BLOCK
  5
861
330
857
100
AcDbEntity
  8
0
 62
     5
370
    50
100
AcDbBlockBegin
  2
*D40
 70
     1
 10
0.0
 20
0.0
 30
0.0
  3
*D40
  1

  0
LINE
  5
889
330
857
100
AcDbEntity
  8
KCAD_DIMS
 62
     0
370
    -2
100
AcDbLine
 10
-98.25317685794999
 20
80.844935951639
 30
0.0
 11
-106.5261434083
 21
80.844935951639
 31
0.0
  0
LINE
  5
88A
330
857
100
AcDbEntity
  8
KCAD_DIMS
 62
     0
370
    -2
100
AcDbLine
 10
-98.25317685794999
 20
68.844935951639
 30
0.0
 11
-105.5261434082999
 21
68.844935951639
 31
0.0
  0
LINE
  5
88B
330
857
100
AcDbEntity
  8
KCAD_DIMS
 62
     0
370
    -2
100
AcDbLine
 10
-98.25317685794999
 20
74.844935951639
 30
0.0
 11
-94.00576387582294
 21
56.47117662754617
 31
0.0
  0
LINE
  5
88C
330
857
100
AcDbEntity
  8
KCAD_DIMS
 62
     0
370
    -2
100
AcDbLine
 10
-94.00576387582294
 20
56.47117662754617
 30
0.0
 11
-86.43873920401414
 21
56.47117662754617
 31
0.0
  0
INSERT
  5
88D
330
857
100
AcDbEntity
  8
KCAD_DIMS
 62
     0
370
    -2
100
AcDbBlockReference
  2
_OPEN30
 10
-98.25317685794999
 20
80.844935951639
 30
0.0
 41
2.5
 42
2.5
 43
2.5
 50
90.0
  0
INSERT
  5
88E
330
857
100
AcDbEntity
  8
KCAD_DIMS
 62
     0
370
    -2
100
AcDbBlockReference
  2
_OPEN30
 10
-98.25317685794999
 20
68.844935951639
 30
0.0
 41
2.5
 42
2.5
 43
2.5
 50
270.0
  0
LINE
  5
88F
330
857
100
AcDbEntity
  8
KCAD_DIMS
 62
     0
370
    -2
100
AcDbLine
 10
-98.25317685794999
 20
78.344935951639
 30
0.0
 11
-98.25317685794999
 21
71.344935951639
 31
0.0
  0
POINT
  5
890
330
857
100
AcDbEntity
  8
DEFPOINTS
 62
     0
370
    50
100
AcDbPoint
 10
-106.5261434083
 20
80.844935951639
 30
0.0
  0
POINT
  5
891
330
857
100
AcDbEntity
  8
DEFPOINTS
 62
     0
370
    50
100
AcDbPoint
 10
-105.5261434082999
 20
68.844935951639
 30
0.0
  0
POINT
  5
892
330
857
100
AcDbEntity
  8
DEFPOINTS
 62
     0
370
    50
100
AcDbPoint
 10
-98.25317685794999
 20
68.844935951639
 30
0.0
  0
MTEXT
  5
893
330
857
100
AcDbEntity
  8
KCAD_DIMS
 62
     0
100
AcDbMText
 10
-89.70975152096
 20
58.604509627546
 30
0.0
 40
3.2
 41
0.0
 71
     5
 72
     1
  1
\A1;φ12
  7
KCADDIMSTANDARD
 73
     1
 44
1.0
  0
ENDBLK
  5
862
330
857
100
AcDbEntity
  8
0
 62
     5
370
    50
100
AcDbBlockEnd
  0
BLOCK
  5
9BF
330
9B5
100
AcDbEntity
  8
0
 62
     5
370
    50
100
AcDbBlockBegin
  2
*D41
 70
     1
 10
0.0
 20
0.0
 30
0.0
  3
*D41
  1

  0
LINE
  5
9E7
330
9B5
100
AcDbEntity
  8
KCAD_DIMS
 62
     0
370
    -2
100
AcDbLine
 10
-203.5261434082999
 20
134.1972678224299
 30
0.0
 11
-203.5261434082999
 21
165.6685480499399
 31
0.0
  0
LINE
  5
9E8
330
9B5
100
AcDbEntity
  8
KCAD_DIMS
 62
     0
370
    -2
100
AcDbLine
 10
-148.0261434082999
 20
134.1972678224299
 30
0.0
 11
-148.0261434082999
 21
150.66854804994
 31
0.0
  0
INSERT
  5
9E9
330
9B5
100
AcDbEntity
  8
KCAD_DIMS
 62
     0
370
    -2
100
AcDbBlockReference
  2
_OPEN30
 10
-203.5261434082999
 20
134.1972678224299
 30
0.0
 41
2.5
 42
2.5
 43
2.5
 50
180.0
  0
INSERT
  5
9EA
330
9B5
100
AcDbEntity
  8
KCAD_DIMS
 62
     0
370
    -2
100
AcDbBlockReference
  2
_OPEN30
 10
-148.0261434082999
 20
134.1972678224299
 30
0.0
 41
2.5
 42
2.5
 43
2.5
  0
LINE
  5
9EB
330
9B5
100
AcDbEntity
  8
KCAD_DIMS
 62
     0
370
    -2
100
AcDbLine
 10
-201.0261434083
 20
134.1972678224299
 30
0.0
 11
-150.5261434082999
 21
134.1972678224299
 31
0.0
  0
POINT
  5
9EC
330
9B5
100
AcDbEntity
  8
DEFPOINTS
 62
     0
370
    50
100
AcDbPoint
 10
-203.5261434082999
 20
165.6685480499399
 30
0.0
  0
POINT
  5
9ED
330
9B5
100
AcDbEntity
  8
DEFPOINTS
 62
     0
370
    50
100
AcDbPoint
 10
-148.0261434082999
 20
150.66854804994
 30
0.0
  0
POINT
  5
9EE
330
9B5
100
AcDbEntity
  8
DEFPOINTS
 62
     0
370
    50
100
AcDbPoint
 10
-148.0261434082999
 20
134.1972678224299
 30
0.0
  0
MTEXT
  5
9EF
330
9B5
100
AcDbEntity
  8
KCAD_DIMS
 62
     0
100
AcDbMText
 10
-175.7761434082999
 20
136.33060082243
 30
0.0
 40
3.2
 41
0.0
 71
     5
 72
     1
  1
\A1;55.5
  7
KCADDIMSTANDARD
 73
     1
 44
1.0
  0
ENDBLK
  5
9C0
330
9B5
100
AcDbEntity
  8
0
 62
     5
370
    50
100
AcDbBlockEnd
  0
ENDSEC
  0
SECTION
  2
ENTITIES
  0
TEXT
  5
2EF
330
18
100
AcDbEntity
  8
0
  6
Continuous
 62
     7
370
    30
100
AcDbText
 10
4.901999995708585
 20
4.331666647195785
 30
0.0
 40
2.880000042915344
  1
Ａ４
 41
0.5748197425183692
  7
KCADTEXTSTANDARD
100
AcDbText
1001
Sigma
1000

  0
POINT
  5
2F2
330
18
100
AcDbEntity
  8
1
  6
Continuous
 62
     7
370
    50
100
AcDbPoint
 10
0.0000000000001
 20
-0.283333331347
 30
0.0
1001
Sigma
1000

  0
POINT
  5
2F4
330
18
100
AcDbEntity
  8
1
  6
Continuous
 62
     7
370
    50
100
AcDbPoint
 10
-297.0
 20
209.7166595458999
 30
0.0
1001
Sigma
1000

  0
LINE
  5
2F6
330
18
100
AcDbEntity
  8
1
  6
HIDDEN
 62
   253
370
    15
100
AcDbLine
 10
0.0000000000001
 20
251.2419290644499
 30
0.0
 11
0.0000000000011
 21
-42.20354965896
 31
0.0
1001
Sigma
1000

  0
LINE
  5
2F8
330
18
100
AcDbEntity
  8
1
  6
HIDDEN
 62
   253
370
    15
100
AcDbLine
 10
64.58078363123199
 20
-0.283333331347
 30
0.0
 11
-352.2583508937
 21
-0.283333331348
 31
0.0
1001
Sigma
1000

  0
LINE
  5
2FA
330
18
100
AcDbEntity
  8
1
  6
HIDDEN
 62
   253
370
    15
100
AcDbLine
 10
-297.0
 20
-42.59849646746999
 30
0.0
 11
-297.0
 21
251.6368758729599
 31
0.0
1001
Sigma
1000

  0
LINE
  5
2FC
330
18
100
AcDbEntity
  8
1
  6
HIDDEN
 62
   253
370
    15
100
AcDbLine
 10
64.18567544684901
 20
209.7166595458999
 30
0.0
 11
-351.8632427092999
 21
209.7166595458999
 31
0.0
1001
Sigma
1000

  0
LINE
  5
2FE
330
18
100
AcDbEntity
  8
1
  6
Continuous
 62
     7
370
    30
100
AcDbLine
 10
-15.0
 20
194.7166595459
 30
0.0
 11
-15.0
 21
14.716666221619
 31
0.0
1001
Sigma
1000

  0
LINE
  5
300
330
18
100
AcDbEntity
  8
1
  6
Continuous
 62
     7
370
    30
100
AcDbLine
 10
-282.0
 20
194.7166595459
 30
0.0
 11
-282.0
 21
14.716666221619
 31
0.0
1001
Sigma
1000

  0
LINE
  5
302
330
18
100
AcDbEntity
  8
1
  6
Continuous
 62
     7
370
    30
100
AcDbLine
 10
-282.0
 20
14.716666221619
 30
0.0
 11
-15.0
 21
14.716666221619
 31
0.0
1001
Sigma
1000

  0
LINE
  5
304
330
18
100
AcDbEntity
  8
1
  6
Continuous
 62
     7
370
    30
100
AcDbLine
 10
-15.0
 20
194.7166595459
 30
0.0
 11
-282.0
 21
194.7166595459
 31
0.0
1001
Sigma
1000

  0
LINE
  5
307
330
18
100
AcDbEntity
  8
99
  6
Continuous
 62
     4
370
    30
100
AcDbLine
 10
-136.5999999999999
 20
45.11666622161899
 30
0.0
 11
-15.0
 21
45.11666622161899
 31
0.0
1001
Sigma
1000

  0
LINE
  5
309
330
18
100
AcDbEntity
  8
99
  6
Continuous
 62
     4
370
    30
100
AcDbLine
 10
-54.03999999999999
 20
14.716666221619
 30
0.0
 11
-54.03999999999999
 21
45.11666622161899
 31
0.0
1001
Sigma
1000

  0
LINE
  5
30B
330
18
100
AcDbEntity
  8
99
  6
Continuous
 62
     4
370
    30
100
AcDbLine
 10
-92.43999999999999
 20
27.516666221619
 30
0.0
 11
-15.0
 21
27.516666221619
 31
0.0
1001
Sigma
1000

  0
LINE
  5
30D
330
18
100
AcDbEntity
  8
99
  6
Continuous
 62
     4
370
    30
100
AcDbLine
 10
-63.64
 20
14.716666221619
 30
0.0
 11
-63.64
 21
27.516666221619
 31
0.0
1001
Sigma
1000

  0
LINE
  5
30F
330
18
100
AcDbEntity
  8
99
  6
Continuous
 62
     4
370
    30
100
AcDbLine
 10
-73.23999999999999
 20
14.716666221619
 30
0.0
 11
-73.23999999999999
 21
27.516666221619
 31
0.0
1001
Sigma
1000

  0
LINE
  5
311
330
18
100
AcDbEntity
  8
99
  6
Continuous
 62
     4
370
    30
100
AcDbLine
 10
-82.84
 20
14.716666221619
 30
0.0
 11
-82.84
 21
45.11666622161899
 31
0.0
1001
Sigma
1000

  0
LINE
  5
313
330
18
100
AcDbEntity
  8
99
  6
Continuous
 62
     4
370
    30
100
AcDbLine
 10
-92.43999999999999
 20
14.716666221619
 30
0.0
 11
-92.43999999999999
 21
45.11666622161899
 31
0.0
1001
Sigma
1000

  0
LINE
  5
315
330
18
100
AcDbEntity
  8
99
  6
Continuous
 62
   134
370
    15
100
AcDbLine
 10
-136.5999999999999
 20
17.91666622161899
 30
0.0
 11
-92.43999999999999
 21
17.91666622161899
 31
0.0
1001
Sigma
1000

  0
LINE
  5
317
330
18
100
AcDbEntity
  8
99
  6
Continuous
 62
   134
370
    15
100
AcDbLine
 10
-136.5999999999999
 20
21.11666622161899
 30
0.0
 11
-92.43999999999999
 21
21.11666622161899
 31
0.0
1001
Sigma
1000

  0
LINE
  5
319
330
18
100
AcDbEntity
  8
99
  6
Continuous
 62
   134
370
    15
100
AcDbLine
 10
-136.5999999999999
 20
24.316666221619
 30
0.0
 11
-54.03999999999999
 21
24.316666221619
 31
0.0
1001
Sigma
1000

  0
LINE
  5
31B
330
18
100
AcDbEntity
  8
99
  6
Continuous
 62
   134
370
    15
100
AcDbLine
 10
-136.5999999999999
 20
27.516666221619
 30
0.0
 11
-92.43999999999999
 21
27.516666221619
 31
0.0
1001
Sigma
1000

  0
LINE
  5
31D
330
18
100
AcDbEntity
  8
99
  6
Continuous
 62
   134
370
    15
100
AcDbLine
 10
-136.5999999999999
 20
30.716666221619
 30
0.0
 11
-92.43999999999999
 21
30.716666221619
 31
0.0
1001
Sigma
1000

  0
LINE
  5
31F
330
18
100
AcDbEntity
  8
99
  6
Continuous
 62
   134
370
    15
100
AcDbLine
 10
-123.16
 20
14.716666221619
 30
0.0
 11
-123.16
 21
37.11666622161899
 31
0.0
1001
Sigma
1000

  0
LINE
  5
321
330
18
100
AcDbEntity
  8
99
  6
Continuous
 62
   134
370
    15
100
AcDbLine
 10
-116.12
 20
14.716666221619
 30
0.0
 11
-116.12
 21
37.11666622161899
 31
0.0
1001
Sigma
1000

  0
LINE
  5
323
330
18
100
AcDbEntity
  8
99
  6
Continuous
 62
   134
370
    15
100
AcDbLine
 10
-50.84
 20
14.716666221619
 30
0.0
 11
-50.84
 21
37.11666622161899
 31
0.0
1001
Sigma
1000

  0
LINE
  5
325
330
18
100
AcDbEntity
  8
99
  6
Continuous
 62
     4
370
    30
100
AcDbLine
 10
-54.03999999999999
 20
21.11666622161899
 30
0.0
 11
-15.0
 21
21.11666622161899
 31
0.0
1001
Sigma
1000

  0
TEXT
  5
327
330
18
100
AcDbEntity
  8
99
  6
Continuous
 62
     4
370
    30
100
AcDbText
 10
-53.57285484616554
 20
25.5234194169949
 30
0.0
 40
1.72799996137619
  1
製
 41
1.266666666666666
  7
KCADTEXTSTANDARD
100
AcDbText
1001
Sigma
1000

  0
TEXT
  5
329
330
18
100
AcDbEntity
  8
99
  6
Continuous
 62
     4
370
    30
100
AcDbText
 10
-83.33599997997284
 20
33.42066617012059
 30
0.0
 40
2.592000102996826
  1
 三角法
 41
0.7916666212000178
  7
KCADTEXTSTANDARD
100
AcDbText
1001
Sigma
1000

  0
TEXT
  5
32B
330
18
100
AcDbEntity
  8
99
  6
Continuous
 62
     4
370
    30
100
AcDbText
 10
-53.57285484616554
 20
23.5394194169949
 30
0.0
 40
1.72799996137619
  1
品
 41
1.266666666666666
  7
KCADTEXTSTANDARD
100
AcDbText
1001
Sigma
1000

  0
LINE
  5
32D
330
18
100
AcDbEntity
  8
99
  6
Continuous
 62
   134
370
    15
100
AcDbLine
 10
-133.9553957422999
 20
18.364968848499
 30
0.0
 11
-136.0033957423
 21
18.364968848499
 31
0.0
1001
Sigma
1000

  0
TEXT
  5
32F
330
18
100
AcDbEntity
  8
99
  6
Continuous
 62
     4
370
    30
100
AcDbText
 10
-53.57285484616554
 20
21.5554194169949
 30
0.0
 40
1.72799996137619
  1
名
 41
1.266666666666666
  7
KCADTEXTSTANDARD
100
AcDbText
1001
Sigma
1000

  0
TEXT
  5
331
330
18
100
AcDbEntity
  8
99
  6
Continuous
 62
     4
370
    30
100
AcDbText
 10
-92.53736432961591
 20
24.8293486430162
 30
0.0
 40
2.303999948501587
  1
 設計  製図  検図  承認
 41
1.147916666666666
  7
KCADTEXTSTANDARD
100
AcDbText
1001
Sigma
1000

  0
TEXT
  5
333
330
18
100
AcDbEntity
  8
99
  6
Continuous
 62
     4
370
    30
100
AcDbText
 10
-133.7153350784559
 20
15.2308137291602
 30
0.0
 40
2.303999948501587
  1
 年月日   担当        訂 正 記 事
 41
0.8102941176470586
  7
KCADTEXTSTANDARD
100
AcDbText
1001
Sigma
1000

  0
TEXT
  5
335
330
18
100
AcDbEntity
  8
99
  6
Continuous
 62
     4
370
    30
100
AcDbText
 10
-136.1494999885558
 20
15.3373097271762
 30
0.0
 40
2.303999948501587
  1
符号
 41
0.4987500016589184
  7
KCADTEXTSTANDARD
100
AcDbText
1001
Sigma
1000

  0
LINE
  5
337
330
18
100
AcDbEntity
  8
99
  6
Continuous
 62
   134
370
    15
100
AcDbLine
 10
-133.9553957422999
 20
31.164968848499
 30
0.0
 11
-136.0033957423
 21
31.164968848499
 31
0.0
1001
Sigma
1000

  0
LINE
  5
339
330
18
100
AcDbEntity
  8
99
  6
Continuous
 62
   134
370
    15
100
AcDbLine
 10
-134.9793957423
 20
33.381993882227
 30
0.0
 11
-133.9553957422999
 21
31.164968848499
 31
0.0
1001
Sigma
1000

  0
TEXT
  5
33B
330
18
100
AcDbEntity
  8
99
  6
Continuous
 62
   134
370
    15
100
AcDbText
 10
-135.2341737352638
 20
31.54020399911331
 30
0.0
 40
1.33300220632553
  1
5
 41
0.577433628318584
  7
KCADTEXTSTANDARD
100
AcDbText
1001
Sigma
1000

  0
LINE
  5
33D
330
18
100
AcDbEntity
  8
99
  6
Continuous
 62
   134
370
    15
100
AcDbLine
 10
-136.0033957423
 20
31.164968848499
 30
0.0
 11
-134.9793957423
 21
33.381993882227
 31
0.0
1001
Sigma
1000

  0
LINE
  5
33F
330
18
100
AcDbEntity
  8
99
  6
Continuous
 62
   134
370
    15
100
AcDbLine
 10
-133.9553957422999
 20
27.964968848499
 30
0.0
 11
-136.0033957423
 21
27.964968848499
 31
0.0
1001
Sigma
1000

  0
LINE
  5
341
330
18
100
AcDbEntity
  8
99
  6
Continuous
 62
   134
370
    15
100
AcDbLine
 10
-134.9793957423
 20
30.181993882227
 30
0.0
 11
-133.9553957422999
 21
27.964968848499
 31
0.0
1001
Sigma
1000

  0
TEXT
  5
343
330
18
100
AcDbEntity
  8
99
  6
Continuous
 62
   134
370
    15
100
AcDbText
 10
-135.2341737352638
 20
28.34020399911331
 30
0.0
 40
1.33300220632553
  1
4
 41
0.577433628318584
  7
KCADTEXTSTANDARD
100
AcDbText
1001
Sigma
1000

  0
LINE
  5
345
330
18
100
AcDbEntity
  8
99
  6
Continuous
 62
   134
370
    15
100
AcDbLine
 10
-136.0033957423
 20
27.964968848499
 30
0.0
 11
-134.9793957423
 21
30.181993882227
 31
0.0
1001
Sigma
1000

  0
LINE
  5
347
330
18
100
AcDbEntity
  8
99
  6
Continuous
 62
   134
370
    15
100
AcDbLine
 10
-133.9553957422999
 20
24.764968848499
 30
0.0
 11
-136.0033957423
 21
24.764968848499
 31
0.0
1001
Sigma
1000

  0
LINE
  5
349
330
18
100
AcDbEntity
  8
99
  6
Continuous
 62
   134
370
    15
100
AcDbLine
 10
-134.9793957423
 20
26.981993882227
 30
0.0
 11
-133.9553957422999
 21
24.764968848499
 31
0.0
1001
Sigma
1000

  0
TEXT
  5
34B
330
18
100
AcDbEntity
  8
99
  6
Continuous
 62
   134
370
    15
100
AcDbText
 10
-135.2341737352638
 20
25.14020399911331
 30
0.0
 40
1.33300220632553
  1
3
 41
0.577433628318584
  7
KCADTEXTSTANDARD
100
AcDbText
1001
Sigma
1000

  0
LINE
  5
34D
330
18
100
AcDbEntity
  8
99
  6
Continuous
 62
   134
370
    15
100
AcDbLine
 10
-134.9793957423
 20
20.58199388222699
 30
0.0
 11
-133.9553957422999
 21
18.364968848499
 31
0.0
1001
Sigma
1000

  0
LINE
  5
34F
330
18
100
AcDbEntity
  8
99
  6
Continuous
 62
   134
370
    15
100
AcDbLine
 10
-136.0033957423
 20
18.364968848499
 30
0.0
 11
-134.9793957423
 21
20.58199388222699
 31
0.0
1001
Sigma
1000

  0
LINE
  5
351
330
18
100
AcDbEntity
  8
99
  6
Continuous
 62
   134
370
    15
100
AcDbLine
 10
-136.0033957423
 20
24.764968848499
 30
0.0
 11
-134.9793957423
 21
26.981993882227
 31
0.0
1001
Sigma
1000

  0
TEXT
  5
353
330
18
100
AcDbEntity
  8
99
  6
Continuous
 62
   134
370
    15
100
AcDbText
 10
-135.2341737352638
 20
21.94020399911331
 30
0.0
 40
1.33300220632553
  1
2
 41
0.577433628318584
  7
KCADTEXTSTANDARD
100
AcDbText
1001
Sigma
1000

  0
LINE
  5
355
330
18
100
AcDbEntity
  8
99
  6
Continuous
 62
   134
370
    15
100
AcDbLine
 10
-133.9553957422999
 20
21.564968848499
 30
0.0
 11
-136.0033957423
 21
21.564968848499
 31
0.0
1001
Sigma
1000

  0
LINE
  5
357
330
18
100
AcDbEntity
  8
99
  6
Continuous
 62
   134
370
    15
100
AcDbLine
 10
-134.9793957423
 20
23.781993882227
 30
0.0
 11
-133.9553957422999
 21
21.564968848499
 31
0.0
1001
Sigma
1000

  0
LINE
  5
359
330
18
100
AcDbEntity
  8
99
  6
Continuous
 62
   134
370
    15
100
AcDbLine
 10
-136.0033957423
 20
21.564968848499
 30
0.0
 11
-134.9793957423
 21
23.781993882227
 31
0.0
1001
Sigma
1000

  0
TEXT
  5
35B
330
18
100
AcDbEntity
  8
99
  6
Continuous
 62
   134
370
    15
100
AcDbText
 10
-135.2341737352638
 20
18.74020399911331
 30
0.0
 40
1.33300220632553
  1
1
 41
0.577433628318584
  7
KCADTEXTSTANDARD
100
AcDbText
1001
Sigma
1000

  0
TEXT
  5
35D
330
18
100
AcDbEntity
  8
99
  6
Continuous
 62
     4
370
    30
100
AcDbText
 10
-53.58053497537554
 20
28.0042633371229
 30
0.0
 40
1.72799996137619
  1
差
 41
1.266666666666666
  7
KCADTEXTSTANDARD
100
AcDbText
1001
Sigma
1000

  0
TEXT
  5
35F
330
18
100
AcDbEntity
  8
99
  6
Continuous
 62
     4
370
    30
100
AcDbText
 10
-53.58053497537554
 20
30.2442633371229
 30
0.0
 40
1.72799996137619
  1
公
 41
1.266666666666666
  7
KCADTEXTSTANDARD
100
AcDbText
1001
Sigma
1000

  0
TEXT
  5
361
330
18
100
AcDbEntity
  8
99
  6
Continuous
 62
     4
370
    30
100
AcDbText
 10
-72.71653496490512
 20
35.0442633371229
 30
0.0
 40
1.72799996137619
  1
面
 41
1.20333332153658
  7
KCADTEXTSTANDARD
100
AcDbText
1001
Sigma
1000

  0
TEXT
  5
363
330
18
100
AcDbEntity
  8
99
  6
Continuous
 62
     4
370
    30
100
AcDbText
 10
-53.58053497537554
 20
32.8042633371229
 30
0.0
 40
1.72799996137619
  1
上
 41
1.266666666666666
  7
KCADTEXTSTANDARD
100
AcDbText
1001
Sigma
1000

  0
TEXT
  5
365
330
18
100
AcDbEntity
  8
99
  6
Continuous
 62
     4
370
    30
100
AcDbText
 10
-53.58053497537554
 20
35.0442633371229
 30
0.0
 40
1.72799996137619
  1
仕
 41
1.266666666666666
  7
KCADTEXTSTANDARD
100
AcDbText
1001
Sigma
1000

  0
LINE
  5
367
330
18
100
AcDbEntity
  8
99
  6
Continuous
 62
     4
370
    30
100
AcDbLine
 10
-123.16
 20
37.11666622161899
 30
0.0
 11
-123.16
 21
45.11666622161899
 31
0.0
1001
Sigma
1000

  0
TEXT
  5
369
330
18
100
AcDbEntity
  8
99
  6
Continuous
 62
     4
370
    30
100
AcDbText
 10
-53.62399997353553
 20
18.6526662409309
 30
0.0
 40
1.72799996137619
  1
図
 41
1.266666666666666
  7
KCADTEXTSTANDARD
100
AcDbText
1001
Sigma
1000

  0
TEXT
  5
36B
330
18
100
AcDbEntity
  8
99
  6
Continuous
 62
     4
370
    30
100
AcDbText
 10
-53.62399997353553
 20
15.7726662409309
 30
0.0
 40
1.72799996137619
  1
番
 41
1.266666666666666
  7
KCADTEXTSTANDARD
100
AcDbText
1001
Sigma
1000

  0
LINE
  5
36D
330
18
100
AcDbEntity
  8
99
  6
Continuous
 62
   134
370
    15
100
AcDbLine
 10
-136.5999999999999
 20
40.316666221619
 30
0.0
 11
-15.0
 21
40.316666221619
 31
0.0
1001
Sigma
1000

  0
LINE
  5
36F
330
18
100
AcDbEntity
  8
99
  6
Continuous
 62
   134
370
    15
100
AcDbLine
 10
-70.04000000000001
 20
37.11666622161899
 30
0.0
 11
-70.04000000000001
 21
32.316666221619
 31
0.0
1001
Sigma
1000

  0
TEXT
  5
371
330
18
100
AcDbEntity
  8
99
  6
Continuous
 62
     4
370
    30
100
AcDbText
 10
-90.90918916343079
 20
34.49403103866421
 30
0.0
 40
2.303999948501587
  1
尺度
 41
1.1875
  7
KCADTEXTSTANDARD
100
AcDbText
1001
Sigma
1000

  0
LINE
  5
373
330
18
100
AcDbEntity
  8
99
  6
Continuous
 62
   134
370
    15
100
AcDbLine
 10
-136.0033957423
 20
34.364968848499
 30
0.0
 11
-134.9793957423
 21
36.581993882208
 31
0.0
1001
Sigma
1000

  0
TEXT
  5
375
330
18
100
AcDbEntity
  8
99
  6
Continuous
 62
   134
370
    15
100
AcDbText
 10
-135.2341737352638
 20
34.74020399911331
 30
0.0
 40
1.33300220632553
  1
6
 41
0.577433628318584
  7
KCADTEXTSTANDARD
100
AcDbText
1001
Sigma
1000

  0
LINE
  5
377
330
18
100
AcDbEntity
  8
99
  6
Continuous
 62
   134
370
    15
100
AcDbLine
 10
-134.9793957423
 20
36.581993882208
 30
0.0
 11
-133.9553957422999
 21
34.364968848499
 31
0.0
1001
Sigma
1000

  0
LINE
  5
379
330
18
100
AcDbEntity
  8
99
  6
Continuous
 62
   134
370
    15
100
AcDbLine
 10
-133.9553957422999
 20
34.364968848499
 30
0.0
 11
-136.0033957423
 21
34.364968848499
 31
0.0
1001
Sigma
1000

  0
LINE
  5
37B
330
18
100
AcDbEntity
  8
99
  6
Continuous
 62
     4
370
    30
100
AcDbLine
 10
-73.23999999999999
 20
32.316666221619
 30
0.0
 11
-73.23999999999999
 21
37.11666622161899
 31
0.0
1001
Sigma
1000

  0
LINE
  5
37D
330
18
100
AcDbEntity
  8
99
  6
Continuous
 62
     4
370
    30
100
AcDbLine
 10
-136.5999999999999
 20
37.11666622161899
 30
0.0
 11
-15.0
 21
37.11666622161899
 31
0.0
1001
Sigma
1000

  0
LINE
  5
37F
330
18
100
AcDbEntity
  8
99
  6
Continuous
 62
   134
370
    15
100
AcDbLine
 10
-136.5999999999999
 20
33.916666221619
 30
0.0
 11
-82.84
 21
33.916666221619
 31
0.0
1001
Sigma
1000

  0
LINE
  5
381
330
18
100
AcDbEntity
  8
99
  6
Continuous
 62
   134
370
    15
100
AcDbLine
 10
-133.4
 20
14.716666221619
 30
0.0
 11
-133.4
 21
37.11666622161899
 31
0.0
1001
Sigma
1000

  0
TEXT
  5
383
330
18
100
AcDbEntity
  8
99
  6
Continuous
 62
     4
370
    30
100
AcDbText
 10
-135.4257932899508
 20
37.5676967145042
 30
0.0
 40
2.303999948501587
  1
部品番号     部   品   名
 41
0.7659375056526107
  7
KCADTEXTSTANDARD
100
AcDbText
1001
Sigma
1000

  0
TEXT
  5
385
330
18
100
AcDbEntity
  8
99
  6
Continuous
 62
     4
370
    30
100
AcDbText
 10
-90.90918916343079
 20
37.75803103865821
 30
0.0
 40
2.303999948501587
  1
個数
 41
1.1875
  7
KCADTEXTSTANDARD
100
AcDbText
1001
Sigma
1000

  0
TEXT
  5
387
330
18
100
AcDbEntity
  8
99
  6
Continuous
 62
     4
370
    30
100
AcDbText
 10
-77.17736431531079
 20
37.75734864301021
 30
0.0
 40
2.303999948501587
  1
材       質                  表  面  処  理
 41
0.667866384344304
  7
KCADTEXTSTANDARD
100
AcDbText
1001
Sigma
1000

  0
LINE
  5
389
330
18
100
AcDbEntity
  8
99
  6
Continuous
 62
     4
370
    30
100
AcDbLine
 10
-136.5999999999999
 20
45.11666622161899
 30
0.0
 11
-136.5999999999999
 21
14.716666221619
 31
0.0
1001
Sigma
1000

  0
TEXT
  5
38B
330
18
100
AcDbEntity
  8
99
  6
Continuous
 62
     3
370
    30
100
AcDbText
 10
-90.75396868819415
 20
29.6093265578257
 30
0.0
 40
2.603520038795471
  1
1/1
 41
1.222959669323358
  7
KCADTEXTSTANDARD
100
AcDbText
1001
Sigma
1000

  0
TEXT
  5
38D
330
18
100
AcDbEntity
  8
99
  6
Continuous
 62
     3
370
    30
100
AcDbText
 10
-45.49873305903082
 20
15.99001101852728
 30
0.0
 40
3.644928015518188
  1
KVK-1264
 41
0.830905687871623
  7
KCADTEXTSTANDARD
100
AcDbText
1001
Sigma
1000

  0
TEXT
  5
390
330
18
100
AcDbEntity
  8
2
  6
Continuous
 62
     3
370
    30
100
AcDbText
 10
-112.0089239188581
 20
41.21572855031899
 30
0.0
 40
3.149999999999999
  1
組立図
 41
0.6423809397078696
  7
KCADTEXTSTANDARD
100
AcDbText
1001
Sigma
1000

  0
TEXT
  5
392
330
18
100
AcDbEntity
  8
2
  6
Continuous
 62
     4
370
    30
100
AcDbText
 10
-132.8163948356739
 20
41.912756751812
 30
0.0
 40
1.8
  1
１００
 41
0.8466399773955345
  7
KCADTEXTSTANDARD
100
AcDbText
1001
Sigma
1000

  0
TEXT
  5
394
330
18
100
AcDbEntity
  8
99
  6
Continuous
 62
     3
370
    30
100
AcDbText
 10
-43.17574013024048
 20
40.97746537815832
 30
0.0
 40
2.880000042915344
  1
梨地黒アルマイト
 41
0.653124975669198
  7
KCADTEXTSTANDARD
100
AcDbText
1001
Sigma
1000

  0
LINE
  5
396
330
18
100
AcDbEntity
  8
99
  6
Continuous
 62
     4
370
    30
100
AcDbLine
 10
-82.84
 20
32.316666221619
 30
0.0
 11
-15.0
 21
32.316666221619
 31
0.0
1001
Sigma
1000

  0
TEXT
  5
398
330
18
100
AcDbEntity
  8
1
  6
Continuous
 62
     7
370
    30
100
AcDbText
 10
-80.57550309078804
 20
28.97657789230895
 30
0.0
 40
2.073599910736084
  1
２００４年０７月０７日
 41
0.9559974752905175
  7
KCADTEXTSTANDARD
100
AcDbText
1001
Sigma
1000

  0
TEXT
  5
39B
330
18
100
AcDbEntity
  8
7
  6
Continuous
 62
     3
370
    30
100
AcDbText
 10
-43.42445610335336
 20
23.03072844915856
 30
0.0
 40
2.603520038795471
  1
KZ-D075
 41
1.041902994345227
 51
7.000000052497139
  7
KCADTEXTSTANDARD
100
AcDbText
1001
Sigma
1000

  0
TEXT
  5
39D
330
18
100
AcDbEntity
  8
99
  6
Continuous
 62
     4
370
    30
100
AcDbText
 10
-72.71653496490512
 20
32.89487481407491
 30
0.0
 40
1.72799996137619
  1
取
 41
1.20333332153658
  7
KCADTEXTSTANDARD
100
AcDbText
1001
Sigma
1000

  0
LINE
  5
39F
330
18
100
AcDbEntity
  8
1
  6
Continuous
 62
     7
370
    30
100
AcDbLine
 10
-155.9531943913999
 20
143.1685480499399
 30
0.0
 11
-155.9531943913999
 21
147.16854804994
 31
0.0
1001
Sigma
1000

  0
LINE
  5
3A1
330
18
100
AcDbEntity
  8
1
  6
Continuous
 62
     7
370
    30
100
AcDbLine
 10
-155.2894991652
 20
143.1685480499399
 30
0.0
 11
-155.2894991652
 21
147.16854804994
 31
0.0
1001
Sigma
1000

  0
LINE
  5
3A3
330
18
100
AcDbEntity
  8
1
  6
Continuous
 62
     7
370
    30
100
AcDbLine
 10
-154.4531943913999
 20
143.1685480499399
 30
0.0
 11
-154.4531943913999
 21
147.16854804994
 31
0.0
1001
Sigma
1000

  0
LINE
  5
3A5
330
18
100
AcDbEntity
  8
1
  6
Continuous
 62
     7
370
    30
100
AcDbLine
 10
-152.5990924252
 20
143.1685480499399
 30
0.0
 11
-152.5990924252
 21
147.16854804994
 31
0.0
1001
Sigma
1000

  0
LINE
  5
3A7
330
18
100
AcDbEntity
  8
1
  6
Continuous
 62
     7
370
    30
100
AcDbLine
 10
-151.7627876514
 20
143.1685480499399
 30
0.0
 11
-151.7627876514
 21
147.16854804994
 31
0.0
1001
Sigma
1000

  0
LINE
  5
3A9
330
18
100
AcDbEntity
  8
1
  6
Continuous
 62
     7
370
    30
100
AcDbLine
 10
-151.0990924252
 20
143.1685480499399
 30
0.0
 11
-151.0990924252
 21
147.16854804994
 31
0.0
1001
Sigma
1000

  0
LINE
  5
3AB
330
18
100
AcDbEntity
  8
1
  6
Continuous
 62
     7
370
    30
100
AcDbLine
 10
-150.6729738594
 20
143.1685480499399
 30
0.0
 11
-150.6729738594
 21
147.16854804994
 31
0.0
1001
Sigma
1000

  0
LINE
  5
3AD
330
18
100
AcDbEntity
  8
1
  6
Continuous
 62
     7
370
    30
100
AcDbLine
 10
-156.5261434083
 20
147.16854804994
 30
0.0
 11
-156.0261434082999
 21
147.66854804994
 31
0.0
1001
Sigma
1000

  0
LINE
  5
3AF
330
18
100
AcDbEntity
  8
1
  6
Continuous
 62
     7
370
    30
100
AcDbLine
 10
-150.5261434082999
 20
147.16854804994
 30
0.0
 11
-151.0261434082999
 21
147.66854804994
 31
0.0
1001
Sigma
1000

  0
LINE
  5
3B1
330
18
100
AcDbEntity
  8
1
  6
Continuous
 62
     7
370
    30
100
AcDbLine
 10
-156.5261434083
 20
147.16854804994
 30
0.0
 11
-156.5261434083
 21
143.1685480499399
 31
0.0
1001
Sigma
1000

  0
LINE
  5
3B3
330
18
100
AcDbEntity
  8
1
  6
Continuous
 62
     7
370
    30
100
AcDbLine
 10
-151.0261434082999
 20
147.66854804994
 30
0.0
 11
-156.0261434082999
 21
147.66854804994
 31
0.0
1001
Sigma
1000

  0
LINE
  5
3B5
330
18
100
AcDbEntity
  8
1
  6
Continuous
 62
     7
370
    30
100
AcDbLine
 10
-150.5261434082999
 20
143.1685480499399
 30
0.0
 11
-150.5261434082999
 21
147.16854804994
 31
0.0
1001
Sigma
1000

  0
LINE
  5
3B7
330
18
100
AcDbEntity
  8
1
  6
CENTER
 62
   253
370
    15
100
AcDbLine
 10
-153.5261434082999
 20
138.4167865322399
 30
0.0
 11
-153.5261434082999
 21
157.68737041994
 31
0.0
1001
Sigma
1000

  0
ARC
  5
3B9
330
18
100
AcDbEntity
  8
1
  6
Continuous
 62
     7
370
    30
100
AcDbCircle
 10
-149.3633600226999
 20
74.844935951639
 30
0.0
 40
18.0
100
AcDbArc
 50
147.3919673119
 51
212.6080326881
1001
Sigma
1000

  0
LINE
  5
3BB
330
18
100
AcDbEntity
  8
2
  6
Continuous
 62
     7
370
    30
100
AcDbLine
 10
-165.5261434082999
 20
66.922535227839
 30
0.0
 11
-165.5261434082999
 21
82.76733667543899
 31
0.0
1001
Sigma
1000

  0
LINE
  5
3BD
330
18
100
AcDbEntity
  8
1
  6
Continuous
 62
     7
370
    30
100
AcDbLine
 10
-169.499032527
 20
144.0335654299099
 30
0.0
 11
-171.499032527
 21
147.4976670450099
 31
0.0
1001
Sigma
1000

  0
LINE
  5
3BF
330
18
100
AcDbEntity
  8
1
  6
Continuous
 62
     7
370
    30
100
AcDbLine
 10
-170.2232937063
 20
143.6154130430099
 30
0.0
 11
-172.2232937063
 21
147.07951465811
 31
0.0
1001
Sigma
1000

  0
LINE
  5
3C1
330
18
100
AcDbEntity
  8
1
  6
Continuous
 62
     7
370
    30
100
AcDbLine
 10
-171.8289931102999
 20
142.68836205991
 30
0.0
 11
-173.8289931103
 21
146.15246367501
 31
0.0
1001
Sigma
1000

  0
LINE
  5
3C3
330
18
100
AcDbEntity
  8
1
  6
Continuous
 62
     7
370
    30
100
AcDbLine
 10
-168.4280671969999
 20
186.68520854837
 30
0.0
 11
-173.6242196196999
 21
189.68520854837
 31
0.0
1001
Sigma
1000

  0
LINE
  5
3C5
330
18
100
AcDbEntity
  8
1
  6
Continuous
 62
     7
370
    30
100
AcDbLine
 10
-168.6110798988999
 20
187.36822125027
 30
0.0
 11
-168.4280671969999
 21
186.68520854837
 31
0.0
1001
Sigma
1000

  0
LINE
  5
3C7
330
18
100
AcDbEntity
  8
1
  6
Continuous
 62
     7
370
    30
100
AcDbLine
 10
-172.9412069178
 20
189.86822125027
 30
0.0
 11
-173.6242196196999
 21
189.68520854837
 31
0.0
1001
Sigma
1000

  0
LINE
  5
3C9
330
18
100
AcDbEntity
  8
1
  6
Continuous
 62
     7
370
    30
100
AcDbLine
 10
-168.6110798988999
 20
187.36822125027
 30
0.0
 11
-172.9412069178
 21
189.86822125027
 31
0.0
1001
Sigma
1000

  0
LINE
  5
3CB
330
18
100
AcDbEntity
  8
1
  6
CENTER
 62
   253
370
    15
100
AcDbLine
 10
-169.4002626495
 20
191.0013166296399
 30
0.0
 11
-179.0355545933
 21
174.31250143714
 31
0.0
1001
Sigma
1000

  0
LINE
  5
3CD
330
18
100
AcDbEntity
  8
1
  6
Continuous
 62
     7
370
    30
100
AcDbLine
 10
-175.6242196197
 20
186.2211069331699
 30
0.0
 11
-170.4280671969999
 21
183.22110693317
 31
0.0
1001
Sigma
1000

  0
LINE
  5
3CF
330
18
100
AcDbEntity
  8
1
  6
Continuous
 62
     7
370
    30
100
AcDbLine
 10
-168.5552260976999
 20
186.75862377387
 30
0.0
 11
-170.5552260976999
 21
183.2945221587699
 31
0.0
1001
Sigma
1000

  0
LINE
  5
3D1
330
18
100
AcDbEntity
  8
2
  6
Continuous
 62
     7
370
    30
100
AcDbLine
 10
-165.5261434082999
 20
155.66854804994
 30
0.0
 11
-167.5595138612
 21
155.66854804994
 31
0.0
1001
Sigma
1000

  0
LINE
  5
3D3
330
18
100
AcDbEntity
  8
2
  6
Continuous
 62
     7
370
    30
100
AcDbLine
 10
-165.5261434082999
 20
155.96854804994
 30
0.0
 11
-167.3633600227
 21
155.96854804994
 31
0.0
1001
Sigma
1000

  0
LINE
  5
3D5
330
18
100
AcDbEntity
  8
2
  6
Continuous
 62
     7
370
    30
100
AcDbLine
 10
-165.5261434082999
 20
175.66854804994
 30
0.0
 11
-167.5595138612
 21
175.66854804994
 31
0.0
1001
Sigma
1000

  0
LINE
  5
3D7
330
18
100
AcDbEntity
  8
2
  6
Continuous
 62
     7
370
    30
100
AcDbLine
 10
-165.5261434082999
 20
175.36854804994
 30
0.0
 11
-167.3633600227
 21
175.36854804994
 31
0.0
1001
Sigma
1000

  0
LINE
  5
3D9
330
18
100
AcDbEntity
  8
2
  6
Continuous
 62
     7
370
    30
100
AcDbLine
 10
-165.5261434082999
 20
171.58462783304
 30
0.0
 11
-165.5261434082999
 21
175.66854804994
 31
0.0
1001
Sigma
1000

  0
LINE
  5
3DB
330
18
100
AcDbEntity
  8
2
  6
Continuous
 62
     7
370
    30
100
AcDbLine
 10
-165.5261434082999
 20
155.66854804994
 30
0.0
 11
-165.5261434082999
 21
159.7524682668399
 31
0.0
1001
Sigma
1000

  0
LINE
  5
3DD
330
18
100
AcDbEntity
  8
1
  6
Continuous
 62
     7
370
    30
100
AcDbLine
 10
-151.0261434082999
 20
142.66854804994
 30
0.0
 11
-150.5261434082999
 21
143.1685480499399
 31
0.0
1001
Sigma
1000

  0
TEXT
  5
3E1
102
{ACAD_REACTORS
330
3DF
102
}
330
18
100
AcDbEntity
  8
4
  6
Continuous
 62
     7
370
    30
100
AcDbText
 10
-235.1720481276321
 20
115.2883514934379
 30
0.0
 40
2.698749876022338
  1
φ28ﾚﾝｽﾞ取付
 41
0.7600000906410278
  7
KCADTEXTSTANDARD
100
AcDbText
1001
Sigma
1000

  0
LINE
  5
3E3
330
18
100
AcDbEntity
  8
4
  6
Continuous
 62
   253
370
    15
100
AcDbLine
 10
-213.81559239
 20
114.89134281734
 30
0.0
 11
-236.3150228289
 21
114.89134281734
 31
0.0
1001
Sigma
1000

  0
TEXT
  5
3E6
102
{ACAD_REACTORS
330
3E5
102
}
330
18
100
AcDbEntity
  8
4
  6
Continuous
 62
     7
370
    30
100
AcDbText
 10
-234.3789643859321
 20
123.2998926378379
 30
0.0
 40
2.698749876022338
  1
φ31ﾚﾝｽﾞ取付
 41
0.7600000906410278
  7
KCADTEXTSTANDARD
100
AcDbText
1001
Sigma
1000

  0
LINE
  5
3E8
330
18
100
AcDbEntity
  8
1
  6
Continuous
 62
     7
370
    30
100
AcDbLine
 10
-156.0261434082999
 20
142.66854804994
 30
0.0
 11
-151.0261434082999
 21
142.66854804994
 31
0.0
1001
Sigma
1000

  0
LINE
  5
3EA
330
18
100
AcDbEntity
  8
1
  6
Continuous
 62
     7
370
    30
100
AcDbLine
 10
-150.5261434082999
 20
147.16854804994
 30
0.0
 11
-156.5261434083
 21
147.16854804994
 31
0.0
1001
Sigma
1000

  0
LINE
  5
3EC
330
18
100
AcDbEntity
  8
1
  6
Continuous
 62
     7
370
    30
100
AcDbLine
 10
-156.3793129571999
 20
143.1685480499399
 30
0.0
 11
-156.3793129571999
 21
147.16854804994
 31
0.0
1001
Sigma
1000

  0
LINE
  5
3EE
330
18
100
AcDbEntity
  8
1
  6
Continuous
 62
     7
370
    30
100
AcDbLine
 10
-172.5532542896999
 20
142.2702096730099
 30
0.0
 11
-174.5532542896999
 21
145.73431128811
 31
0.0
1001
Sigma
1000

  0
LINE
  5
3F0
330
18
100
AcDbEntity
  8
1
  6
Continuous
 62
     7
370
    30
100
AcDbLine
 10
-173.128031216
 20
141.9383620599099
 30
0.0
 11
-175.128031216
 21
145.40246367501
 31
0.0
1001
Sigma
1000

  0
LINE
  5
3F2
330
18
100
AcDbEntity
  8
1
  6
Continuous
 62
     7
370
    30
100
AcDbLine
 10
-173.497060719
 20
141.72530277701
 30
0.0
 11
-175.4970607189999
 21
145.1894043921099
 31
0.0
1001
Sigma
1000

  0
LINE
  5
3F4
330
18
100
AcDbEntity
  8
1
  6
Continuous
 62
     7
370
    30
100
AcDbLine
 10
-170.4280671969999
 20
148.11598916661
 30
0.0
 11
-175.6242196197
 21
145.11598916661
 31
0.0
1001
Sigma
1000

  0
LINE
  5
3F6
330
18
100
AcDbEntity
  8
1
  6
CENTER
 62
   253
370
    15
100
AcDbLine
 10
-169.4002626495
 20
140.33577947024
 30
0.0
 11
-179.0355545933
 21
157.02459466264
 31
0.0
1001
Sigma
1000

  0
LINE
  5
3F8
330
18
100
AcDbEntity
  8
1
  6
Continuous
 62
     7
370
    30
100
AcDbLine
 10
-172.9412069178
 20
141.46887484951
 30
0.0
 11
-168.6110798988999
 21
143.9688748495099
 31
0.0
1001
Sigma
1000

  0
LINE
  5
3FA
330
18
100
AcDbEntity
  8
1
  6
Continuous
 62
     7
370
    30
100
AcDbLine
 10
-168.6110798988999
 20
143.9688748495099
 30
0.0
 11
-168.4280671969999
 21
144.65188755141
 31
0.0
1001
Sigma
1000

  0
LINE
  5
3FC
330
18
100
AcDbEntity
  8
1
  6
Continuous
 62
     7
370
    30
100
AcDbLine
 10
-172.9412069178
 20
141.46887484951
 30
0.0
 11
-173.6242196196999
 21
141.65188755141
 31
0.0
1001
Sigma
1000

  0
LINE
  5
3FE
330
18
100
AcDbEntity
  8
1
  6
Continuous
 62
     7
370
    30
100
AcDbLine
 10
-173.6242196196999
 20
141.65188755141
 30
0.0
 11
-168.4280671969999
 21
144.65188755141
 31
0.0
1001
Sigma
1000

  0
LINE
  5
400
330
18
100
AcDbEntity
  8
1
  6
Continuous
 62
     7
370
    30
100
AcDbLine
 10
-168.9242556007
 20
186.9716830567699
 30
0.0
 11
-170.9242556007
 21
183.50758144167
 31
0.0
1001
Sigma
1000

  0
LINE
  5
402
330
18
100
AcDbEntity
  8
1
  6
Continuous
 62
     7
370
    30
100
AcDbLine
 10
-154.7261434082999
 20
147.66854804994
 30
0.0
 11
-154.7261434082999
 21
150.66854804994
 31
0.0
1001
Sigma
1000

  0
LINE
  5
404
330
18
100
AcDbEntity
  8
1
  6
Continuous
 62
     7
370
    30
100
AcDbLine
 10
-155.0261434082999
 20
147.66854804994
 30
0.0
 11
-155.0261434082999
 21
150.66854804994
 31
0.0
1001
Sigma
1000

  0
LINE
  5
406
330
18
100
AcDbEntity
  8
1
  6
Continuous
 62
     7
370
    30
100
AcDbLine
 10
-152.3261434082999
 20
147.66854804994
 30
0.0
 11
-152.3261434082999
 21
150.66854804994
 31
0.0
1001
Sigma
1000

  0
LINE
  5
408
330
18
100
AcDbEntity
  8
1
  6
Continuous
 62
     7
370
    30
100
AcDbLine
 10
-152.0261434082999
 20
147.66854804994
 30
0.0
 11
-152.0261434082999
 21
150.66854804994
 31
0.0
1001
Sigma
1000

  0
LINE
  5
40A
330
18
100
AcDbEntity
  8
2
  6
Continuous
 62
     7
370
    30
100
AcDbLine
 10
-164.5261434082999
 20
150.66854804994
 30
0.0
 11
-164.5261434082999
 21
180.66854804994
 31
0.0
1001
Sigma
1000

  0
LINE
  5
40C
330
18
100
AcDbEntity
  8
2
  6
Continuous
 62
     7
370
    30
100
AcDbLine
 10
-148.0261434082999
 20
150.66854804994
 30
0.0
 11
-164.5261434082999
 21
150.66854804994
 31
0.0
1001
Sigma
1000

  0
LINE
  5
40E
330
18
100
AcDbEntity
  8
2
  6
Continuous
 62
     7
370
    30
100
AcDbLine
 10
-148.0261434082999
 20
150.66854804994
 30
0.0
 11
-148.0261434082999
 21
180.66854804994
 31
0.0
1001
Sigma
1000

  0
LINE
  5
410
330
18
100
AcDbEntity
  8
2
  6
Continuous
 62
     7
370
    30
100
AcDbLine
 10
-164.5261434082999
 20
156.16854804994
 30
0.0
 11
-165.5261434082999
 21
156.16854804994
 31
0.0
1001
Sigma
1000

  0
LINE
  5
412
330
18
100
AcDbEntity
  8
2
  6
CENTER
 62
   253
370
    15
100
AcDbLine
 10
-175.0875750323
 20
165.6685480499399
 30
0.0
 11
-102.0433932266999
 21
165.6685480499399
 31
0.0
1001
Sigma
1000

  0
LINE
  5
414
330
18
100
AcDbEntity
  8
2
  6
Continuous
 62
     7
370
    30
100
AcDbLine
 10
-164.5261434082999
 20
175.1685480499399
 30
0.0
 11
-165.5261434082999
 21
175.1685480499399
 31
0.0
1001
Sigma
1000

  0
LINE
  5
416
330
18
100
AcDbEntity
  8
2
  6
Continuous
 62
     7
370
    30
100
AcDbLine
 10
-148.0261434082999
 20
180.66854804994
 30
0.0
 11
-164.5261434082999
 21
180.66854804994
 31
0.0
1001
Sigma
1000

  0
LINE
  5
418
330
18
100
AcDbEntity
  8
1
  6
Continuous
 62
     7
370
    30
100
AcDbLine
 10
-156.5261434083
 20
143.1685480499399
 30
0.0
 11
-150.5261434082999
 21
143.1685480499399
 31
0.0
1001
Sigma
1000

  0
LINE
  5
41A
330
18
100
AcDbEntity
  8
1
  6
Continuous
 62
     7
370
    30
100
AcDbLine
 10
-156.0261434082999
 20
142.66854804994
 30
0.0
 11
-156.5261434083
 21
143.1685480499399
 31
0.0
1001
Sigma
1000

  0
LINE
  5
41C
330
18
100
AcDbEntity
  8
1
  6
Continuous
 62
     7
370
    30
100
AcDbLine
 10
-168.5552260976999
 20
144.57847232591
 30
0.0
 11
-170.5552260976999
 21
148.04257394101
 31
0.0
1001
Sigma
1000

  0
LINE
  5
41E
330
18
100
AcDbEntity
  8
1
  6
Continuous
 62
     7
370
    30
100
AcDbLine
 10
-168.9242556007
 20
144.36541304301
 30
0.0
 11
-170.9242556007
 21
147.82951465811
 31
0.0
1001
Sigma
1000

  0
CIRCLE
  5
420
330
18
100
AcDbEntity
  8
1
  6
Continuous
 62
     7
370
    30
100
AcDbCircle
 10
-184.0261434082999
 20
165.6685480499399
 30
0.0
 40
15.5
1001
Sigma
1000

  0
LINE
  5
422
330
18
100
AcDbEntity
  8
1
  6
CENTER
 62
   253
370
    15
100
AcDbLine
 10
-184.0261434082999
 20
187.41739099114
 30
0.0
 11
-184.0261434082999
 21
143.91970510874
 31
0.0
1001
Sigma
1000

  0
LINE
  5
424
330
18
100
AcDbEntity
  8
1
  6
CENTER
 62
   253
370
    15
100
AcDbLine
 10
-205.7749863495
 20
165.6685480499399
 30
0.0
 11
-162.2773004671
 21
165.6685480499399
 31
0.0
1001
Sigma
1000

  0
CIRCLE
  5
426
330
18
100
AcDbEntity
  8
1
  6
HIDDEN
 62
     7
370
    30
100
AcDbCircle
 10
-184.0261434082999
 20
165.6685480499399
 30
0.0
 40
13.0
1001
Sigma
1000

  0
LINE
  5
428
330
18
100
AcDbEntity
  8
1
  6
Continuous
 62
     7
370
    30
100
AcDbLine
 10
-210.0661879517999
 20
163.24149706674
 30
0.0
 11
-206.0661879518
 21
163.24149706674
 31
0.0
1001
Sigma
1000

  0
LINE
  5
42A
330
18
100
AcDbEntity
  8
1
  6
Continuous
 62
     7
370
    30
100
AcDbLine
 10
-210.0661879517999
 20
168.5217175987399
 30
0.0
 11
-206.0661879518
 21
168.5217175987399
 31
0.0
1001
Sigma
1000

  0
LINE
  5
42C
330
18
100
AcDbEntity
  8
1
  6
Continuous
 62
     7
370
    30
100
AcDbLine
 10
-171.1110798988999
 20
148.29900186851
 30
0.0
 11
-175.4412069178
 21
145.79900186851
 31
0.0
1001
Sigma
1000

  0
LINE
  5
42E
330
18
100
AcDbEntity
  8
1
  6
Continuous
 62
     7
370
    30
100
AcDbLine
 10
-175.6242196197
 20
145.11598916661
 30
0.0
 11
-173.6242196196999
 21
141.65188755141
 31
0.0
1001
Sigma
1000

  0
LINE
  5
430
330
18
100
AcDbEntity
  8
1
  6
Continuous
 62
     7
370
    30
100
AcDbLine
 10
-170.4280671969999
 20
148.11598916661
 30
0.0
 11
-171.1110798988999
 21
148.29900186851
 31
0.0
1001
Sigma
1000

  0
LINE
  5
432
330
18
100
AcDbEntity
  8
1
  6
Continuous
 62
     7
370
    30
100
AcDbLine
 10
-175.6242196197
 20
145.11598916661
 30
0.0
 11
-175.4412069178
 21
145.79900186851
 31
0.0
1001
Sigma
1000

  0
LINE
  5
434
330
18
100
AcDbEntity
  8
1
  6
Continuous
 62
     7
370
    30
100
AcDbLine
 10
-168.4280671969999
 20
144.65188755141
 30
0.0
 11
-170.4280671969999
 21
148.11598916661
 31
0.0
1001
Sigma
1000

  0
LINE
  5
436
330
18
100
AcDbEntity
  8
1
  6
Continuous
 62
     7
370
    30
100
AcDbLine
 10
-172.2369129237999
 20
183.6880942312699
 30
0.0
 11
-173.2553919737
 21
181.92403677021
 31
0.0
1001
Sigma
1000

  0
LINE
  5
438
330
18
100
AcDbEntity
  8
1
  6
Continuous
 62
     7
370
    30
100
AcDbLine
 10
-171.9771053026
 20
183.53809423127
 30
0.0
 11
-173.0059942549999
 21
181.75600629042
 31
0.0
1001
Sigma
1000

  0
LINE
  5
43A
330
18
100
AcDbEntity
  8
1
  6
Continuous
 62
     7
370
    30
100
AcDbLine
 10
-174.3153738928999
 20
184.88809423127
 30
0.0
 11
-175.3338529428
 21
183.1240367702299
 31
0.0
1001
Sigma
1000

  0
LINE
  5
43C
330
18
100
AcDbEntity
  8
1
  6
Continuous
 62
     7
370
    30
100
AcDbLine
 10
-174.575181514
 20
185.03809423127
 30
0.0
 11
-175.6040704664
 21
183.25600629044
 31
0.0
1001
Sigma
1000

  0
LINE
  5
43E
330
18
100
AcDbEntity
  8
1
  6
Continuous
 62
     7
370
    30
100
AcDbLine
 10
-174.3153738928999
 20
146.44900186851
 30
0.0
 11
-175.3353961646
 21
148.2157322680099
 31
0.0
1001
Sigma
1000

  0
LINE
  5
440
330
18
100
AcDbEntity
  8
1
  6
Continuous
 62
     7
370
    30
100
AcDbLine
 10
-174.575181514
 20
146.29900186851
 30
0.0
 11
-175.6064859567
 21
148.08527356131
 31
0.0
1001
Sigma
1000

  0
LINE
  5
442
330
18
100
AcDbEntity
  8
1
  6
Continuous
 62
     7
370
    30
100
AcDbLine
 10
-172.2369129237999
 20
147.6490018685099
 30
0.0
 11
-173.2569351955
 21
149.41573226801
 31
0.0
1001
Sigma
1000

  0
LINE
  5
444
330
18
100
AcDbEntity
  8
1
  6
Continuous
 62
     7
370
    30
100
AcDbLine
 10
-171.9771053026
 20
147.79900186851
 30
0.0
 11
-173.0084097453
 21
149.58527356131
 31
0.0
1001
Sigma
1000

  0
LINE
  5
446
330
18
100
AcDbEntity
  8
1
  6
Continuous
 62
     7
370
    30
100
AcDbLine
 10
-205.5661879517999
 20
166.86854804994
 30
0.0
 11
-203.4891853082999
 21
166.86854804994
 31
0.0
1001
Sigma
1000

  0
LINE
  5
448
330
18
100
AcDbEntity
  8
1
  6
Continuous
 62
     7
370
    30
100
AcDbLine
 10
-205.5661879517999
 20
167.16854804994
 30
0.0
 11
-203.4683655034999
 21
167.16854804994
 31
0.0
1001
Sigma
1000

  0
LINE
  5
44A
330
18
100
AcDbEntity
  8
1
  6
Continuous
 62
     7
370
    30
100
AcDbLine
 10
-205.5661879517999
 20
164.46854804994
 30
0.0
 11
-203.4891853082999
 21
164.46854804994
 31
0.0
1001
Sigma
1000

  0
LINE
  5
44C
330
18
100
AcDbEntity
  8
1
  6
Continuous
 62
     7
370
    30
100
AcDbLine
 10
-205.5661879517999
 20
164.16854804994
 30
0.0
 11
-203.4683655034999
 21
164.16854804994
 31
0.0
1001
Sigma
1000

  0
LINE
  5
44E
330
18
100
AcDbEntity
  8
1
  6
Continuous
 62
     7
370
    30
100
AcDbLine
 10
-210.5661879518
 20
168.16854804994
 30
0.0
 11
-210.0661879517999
 21
168.66854804994
 31
0.0
1001
Sigma
1000

  0
LINE
  5
450
330
18
100
AcDbEntity
  8
1
  6
Continuous
 62
     7
370
    30
100
AcDbLine
 10
-210.0661879517999
 20
168.66854804994
 30
0.0
 11
-210.0661879517999
 21
162.6685480499399
 31
0.0
1001
Sigma
1000

  0
LINE
  5
452
330
18
100
AcDbEntity
  8
1
  6
Continuous
 62
     7
370
    30
100
AcDbLine
 10
-205.5661879517999
 20
163.16854804994
 30
0.0
 11
-205.5661879517999
 21
168.16854804994
 31
0.0
1001
Sigma
1000

  0
LINE
  5
454
330
18
100
AcDbEntity
  8
1
  6
Continuous
 62
     7
370
    30
100
AcDbLine
 10
-206.0661879518
 20
168.66854804994
 30
0.0
 11
-210.0661879517999
 21
168.66854804994
 31
0.0
1001
Sigma
1000

  0
LINE
  5
456
330
18
100
AcDbEntity
  8
1
  6
Continuous
 62
     7
370
    30
100
AcDbLine
 10
-206.0661879518
 20
162.6685480499399
 30
0.0
 11
-205.5661879517999
 21
163.16854804994
 31
0.0
1001
Sigma
1000

  0
LINE
  5
458
330
18
100
AcDbEntity
  8
1
  6
Continuous
 62
     7
370
    30
100
AcDbLine
 10
-206.0661879518
 20
168.66854804994
 30
0.0
 11
-205.5661879517999
 21
168.16854804994
 31
0.0
1001
Sigma
1000

  0
LINE
  5
45A
330
18
100
AcDbEntity
  8
1
  6
Continuous
 62
     7
370
    30
100
AcDbLine
 10
-210.0661879517999
 20
162.8153785010399
 30
0.0
 11
-206.0661879518
 21
162.8153785010399
 31
0.0
1001
Sigma
1000

  0
LINE
  5
45C
330
18
100
AcDbEntity
  8
1
  6
Continuous
 62
     7
370
    30
100
AcDbLine
 10
-206.0661879518
 20
162.6685480499399
 30
0.0
 11
-206.0661879518
 21
168.66854804994
 31
0.0
1001
Sigma
1000

  0
LINE
  5
45E
330
18
100
AcDbEntity
  8
1
  6
CENTER
 62
   253
370
    15
100
AcDbLine
 10
-213.2779049259
 20
165.6685480499399
 30
0.0
 11
-194.0073210383
 21
165.6685480499399
 31
0.0
1001
Sigma
1000

  0
LINE
  5
460
330
18
100
AcDbEntity
  8
1
  6
Continuous
 62
     7
370
    30
100
AcDbLine
 10
-210.5661879518
 20
168.16854804994
 30
0.0
 11
-210.5661879518
 21
163.16854804994
 31
0.0
1001
Sigma
1000

  0
LINE
  5
462
330
18
100
AcDbEntity
  8
1
  6
Continuous
 62
     7
370
    30
100
AcDbLine
 10
-210.5661879518
 20
163.16854804994
 30
0.0
 11
-210.0661879517999
 21
162.6685480499399
 31
0.0
1001
Sigma
1000

  0
CIRCLE
  5
464
330
18
100
AcDbEntity
  8
1
  6
Continuous
 62
     7
370
    30
100
AcDbCircle
 10
-184.0261434082999
 20
165.6685480499399
 30
0.0
 40
19.5
1001
Sigma
1000

  0
LINE
  5
466
330
18
100
AcDbEntity
  8
1
  6
Continuous
 62
     7
370
    30
100
AcDbLine
 10
-169.499032527
 20
187.30353066987
 30
0.0
 11
-171.499032527
 21
183.8394290547699
 31
0.0
1001
Sigma
1000

  0
LINE
  5
468
330
18
100
AcDbEntity
  8
1
  6
Continuous
 62
     7
370
    30
100
AcDbLine
 10
-170.2232937063
 20
187.7216830567699
 30
0.0
 11
-172.2232937063
 21
184.2575814416699
 31
0.0
1001
Sigma
1000

  0
LINE
  5
46A
330
18
100
AcDbEntity
  8
1
  6
Continuous
 62
     7
370
    30
100
AcDbLine
 10
-171.8289931102999
 20
188.6487340398699
 30
0.0
 11
-173.8289931103
 21
185.18463242477
 31
0.0
1001
Sigma
1000

  0
LINE
  5
46C
330
18
100
AcDbEntity
  8
1
  6
Continuous
 62
     7
370
    30
100
AcDbLine
 10
-172.5532542896999
 20
189.06688642677
 30
0.0
 11
-174.5532542896999
 21
185.6027848116699
 31
0.0
1001
Sigma
1000

  0
LINE
  5
46E
330
18
100
AcDbEntity
  8
1
  6
Continuous
 62
     7
370
    30
100
AcDbLine
 10
-173.128031216
 20
189.39873403987
 30
0.0
 11
-175.128031216
 21
185.93463242477
 31
0.0
1001
Sigma
1000

  0
LINE
  5
470
330
18
100
AcDbEntity
  8
1
  6
Continuous
 62
     7
370
    30
100
AcDbLine
 10
-173.497060719
 20
189.61179332277
 30
0.0
 11
-175.4970607189999
 21
186.14769170767
 31
0.0
1001
Sigma
1000

  0
LINE
  5
472
330
18
100
AcDbEntity
  8
1
  6
Continuous
 62
     7
370
    30
100
AcDbLine
 10
-170.4280671969999
 20
183.22110693317
 30
0.0
 11
-171.1110798988999
 21
183.03809423127
 31
0.0
1001
Sigma
1000

  0
LINE
  5
474
330
18
100
AcDbEntity
  8
1
  6
Continuous
 62
     7
370
    30
100
AcDbLine
 10
-175.6242196197
 20
186.2211069331699
 30
0.0
 11
-175.4412069178
 21
185.53809423127
 31
0.0
1001
Sigma
1000

  0
LINE
  5
476
330
18
100
AcDbEntity
  8
1
  6
Continuous
 62
     7
370
    30
100
AcDbLine
 10
-210.0661879517999
 20
163.9051922930399
 30
0.0
 11
-206.0661879518
 21
163.9051922930399
 31
0.0
1001
Sigma
1000

  0
LINE
  5
478
330
18
100
AcDbEntity
  8
1
  6
Continuous
 62
     7
370
    30
100
AcDbLine
 10
-210.0661879517999
 20
164.74149706674
 30
0.0
 11
-206.0661879518
 21
164.74149706674
 31
0.0
1001
Sigma
1000

  0
LINE
  5
47A
330
18
100
AcDbEntity
  8
1
  6
Continuous
 62
     7
370
    30
100
AcDbLine
 10
-210.0661879517999
 20
166.59559903304
 30
0.0
 11
-206.0661879518
 21
166.59559903304
 31
0.0
1001
Sigma
1000

  0
LINE
  5
47C
330
18
100
AcDbEntity
  8
1
  6
Continuous
 62
     7
370
    30
100
AcDbLine
 10
-210.0661879517999
 20
167.43190380674
 30
0.0
 11
-206.0661879518
 21
167.43190380674
 31
0.0
1001
Sigma
1000

  0
LINE
  5
47E
330
18
100
AcDbEntity
  8
1
  6
Continuous
 62
     7
370
    30
100
AcDbLine
 10
-210.0661879517999
 20
168.09559903304
 30
0.0
 11
-206.0661879518
 21
168.09559903304
 31
0.0
1001
Sigma
1000

  0
CIRCLE
  5
480
330
18
100
AcDbEntity
  8
1
  6
Continuous
 62
     7
370
    30
100
AcDbCircle
 10
-184.0261434082999
 20
165.6685480499399
 30
0.0
 40
10.0
1001
Sigma
1000

  0
CIRCLE
  5
482
330
18
100
AcDbEntity
  8
1
  6
Continuous
 62
     7
370
    30
100
AcDbCircle
 10
-184.0261434082999
 20
165.6685480499399
 30
0.0
 40
14.0
1001
Sigma
1000

  0
LINE
  5
484
330
18
100
AcDbEntity
  8
2
  6
CENTER
 62
   253
370
    15
100
AcDbLine
 10
-152.0261434082999
 20
78.64553211054
 30
0.0
 11
-152.0261434082999
 21
71.044339792839
 31
0.0
1001
Sigma
1000

  0
CIRCLE
  5
486
330
18
100
AcDbEntity
  8
1
  6
Continuous
 62
     7
370
    30
100
AcDbCircle
 10
-152.0261434082999
 20
74.844935951639
 30
0.0
 40
3.0
1001
Sigma
1000

  0
LINE
  5
488
330
18
100
AcDbEntity
  8
2
  6
Continuous
 62
     7
370
    30
100
AcDbLine
 10
-146.5261434082999
 20
89.844935951639
 30
0.0
 11
-164.5261434082999
 21
89.844935951639
 31
0.0
1001
Sigma
1000

  0
LINE
  5
48A
330
18
100
AcDbEntity
  8
2
  6
CENTER
 62
   253
370
    15
100
AcDbLine
 10
-173.5875750323
 20
74.844935951639
 30
0.0
 11
-91.83266886171001
 21
74.844935951639
 31
0.0
1001
Sigma
1000

  0
LINE
  5
48C
330
18
100
AcDbEntity
  8
2
  6
HIDDEN
 62
   253
370
    15
100
AcDbLine
 10
-146.5261434082999
 20
86.844935951639
 30
0.0
 11
-162.5261434082999
 21
86.844935951639
 31
0.0
1001
Sigma
1000

  0
LINE
  5
48E
330
18
100
AcDbEntity
  8
2
  6
Continuous
 62
     7
370
    30
100
AcDbLine
 10
-164.5261434082999
 20
65.344935951639
 30
0.0
 11
-164.6522448741
 21
65.344935951639
 31
0.0
1001
Sigma
1000

  0
LINE
  5
490
330
18
100
AcDbEntity
  8
2
  6
Continuous
 62
     7
370
    30
100
AcDbLine
 10
-164.5261434082999
 20
84.344935951639
 30
0.0
 11
-164.6522448741
 21
84.344935951639
 31
0.0
1001
Sigma
1000

  0
ELLIPSE
  5
492
330
18
100
AcDbEntity
  8
1
  6
Continuous
 62
     7
370
    30
100
AcDbEllipse
 10
-172.2761434082999
 20
94.844935951639
 30
0.0
 11
0.0000000000000002
 21
3.0
 31
0.0
210
0.0
220
0.0
230
1.0
 40
0.8660254037999999
 41
0.0000000380127388
 42
3.141592657589206
1001
Sigma
1000

  0
ELLIPSE
  5
494
330
18
100
AcDbEntity
  8
1
  6
Continuous
 62
     7
370
    30
100
AcDbEllipse
 10
-170.0261434083
 20
94.844935951639
 30
0.0
 11
0.0000000000000002
 21
2.5
 31
0.0
210
0.0
220
0.0
230
1.0
 40
0.8660254037999999
 41
0.0
 42
6.283185307179586
1001
Sigma
1000

  0
ELLIPSE
  5
496
330
18
100
AcDbEntity
  8
1
  6
Continuous
 62
     7
370
    30
100
AcDbEllipse
 10
-170.2761434082999
 20
94.844935951639
 30
0.0
 11
0.0000000000000002
 21
3.0
 31
0.0
210
0.0
220
0.0
230
1.0
 40
0.8660254037999999
 41
0.0
 42
6.283185307179586
1001
Sigma
1000

  0
LINE
  5
498
330
18
100
AcDbEntity
  8
1
  6
Continuous
 62
     7
370
    30
100
AcDbLine
 10
-174.7470607189999
 20
93.91788484253899
 30
0.0
 11
-172.7470607190999
 21
93.91788484253899
 31
0.0
1001
Sigma
1000

  0
LINE
  5
49A
330
18
100
AcDbEntity
  8
1
  6
Continuous
 62
     7
370
    30
100
AcDbLine
 10
-174.378031216
 20
93.08158006873901
 30
0.0
 11
-172.378031216
 21
93.08158006873901
 31
0.0
1001
Sigma
1000

  0
LINE
  5
49C
330
18
100
AcDbEntity
  8
1
  6
Continuous
 62
     7
370
    30
100
AcDbLine
 10
-173.8032542898999
 20
92.417884842539
 30
0.0
 11
-171.8032542897
 21
92.417884842539
 31
0.0
1001
Sigma
1000

  0
LINE
  5
49E
330
18
100
AcDbEntity
  8
1
  6
Continuous
 62
     7
370
    30
100
AcDbLine
 10
-173.0789931102999
 20
91.99176627673899
 30
0.0
 11
-171.0789931102999
 21
91.99176627673899
 31
0.0
1001
Sigma
1000

  0
LINE
  5
4A0
330
18
100
AcDbEntity
  8
4
  6
Continuous
 62
   253
370
    15
100
AcDbLine
 10
-199.5261434082999
 20
94.844935951639
 30
0.0
 11
-213.81559239
 21
114.89134281734
 31
0.0
1001
Sigma
1000

  0
LINE
  5
4A2
330
18
100
AcDbEntity
  8
4
  6
Continuous
 62
   253
370
    15
100
AcDbLine
 10
-199.5261434082999
 20
94.844935951639
 30
0.0
 11
-201.2165923201
 21
96.239328013339
 31
0.0
1001
Sigma
1000

  0
LINE
  5
4A4
330
18
100
AcDbEntity
  8
4
  6
Continuous
 62
   253
370
    15
100
AcDbLine
 10
-199.5261434082999
 20
94.844935951639
 30
0.0
 11
-200.2929190789
 21
96.89773935573901
 31
0.0
1001
Sigma
1000

  0
LINE
  5
4A6
330
18
100
AcDbEntity
  8
4
  6
Continuous
 62
   253
370
    15
100
AcDbLine
 10
-213.0225086483
 20
122.90288396174
 30
0.0
 11
-235.5219390870999
 21
122.90288396174
 31
0.0
1001
Sigma
1000

  0
LINE
  5
4A8
330
18
100
AcDbEntity
  8
4
  6
Continuous
 62
   253
370
    15
100
AcDbLine
 10
-201.0261434083
 20
104.8449359516399
 30
0.0
 11
-213.0225086483
 21
122.90288396174
 31
0.0
1001
Sigma
1000

  0
LINE
  5
4AA
330
18
100
AcDbEntity
  8
4
  6
Continuous
 62
   253
370
    15
100
AcDbLine
 10
-201.0261434083
 20
104.8449359516399
 30
0.0
 11
-202.6698148931
 21
106.29417395654
 31
0.0
1001
Sigma
1000

  0
LINE
  5
4AC
330
18
100
AcDbEntity
  8
4
  6
Continuous
 62
   253
370
    15
100
AcDbLine
 10
-201.0261434083
 20
104.8449359516399
 30
0.0
 11
-201.7249856672
 21
106.92184862244
 31
0.0
1001
Sigma
1000

  0
LINE
  5
4AE
330
18
100
AcDbEntity
  8
1
  6
Continuous
 62
     7
370
    30
100
AcDbLine
 10
-170.4280671969999
 20
183.22110693317
 30
0.0
 11
-168.4280671969999
 21
186.68520854837
 31
0.0
1001
Sigma
1000

  0
LINE
  5
4B0
330
18
100
AcDbEntity
  8
1
  6
Continuous
 62
     7
370
    30
100
AcDbLine
 10
-175.4412069178
 20
185.53809423127
 30
0.0
 11
-171.1110798988999
 21
183.03809423127
 31
0.0
1001
Sigma
1000

  0
LINE
  5
4B2
330
18
100
AcDbEntity
  8
1
  6
Continuous
 62
     7
370
    30
100
AcDbLine
 10
-173.6242196196999
 20
189.68520854837
 30
0.0
 11
-175.6242196197
 21
186.2211069331699
 31
0.0
1001
Sigma
1000

  0
LINE
  5
4B4
330
18
100
AcDbEntity
  8
1
  6
Continuous
 62
     7
370
    30
100
AcDbLine
 10
-210.0661879517999
 20
162.6685480499399
 30
0.0
 11
-206.0661879518
 21
162.6685480499399
 31
0.0
1001
Sigma
1000

  0
LINE
  5
4B6
330
18
100
AcDbEntity
  8
1
  6
Continuous
 62
     7
370
    30
100
AcDbLine
 10
-210.0261434082999
 20
91.99176640273901
 30
0.0
 11
-206.0261434082999
 21
91.99176640273901
 31
0.0
1001
Sigma
1000

  0
LINE
  5
4B8
330
18
100
AcDbEntity
  8
1
  6
Continuous
 62
     7
370
    30
100
AcDbLine
 10
-206.0261434082999
 20
91.844935951639
 30
0.0
 11
-206.0261434082999
 21
97.84493595163901
 31
0.0
1001
Sigma
1000

  0
LINE
  5
4BA
330
18
100
AcDbEntity
  8
1
  6
DASHED
 62
   253
370
    15
100
AcDbLine
 10
-214.7779049258999
 20
94.844935951639
 30
0.0
 11
-195.5073210383
 21
94.844935951639
 31
0.0
1001
Sigma
1000

  0
LINE
  5
4BC
330
18
100
AcDbEntity
  8
1
  6
Continuous
 62
     7
370
    30
100
AcDbLine
 10
-210.5261434082999
 20
97.344935951639
 30
0.0
 11
-210.5261434082999
 21
92.344935951639
 31
0.0
1001
Sigma
1000

  0
LINE
  5
4BE
330
18
100
AcDbEntity
  8
1
  6
Continuous
 62
     7
370
    30
100
AcDbLine
 10
-210.5261434082999
 20
92.344935951639
 30
0.0
 11
-210.0261434082999
 21
91.844935951639
 31
0.0
1001
Sigma
1000

  0
LINE
  5
4C0
330
18
100
AcDbEntity
  8
1
  6
Continuous
 62
     7
370
    30
100
AcDbLine
 10
-205.5261434082999
 20
96.34493595163901
 30
0.0
 11
-203.5261434082999
 21
96.34493595163901
 31
0.0
1001
Sigma
1000

  0
LINE
  5
4C2
330
18
100
AcDbEntity
  8
1
  6
Continuous
 62
     7
370
    30
100
AcDbLine
 10
-205.5261434082999
 20
96.04493595163901
 30
0.0
 11
-203.5261434082999
 21
96.04493595163901
 31
0.0
1001
Sigma
1000

  0
LINE
  5
4C4
330
18
100
AcDbEntity
  8
1
  6
Continuous
 62
     7
370
    30
100
AcDbLine
 10
-205.5261434082999
 20
93.64493595163899
 30
0.0
 11
-203.5261434082999
 21
93.64493595163899
 31
0.0
1001
Sigma
1000

  0
LINE
  5
4C6
330
18
100
AcDbEntity
  8
1
  6
Continuous
 62
     7
370
    30
100
AcDbLine
 10
-173.0789931102999
 20
97.69810550054
 30
0.0
 11
-171.0789931102999
 21
97.69810550054
 31
0.0
1001
Sigma
1000

  0
LINE
  5
4C8
330
18
100
AcDbEntity
  8
1
  6
Continuous
 62
     7
370
    30
100
AcDbLine
 10
-173.8032542898999
 20
97.27198693474001
 30
0.0
 11
-171.8032542897
 21
97.27198693474001
 31
0.0
1001
Sigma
1000

  0
LINE
  5
4CA
330
18
100
AcDbEntity
  8
1
  6
Continuous
 62
     7
370
    30
100
AcDbLine
 10
-174.378031216
 20
96.60829170854
 30
0.0
 11
-172.378031216
 21
96.60829170854
 31
0.0
1001
Sigma
1000

  0
LINE
  5
4CC
330
18
100
AcDbEntity
  8
1
  6
Continuous
 62
     7
370
    30
100
AcDbLine
 10
-174.7470607189999
 20
95.77198693474
 30
0.0
 11
-172.7470607190999
 21
95.77198693474
 31
0.0
1001
Sigma
1000

  0
LINE
  5
4CE
330
18
100
AcDbEntity
  8
1
  6
Continuous
 62
     7
370
    30
100
AcDbLine
 10
-174.8742196196999
 20
94.84493588863999
 30
0.0
 11
-172.8742196196999
 21
94.844935951639
 31
0.0
1001
Sigma
1000

  0
LINE
  5
4D0
330
18
100
AcDbEntity
  8
1
  6
Continuous
 62
     7
370
    30
100
AcDbLine
 10
-172.2761434082999
 20
91.844935951639
 30
0.0
 11
-170.2761434082999
 21
91.844935951639
 31
0.0
1001
Sigma
1000

  0
LINE
  5
4D2
330
18
100
AcDbEntity
  8
1
  6
Continuous
 62
     7
370
    30
100
AcDbLine
 10
-172.2761434082999
 20
97.84493595163901
 30
0.0
 11
-170.2761434082999
 21
97.84493595163901
 31
0.0
1001
Sigma
1000

  0
LINE
  5
4D4
330
18
100
AcDbEntity
  8
1
  6
HIDDEN
 62
   253
370
    15
100
AcDbLine
 10
-168.5261434082999
 20
89.844935951639
 30
0.0
 11
-168.5261434082999
 21
99.844935951639
 31
0.0
1001
Sigma
1000

  0
LINE
  5
4D6
330
18
100
AcDbEntity
  8
1
  6
HIDDEN
 62
   253
370
    15
100
AcDbLine
 10
-167.0261434082999
 20
99.844935951639
 30
0.0
 11
-201.0261434083
 21
99.844935951639
 31
0.0
1001
Sigma
1000

  0
LINE
  5
4D8
330
18
100
AcDbEntity
  8
1
  6
HIDDEN
 62
   253
370
    15
100
AcDbLine
 10
-201.0261434083
 20
99.844935951639
 30
0.0
 11
-201.0261434083
 21
109.84493595164
 31
0.0
1001
Sigma
1000

  0
LINE
  5
4DA
330
18
100
AcDbEntity
  8
1
  6
HIDDEN
 62
   253
370
    15
100
AcDbLine
 10
-168.5261434082999
 20
89.844935951639
 30
0.0
 11
-199.5261434082999
 21
89.844935951639
 31
0.0
1001
Sigma
1000

  0
LINE
  5
4DC
330
18
100
AcDbEntity
  8
1
  6
HIDDEN
 62
   253
370
    15
100
AcDbLine
 10
-167.0261434082999
 20
99.844935951639
 30
0.0
 11
-167.0261434082999
 21
109.84493595164
 31
0.0
1001
Sigma
1000

  0
LINE
  5
4DE
330
18
100
AcDbEntity
  8
1
  6
HIDDEN
 62
   253
370
    15
100
AcDbLine
 10
-199.5261434082999
 20
89.844935951639
 30
0.0
 11
-199.5261434082999
 21
99.844935951639
 31
0.0
1001
Sigma
1000

  0
ELLIPSE
  5
4E0
330
18
100
AcDbEntity
  8
1
  6
Continuous
 62
     7
370
    30
100
AcDbEllipse
 10
-173.5461656800999
 20
104.8449359516399
 30
0.0
 11
0.0000000000000001
 21
1.199999999999999
 31
0.0
210
0.0
220
0.0
230
1.0
 40
0.8660254037999999
 41
0.0
 42
6.283185307179586
1001
Sigma
1000

  0
ELLIPSE
  5
4E2
330
18
100
AcDbEntity
  8
1
  6
Continuous
 62
     7
370
    30
100
AcDbEllipse
 10
-173.557447851
 20
104.8449359516399
 30
0.0
 11
0.0000000000000001
 21
1.5
 31
0.0
210
0.0
220
0.0
230
1.0
 40
0.8660254037999999
 41
0.0
 42
6.283185307179586
1001
Sigma
1000

  0
LINE
  5
4E5
330
18
100
AcDbEntity
  8
3
  6
DASHED
 62
   253
370
    15
100
AcDbLine
 10
-184.0261434082999
 20
74.844935951639
 30
0.0
 11
-165.5261434082999
 21
74.844935951639
 31
0.0
1001
Sigma
1000

  0
CIRCLE
  5
4E7
330
18
100
AcDbEntity
  8
1
  6
Continuous
 62
     7
370
    30
100
AcDbCircle
 10
-152.0261434082999
 20
74.844935951639
 30
0.0
 40
2.5
1001
Sigma
1000

  0
LINE
  5
4E9
330
18
100
AcDbEntity
  8
1
  6
Continuous
 62
     7
370
    30
100
AcDbLine
 10
-182.5537452812
 20
20.37253782454
 30
0.0
 11
-185.4985415354
 21
23.31733407874
 31
0.0
1001
Sigma
1000

  0
LINE
  5
4EB
330
18
100
AcDbEntity
  8
1
  6
Continuous
 62
     7
370
    30
100
AcDbLine
 10
-182.5537452812
 20
23.31733407874
 30
0.0
 11
-185.4985415354
 21
20.37253782454
 31
0.0
1001
Sigma
1000

  0
LINE
  5
4ED
330
18
100
AcDbEntity
  8
1
  6
DASHED
 62
   253
370
    15
100
AcDbLine
 10
-205.0267162718
 20
56.844935951639
 30
0.0
 11
-197.0255705447999
 21
56.844935951639
 31
0.0
1001
Sigma
1000

  0
LINE
  5
4EF
330
18
100
AcDbEntity
  8
2
  6
Continuous
 62
     7
370
    30
100
AcDbLine
 10
-146.5261434082999
 20
59.844935951639
 30
0.0
 11
-164.5261434082999
 21
59.844935951639
 31
0.0
1001
Sigma
1000

  0
ELLIPSE
  5
4F1
330
18
100
AcDbEntity
  8
1
  6
Continuous
 62
     7
370
    30
100
AcDbEllipse
 10
-173.5461656800999
 20
56.844935951639
 30
0.0
 11
0.0000000000000001
 21
1.199999999999999
 31
0.0
210
0.0
220
0.0
230
1.0
 40
0.8660254037999999
 41
0.0
 42
6.283185307179586
1001
Sigma
1000

  0
LINE
  5
4F3
330
18
100
AcDbEntity
  8
1
  6
Continuous
 62
     7
370
    30
100
AcDbLine
 10
-205.5261434082999
 20
93.344935951639
 30
0.0
 11
-203.5261434082999
 21
93.344935951639
 31
0.0
1001
Sigma
1000

  0
LINE
  5
4F5
330
18
100
AcDbEntity
  8
1
  6
DASHED
 62
   253
370
    15
100
AcDbLine
 10
-204.9320036345999
 20
104.8449359516399
 30
0.0
 11
-199.6202831819999
 21
104.8449359516399
 31
0.0
1001
Sigma
1000

  0
LINE
  5
4F7
330
18
100
AcDbEntity
  8
1
  6
Continuous
 62
     7
370
    30
100
AcDbLine
 10
-203.5261434082999
 20
109.84493595164
 30
0.0
 11
-164.5261434082999
 21
109.84493595164
 31
0.0
1001
Sigma
1000

  0
LINE
  5
4F9
330
18
100
AcDbEntity
  8
1
  6
CENTER
 62
   253
370
    15
100
AcDbLine
 10
-162.0449298989
 20
74.844935951639
 30
0.0
 11
-179.747960202
 21
74.844935951639
 31
0.0
1001
Sigma
1000

  0
LINE
  5
4FB
330
18
100
AcDbEntity
  8
1
  6
Continuous
 62
     7
370
    30
100
AcDbLine
 10
-210.5261434082999
 20
97.344935951639
 30
0.0
 11
-210.0261434082999
 21
97.84493595163901
 31
0.0
1001
Sigma
1000

  0
LINE
  5
4FD
330
18
100
AcDbEntity
  8
1
  6
Continuous
 62
     7
370
    30
100
AcDbLine
 10
-210.0261434082999
 20
97.84493595163901
 30
0.0
 11
-210.0261434082999
 21
91.844935951639
 31
0.0
1001
Sigma
1000

  0
LINE
  5
4FF
330
18
100
AcDbEntity
  8
1
  6
Continuous
 62
     7
370
    30
100
AcDbLine
 10
-210.0261434082999
 20
93.081580194739
 30
0.0
 11
-206.0261434082999
 21
93.081580194739
 31
0.0
1001
Sigma
1000

  0
LINE
  5
501
330
18
100
AcDbEntity
  8
1
  6
Continuous
 62
     7
370
    30
100
AcDbLine
 10
-210.0261434082999
 20
93.917884968539
 30
0.0
 11
-206.0261434082999
 21
93.917884968539
 31
0.0
1001
Sigma
1000

  0
LINE
  5
503
330
18
100
AcDbEntity
  8
1
  6
Continuous
 62
     7
370
    30
100
AcDbLine
 10
-210.0261434082999
 20
95.77198693474
 30
0.0
 11
-206.0261434082999
 21
95.77198693474
 31
0.0
1001
Sigma
1000

  0
LINE
  5
505
330
18
100
AcDbEntity
  8
1
  6
Continuous
 62
     7
370
    30
100
AcDbLine
 10
-210.0261434082999
 20
96.60829170854
 30
0.0
 11
-206.0261434082999
 21
96.60829170854
 31
0.0
1001
Sigma
1000

  0
LINE
  5
507
330
18
100
AcDbEntity
  8
1
  6
Continuous
 62
     7
370
    30
100
AcDbLine
 10
-210.0261434082999
 20
97.27198693474001
 30
0.0
 11
-206.0261434082999
 21
97.27198693474001
 31
0.0
1001
Sigma
1000

  0
LINE
  5
509
330
18
100
AcDbEntity
  8
1
  6
Continuous
 62
     7
370
    30
100
AcDbLine
 10
-210.0261434082999
 20
92.41788496853899
 30
0.0
 11
-206.0261434082999
 21
92.41788496853899
 31
0.0
1001
Sigma
1000

  0
LINE
  5
50B
330
18
100
AcDbEntity
  8
1
  6
Continuous
 62
     7
370
    30
100
AcDbLine
 10
-210.0261434082999
 20
97.69810550054
 30
0.0
 11
-206.0261434082999
 21
97.69810550054
 31
0.0
1001
Sigma
1000

  0
LINE
  5
50D
330
18
100
AcDbEntity
  8
1
  6
Continuous
 62
     7
370
    30
100
AcDbLine
 10
-210.0261434082999
 20
91.844935951639
 30
0.0
 11
-206.0261434082999
 21
91.844935951639
 31
0.0
1001
Sigma
1000

  0
LINE
  5
50F
330
18
100
AcDbEntity
  8
1
  6
Continuous
 62
     7
370
    30
100
AcDbLine
 10
-205.5261434082999
 20
92.344935951639
 30
0.0
 11
-205.5261434082999
 21
97.344935951639
 31
0.0
1001
Sigma
1000

  0
LINE
  5
511
330
18
100
AcDbEntity
  8
1
  6
Continuous
 62
     7
370
    30
100
AcDbLine
 10
-206.0261434082999
 20
97.84493595163901
 30
0.0
 11
-210.0261434082999
 21
97.84493595163901
 31
0.0
1001
Sigma
1000

  0
LINE
  5
513
330
18
100
AcDbEntity
  8
1
  6
Continuous
 62
     7
370
    30
100
AcDbLine
 10
-206.0261434082999
 20
91.844935951639
 30
0.0
 11
-205.5261434082999
 21
92.344935951639
 31
0.0
1001
Sigma
1000

  0
LINE
  5
515
330
18
100
AcDbEntity
  8
1
  6
Continuous
 62
     7
370
    30
100
AcDbLine
 10
-206.0261434082999
 20
97.84493595163901
 30
0.0
 11
-205.5261434082999
 21
97.344935951639
 31
0.0
1001
Sigma
1000

  0
TEXT
  5
518
102
{ACAD_REACTORS
330
517
102
}
330
18
100
AcDbEntity
  8
KCAD_ASST
  6
Continuous
 62
     7
370
    30
100
AcDbText
 10
-264.9151065684855
 20
175.7108192822371
 30
0.0
 40
5.855206489562988
  1
KZ-D075
 41
1.019212035325061
  7
KCADTEXTSTANDARD
100
AcDbText
1001
Sigma
1000
ASST
  0
LINE
  5
51A
330
18
100
AcDbEntity
  8
2
  6
HIDDEN
 62
   253
370
    15
100
AcDbLine
 10
-162.5261434082999
 20
86.844935951639
 30
0.0
 11
-162.5261434082999
 21
62.844935951639
 31
0.0
1001
Sigma
1000

  0
LINE
  5
51C
330
18
100
AcDbEntity
  8
2
  6
HIDDEN
 62
   253
370
    15
100
AcDbLine
 10
-146.5261434082999
 20
62.844935951639
 30
0.0
 11
-162.5261434082999
 21
62.844935951639
 31
0.0
1001
Sigma
1000

  0
LINE
  5
51E
330
18
100
AcDbEntity
  8
2
  6
Continuous
 62
     7
370
    30
100
AcDbLine
 10
-164.5261434082999
 20
59.844935951639
 30
0.0
 11
-164.5261434082999
 21
89.844935951639
 31
0.0
1001
Sigma
1000

  0
LINE
  5
520
330
18
100
AcDbEntity
  8
2
  6
Continuous
 62
     7
370
    30
100
AcDbLine
 10
-146.5261434082999
 20
59.844935951639
 30
0.0
 11
-146.5261434082999
 21
89.844935951639
 31
0.0
1001
Sigma
1000

  0
LINE
  5
522
330
18
100
AcDbEntity
  8
1
  6
CENTER
 62
   253
370
    15
100
AcDbLine
 10
-184.0261434082999
 20
51.08197298873999
 30
0.0
 11
-184.0261434082999
 21
113.9169845627399
 31
0.0
1001
Sigma
1000

  0
LINE
  5
524
330
18
100
AcDbEntity
  8
1
  6
Continuous
 62
     7
370
    30
100
AcDbLine
 10
-164.5261434082999
 20
109.84493595164
 30
0.0
 11
-164.5261434082999
 21
54.844935951639
 31
0.0
1001
Sigma
1000

  0
LINE
  5
526
330
18
100
AcDbEntity
  8
1
  6
Continuous
 62
     7
370
    30
100
AcDbLine
 10
-203.5261434082999
 20
54.844935951639
 30
0.0
 11
-203.5261434082999
 21
109.84493595164
 31
0.0
1001
Sigma
1000

  0
LINE
  5
528
330
18
100
AcDbEntity
  8
3
  6
DASHED
 62
   253
370
    15
100
AcDbLine
 10
-184.0261434082999
 20
21.84493595163899
 30
0.0
 11
-184.0261434082999
 21
74.844935951639
 31
0.0
1001
Sigma
1000

  0
LINE
  5
52A
330
18
100
AcDbEntity
  8
3
  6
Continuous
 62
     7
370
    30
100
AcDbLine
 10
-196.7011434083
 20
51.844935951639
 30
0.0
 11
-196.7011434083
 21
54.844935951639
 31
0.0
1001
Sigma
1000

  0
LINE
  5
52C
330
18
100
AcDbEntity
  8
3
  6
Continuous
 62
     7
370
    30
100
AcDbLine
 10
-196.4230184083
 20
51.844935951639
 30
0.0
 11
-196.4230184083
 21
54.844935951639
 31
0.0
1001
Sigma
1000

  0
LINE
  5
52E
330
18
100
AcDbEntity
  8
3
  6
Continuous
 62
     7
370
    30
100
AcDbLine
 10
-171.5761434083
 20
51.844935951639
 30
0.0
 11
-171.5761434083
 21
54.844935951639
 31
0.0
1001
Sigma
1000

  0
LINE
  5
530
330
18
100
AcDbEntity
  8
3
  6
Continuous
 62
     7
370
    30
100
AcDbLine
 10
-171.2761434083
 20
51.844935951639
 30
0.0
 11
-171.2761434083
 21
54.844935951639
 31
0.0
1001
Sigma
1000

  0
LINE
  5
532
330
18
100
AcDbEntity
  8
3
  6
Continuous
 62
     7
370
    30
100
AcDbLine
 10
-168.5261434082999
 20
51.844935951639
 30
0.0
 11
-168.5261434082999
 21
54.844935951639
 31
0.0
1001
Sigma
1000

  0
LINE
  5
534
330
18
100
AcDbEntity
  8
3
  6
Continuous
 62
     7
370
    30
100
AcDbLine
 10
-168.5261434082999
 20
54.844935951639
 30
0.0
 11
-199.5261434082999
 21
54.844935951639
 31
0.0
1001
Sigma
1000

  0
ELLIPSE
  5
536
330
18
100
AcDbEntity
  8
1
  6
Continuous
 62
     7
370
    30
100
AcDbEllipse
 10
-173.557447851
 20
56.844935951639
 30
0.0
 11
0.0000000000000001
 21
1.5
 31
0.0
210
0.0
220
0.0
230
1.0
 40
0.8660254037999999
 41
0.0
 42
6.283185307179586
1001
Sigma
1000

  0
LINE
  5
538
330
18
100
AcDbEntity
  8
3
  6
Continuous
 62
     7
370
    30
100
AcDbLine
 10
-199.5261434082999
 20
51.844935951639
 30
0.0
 11
-199.5261434082999
 21
54.844935951639
 31
0.0
1001
Sigma
1000

  0
LINE
  5
53A
330
18
100
AcDbEntity
  8
1
  6
Continuous
 62
     7
370
    30
100
AcDbLine
 10
-164.5261434082999
 20
54.844935951639
 30
0.0
 11
-203.5261434082999
 21
54.844935951639
 31
0.0
1001
Sigma
1000

  0
LINE
  5
53C
330
18
100
AcDbEntity
  8
3
  6
Continuous
 62
     7
370
    30
100
AcDbLine
 10
-168.5261434082999
 20
51.844935951639
 30
0.0
 11
-199.5261434082999
 21
51.844935951639
 31
0.0
1001
Sigma
1000

  0
LINE
  5
53E
330
18
100
AcDbEntity
  8
4
  6
Continuous
 62
     7
370
    30
100
AcDbLine
 10
-184.0261434082999
 20
51.844935951639
 30
0.0
 11
-194.5714757428999
 21
42.74086031883999
 31
0.0
1001
Sigma
1000

  0
LINE
  5
540
330
18
100
AcDbEntity
  8
4
  6
Continuous
 62
     7
370
    30
100
AcDbLine
 10
-184.0261434082999
 20
51.844935951639
 30
0.0
 11
-185.1156625763
 21
49.94364830173999
 31
0.0
1001
Sigma
1000

  0
LINE
  5
542
330
18
100
AcDbEntity
  8
4
  6
Continuous
 62
     7
370
    30
100
AcDbLine
 10
-184.0261434082999
 20
51.844935951639
 30
0.0
 11
-185.9203385106
 21
50.74313213094
 31
0.0
1001
Sigma
1000

  0
LINE
  5
544
330
18
100
AcDbEntity
  8
4
  6
Continuous
 62
     7
370
    30
100
AcDbLine
 10
-194.5714757428999
 20
42.74086031883999
 30
0.0
 11
-218.1685108183999
 21
42.74086031883899
 31
0.0
1001
Sigma
1000

  0
DIMENSION
  5
546
330
18
100
AcDbEntity
  8
KCAD_DIMS
100
AcDbDimension
  2
*D27
 10
-86.56644120414
 20
150.66854804994
 30
0.0
 11
-88.69977420414
 21
165.6685480499399
 31
0.0
 70
   160
 71
     5
 42
30.0
  3
STANDARD
100
AcDbAlignedDimension
 13
-148.0261434082999
 23
180.66854804994
 33
0.0
 14
-148.0261434082999
 24
150.66854804994
 34
0.0
 50
90.0
100
AcDbRotatedDimension
1001
Sigma
1000
DIM_TPVO
1001
KCAD_DIM_EXT
1002
{
1071
 20001212
1070
     0
1070
     2
1070
     2
1040
2.5
1040
0.0
1040
0.0
1040
0.0
1040
0.0
1040
0.0
1040
0.0
1040
0.0
1070
     0
1040
50.0
1040
-1.0
1013
1.0
1023
0.0
1033
0.0
1040
0.0
1013
1.0
1023
0.0
1033
0.0
1000
_None
1040
1.0
1040
30.0
1070
     0
1070
     0
1070
     0
1012
1.0
1022
0.0
1032
0.0
1013
1.0
1023
0.0
1033
0.0
1002
}
1001
ACAD
1000
DSTYLE
1002
{
1070
     3
1000
φ<>
1070
    41
1040
2.5
1070
    42
1040
0.0
1070
    43
1040
8.0
1070
    44
1040
0.0
1070
    45
1040
0.0
1070
    73
1070
     0
1070
    74
1070
     0
1070
    77
1070
     1
1070
    78
1070
     8
1070
    79
1070
     2
1070
   140
1040
3.2
1070
   141
1040
2.5
1070
   145
1040
0.0001
1070
   146
1040
0.667
1070
   147
1040
0.5333000000000001
1070
   172
1070
     1
1070
   173
1070
     1
1070
   179
1070
     3
1070
   271
1070
     2
1070
   272
1070
     3
1070
   279
1070
     2
1070
   284
1070
     8
1070
   289
1070
     2
1070
   340
1005
189
1070
   341
1005
21
1070
   343
1005
12D
1070
   344
1005
12D
1002
}
  0
DIMENSION
  5
582
330
18
100
AcDbEntity
  8
KCAD_DIMS
100
AcDbDimension
  2
*D28
 10
-164.5261434082999
 20
120.7530865172599
 30
0.0
 11
-184.0261434082999
 21
122.88641951726
 31
0.0
 70
   160
 71
     5
 42
39.0
  3
STANDARD
100
AcDbAlignedDimension
 13
-203.5261434082999
 23
110.84493595164
 33
0.0
 14
-164.5261434082999
 24
109.84493595164
 34
0.0
100
AcDbRotatedDimension
1001
Sigma
1000
DIM_TPHO
1001
KCAD_DIM_EXT
1002
{
1071
 20001212
1070
     0
1070
     2
1070
     2
1040
2.5
1040
0.0
1040
0.0
1040
0.0
1040
0.0
1040
0.0
1040
0.0
1040
0.0
1070
     0
1040
50.0
1040
-1.0
1013
1.0
1023
0.0
1033
0.0
1040
0.0
1013
1.0
1023
0.0
1033
0.0
1000
_None
1040
1.0
1040
39.0
1070
     0
1070
     0
1070
     0
1012
1.0
1022
0.0
1032
0.0
1013
1.0
1023
0.0
1033
0.0
1002
}
1001
ACAD
1000
DSTYLE
1002
{
1070
     3
1000
φ<>
1070
    41
1040
2.5
1070
    42
1040
0.0
1070
    43
1040
8.0
1070
    44
1040
0.0
1070
    45
1040
0.0
1070
    73
1070
     0
1070
    74
1070
     0
1070
    77
1070
     1
1070
    78
1070
     8
1070
    79
1070
     2
1070
   140
1040
3.2
1070
   141
1040
2.5
1070
   145
1040
0.0001
1070
   146
1040
0.667
1070
   147
1040
0.5333000000000001
1070
   172
1070
     1
1070
   173
1070
     1
1070
   179
1070
     3
1070
   271
1070
     2
1070
   272
1070
     3
1070
   279
1070
     2
1070
   284
1070
     8
1070
   289
1070
     2
1070
   340
1005
189
1070
   341
1005
21
1070
   343
1005
12D
1070
   344
1005
12D
1002
}
  0
DIMENSION
  5
5BE
330
18
100
AcDbEntity
  8
KCAD_DIMS
100
AcDbDimension
  2
*D29
 10
-67.36700564439999
 20
74.84493595163899
 30
0.0
 11
-69.50033864439999
 21
92.34493595164
 31
0.0
 70
   160
 71
     5
 42
35.00000000000098
  3
STANDARD
100
AcDbAlignedDimension
 13
-164.5261434082999
 23
109.84493595164
 33
0.0
 14
-142.9440921263
 24
74.844935951639
 34
0.0
 50
90.0
100
AcDbRotatedDimension
1001
Sigma
1000
DIM_TPVO
1001
KCAD_DIM_EXT
1002
{
1071
 20001212
1070
     0
1070
     2
1070
     2
1040
2.5
1040
0.0
1040
0.0
1040
0.0
1040
0.0
1040
0.0
1040
0.0
1040
0.0
1070
     0
1040
50.0
1040
-1.0
1013
1.0
1023
0.0
1033
0.0
1040
0.0
1013
1.0
1023
0.0
1033
0.0
1000
_None
1040
1.0
1040
35.000000000001
1070
     0
1070
     0
1070
     0
1012
1.0
1022
0.0
1032
0.0
1013
1.0
1023
0.0
1033
0.0
1002
}
1001
ACAD
1000
DSTYLE
1002
{
1070
    41
1040
2.5
1070
    42
1040
0.0
1070
    43
1040
8.0
1070
    44
1040
0.0
1070
    45
1040
0.0
1070
    73
1070
     0
1070
    74
1070
     0
1070
    77
1070
     1
1070
    78
1070
     8
1070
    79
1070
     2
1070
   140
1040
3.2
1070
   141
1040
2.5
1070
   145
1040
0.0001
1070
   146
1040
0.667
1070
   147
1040
0.5333000000000001
1070
   172
1070
     1
1070
   173
1070
     1
1070
   179
1070
     3
1070
   271
1070
     2
1070
   272
1070
     3
1070
   279
1070
     2
1070
   284
1070
     8
1070
   289
1070
     2
1070
   340
1005
189
1070
   341
1005
21
1070
   343
1005
12D
1070
   344
1005
12D
1002
}
  0
DIMENSION
  5
5FA
330
18
100
AcDbEntity
  8
KCAD_DIMS
100
AcDbDimension
  2
*D30
 10
-67.36700564439999
 20
51.84493595163996
 30
0.0
 11
-69.50033864439999
 21
63.34493595164
 31
0.0
 70
   160
 71
     5
 42
22.99999999999901
  3
STANDARD
100
AcDbAlignedDimension
 13
-146.5261434082999
 23
74.844935951639
 33
0.0
 14
-168.5261434082999
 24
51.84493595163999
 34
0.0
 50
90.0
100
AcDbRotatedDimension
1001
Sigma
1000
DIM_TPVO
1001
KCAD_DIM_EXT
1002
{
1071
 20001212
1070
     0
1070
     2
1070
     2
1040
2.5
1040
0.0
1040
0.0
1040
0.0
1040
0.0
1040
0.0
1040
0.0
1040
0.0
1070
     0
1040
50.0
1040
-1.0
1013
1.0
1023
0.0
1033
0.0
1040
0.0
1013
1.0
1023
0.0
1033
0.0
1000
_None
1040
1.0
1040
22.999999999999
1070
     0
1070
     0
1070
     0
1012
1.0
1022
0.0
1032
0.0
1013
1.0
1023
0.0
1033
0.0
1002
}
1001
ACAD
1000
DSTYLE
1002
{
1070
    41
1040
2.5
1070
    42
1040
0.0
1070
    43
1040
8.0
1070
    44
1040
0.0
1070
    45
1040
0.0
1070
    73
1070
     0
1070
    74
1070
     0
1070
    77
1070
     1
1070
    78
1070
     8
1070
    79
1070
     2
1070
   140
1040
3.2
1070
   141
1040
2.5
1070
   145
1040
0.0001
1070
   146
1040
0.667
1070
   147
1040
0.5333000000000001
1070
   172
1070
     1
1070
   173
1070
     1
1070
   179
1070
     3
1070
   271
1070
     2
1070
   272
1070
     3
1070
   279
1070
     2
1070
   284
1070
     8
1070
   289
1070
     2
1070
   340
1005
189
1070
   341
1005
21
1070
   343
1005
12D
1070
   344
1005
12D
1002
}
  0
DIMENSION
  5
636
330
18
100
AcDbEntity
  8
KCAD_DIMS
100
AcDbDimension
  2
*D31
 10
-146.5261434082999
 20
34.07622856806
 30
0.0
 11
-165.2761434082999
 21
36.20956156806
 31
0.0
 70
   160
 71
     5
 42
37.5
  3
STANDARD
100
AcDbAlignedDimension
 13
-184.0261434082999
 23
54.844935951639
 33
0.0
 14
-146.5261434082999
 24
59.844935951639
 34
0.0
100
AcDbRotatedDimension
1001
Sigma
1000
DIM_TPHO
1001
KCAD_DIM_EXT
1002
{
1071
 20001212
1070
     0
1070
     2
1070
     2
1040
2.5
1040
0.0
1040
0.0
1040
0.0
1040
0.0
1040
0.0
1040
0.0
1040
0.0
1070
     0
1040
50.0
1040
-1.0
1013
1.0
1023
0.0
1033
0.0
1040
0.0
1013
1.0
1023
0.0
1033
0.0
1000
_None
1040
1.0
1040
37.5
1070
     0
1070
     0
1070
     0
1012
1.0
1022
0.0
1032
0.0
1013
1.0
1023
0.0
1033
0.0
1002
}
1001
ACAD
1000
DSTYLE
1002
{
1070
    41
1040
2.5
1070
    42
1040
0.0
1070
    43
1040
8.0
1070
    44
1040
0.0
1070
    45
1040
0.0
1070
    73
1070
     0
1070
    74
1070
     0
1070
    77
1070
     1
1070
    78
1070
     8
1070
    79
1070
     2
1070
   140
1040
3.2
1070
   141
1040
2.5
1070
   145
1040
0.0001
1070
   146
1040
0.667
1070
   147
1040
0.5333000000000001
1070
   172
1070
     1
1070
   173
1070
     1
1070
   179
1070
     3
1070
   271
1070
     2
1070
   272
1070
     3
1070
   279
1070
     2
1070
   284
1070
     8
1070
   289
1070
     2
1070
   340
1005
189
1070
   341
1005
21
1070
   343
1005
12D
1070
   344
1005
12D
1002
}
  0
DIMENSION
  5
672
330
18
100
AcDbEntity
  8
KCAD_DIMS
100
AcDbDimension
  2
*D32
 10
-230.9568312271
 20
109.84493595164
 30
0.0
 11
-233.0901642270999
 21
80.844935951639
 31
0.0
 70
   160
 71
     5
 42
58.0
  3
STANDARD
100
AcDbAlignedDimension
 13
-184.0261434082999
 23
51.84493595163999
 33
0.0
 14
-184.0261434082999
 24
109.84493595164
 34
0.0
 50
90.0
100
AcDbRotatedDimension
1001
Sigma
1000
DIM_TPVO
1001
KCAD_DIM_EXT
1002
{
1071
 20001212
1070
     0
1070
     2
1070
     2
1040
2.5
1040
0.0
1040
0.0
1040
0.0
1040
0.0
1040
0.0
1040
0.0
1040
0.0
1070
     0
1040
50.0
1040
-1.0
1013
1.0
1023
0.0
1033
0.0
1040
0.0
1013
1.0
1023
0.0
1033
0.0
1000
_None
1040
1.0
1040
58.0
1070
     0
1070
     0
1070
     0
1012
1.0
1022
0.0
1032
0.0
1013
1.0
1023
0.0
1033
0.0
1002
}
1001
ACAD
1000
DSTYLE
1002
{
1070
    41
1040
2.5
1070
    42
1040
0.0
1070
    43
1040
8.0
1070
    44
1040
0.0
1070
    45
1040
0.0
1070
    73
1070
     0
1070
    74
1070
     0
1070
    77
1070
     1
1070
    78
1070
     8
1070
    79
1070
     2
1070
   140
1040
3.2
1070
   141
1040
2.5
1070
   145
1040
0.0001
1070
   146
1040
0.667
1070
   147
1040
0.5333000000000001
1070
   172
1070
     1
1070
   173
1070
     1
1070
   179
1070
     3
1070
   271
1070
     2
1070
   272
1070
     3
1070
   279
1070
     2
1070
   284
1070
     8
1070
   289
1070
     2
1070
   340
1005
189
1070
   341
1005
21
1070
   343
1005
12D
1070
   344
1005
12D
1002
}
  0
DIMENSION
  5
6AE
330
18
100
AcDbEntity
  8
KCAD_DIMS
100
AcDbDimension
  2
*D33
 10
-225.1012483537
 20
109.84493595164
 30
0.0
 11
-227.2345813537
 21
99.844935951639
 31
0.0
 70
   160
 71
     5
 42
20.00000000000099
  3
STANDARD
100
AcDbAlignedDimension
 13
-199.5261434082999
 23
89.844935951639
 33
0.0
 14
-201.0261434083
 24
109.84493595164
 34
0.0
 50
90.0
100
AcDbRotatedDimension
1001
Sigma
1000
DIM_TPVO
1001
KCAD_DIM_EXT
1002
{
1071
 20001212
1070
     0
1070
     2
1070
     2
1040
2.5
1040
0.0
1040
0.0
1040
0.0
1040
0.0
1040
0.0
1040
0.0
1040
0.0
1070
     0
1040
50.0
1040
-1.0
1013
1.0
1023
0.0
1033
0.0
1040
0.0
1013
1.0
1023
0.0
1033
0.0
1000
_None
1040
1.0
1040
20.0
1070
     0
1070
     0
1070
     0
1012
1.0
1022
0.0
1032
0.0
1013
1.0
1023
0.0
1033
0.0
1002
}
1001
ACAD
1000
DSTYLE
1002
{
1070
    41
1040
2.5
1070
    42
1040
0.0
1070
    43
1040
8.0
1070
    44
1040
0.0
1070
    45
1040
0.0
1070
    73
1070
     0
1070
    74
1070
     0
1070
    77
1070
     1
1070
    78
1070
     8
1070
    79
1070
     2
1070
   140
1040
3.2
1070
   141
1040
2.5
1070
   145
1040
0.0001
1070
   146
1040
0.667
1070
   147
1040
0.5333000000000001
1070
   172
1070
     1
1070
   173
1070
     1
1070
   179
1070
     3
1070
   271
1070
     2
1070
   272
1070
     3
1070
   279
1070
     2
1070
   284
1070
     8
1070
   289
1070
     2
1070
   340
1005
189
1070
   341
1005
21
1070
   343
1005
12D
1070
   344
1005
12D
1002
}
  0
DIMENSION
  5
6EA
330
18
100
AcDbEntity
  8
KCAD_DIMS
100
AcDbDimension
  2
*D34
 10
-219.7672878645
 20
109.84493595164
 30
0.0
 11
-221.9006208644999
 21
104.8449359516399
 31
0.0
 70
   160
 71
     5
 42
10.00000000000099
  3
STANDARD
100
AcDbAlignedDimension
 13
-199.5261434082999
 23
99.844935951639
 33
0.0
 14
-201.0261434083
 24
109.84493595164
 34
0.0
 50
90.0
100
AcDbRotatedDimension
1001
Sigma
1000
DIM_TPVO
1001
KCAD_DIM_EXT
1002
{
1071
 20001212
1070
     0
1070
     2
1070
     2
1040
2.5
1040
0.0
1040
0.0
1040
0.0
1040
0.0
1040
0.0
1040
0.0
1040
0.0
1070
     0
1040
50.0
1040
-1.0
1013
1.0
1023
0.0
1033
0.0
1040
0.0
1013
1.0
1023
0.0
1033
0.0
1000
_None
1040
1.0
1040
10.0
1070
     0
1070
     0
1070
     0
1012
1.0
1022
0.0
1032
0.0
1013
1.0
1023
0.0
1033
0.0
1002
}
1001
ACAD
1000
DSTYLE
1002
{
1070
    41
1040
2.5
1070
    42
1040
0.0
1070
    43
1040
8.0
1070
    44
1040
0.0
1070
    45
1040
0.0
1070
    73
1070
     0
1070
    74
1070
     0
1070
    77
1070
     1
1070
    78
1070
     8
1070
    79
1070
     2
1070
   140
1040
3.2
1070
   141
1040
2.5
1070
   145
1040
0.0001
1070
   146
1040
0.667
1070
   147
1040
0.5333000000000001
1070
   172
1070
     1
1070
   173
1070
     1
1070
   179
1070
     3
1070
   271
1070
     2
1070
   272
1070
     3
1070
   279
1070
     2
1070
   284
1070
     8
1070
   289
1070
     2
1070
   340
1005
189
1070
   341
1005
21
1070
   343
1005
12D
1070
   344
1005
12D
1002
}
  0
DIMENSION
  5
726
330
18
100
AcDbEntity
  8
KCAD_DIMS
100
AcDbDimension
  2
*D35
 10
-230.9568312271
 20
21.84493595163901
 30
0.0
 11
-233.0901642270999
 21
36.844935951639
 31
0.0
 70
   160
  1
\A1;W.D.
 71
     5
 42
30.00000000000099
  3
STANDARD
100
AcDbAlignedDimension
 13
-199.5261434082999
 23
51.84493595163999
 33
0.0
 14
-184.0261434082999
 24
21.84493595163899
 34
0.0
 50
90.0
100
AcDbRotatedDimension
1001
Sigma
1000
DIM_TPVO
1001
KCAD_DIM_EXT
1002
{
1071
 20001212
1070
     0
1070
     2
1070
     2
1040
2.5
1040
0.0
1040
0.0
1040
0.0
1040
0.0
1040
0.0
1040
0.0
1040
0.0
1070
     0
1040
50.0
1040
-1.0
1013
1.0
1023
0.0
1033
0.0
1040
0.0
1013
1.0
1023
0.0
1033
0.0
1000
_None
1040
1.0
1040
30.00000000000099
1070
     1
1070
     0
1070
     0
1012
1.0
1022
0.0
1032
0.0
1013
1.0
1023
0.0
1033
0.0
1002
}
1001
ACAD
1000
DSTYLE
1002
{
1070
    41
1040
2.5
1070
    42
1040
0.0
1070
    43
1040
8.0
1070
    44
1040
0.0
1070
    45
1040
0.0
1070
    73
1070
     0
1070
    74
1070
     0
1070
    77
1070
     1
1070
    78
1070
     8
1070
    79
1070
     2
1070
   140
1040
3.2
1070
   141
1040
2.5
1070
   145
1040
0.0001
1070
   146
1040
0.667
1070
   147
1040
0.5333000000000001
1070
   172
1070
     1
1070
   173
1070
     1
1070
   179
1070
     3
1070
   271
1070
     2
1070
   272
1070
     3
1070
   279
1070
     2
1070
   284
1070
     8
1070
   289
1070
     2
1070
   340
1005
189
1070
   341
1005
21
1070
   343
1005
12D
1070
   344
1005
12D
1002
}
  0
TEXT
  5
762
330
18
100
AcDbEntity
  8
4
  6
Continuous
 62
     7
370
    30
100
AcDbText
 10
-217.1013270960313
 20
43.56536668185672
 30
0.0
 40
2.439669887924194
  1
M22.5XP0.5
 41
1.172416012599495
  7
KCADTEXTSTANDARD
100
AcDbText
1001
Sigma
1000

  0
TEXT
  5
764
330
18
100
AcDbEntity
  8
3
  6
Continuous
 62
     7
370
    30
100
AcDbText
 10
-215.7536131893313
 20
39.43177529024072
 30
0.0
 40
2.439669887924194
  1
(ﾌｨﾙﾀｰﾈｼﾞ)
 41
1.711643030089425
  7
KCADTEXTSTANDARD
100
AcDbText
1001
Sigma
1000

  0
DIMENSION
  5
766
330
18
100
AcDbEntity
  8
KCAD_DIMS
100
AcDbDimension
  2
*D36
 10
-106.5261434083
 20
114.8966697621899
 30
0.0
 11
-145.2761434082999
 21
117.0300027621899
 31
0.0
 70
   160
 71
     5
 42
77.49999999999999
  3
STANDARD
100
AcDbAlignedDimension
 13
-184.0261434082999
 23
51.08197298873999
 33
0.0
 14
-106.5261434083
 24
74.844935951639
 34
0.0
100
AcDbRotatedDimension
1001
Sigma
1000
DIM_TPHO
1001
KCAD_DIM_EXT
1002
{
1071
 20001212
1070
     0
1070
     2
1070
     2
1040
2.5
1040
0.0
1040
0.0
1040
0.0
1040
0.0
1040
0.0
1040
0.0
1040
0.0
1070
     0
1040
50.0
1040
-1.0
1013
1.0
1023
0.0
1033
0.0
1040
0.0
1013
1.0
1023
0.0
1033
0.0
1000
_None
1040
1.0
1040
77.5
1070
     0
1070
     0
1070
     0
1012
1.0
1022
0.0
1032
0.0
1013
1.0
1023
0.0
1033
0.0
1002
}
1001
ACAD
1000
DSTYLE
1002
{
1070
     3
1000
<>～８７．５
1070
    41
1040
2.5
1070
    42
1040
0.0
1070
    43
1040
8.0
1070
    44
1040
0.0
1070
    45
1040
0.0
1070
    73
1070
     0
1070
    74
1070
     0
1070
    77
1070
     1
1070
    78
1070
     8
1070
    79
1070
     2
1070
   140
1040
3.2
1070
   141
1040
2.5
1070
   145
1040
0.0001
1070
   146
1040
0.667
1070
   147
1040
0.5333000000000001
1070
   172
1070
     1
1070
   173
1070
     1
1070
   179
1070
     3
1070
   271
1070
     1
1070
   272
1070
     3
1070
   279
1070
     2
1070
   284
1070
     8
1070
   289
1070
     2
1070
   340
1005
189
1070
   341
1005
21
1070
   343
1005
12D
1070
   344
1005
12D
1002
}
  0
DIMENSION
  5
7A2
330
18
100
AcDbEntity
  8
KCAD_DIMS
100
AcDbDimension
  2
*D37
 10
-87.23953621825
 20
66.84493595163899
 30
0.0
 11
-89.37286921824998
 21
75.733668871496
 31
0.0
 70
   160
 71
     5
 42
16.0
  3
STANDARD
100
AcDbAlignedDimension
 13
-106.5261434083
 23
82.84493595163899
 33
0.0
 14
-106.5261434083
 24
66.844935951639
 34
0.0
 50
90.0
100
AcDbRotatedDimension
1001
Sigma
1000
DIM_TPVO
1001
KCAD_DIM_EXT
1002
{
1071
 20001212
1070
     0
1070
     2
1070
     2
1040
2.5
1040
0.0
1040
0.0
1040
0.0
1040
0.0
1040
0.0
1040
0.0
1040
0.0
1070
     0
1040
50.0
1040
-1.0
1013
1.0
1023
0.0
1033
0.0
1040
0.0
1013
1.0
1023
0.0
1033
0.0
1000
_None
1040
1.0
1040
16.0
1070
     0
1070
     0
1070
     0
1012
1.0
1022
0.0
1032
0.0
1013
1.0
1023
0.0
1033
0.0
1002
}
1001
ACAD
1000
DSTYLE
1002
{
1070
     3
1000
φ<>
1070
    41
1040
2.5
1070
    42
1040
0.0
1070
    43
1040
8.0
1070
    44
1040
0.0
1070
    45
1040
0.0
1070
    73
1070
     0
1070
    74
1070
     0
1070
    77
1070
     1
1070
    78
1070
     8
1070
    79
1070
     2
1070
   140
1040
3.2
1070
   141
1040
2.5
1070
   145
1040
0.0001
1070
   146
1040
0.667
1070
   147
1040
0.5333000000000001
1070
   172
1070
     1
1070
   173
1070
     1
1070
   179
1070
     3
1070
   271
1070
     0
1070
   272
1070
     3
1070
   279
1070
     2
1070
   284
1070
     8
1070
   289
1070
     2
1070
   340
1005
189
1070
   341
1005
21
1070
   343
1005
12D
1070
   344
1005
12D
1002
}
  0
DIMENSION
  5
7DE
330
18
100
AcDbEntity
  8
KCAD_DIMS
100
AcDbDimension
  2
*D38
 10
-81.31291345249
 20
65.34493595163898
 30
0.0
 11
-83.44624645248998
 21
75.6348918254
 31
0.0
 70
   160
 71
     5
 42
19.0
  3
STANDARD
100
AcDbAlignedDimension
 13
-120.0261434083
 23
84.344935951639
 33
0.0
 14
-120.0261434083
 24
65.344935951639
 34
0.0
 50
90.0
100
AcDbRotatedDimension
1001
Sigma
1000
DIM_TPVO
1001
KCAD_DIM_EXT
1002
{
1071
 20001212
1070
     0
1070
     2
1070
     2
1040
2.5
1040
0.0
1040
0.0
1040
0.0
1040
0.0
1040
0.0
1040
0.0
1040
0.0
1070
     0
1040
50.0
1040
-1.0
1013
1.0
1023
0.0
1033
0.0
1040
0.0
1013
1.0
1023
0.0
1033
0.0
1000
_None
1040
1.0
1040
19.0
1070
     0
1070
     0
1070
     0
1012
1.0
1022
0.0
1032
0.0
1013
1.0
1023
0.0
1033
0.0
1002
}
1001
ACAD
1000
DSTYLE
1002
{
1070
     3
1000
φ<>
1070
    41
1040
2.5
1070
    42
1040
0.0
1070
    43
1040
8.0
1070
    44
1040
0.0
1070
    45
1040
0.0
1070
    73
1070
     0
1070
    74
1070
     0
1070
    77
1070
     1
1070
    78
1070
     8
1070
    79
1070
     2
1070
   140
1040
3.2
1070
   141
1040
2.5
1070
   145
1040
0.0001
1070
   146
1040
0.667
1070
   147
1040
0.5333000000000001
1070
   172
1070
     1
1070
   173
1070
     1
1070
   179
1070
     3
1070
   271
1070
     0
1070
   272
1070
     3
1070
   279
1070
     2
1070
   284
1070
     8
1070
   289
1070
     2
1070
   340
1005
189
1070
   341
1005
21
1070
   343
1005
12D
1070
   344
1005
12D
1002
}
  0
DIMENSION
  5
81A
330
18
100
AcDbEntity
  8
KCAD_DIMS
100
AcDbDimension
  2
*D39
 10
-157.5687930386
 20
59.844935951639
 30
0.0
 11
-159.7021260386
 21
81.361862612614
 31
0.0
 70
   160
 71
     5
 42
30.0
  3
STANDARD
100
AcDbAlignedDimension
 13
-146.5261434082999
 23
89.844935951639
 33
0.0
 14
-146.5261434082999
 24
59.844935951639
 34
0.0
 50
90.0
100
AcDbRotatedDimension
1001
Sigma
1000
DIM_TPVO
1001
KCAD_DIM_EXT
1002
{
1071
 20001212
1070
     0
1070
     2
1070
     2
1040
2.5
1040
0.0
1040
0.0
1040
0.0
1040
0.0
1040
0.0
1040
0.0
1040
0.0
1070
     0
1040
50.0
1040
-1.0
1013
1.0
1023
0.0
1033
0.0
1040
0.0
1013
1.0
1023
0.0
1033
0.0
1000
_None
1040
1.0
1040
30.0
1070
     0
1070
     0
1070
     0
1012
1.0
1022
0.0
1032
0.0
1013
1.0
1023
0.0
1033
0.0
1002
}
1001
ACAD
1000
DSTYLE
1002
{
1070
     3
1000
φ<>
1070
    41
1040
2.5
1070
    42
1040
0.0
1070
    43
1040
8.0
1070
    44
1040
0.0
1070
    45
1040
0.0
1070
    73
1070
     0
1070
    74
1070
     0
1070
    77
1070
     1
1070
    78
1070
     8
1070
    79
1070
     2
1070
   140
1040
3.2
1070
   141
1040
2.5
1070
   145
1040
0.0001
1070
   146
1040
0.667
1070
   147
1040
0.5333000000000001
1070
   172
1070
     1
1070
   173
1070
     1
1070
   179
1070
     3
1070
   271
1070
     0
1070
   272
1070
     3
1070
   279
1070
     2
1070
   284
1070
     8
1070
   289
1070
     2
1070
   340
1005
189
1070
   341
1005
21
1070
   343
1005
12D
1070
   344
1005
12D
1002
}
  0
DIMENSION
  5
856
330
18
100
AcDbEntity
  8
KCAD_DIMS
100
AcDbDimension
  2
*D40
 10
-98.25317685794999
 20
68.844935951639
 30
0.0
 11
-89.70975152096
 21
58.604509627546
 31
0.0
 70
   160
 71
     5
 42
12.0
  3
STANDARD
100
AcDbAlignedDimension
 13
-106.5261434083
 23
80.844935951639
 33
0.0
 14
-105.5261434082999
 24
68.844935951639
 34
0.0
 50
90.0
100
AcDbRotatedDimension
1001
Sigma
1000
DIM_TPVO
1001
KCAD_DIM_EXT
1002
{
1071
 20001212
1070
     0
1070
     2
1070
     2
1040
2.5
1040
0.0
1040
0.0
1040
0.0
1040
0.0
1040
0.0
1040
0.0
1040
0.0
1070
     1
1040
50.0
1040
18.858301851981
1013
0.2252277546231389
1023
-0.9743061421069965
1033
0.0
1040
7.567024671808799
1013
1.0
1023
0.0
1033
0.0
1000
_NONE
1040
0.0
1040
12.0
1070
     0
1070
     0
1070
     0
1012
1.0
1022
0.0
1032
0.0
1013
1.0
1023
0.0
1033
0.0
1002
}
1001
ACAD
1000
DSTYLE
1002
{
1070
     3
1000
φ<>
1070
    41
1040
2.5
1070
    42
1040
0.0
1070
    43
1040
8.0
1070
    44
1040
0.0
1070
    45
1040
0.0
1070
    77
1070
     1
1070
    78
1070
     8
1070
    79
1070
     2
1070
   140
1040
3.2
1070
   141
1040
2.5
1070
   145
1040
0.0001
1070
   146
1040
0.667
1070
   147
1040
0.5333000000000001
1070
   172
1070
     1
1070
   173
1070
     1
1070
   179
1070
     3
1070
   271
1070
     0
1070
   272
1070
     3
1070
   279
1070
     2
1070
   284
1070
     8
1070
   289
1070
     2
1070
   340
1005
189
1070
   341
1005
21
1070
   343
1005
12D
1070
   344
1005
12D
1002
}
  0
LINE
  5
896
102
{ACAD_REACTORS
330
894
102
}
330
18
100
AcDbEntity
  8
6
  6
HIDDEN
 62
    94
370
    15
100
AcDbLine
 10
-162.5261434082999
 20
86.544935951639
 30
0.0
 11
-162.5261434082999
 21
63.144935951639
 31
0.0
1001
Sigma
1000

  0
LINE
  5
898
102
{ACAD_REACTORS
330
894
102
}
330
18
100
AcDbEntity
  8
6
  6
HIDDEN
 62
    94
370
    15
100
AcDbLine
 10
-162.5261434082999
 20
63.144935951639
 30
0.0
 11
-162.2261434083
 21
62.844935951639
 31
0.0
1001
Sigma
1000

  0
LINE
  5
89A
102
{ACAD_REACTORS
330
894
102
}
330
18
100
AcDbEntity
  8
6
  6
HIDDEN
 62
    94
370
    15
100
AcDbLine
 10
-162.2261434083
 20
62.844935951639
 30
0.0
 11
-146.0261434082999
 21
62.844935951639
 31
0.0
1001
Sigma
1000

  0
POINT
  5
89C
102
{ACAD_REACTORS
330
894
102
}
330
18
100
AcDbEntity
  8
6
  6
Continuous
 62
     3
370
    50
100
AcDbPoint
 10
-146.0261434082999
 20
62.844935951639
 30
0.0
1001
Sigma
1000

  0
LINE
  5
89E
102
{ACAD_REACTORS
330
894
102
}
330
18
100
AcDbEntity
  8
6
  6
Continuous
 62
     3
370
    30
100
AcDbLine
 10
-146.0261434082999
 20
86.844935951639
 30
0.0
 11
-146.0261434082999
 21
62.844935951639
 31
0.0
1001
Sigma
1000

  0
POINT
  5
8A0
102
{ACAD_REACTORS
330
894
102
}
330
18
100
AcDbEntity
  8
6
  6
Continuous
 62
     3
370
    50
100
AcDbPoint
 10
-146.0261434082999
 20
86.844935951639
 30
0.0
1001
Sigma
1000

  0
LINE
  5
8A2
102
{ACAD_REACTORS
330
894
102
}
330
18
100
AcDbEntity
  8
6
  6
HIDDEN
 62
    94
370
    15
100
AcDbLine
 10
-162.2261434083
 20
86.844935951639
 30
0.0
 11
-146.0261434082999
 21
86.844935951639
 31
0.0
1001
Sigma
1000

  0
LINE
  5
8A4
102
{ACAD_REACTORS
330
894
102
}
330
18
100
AcDbEntity
  8
6
  6
HIDDEN
 62
    94
370
    15
100
AcDbLine
 10
-162.2261434083
 20
86.844935951639
 30
0.0
 11
-162.5261434082999
 21
86.544935951639
 31
0.0
1001
Sigma
1000

  0
LINE
  5
8A6
102
{ACAD_REACTORS
330
894
102
}
330
18
100
AcDbEntity
  8
6
  6
Continuous
 62
     3
370
    30
100
AcDbLine
 10
-141.0261434082999
 20
74.844935951639
 30
0.0
 11
-141.0261434082999
 21
65.344935951639
 31
0.0
1001
Sigma
1000

  0
LINE
  5
8A8
102
{ACAD_REACTORS
330
894
102
}
330
18
100
AcDbEntity
  8
6
  6
Continuous
 62
     3
370
    30
100
AcDbLine
 10
-141.0261434082999
 20
74.844935951639
 30
0.0
 11
-141.0261434082999
 21
84.344935951639
 31
0.0
1001
Sigma
1000

  0
LINE
  5
8AA
102
{ACAD_REACTORS
330
894
102
}
330
18
100
AcDbEntity
  8
6
  6
Continuous
 62
     3
370
    30
100
AcDbLine
 10
-146.0261434082999
 20
86.844935951639
 30
0.0
 11
-141.0261434082999
 21
84.344935951639
 31
0.0
1001
Sigma
1000

  0
LINE
  5
8AC
102
{ACAD_REACTORS
330
894
102
}
330
18
100
AcDbEntity
  8
6
  6
Continuous
 62
     3
370
    30
100
AcDbLine
 10
-146.0261434082999
 20
62.844935951639
 30
0.0
 11
-141.0261434082999
 21
65.344935951639
 31
0.0
1001
Sigma
1000

  0
LINE
  5
8AE
102
{ACAD_REACTORS
330
894
102
}
330
18
100
AcDbEntity
  8
6
  6
Continuous
 62
     3
370
    30
100
AcDbLine
 10
-141.0261434082999
 20
84.344935951639
 30
0.0
 11
-141.0261434082999
 21
65.344935951639
 31
0.0
1001
Sigma
1000

  0
LINE
  5
8B0
102
{ACAD_REACTORS
330
894
102
}
330
18
100
AcDbEntity
  8
6
  6
Continuous
 62
     3
370
    30
100
AcDbLine
 10
-120.0261434083
 20
65.344935951639
 30
0.0
 11
-141.0261434082999
 21
65.344935951639
 31
0.0
1001
Sigma
1000

  0
LINE
  5
8B2
102
{ACAD_REACTORS
330
894
102
}
330
18
100
AcDbEntity
  8
6
  6
Continuous
 62
     3
370
    30
100
AcDbLine
 10
-119.0261434083
 20
66.344935951639
 30
0.0
 11
-119.0261434083
 21
83.344935951639
 31
0.0
1001
Sigma
1000

  0
LINE
  5
8B4
102
{ACAD_REACTORS
330
894
102
}
330
18
100
AcDbEntity
  8
6
  6
Continuous
 62
     3
370
    30
100
AcDbLine
 10
-120.0261434083
 20
84.344935951639
 30
0.0
 11
-141.0261434082999
 21
84.344935951639
 31
0.0
1001
Sigma
1000

  0
LINE
  5
8B6
102
{ACAD_REACTORS
330
894
102
}
330
18
100
AcDbEntity
  8
6
  6
Continuous
 62
     3
370
    30
100
AcDbLine
 10
-120.0261434083
 20
84.344935951639
 30
0.0
 11
-119.0261434083
 21
83.344935951639
 31
0.0
1001
Sigma
1000

  0
LINE
  5
8B8
102
{ACAD_REACTORS
330
894
102
}
330
18
100
AcDbEntity
  8
6
  6
Continuous
 62
     3
370
    30
100
AcDbLine
 10
-119.0261434083
 20
66.344935951639
 30
0.0
 11
-120.0261434083
 21
65.344935951639
 31
0.0
1001
Sigma
1000

  0
LINE
  5
8BA
102
{ACAD_REACTORS
330
894
102
}
330
18
100
AcDbEntity
  8
6
  6
Continuous
 62
     3
370
    30
100
AcDbLine
 10
-120.0261434083
 20
84.344935951639
 30
0.0
 11
-120.0261434083
 21
65.344935951639
 31
0.0
1001
Sigma
1000

  0
LINE
  5
8BC
102
{ACAD_REACTORS
330
894
102
}
330
18
100
AcDbEntity
  8
6
  6
Continuous
 62
     3
370
    30
100
AcDbLine
 10
-106.5261434083
 20
82.84493595163899
 30
0.0
 11
-105.5261434082999
 21
81.844935951639
 31
0.0
1001
Sigma
1000

  0
LINE
  5
8BE
102
{ACAD_REACTORS
330
894
102
}
330
18
100
AcDbEntity
  8
6
  6
Continuous
 62
     3
370
    30
100
AcDbLine
 10
-106.5261434083
 20
66.844935951639
 30
0.0
 11
-119.0261434083
 21
66.844935951639
 31
0.0
1001
Sigma
1000

  0
LINE
  5
8C0
102
{ACAD_REACTORS
330
894
102
}
330
18
100
AcDbEntity
  8
6
  6
Continuous
 62
     3
370
    30
100
AcDbLine
 10
-105.5261434082999
 20
67.844935951639
 30
0.0
 11
-105.5261434082999
 21
81.844935951639
 31
0.0
1001
Sigma
1000

  0
LINE
  5
8C2
102
{ACAD_REACTORS
330
894
102
}
330
18
100
AcDbEntity
  8
6
  6
Continuous
 62
     3
370
    30
100
AcDbLine
 10
-106.5261434083
 20
82.84493595163899
 30
0.0
 11
-119.0261434083
 21
82.84493595163899
 31
0.0
1001
Sigma
1000

  0
LINE
  5
8C4
102
{ACAD_REACTORS
330
894
102
}
330
18
100
AcDbEntity
  8
6
  6
Continuous
 62
     3
370
    30
100
AcDbLine
 10
-105.5261434082999
 20
67.844935951639
 30
0.0
 11
-106.5261434083
 21
66.844935951639
 31
0.0
1001
Sigma
1000

  0
LINE
  5
8C6
102
{ACAD_REACTORS
330
894
102
}
330
18
100
AcDbEntity
  8
6
  6
Continuous
 62
     3
370
    30
100
AcDbLine
 10
-106.5261434083
 20
82.84493595163899
 30
0.0
 11
-106.5261434083
 21
66.844935951639
 31
0.0
1001
Sigma
1000

  0
LINE
  5
8C8
102
{ACAD_REACTORS
330
894
102
}
330
18
100
AcDbEntity
  8
6
  6
Continuous
 62
     3
370
    30
100
AcDbLine
 10
-146.0261434082999
 20
86.844935951639
 30
0.0
 11
-146.5261434082999
 21
86.844935951639
 31
0.0
1001
Sigma
1000

  0
LINE
  5
8CA
102
{ACAD_REACTORS
330
894
102
}
330
18
100
AcDbEntity
  8
6
  6
Continuous
 62
     3
370
    30
100
AcDbLine
 10
-146.0261434082999
 20
62.844935951639
 30
0.0
 11
-146.5261434082999
 21
62.844935951639
 31
0.0
1001
Sigma
1000

  0
LINE
  5
8CC
102
{ACAD_REACTORS
330
894
102
}
330
18
100
AcDbEntity
  8
6
  6
Continuous
 62
     4
370
    30
100
AcDbLine
 10
-136.5261434082999
 20
92.744935951639
 30
0.0
 11
-136.5261434082999
 21
86.14493595163899
 31
0.0
1001
Sigma
1000

  0
LINE
  5
8CE
102
{ACAD_REACTORS
330
894
102
}
330
18
100
AcDbEntity
  8
6
  6
Continuous
 62
     4
370
    30
100
AcDbLine
 10
-129.5261434082999
 20
92.744935951639
 30
0.0
 11
-136.5261434082999
 21
92.744935951639
 31
0.0
1001
Sigma
1000

  0
LINE
  5
8D0
102
{ACAD_REACTORS
330
894
102
}
330
18
100
AcDbEntity
  8
6
  6
CENTER
 62
   134
370
    15
100
AcDbLine
 10
-133.0261434082999
 20
96.04493595163901
 30
0.0
 11
-133.0261434082999
 21
84.344935951639
 31
0.0
1001
Sigma
1000

  0
LINE
  5
8D2
102
{ACAD_REACTORS
330
894
102
}
330
18
100
AcDbEntity
  8
6
  6
Continuous
 62
     4
370
    30
100
AcDbLine
 10
-136.5261434082999
 20
92.744935951639
 30
0.0
 11
-136.5261434082999
 21
86.14493595163899
 31
0.0
1001
Sigma
1000

  0
LINE
  5
8D4
102
{ACAD_REACTORS
330
894
102
}
330
18
100
AcDbEntity
  8
6
  6
Continuous
 62
     4
370
    30
100
AcDbLine
 10
-131.2761434082999
 20
86.14493595163899
 30
0.0
 11
-136.5261434082999
 21
86.14493595163899
 31
0.0
1001
Sigma
1000

  0
LINE
  5
8D6
102
{ACAD_REACTORS
330
894
102
}
330
18
100
AcDbEntity
  8
6
  6
Continuous
 62
     4
370
    30
100
AcDbLine
 10
-132.2661434083
 20
86.14493595163899
 30
0.0
 11
-132.2661434083
 21
85.34493595163899
 31
0.0
1001
Sigma
1000

  0
LINE
  5
8D8
102
{ACAD_REACTORS
330
894
102
}
330
18
100
AcDbEntity
  8
6
  6
Continuous
 62
     4
370
    30
100
AcDbLine
 10
-133.7861434083
 20
86.14493595163899
 30
0.0
 11
-133.7861434083
 21
85.34493595163899
 31
0.0
1001
Sigma
1000

  0
LINE
  5
8DA
102
{ACAD_REACTORS
330
894
102
}
330
18
100
AcDbEntity
  8
6
  6
Continuous
 62
     4
370
    30
100
AcDbLine
 10
-134.0261434082999
 20
85.34493595163899
 30
0.0
 11
-132.0261434082999
 21
85.34493595163899
 31
0.0
1001
Sigma
1000

  0
LINE
  5
8DC
102
{ACAD_REACTORS
330
894
102
}
330
18
100
AcDbEntity
  8
6
  6
Continuous
 62
     4
370
    30
100
AcDbLine
 10
-132.0261434082999
 20
85.34493595163899
 30
0.0
 11
-132.0261434082999
 21
84.344935951639
 31
0.0
1001
Sigma
1000

  0
LINE
  5
8DE
102
{ACAD_REACTORS
330
894
102
}
330
18
100
AcDbEntity
  8
6
  6
Continuous
 62
     4
370
    30
100
AcDbLine
 10
-134.0261434082999
 20
85.34493595163899
 30
0.0
 11
-134.0261434082999
 21
84.344935951639
 31
0.0
1001
Sigma
1000

  0
LINE
  5
8E0
102
{ACAD_REACTORS
330
894
102
}
330
18
100
AcDbEntity
  8
6
  6
Continuous
 62
     4
370
    30
100
AcDbLine
 10
-132.2261434083
 20
85.34493595163899
 30
0.0
 11
-132.2261434083
 21
84.344935951639
 31
0.0
1001
Sigma
1000

  0
LINE
  5
8E2
102
{ACAD_REACTORS
330
894
102
}
330
18
100
AcDbEntity
  8
6
  6
Continuous
 62
     4
370
    30
100
AcDbLine
 10
-133.8261434082999
 20
85.34493595163899
 30
0.0
 11
-133.8261434082999
 21
84.344935951639
 31
0.0
1001
Sigma
1000

  0
LINE
  5
8E4
102
{ACAD_REACTORS
330
894
102
}
330
18
100
AcDbEntity
  8
6
  6
Continuous
 62
     4
370
    30
100
AcDbLine
 10
-129.8261434083
 20
93.04493595163901
 30
0.0
 11
-136.2261434083
 21
93.04493595163901
 31
0.0
1001
Sigma
1000

  0
LINE
  5
8E6
102
{ACAD_REACTORS
330
894
102
}
330
18
100
AcDbEntity
  8
6
  6
Continuous
 62
     4
370
    30
100
AcDbLine
 10
-133.0261434082999
 20
86.14493595163899
 30
0.0
 11
-129.5261434082999
 21
86.14493595163899
 31
0.0
1001
Sigma
1000

  0
LINE
  5
8E8
102
{ACAD_REACTORS
330
894
102
}
330
18
100
AcDbEntity
  8
6
  6
CENTER
 62
   134
370
    15
100
AcDbLine
 10
-133.0261434082999
 20
53.64493595163899
 30
0.0
 11
-133.0261434082999
 21
84.344935951639
 31
0.0
1001
Sigma
1000

  0
LINE
  5
8EA
102
{ACAD_REACTORS
330
894
102
}
330
18
100
AcDbEntity
  8
6
  6
Continuous
 62
     4
370
    30
100
AcDbLine
 10
-133.5248662669999
 20
92.744935951639
 30
0.0
 11
-133.5248662669999
 21
86.14493595163899
 31
0.0
1001
Sigma
1000

  0
LINE
  5
8EC
102
{ACAD_REACTORS
330
894
102
}
330
18
100
AcDbEntity
  8
6
  6
Continuous
 62
     4
370
    30
100
AcDbLine
 10
-129.5261434082999
 20
92.744935951639
 30
0.0
 11
-129.5261434082999
 21
86.14493595163899
 31
0.0
1001
Sigma
1000

  0
LINE
  5
8EE
102
{ACAD_REACTORS
330
894
102
}
330
18
100
AcDbEntity
  8
6
  6
Continuous
 62
     4
370
    30
100
AcDbLine
 10
-129.8261434083
 20
93.04493595163901
 30
0.0
 11
-129.5261434082999
 21
92.744935951639
 31
0.0
1001
Sigma
1000

  0
LINE
  5
8F0
102
{ACAD_REACTORS
330
894
102
}
330
18
100
AcDbEntity
  8
6
  6
Continuous
 62
     4
370
    30
100
AcDbLine
 10
-136.2261434083
 20
93.04493595163901
 30
0.0
 11
-136.5261434082999
 21
92.744935951639
 31
0.0
1001
Sigma
1000

  0
LINE
  5
8F2
102
{ACAD_REACTORS
330
894
102
}
330
18
100
AcDbEntity
  8
6
  6
Continuous
 62
     4
370
    30
100
AcDbLine
 10
-134.4818076289999
 20
92.744935951639
 30
0.0
 11
-134.4818076289999
 21
86.14493595163899
 31
0.0
1001
Sigma
1000

  0
LINE
  5
8F4
102
{ACAD_REACTORS
330
894
102
}
330
18
100
AcDbEntity
  8
6
  6
Continuous
 62
     4
370
    30
100
AcDbLine
 10
-135.2737014077999
 20
92.744935951639
 30
0.0
 11
-135.2737014077999
 21
86.14493595163899
 31
0.0
1001
Sigma
1000

  0
LINE
  5
8F6
102
{ACAD_REACTORS
330
894
102
}
330
18
100
AcDbEntity
  8
6
  6
Continuous
 62
     4
370
    30
100
AcDbLine
 10
-135.9729025309999
 20
92.744935951639
 30
0.0
 11
-135.9729025309999
 21
86.14493595163899
 31
0.0
1001
Sigma
1000

  0
LINE
  5
8F8
102
{ACAD_REACTORS
330
894
102
}
330
18
100
AcDbEntity
  8
6
  6
Continuous
 62
     4
370
    30
100
AcDbLine
 10
-136.3859550689999
 20
92.744935951639
 30
0.0
 11
-136.3859550689999
 21
86.14493595163899
 31
0.0
1001
Sigma
1000

  0
LINE
  5
8FA
102
{ACAD_REACTORS
330
894
102
}
330
18
100
AcDbEntity
  8
6
  6
Continuous
 62
     4
370
    30
100
AcDbLine
 10
-132.5274205496
 20
92.744935951639
 30
0.0
 11
-132.5274205496
 21
86.14493595163899
 31
0.0
1001
Sigma
1000

  0
LINE
  5
8FC
102
{ACAD_REACTORS
330
894
102
}
330
18
100
AcDbEntity
  8
6
  6
Continuous
 62
     4
370
    30
100
AcDbLine
 10
-131.5704791876
 20
92.744935951639
 30
0.0
 11
-131.5704791876
 21
86.14493595163899
 31
0.0
1001
Sigma
1000

  0
LINE
  5
8FE
102
{ACAD_REACTORS
330
894
102
}
330
18
100
AcDbEntity
  8
6
  6
Continuous
 62
     4
370
    30
100
AcDbLine
 10
-130.7785854088
 20
92.744935951639
 30
0.0
 11
-130.7785854088
 21
86.14493595163899
 31
0.0
1001
Sigma
1000

  0
LINE
  5
900
102
{ACAD_REACTORS
330
894
102
}
330
18
100
AcDbEntity
  8
6
  6
Continuous
 62
     4
370
    30
100
AcDbLine
 10
-130.0793842856
 20
92.744935951639
 30
0.0
 11
-130.0793842856
 21
86.14493595163899
 31
0.0
1001
Sigma
1000

  0
LINE
  5
902
102
{ACAD_REACTORS
330
894
102
}
330
18
100
AcDbEntity
  8
6
  6
Continuous
 62
     4
370
    30
100
AcDbLine
 10
-129.6663317476
 20
92.744935951639
 30
0.0
 11
-129.6663317476
 21
86.14493595163899
 31
0.0
1001
Sigma
1000

  0
LINE
  5
904
102
{ACAD_REACTORS
330
894
102
}
330
18
100
AcDbEntity
  8
6
  6
Continuous
 62
     4
370
    30
100
AcDbLine
 10
-110.3454092923
 20
83.984327218648
 30
0.0
 11
-110.3973648281999
 21
84.57818171193499
 31
0.0
1001
Sigma
1000

  0
ARC
  5
906
102
{ACAD_REACTORS
330
894
102
}
330
18
100
AcDbEntity
  8
6
  6
Continuous
 62
     4
370
    30
100
AcDbCircle
 10
-110.9950816470999
 20
84.525888266287
 30
0.0
 40
0.6
100
AcDbArc
 50
5.0
 51
73.612312869658
1001
Sigma
1000

  0
ARC
  5
908
102
{ACAD_REACTORS
330
894
102
}
330
18
100
AcDbEntity
  8
6
  6
Continuous
 62
     4
370
    30
100
AcDbCircle
 10
-112.0954092922999
 20
80.784327218648
 30
0.0
 40
4.5
100
AcDbArc
 50
73.612312869658
 51
106.3876871303419
1001
Sigma
1000

  0
ARC
  5
90A
102
{ACAD_REACTORS
330
894
102
}
330
18
100
AcDbEntity
  8
6
  6
Continuous
 62
     4
370
    30
100
AcDbCircle
 10
-113.1957369375
 20
84.525888266287
 30
0.0
 40
0.6
100
AcDbArc
 50
106.3876871303399
 51
174.9999999999979
1001
Sigma
1000

  0
LINE
  5
90C
102
{ACAD_REACTORS
330
894
102
}
330
18
100
AcDbEntity
  8
6
  6
Continuous
 62
     4
370
    30
100
AcDbLine
 10
-113.7934537563999
 20
84.57818171193499
 30
0.0
 11
-113.8454092923
 21
83.984327218648
 31
0.0
1001
Sigma
1000

  0
LINE
  5
90E
102
{ACAD_REACTORS
330
894
102
}
330
18
100
AcDbEntity
  8
6
  6
Continuous
 62
     4
370
    30
100
AcDbLine
 10
-113.8454092923
 20
83.984327218648
 30
0.0
 11
-110.3454092923
 21
83.984327218648
 31
0.0
1001
Sigma
1000

  0
LINE
  5
910
102
{ACAD_REACTORS
330
894
102
}
330
18
100
AcDbEntity
  8
6
  6
Continuous
 62
     4
370
    30
100
AcDbLine
 10
-111.3354092922999
 20
83.984327218648
 30
0.0
 11
-111.3354092922999
 21
83.184327218648
 31
0.0
1001
Sigma
1000

  0
LINE
  5
912
102
{ACAD_REACTORS
330
894
102
}
330
18
100
AcDbEntity
  8
6
  6
Continuous
 62
     4
370
    30
100
AcDbLine
 10
-112.8554092923
 20
83.984327218648
 30
0.0
 11
-112.8554092923
 21
83.184327218648
 31
0.0
1001
Sigma
1000

  0
LINE
  5
914
102
{ACAD_REACTORS
330
894
102
}
330
18
100
AcDbEntity
  8
6
  6
Continuous
 62
     4
370
    30
100
AcDbLine
 10
-113.0954092922999
 20
83.184327218648
 30
0.0
 11
-111.0954092923
 21
83.184327218648
 31
0.0
1001
Sigma
1000

  0
LINE
  5
916
102
{ACAD_REACTORS
330
894
102
}
330
18
100
AcDbEntity
  8
6
  6
Continuous
 62
     4
370
    30
100
AcDbLine
 10
-111.0954092923
 20
83.184327218648
 30
0.0
 11
-111.0954092923
 21
82.84493595163899
 31
0.0
1001
Sigma
1000

  0
LINE
  5
918
102
{ACAD_REACTORS
330
894
102
}
330
18
100
AcDbEntity
  8
6
  6
Continuous
 62
     4
370
    30
100
AcDbLine
 10
-113.0954092922999
 20
82.84493595163899
 30
0.0
 11
-113.0954092922999
 21
83.184327218648
 31
0.0
1001
Sigma
1000

  0
LINE
  5
91A
102
{ACAD_REACTORS
330
894
102
}
330
18
100
AcDbEntity
  8
6
  6
Continuous
 62
   134
370
    15
100
AcDbLine
 10
-111.2954092922999
 20
83.184327218648
 30
0.0
 11
-111.2954092922999
 21
82.84493595163899
 31
0.0
1001
Sigma
1000

  0
LINE
  5
91C
102
{ACAD_REACTORS
330
894
102
}
330
18
100
AcDbEntity
  8
6
  6
Continuous
 62
   134
370
    15
100
AcDbLine
 10
-112.8954092922999
 20
83.184327218648
 30
0.0
 11
-112.8954092922999
 21
82.84493595163899
 31
0.0
1001
Sigma
1000

  0
LINE
  5
91E
102
{ACAD_REACTORS
330
894
102
}
330
18
100
AcDbEntity
  8
6
  6
CENTER
 62
   253
370
    15
100
AcDbLine
 10
-112.0954092922999
 20
88.284327218648
 30
0.0
 11
-112.0954092922999
 21
82.84493595163899
 31
0.0
1001
Sigma
1000

  0
LINE
  5
920
102
{ACAD_REACTORS
330
894
102
}
330
18
100
AcDbEntity
  8
6
  6
HIDDEN
 62
   134
370
    15
100
AcDbLine
 10
-105.5261434082999
 20
80.844935951639
 30
0.0
 11
-109.3162060207
 21
80.844935951639
 31
0.0
1001
Sigma
1000

  0
LINE
  5
922
102
{ACAD_REACTORS
330
894
102
}
330
18
100
AcDbEntity
  8
6
  6
HIDDEN
 62
   134
370
    15
100
AcDbLine
 10
-105.5261434082999
 20
68.844935951639
 30
0.0
 11
-109.3162060207
 21
68.844935951639
 31
0.0
1001
Sigma
1000

  0
TEXT
  5
924
102
{ACAD_REACTORS
330
894
102
}
330
18
100
AcDbEntity
  8
6
  6
Continuous
 62
   134
370
    15
100
AcDbText
 10
-93.20124835371998
 20
53.23806279875999
 30
0.0
 40
2.7
  1
ライトガイド差し込み
 41
0.6760833350320656
 51
7.000000052497139
  7
KCADTEXTSTANDARD
100
AcDbText
1001
Sigma
1000

  0
CIRCLE
  5
926
330
18
100
AcDbEntity
  8
6
  6
Continuous
 62
     4
370
    30
100
AcDbCircle
 10
-134.5261434082999
 20
165.6685480499399
 30
0.0
 40
3.5
1001
Sigma
1000

  0
CIRCLE
  5
928
330
18
100
AcDbEntity
  8
6
  6
Continuous
 62
     4
370
    30
100
AcDbCircle
 10
-134.5261434082999
 20
165.6685480499399
 30
0.0
 40
3.199999999999899
1001
Sigma
1000

  0
LINE
  5
92A
330
18
100
AcDbEntity
  8
6
  6
HIDDEN
 62
    94
370
    15
100
AcDbLine
 10
-162.5261434082999
 20
177.3685480499399
 30
0.0
 11
-162.5261434082999
 21
153.96854804994
 31
0.0
1001
Sigma
1000

  0
LINE
  5
92C
330
18
100
AcDbEntity
  8
6
  6
HIDDEN
 62
    94
370
    15
100
AcDbLine
 10
-162.5261434082999
 20
153.96854804994
 30
0.0
 11
-162.2261434083
 21
153.66854804994
 31
0.0
1001
Sigma
1000

  0
LINE
  5
92E
330
18
100
AcDbEntity
  8
6
  6
HIDDEN
 62
    94
370
    15
100
AcDbLine
 10
-162.2261434083
 20
153.66854804994
 30
0.0
 11
-147.5261434082999
 21
153.66854804994
 31
0.0
1001
Sigma
1000

  0
POINT
  5
930
330
18
100
AcDbEntity
  8
6
  6
Continuous
 62
     3
370
    50
100
AcDbPoint
 10
-147.5261434082999
 20
153.66854804994
 30
0.0
1001
Sigma
1000

  0
LINE
  5
932
330
18
100
AcDbEntity
  8
6
  6
Continuous
 62
     3
370
    30
100
AcDbLine
 10
-147.5261434082999
 20
177.66854804994
 30
0.0
 11
-147.5261434082999
 21
153.66854804994
 31
0.0
1001
Sigma
1000

  0
POINT
  5
934
330
18
100
AcDbEntity
  8
6
  6
Continuous
 62
     3
370
    50
100
AcDbPoint
 10
-147.5261434082999
 20
177.66854804994
 30
0.0
1001
Sigma
1000

  0
LINE
  5
936
330
18
100
AcDbEntity
  8
6
  6
HIDDEN
 62
    94
370
    15
100
AcDbLine
 10
-162.2261434083
 20
177.66854804994
 30
0.0
 11
-147.5261434082999
 21
177.66854804994
 31
0.0
1001
Sigma
1000

  0
LINE
  5
938
330
18
100
AcDbEntity
  8
6
  6
HIDDEN
 62
    94
370
    15
100
AcDbLine
 10
-162.2261434083
 20
177.66854804994
 30
0.0
 11
-162.5261434082999
 21
177.3685480499399
 31
0.0
1001
Sigma
1000

  0
LINE
  5
93A
330
18
100
AcDbEntity
  8
6
  6
Continuous
 62
     3
370
    30
100
AcDbLine
 10
-142.5261434082999
 20
165.6685480499399
 30
0.0
 11
-142.5261434082999
 21
156.16854804994
 31
0.0
1001
Sigma
1000

  0
LINE
  5
93C
330
18
100
AcDbEntity
  8
6
  6
Continuous
 62
     3
370
    30
100
AcDbLine
 10
-142.5261434082999
 20
165.6685480499399
 30
0.0
 11
-142.5261434082999
 21
175.1685480499399
 31
0.0
1001
Sigma
1000

  0
LINE
  5
93E
330
18
100
AcDbEntity
  8
6
  6
Continuous
 62
     3
370
    30
100
AcDbLine
 10
-147.5261434082999
 20
177.66854804994
 30
0.0
 11
-142.5261434082999
 21
175.1685480499399
 31
0.0
1001
Sigma
1000

  0
LINE
  5
940
330
18
100
AcDbEntity
  8
6
  6
Continuous
 62
     3
370
    30
100
AcDbLine
 10
-147.5261434082999
 20
153.66854804994
 30
0.0
 11
-142.5261434082999
 21
156.16854804994
 31
0.0
1001
Sigma
1000

  0
LINE
  5
942
330
18
100
AcDbEntity
  8
6
  6
Continuous
 62
     3
370
    30
100
AcDbLine
 10
-142.5261434082999
 20
175.1685480499399
 30
0.0
 11
-142.5261434082999
 21
156.16854804994
 31
0.0
1001
Sigma
1000

  0
LINE
  5
944
330
18
100
AcDbEntity
  8
6
  6
Continuous
 62
     3
370
    30
100
AcDbLine
 10
-121.5261434083
 20
156.16854804994
 30
0.0
 11
-142.5261434082999
 21
156.16854804994
 31
0.0
1001
Sigma
1000

  0
LINE
  5
946
330
18
100
AcDbEntity
  8
6
  6
Continuous
 62
     3
370
    30
100
AcDbLine
 10
-120.5261434083
 20
157.16854804994
 30
0.0
 11
-120.5261434083
 21
174.1685480499399
 31
0.0
1001
Sigma
1000

  0
LINE
  5
948
330
18
100
AcDbEntity
  8
6
  6
Continuous
 62
     3
370
    30
100
AcDbLine
 10
-121.5261434083
 20
175.1685480499399
 30
0.0
 11
-142.5261434082999
 21
175.1685480499399
 31
0.0
1001
Sigma
1000

  0
LINE
  5
94A
330
18
100
AcDbEntity
  8
6
  6
Continuous
 62
     3
370
    30
100
AcDbLine
 10
-121.5261434083
 20
175.1685480499399
 30
0.0
 11
-120.5261434083
 21
174.1685480499399
 31
0.0
1001
Sigma
1000

  0
LINE
  5
94C
330
18
100
AcDbEntity
  8
6
  6
Continuous
 62
     3
370
    30
100
AcDbLine
 10
-120.5261434083
 20
157.16854804994
 30
0.0
 11
-121.5261434083
 21
156.16854804994
 31
0.0
1001
Sigma
1000

  0
LINE
  5
94E
330
18
100
AcDbEntity
  8
6
  6
Continuous
 62
     3
370
    30
100
AcDbLine
 10
-121.5261434083
 20
175.1685480499399
 30
0.0
 11
-121.5261434083
 21
156.16854804994
 31
0.0
1001
Sigma
1000

  0
LINE
  5
950
330
18
100
AcDbEntity
  8
6
  6
Continuous
 62
     3
370
    30
100
AcDbLine
 10
-108.0261434083
 20
173.66854804994
 30
0.0
 11
-107.0261434083
 21
172.66854804994
 31
0.0
1001
Sigma
1000

  0
LINE
  5
952
330
18
100
AcDbEntity
  8
6
  6
Continuous
 62
     3
370
    30
100
AcDbLine
 10
-108.0261434083
 20
157.6685480499399
 30
0.0
 11
-120.5261434083
 21
157.6685480499399
 31
0.0
1001
Sigma
1000

  0
LINE
  5
954
330
18
100
AcDbEntity
  8
6
  6
Continuous
 62
     3
370
    30
100
AcDbLine
 10
-107.0261434083
 20
158.6685480499399
 30
0.0
 11
-107.0261434083
 21
172.66854804994
 31
0.0
1001
Sigma
1000

  0
LINE
  5
956
330
18
100
AcDbEntity
  8
6
  6
Continuous
 62
     3
370
    30
100
AcDbLine
 10
-108.0261434083
 20
173.66854804994
 30
0.0
 11
-120.5261434083
 21
173.66854804994
 31
0.0
1001
Sigma
1000

  0
LINE
  5
958
330
18
100
AcDbEntity
  8
6
  6
Continuous
 62
     3
370
    30
100
AcDbLine
 10
-107.0261434083
 20
158.6685480499399
 30
0.0
 11
-108.0261434083
 21
157.6685480499399
 31
0.0
1001
Sigma
1000

  0
LINE
  5
95A
330
18
100
AcDbEntity
  8
6
  6
Continuous
 62
     3
370
    30
100
AcDbLine
 10
-108.0261434083
 20
173.66854804994
 30
0.0
 11
-108.0261434083
 21
157.6685480499399
 31
0.0
1001
Sigma
1000

  0
LINE
  5
95C
330
18
100
AcDbEntity
  8
6
  6
Continuous
 62
     3
370
    30
100
AcDbLine
 10
-147.5261434082999
 20
177.66854804994
 30
0.0
 11
-148.0261434082999
 21
177.66854804994
 31
0.0
1001
Sigma
1000

  0
LINE
  5
95E
330
18
100
AcDbEntity
  8
6
  6
Continuous
 62
     3
370
    30
100
AcDbLine
 10
-147.5261434082999
 20
153.66854804994
 30
0.0
 11
-148.0261434082999
 21
153.66854804994
 31
0.0
1001
Sigma
1000

  0
LINE
  5
960
330
18
100
AcDbEntity
  8
6
  6
CENTER
 62
   134
370
    15
100
AcDbLine
 10
-134.5261434082999
 20
159.92908004221
 30
0.0
 11
-134.5261434082999
 21
170.39944692838
 31
0.0
1001
Sigma
1000

  0
LINE
  5
962
330
18
100
AcDbEntity
  8
6
  6
HIDDEN
 62
   134
370
    15
100
AcDbLine
 10
-107.0261434083
 20
171.66854804994
 30
0.0
 11
-110.8162060206999
 21
171.66854804994
 31
0.0
1001
Sigma
1000

  0
LINE
  5
964
330
18
100
AcDbEntity
  8
6
  6
HIDDEN
 62
   134
370
    15
100
AcDbLine
 10
-107.0261434083
 20
159.66854804994
 30
0.0
 11
-110.8162060206999
 21
159.66854804994
 31
0.0
1001
Sigma
1000

  0
CIRCLE
  5
967
102
{ACAD_REACTORS
330
966
102
}
330
18
100
AcDbEntity
  8
6
  6
Continuous
 62
     4
370
    30
100
AcDbCircle
 10
-134.5261434082999
 20
165.6685480499399
 30
0.0
 40
3.048941092819399
1001
Sigma
1000

  0
LINE
  5
969
102
{ACAD_REACTORS
330
966
102
}
330
18
100
AcDbEntity
  8
6
  6
Continuous
 62
     4
370
    30
100
AcDbLine
 10
-135.6663075307
 20
165.67362484821
 30
0.0
 11
-135.125389068
 21
165.8185635134699
 31
0.0
1001
Sigma
1000

  0
ARC
  5
96B
102
{ACAD_REACTORS
330
966
102
}
330
18
100
AcDbEntity
  8
6
  6
Continuous
 62
     4
370
    30
100
AcDbCircle
 10
-135.1875056389
 20
166.0503857117799
 30
0.0
 40
0.24
100
AcDbArc
 50
285.0
 51
14.99999999999998
1001
Sigma
1000

  0
LINE
  5
96D
102
{ACAD_REACTORS
330
966
102
}
330
18
100
AcDbEntity
  8
6
  6
Continuous
 62
     4
370
    30
100
AcDbLine
 10
-134.9556834404999
 20
166.11250228261
 30
0.0
 11
-135.1006221058
 21
166.65342074533
 31
0.0
1001
Sigma
1000

  0
LINE
  5
96F
102
{ACAD_REACTORS
330
966
102
}
330
18
100
AcDbEntity
  8
6
  6
Continuous
 62
     4
370
    30
100
AcDbLine
 10
-135.1006221058
 20
166.65342074533
 30
0.0
 11
-134.5210666099999
 21
166.8087121723899
 31
0.0
1001
Sigma
1000

  0
LINE
  5
971
102
{ACAD_REACTORS
330
966
102
}
330
18
100
AcDbEntity
  8
6
  6
Continuous
 62
     4
370
    30
100
AcDbLine
 10
-134.5210666099999
 20
166.8087121723899
 30
0.0
 11
-134.3761279448
 21
166.26779370967
 31
0.0
1001
Sigma
1000

  0
ARC
  5
973
102
{ACAD_REACTORS
330
966
102
}
330
18
100
AcDbEntity
  8
6
  6
Continuous
 62
     4
370
    30
100
AcDbCircle
 10
-134.1443057465
 20
166.32991028049
 30
0.0
 40
0.24
100
AcDbArc
 50
195.0
 51
285.0
1001
Sigma
1000

  0
LINE
  5
975
102
{ACAD_REACTORS
330
966
102
}
330
18
100
AcDbEntity
  8
6
  6
Continuous
 62
     4
370
    30
100
AcDbLine
 10
-134.0821891756
 20
166.09808808218
 30
0.0
 11
-133.5412707129
 21
166.24302674744
 31
0.0
1001
Sigma
1000

  0
LINE
  5
977
102
{ACAD_REACTORS
330
966
102
}
330
18
100
AcDbEntity
  8
6
  6
Continuous
 62
     4
370
    30
100
AcDbLine
 10
-133.5412707129
 20
166.24302674744
 30
0.0
 11
-133.3859792858999
 21
165.66347125167
 31
0.0
1001
Sigma
1000

  0
LINE
  5
979
102
{ACAD_REACTORS
330
966
102
}
330
18
100
AcDbEntity
  8
6
  6
Continuous
 62
     4
370
    30
100
AcDbLine
 10
-133.3859792858999
 20
165.66347125167
 30
0.0
 11
-133.9268977486
 21
165.51853258641
 31
0.0
1001
Sigma
1000

  0
ARC
  5
97B
102
{ACAD_REACTORS
330
966
102
}
330
18
100
AcDbEntity
  8
6
  6
Continuous
 62
     4
370
    30
100
AcDbCircle
 10
-133.8647811776999
 20
165.2867103881
 30
0.0
 40
0.24
100
AcDbArc
 50
105.0
 51
195.0
1001
Sigma
1000

  0
LINE
  5
97D
102
{ACAD_REACTORS
330
966
102
}
330
18
100
AcDbEntity
  8
6
  6
Continuous
 62
     4
370
    30
100
AcDbLine
 10
-134.0966033761
 20
165.22459381727
 30
0.0
 11
-133.9516647108
 21
164.68367535455
 31
0.0
1001
Sigma
1000

  0
LINE
  5
97F
102
{ACAD_REACTORS
330
966
102
}
330
18
100
AcDbEntity
  8
6
  6
Continuous
 62
     4
370
    30
100
AcDbLine
 10
-133.9516647108
 20
164.68367535455
 30
0.0
 11
-134.5312202066
 21
164.52838392749
 31
0.0
1001
Sigma
1000

  0
LINE
  5
981
102
{ACAD_REACTORS
330
966
102
}
330
18
100
AcDbEntity
  8
6
  6
Continuous
 62
     4
370
    30
100
AcDbLine
 10
-134.5312202066
 20
164.52838392749
 30
0.0
 11
-134.6761588718
 21
165.06930239021
 31
0.0
1001
Sigma
1000

  0
ARC
  5
983
102
{ACAD_REACTORS
330
966
102
}
330
18
100
AcDbEntity
  8
6
  6
Continuous
 62
     4
370
    30
100
AcDbCircle
 10
-134.9079810701
 20
165.00718581939
 30
0.0
 40
0.24
100
AcDbArc
 50
15.0
 51
104.9999999999999
1001
Sigma
1000

  0
LINE
  5
985
102
{ACAD_REACTORS
330
966
102
}
330
18
100
AcDbEntity
  8
6
  6
Continuous
 62
     4
370
    30
100
AcDbLine
 10
-134.970097641
 20
165.2390080176999
 30
0.0
 11
-135.5110161036999
 21
165.0940693524399
 31
0.0
1001
Sigma
1000

  0
LINE
  5
987
102
{ACAD_REACTORS
330
966
102
}
330
18
100
AcDbEntity
  8
6
  6
Continuous
 62
     4
370
    30
100
AcDbLine
 10
-135.5110161036999
 20
165.0940693524399
 30
0.0
 11
-135.6663075307
 21
165.67362484821
 31
0.0
1001
Sigma
1000

  0
LINE
  5
989
102
{ACAD_REACTORS
330
966
102
}
330
18
100
AcDbEntity
  8
6
  6
CENTER
 62
   253
370
    15
100
AcDbLine
 10
-139.1142910831999
 20
164.4391575857
 30
0.0
 11
-129.9379957333999
 21
166.8979385141799
 31
0.0
1001
Sigma
1000

  0
LINE
  5
98B
102
{ACAD_REACTORS
330
966
102
}
330
18
100
AcDbEntity
  8
6
  6
CENTER
 62
   253
370
    15
100
AcDbLine
 10
-133.2967529441
 20
161.08040037507
 30
0.0
 11
-135.7555338724999
 21
170.2566957248099
 31
0.0
1001
Sigma
1000

  0
CIRCLE
  5
98E
102
{ACAD_REACTORS
330
98D
102
}
330
18
100
AcDbEntity
  8
6
  6
Continuous
 62
     4
370
    30
100
AcDbCircle
 10
-113.5954092923
 20
165.6685480499399
 30
0.0
 40
1.75
1001
Sigma
1000

  0
LINE
  5
990
102
{ACAD_REACTORS
330
98D
102
}
330
18
100
AcDbEntity
  8
6
  6
Continuous
 62
     4
370
    30
100
AcDbLine
 10
-114.7355734146999
 20
165.67362484821
 30
0.0
 11
-114.1946549519999
 21
165.8185635134699
 31
0.0
1001
Sigma
1000

  0
ARC
  5
992
102
{ACAD_REACTORS
330
98D
102
}
330
18
100
AcDbEntity
  8
6
  6
Continuous
 62
     4
370
    30
100
AcDbCircle
 10
-114.2567715228
 20
166.0503857117799
 30
0.0
 40
0.24
100
AcDbArc
 50
285.0
 51
14.99999999999998
1001
Sigma
1000

  0
LINE
  5
994
102
{ACAD_REACTORS
330
98D
102
}
330
18
100
AcDbEntity
  8
6
  6
Continuous
 62
     4
370
    30
100
AcDbLine
 10
-114.0249493245
 20
166.11250228261
 30
0.0
 11
-114.1698879898
 21
166.65342074533
 31
0.0
1001
Sigma
1000

  0
LINE
  5
996
102
{ACAD_REACTORS
330
98D
102
}
330
18
100
AcDbEntity
  8
6
  6
Continuous
 62
     4
370
    30
100
AcDbLine
 10
-114.1698879898
 20
166.65342074533
 30
0.0
 11
-113.5903324939999
 21
166.8087121723899
 31
0.0
1001
Sigma
1000

  0
LINE
  5
998
102
{ACAD_REACTORS
330
98D
102
}
330
18
100
AcDbEntity
  8
6
  6
Continuous
 62
     4
370
    30
100
AcDbLine
 10
-113.5903324939999
 20
166.8087121723899
 30
0.0
 11
-113.4453938287999
 21
166.26779370967
 31
0.0
1001
Sigma
1000

  0
ARC
  5
99A
102
{ACAD_REACTORS
330
98D
102
}
330
18
100
AcDbEntity
  8
6
  6
Continuous
 62
     4
370
    30
100
AcDbCircle
 10
-113.2135716305
 20
166.32991028049
 30
0.0
 40
0.24
100
AcDbArc
 50
195.0
 51
285.0
1001
Sigma
1000

  0
LINE
  5
99C
102
{ACAD_REACTORS
330
98D
102
}
330
18
100
AcDbEntity
  8
6
  6
Continuous
 62
     4
370
    30
100
AcDbLine
 10
-113.1514550596
 20
166.09808808218
 30
0.0
 11
-112.6105365969
 21
166.24302674744
 31
0.0
1001
Sigma
1000

  0
LINE
  5
99E
102
{ACAD_REACTORS
330
98D
102
}
330
18
100
AcDbEntity
  8
6
  6
Continuous
 62
     4
370
    30
100
AcDbLine
 10
-112.6105365969
 20
166.24302674744
 30
0.0
 11
-112.4552451697999
 21
165.66347125167
 31
0.0
1001
Sigma
1000

  0
LINE
  5
9A0
102
{ACAD_REACTORS
330
98D
102
}
330
18
100
AcDbEntity
  8
6
  6
Continuous
 62
     4
370
    30
100
AcDbLine
 10
-112.4552451697999
 20
165.66347125167
 30
0.0
 11
-112.9961636326
 21
165.51853258641
 31
0.0
1001
Sigma
1000

  0
ARC
  5
9A2
102
{ACAD_REACTORS
330
98D
102
}
330
18
100
AcDbEntity
  8
6
  6
Continuous
 62
     4
370
    30
100
AcDbCircle
 10
-112.9340470617
 20
165.2867103881
 30
0.0
 40
0.24
100
AcDbArc
 50
105.0
 51
195.0
1001
Sigma
1000

  0
LINE
  5
9A4
102
{ACAD_REACTORS
330
98D
102
}
330
18
100
AcDbEntity
  8
6
  6
Continuous
 62
     4
370
    30
100
AcDbLine
 10
-113.1658692600999
 20
165.22459381727
 30
0.0
 11
-113.0209305948
 21
164.68367535455
 31
0.0
1001
Sigma
1000

  0
LINE
  5
9A6
102
{ACAD_REACTORS
330
98D
102
}
330
18
100
AcDbEntity
  8
6
  6
Continuous
 62
     4
370
    30
100
AcDbLine
 10
-113.0209305948
 20
164.68367535455
 30
0.0
 11
-113.6004860906
 21
164.52838392749
 31
0.0
1001
Sigma
1000

  0
LINE
  5
9A8
102
{ACAD_REACTORS
330
98D
102
}
330
18
100
AcDbEntity
  8
6
  6
Continuous
 62
     4
370
    30
100
AcDbLine
 10
-113.6004860906
 20
164.52838392749
 30
0.0
 11
-113.7454247558
 21
165.06930239021
 31
0.0
1001
Sigma
1000

  0
ARC
  5
9AA
102
{ACAD_REACTORS
330
98D
102
}
330
18
100
AcDbEntity
  8
6
  6
Continuous
 62
     4
370
    30
100
AcDbCircle
 10
-113.9772469541
 20
165.00718581939
 30
0.0
 40
0.24
100
AcDbArc
 50
15.0
 51
104.9999999999999
1001
Sigma
1000

  0
LINE
  5
9AC
102
{ACAD_REACTORS
330
98D
102
}
330
18
100
AcDbEntity
  8
6
  6
Continuous
 62
     4
370
    30
100
AcDbLine
 10
-114.0393635249999
 20
165.2390080176999
 30
0.0
 11
-114.5802819877
 21
165.0940693524399
 31
0.0
1001
Sigma
1000

  0
LINE
  5
9AE
102
{ACAD_REACTORS
330
98D
102
}
330
18
100
AcDbEntity
  8
6
  6
Continuous
 62
     4
370
    30
100
AcDbLine
 10
-114.5802819877
 20
165.0940693524399
 30
0.0
 11
-114.7355734146999
 21
165.67362484821
 31
0.0
1001
Sigma
1000

  0
LINE
  5
9B0
102
{ACAD_REACTORS
330
98D
102
}
330
18
100
AcDbEntity
  8
6
  6
CENTER
 62
   253
370
    15
100
AcDbLine
 10
-118.1835569671999
 20
164.4391575857
 30
0.0
 11
-109.0072616173999
 21
166.8979385141799
 31
0.0
1001
Sigma
1000

  0
LINE
  5
9B2
102
{ACAD_REACTORS
330
98D
102
}
330
18
100
AcDbEntity
  8
6
  6
CENTER
 62
   253
370
    15
100
AcDbLine
 10
-112.3660188281
 20
161.08040037507
 30
0.0
 11
-114.8247997564999
 21
170.2566957248099
 31
0.0
1001
Sigma
1000

  0
DIMENSION
  5
9B4
330
18
100
AcDbEntity
  8
KCAD_DIMS
100
AcDbDimension
  2
*D41
 10
-148.0261434082999
 20
134.1972678224299
 30
0.0
 11
-175.7761434082999
 21
136.33060082243
 31
0.0
 70
   160
 71
     5
 42
55.5
  3
STANDARD
100
AcDbAlignedDimension
 13
-203.5261434082999
 23
165.6685480499399
 33
0.0
 14
-148.0261434082999
 24
150.66854804994
 34
0.0
100
AcDbRotatedDimension
1001
Sigma
1000
DIM_TPHO
1001
KCAD_DIM_EXT
1002
{
1071
 20001212
1070
     0
1070
     2
1070
     2
1040
2.5
1040
0.0
1040
0.0
1040
0.0
1040
0.0
1040
0.0
1040
0.0
1040
0.0
1070
     0
1040
50.0
1040
-1.0
1013
1.0
1023
0.0
1033
0.0
1040
0.0
1013
1.0
1023
0.0
1033
0.0
1000
_None
1040
1.0
1040
55.5
1070
     0
1070
     0
1070
     0
1012
1.0
1022
0.0
1032
0.0
1013
1.0
1023
0.0
1033
0.0
1002
}
1001
ACAD
1000
DSTYLE
1002
{
1070
    41
1040
2.5
1070
    42
1040
0.0
1070
    43
1040
8.0
1070
    44
1040
0.0
1070
    45
1040
0.0
1070
    73
1070
     0
1070
    74
1070
     0
1070
    77
1070
     1
1070
    78
1070
     8
1070
    79
1070
     2
1070
   140
1040
3.2
1070
   141
1040
2.5
1070
   145
1040
0.0001
1070
   146
1040
0.667
1070
   147
1040
0.5333000000000001
1070
   172
1070
     1
1070
   173
1070
     1
1070
   179
1070
     3
1070
   271
1070
     2
1070
   272
1070
     3
1070
   279
1070
     2
1070
   284
1070
     8
1070
   289
1070
     2
1070
   340
1005
189
1070
   341
1005
21
1070
   343
1005
12D
1070
   344
1005
12D
1002
}
  0
ENDSEC
  0
SECTION
  2
OBJECTS
  0
DICTIONARY
  5
C
330
0
100
AcDbDictionary
281
     1
  3
ACAD_GROUP
350
D
  3
ACAD_LAYOUT
350
1D6
  3
ACAD_MLINESTYLE
350
1B
  3
ACAD_PLOTSETTINGS
350
1D7
  3
ACAD_PLOTSTYLENAME
350
1D4
  3
AcDbVariableDictionary
350
9F0
  3
KCADFRAMEINFO
350
2A7
  0
DICTIONARY
  5
D
102
{ACAD_REACTORS
330
C
102
}
330
C
100
AcDbDictionary
281
     1
  3
*A1
350
3DF
  3
*A2
350
3E5
  3
*A3
350
517
  3
*A4
350
894
  3
*A5
350
966
  3
*A6
350
98D
  0
DICTIONARY
  5
1D6
102
{ACAD_REACTORS
330
C
102
}
330
C
100
AcDbDictionary
281
     1
  3
Model
350
1D8
  3
ﾚｲｱｳﾄ1
350
22F
  0
DICTIONARY
  5
1B
102
{ACAD_REACTORS
330
C
102
}
330
C
100
AcDbDictionary
281
     1
  3
STANDARD
350
1C
  0
DICTIONARY
  5
1D7
102
{ACAD_REACTORS
330
C
102
}
330
C
100
AcDbDictionary
281
     1
  0
ACDBDICTIONARYWDFLT
  5
1D4
102
{ACAD_REACTORS
330
C
102
}
330
C
100
AcDbDictionary
281
     1
  3
Normal
350
1D5
100
AcDbDictionaryWithDefault
340
1D5
  0
DICTIONARY
  5
9F0
102
{ACAD_REACTORS
330
C
102
}
330
C
100
AcDbDictionary
281
     1
  3
DIMASSOC
350
9F1
  0
XRECORD
  5
2A7
102
{ACAD_REACTORS
330
C
102
}
330
C
100
AcDbXrecord
280
     1
  1
A3
 40
420.0
 40
297.0
 90
        1
 90
        1
  0
GROUP
  5
3DF
102
{ACAD_REACTORS
330
D
102
}
330
D
100
AcDbGroup
300
group from kcad family
 70
     0
 71
     1
340
3E1
  0
GROUP
  5
3E5
102
{ACAD_REACTORS
330
D
102
}
330
D
100
AcDbGroup
300
group from kcad family
 70
     0
 71
     1
340
3E6
  0
GROUP
  5
517
102
{ACAD_REACTORS
330
D
102
}
330
D
100
AcDbGroup
300
group from kcad family
 70
     0
 71
     1
340
518
  0
GROUP
  5
894
102
{ACAD_REACTORS
330
D
102
}
330
D
100
AcDbGroup
300
group from kcad family
 70
     0
 71
     1
340
896
340
898
340
89A
340
89C
340
89E
340
8A0
340
8A2
340
8A4
340
8A6
340
8A8
340
8AA
340
8AC
340
8AE
340
8B0
340
8B2
340
8B4
340
8B6
340
8B8
340
8BA
340
8BC
340
8BE
340
8C0
340
8C2
340
8C4
340
8C6
340
8C8
340
8CA
340
8CC
340
8CE
340
8D0
340
8D2
340
8D4
340
8D6
340
8D8
340
8DA
340
8DC
340
8DE
340
8E0
340
8E2
340
8E4
340
8E6
340
8E8
340
8EA
340
8EC
340
8EE
340
8F0
340
8F2
340
8F4
340
8F6
340
8F8
340
8FA
340
8FC
340
8FE
340
900
340
902
340
904
340
906
340
908
340
90A
340
90C
340
90E
340
910
340
912
340
914
340
916
340
918
340
91A
340
91C
340
91E
340
920
340
922
340
924
  0
GROUP
  5
966
102
{ACAD_REACTORS
330
D
102
}
330
D
100
AcDbGroup
300
group from kcad family
 70
     0
 71
     1
340
967
340
969
340
96B
340
96D
340
96F
340
971
340
973
340
975
340
977
340
979
340
97B
340
97D
340
97F
340
981
340
983
340
985
340
987
340
989
340
98B
  0
GROUP
  5
98D
102
{ACAD_REACTORS
330
D
102
}
330
D
100
AcDbGroup
300
group from kcad family
 70
     0
 71
     1
340
98E
340
990
340
992
340
994
340
996
340
998
340
99A
340
99C
340
99E
340
9A0
340
9A2
340
9A4
340
9A6
340
9A8
340
9AA
340
9AC
340
9AE
340
9B0
340
9B2
  0
LAYOUT
  5
1D8
102
{ACAD_REACTORS
330
1D6
102
}
330
1D6
100
AcDbPlotSettings
  1

  2
DWF ePlot.pc3
  4
ISO_A3_(297.00_x_420.00_MM)
  6

 40
5.793749809265136
 41
17.79375076293945
 42
5.79376220703125
 43
17.79376220703125
 44
297.0
 45
420.0
 46
0.0
 47
0.0
 48
0.0
 49
0.0
140
0.0
141
0.0
142
1.0
143
1.0
 70
 11952
 72
     1
 73
     1
 74
     2
  7

 75
    16
147
1.0
148
0.0
149
0.0
100
AcDbLayout
  1
Model
 70
     1
 71
     0
 10
0.0
 20
0.0
 11
12.0
 21
9.0
 12
0.0
 22
0.0
 32
0.0
 14
0.0
 24
0.0
 34
0.0
 15
0.0
 25
0.0
 35
0.0
146
0.0
 13
0.0
 23
0.0
 33
0.0
 16
1.0
 26
0.0
 36
0.0
 17
0.0
 27
1.0
 37
0.0
 76
     0
330
18
  0
LAYOUT
  5
22F
102
{ACAD_REACTORS
330
1D6
102
}
330
1D6
100
AcDbPlotSettings
  1

  2
D:\ACAD2000\plotters\HP DesignJet 700(System).pc3
  4

  6

 40
0.0
 41
0.0
 42
0.0
 43
0.0
 44
0.0
 45
0.0
 46
0.0
 47
0.0
 48
0.0
 49
0.0
140
0.0
141
0.0
142
1.0
143
1.0
 70
   688
 72
     0
 73
     0
 74
     5
  7
monochrome.ctb
 75
    16
147
1.0
148
0.0
149
0.0
100
AcDbLayout
  1
ﾚｲｱｳﾄ1
 70
     1
 71
     1
 10
0.0
 20
0.0
 11
12.0
 21
9.0
 12
0.0
 22
0.0
 32
0.0
 14
0.0
 24
0.0
 34
0.0
 15
0.0
 25
0.0
 35
0.0
146
0.0
 13
0.0
 23
0.0
 33
0.0
 16
1.0
 26
0.0
 36
0.0
 17
0.0
 27
1.0
 37
0.0
 76
     0
330
22C
  0
MLINESTYLE
  5
1C
102
{ACAD_REACTORS
330
1B
102
}
330
1B
100
AcDbMlineStyle
  2
STANDARD
 70
     0
  3

 62
   256
 51
90.0
 52
90.0
 71
     2
 49
0.5
 62
   256
  6
BYLAYER
 49
-0.5
 62
   256
  6
BYLAYER
  0
ACDBPLACEHOLDER
  5
1D5
102
{ACAD_REACTORS
330
1D4
102
}
330
1D4
  0
DICTIONARYVAR
  5
9F1
102
{ACAD_REACTORS
330
9F0
102
}
330
9F0
100
DictionaryVariables
280
     0
  1
1
  0
ENDSEC
  0
EOF
