  0
SECTION
  2
HEADER
  9
$ACADVER
  1
AC1015
  9
$ACADMAINTVER
 70
    13
  9
$DWGCODEPAGE
  3
ANSI_932
  9
$INSBASE
 10
0.0
 20
0.0
 30
0.0
  9
$EXTMIN
 10
44.5
 20
33.18908748824
 30
0.0
  9
$EXTMAX
 10
802.5
 20
570.81091251176
 30
0.0
  9
$LIMMIN
 10
0.0
 20
0.0
  9
$LIMMAX
 10
840.0
 20
594.0
  9
$ORTHOMODE
 70
     0
  9
$REGENMODE
 70
     1
  9
$FILLMODE
 70
     1
  9
$QTEXTMODE
 70
     0
  9
$MIRRTEXT
 70
     1
  9
$LTSCALE
 40
0.4
  9
$ATTMODE
 70
     1
  9
$TEXTSIZE
 40
6.4
  9
$TRACEWID
 40
1.0
  9
$TEXTSTYLE
  7
KCADTEXTSTANDARD
  9
$CLAYER
  8
0
  9
$CELTYPE
  6
CONTINUOUS
  9
$CECOLOR
 62
   134
  9
$CELTSCALE
 40
1.0
  9
$DISPSILH
 70
     0
  9
$DIMSCALE
 40
2.0
  9
$DIMASZ
 40
3.0
  9
$DIMEXO
 40
1.0
  9
$DIMDLI
 40
8.0
  9
$DIMRND
 40
0.0
  9
$DIMDLE
 40
0.0
  9
$DIMEXE
 40
1.0
  9
$DIMTP
 40
0.0
  9
$DIMTM
 40
0.0
  9
$DIMTXT
 40
3.2
  9
$DIMCEN
 40
2.5
  9
$DIMTSZ
 40
0.0
  9
$DIMTOL
 70
     0
  9
$DIMLIM
 70
     0
  9
$DIMTIH
 70
     0
  9
$DIMTOH
 70
     0
  9
$DIMSE1
 70
     0
  9
$DIMSE2
 70
     0
  9
$DIMTAD
 70
     1
  9
$DIMZIN
 70
     8
  9
$DIMBLK
  1

  9
$DIMASO
 70
     1
  9
$DIMSHO
 70
     1
  9
$DIMPOST
  1

  9
$DIMAPOST
  1

  9
$DIMALT
 70
     0
  9
$DIMALTD
 70
     2
  9
$DIMALTF
 40
25.4
  9
$DIMLFAC
 40
1.0
  9
$DIMTOFL
 70
     1
  9
$DIMTVP
 40
0.0
  9
$DIMTIX
 70
     0
  9
$DIMSOXD
 70
     0
  9
$DIMSAH
 70
     1
  9
$DIMBLK1
  1
KCAD_OPEN30
  9
$DIMBLK2
  1
KCAD_OPEN30
  9
$DIMSTYLE
  2
STANDARD
  9
$DIMCLRD
 70
     0
  9
$DIMCLRE
 70
     0
  9
$DIMCLRT
 70
     0
  9
$DIMTFAC
 40
0.667
  9
$DIMGAP
 40
0.5333000000000001
  9
$DIMJUST
 70
     0
  9
$DIMSD1
 70
     0
  9
$DIMSD2
 70
     0
  9
$DIMTOLJ
 70
     1
  9
$DIMTZIN
 70
     8
  9
$DIMALTZ
 70
     0
  9
$DIMALTTZ
 70
     0
  9
$DIMUPT
 70
     0
  9
$DIMDEC
 70
     3
  9
$DIMTDEC
 70
     3
  9
$DIMALTU
 70
     2
  9
$DIMALTTD
 70
     2
  9
$DIMTXSTY
  7
KCADDIMSTANDARD
  9
$DIMAUNIT
 70
     0
  9
$DIMADEC
 70
     3
  9
$DIMALTRND
 40
0.0
  9
$DIMAZIN
 70
     2
  9
$DIMDSEP
 70
    46
  9
$DIMATFIT
 70
     3
  9
$DIMFRAC
 70
     0
  9
$DIMLDRBLK
  1
KCAD_OPEN
  9
$DIMLUNIT
 70
     2
  9
$DIMLWD
 70
    -2
  9
$DIMLWE
 70
    -2
  9
$DIMTMOVE
 70
     0
  9
$LUNITS
 70
     2
  9
$LUPREC
 70
     4
  9
$SKETCHINC
 40
1.0
  9
$FILLETRAD
 40
5.0
  9
$AUNITS
 70
     0
  9
$AUPREC
 70
     0
  9
$MENU
  1
.
  9
$ELEVATION
 40
0.0
  9
$PELEVATION
 40
0.0
  9
$THICKNESS
 40
0.0
  9
$LIMCHECK
 70
     0
  9
$CHAMFERA
 40
5.0
  9
$CHAMFERB
 40
5.0
  9
$CHAMFERC
 40
5.0
  9
$CHAMFERD
 40
0.7853981633974483
  9
$SKPOLY
 70
     0
  9
$TDCREATE
 40
2453293.743316690
  9
$TDUCREATE
 40
2453293.368316689
  9
$TDUPDATE
 40
2453293.743492106
  9
$TDUUPDATE
 40
2453293.368492106
  9
$TDINDWG
 40
0.0001756019
  9
$TDUSRTIMER
 40
0.0001756019
  9
$USRTIMER
 70
     1
  9
$ANGBASE
 50
0.0
  9
$ANGDIR
 70
     0
  9
$PDMODE
 70
     0
  9
$PDSIZE
 40
0.0
  9
$PLINEWID
 40
0.0
  9
$SPLFRAME
 70
     0
  9
$SPLINETYPE
 70
     6
  9
$SPLINESEGS
 70
     8
  9
$HANDSEED
  5
B76
  9
$SURFTAB1
 70
     6
  9
$SURFTAB2
 70
     6
  9
$SURFTYPE
 70
     6
  9
$SURFU
 70
     6
  9
$SURFV
 70
     6
  9
$UCSBASE
  2

  9
$UCSNAME
  2

  9
$UCSORG
 10
0.0
 20
0.0
 30
0.0
  9
$UCSXDIR
 10
1.0
 20
0.0
 30
0.0
  9
$UCSYDIR
 10
0.0
 20
1.0
 30
0.0
  9
$UCSORTHOREF
  2

  9
$UCSORTHOVIEW
 70
     0
  9
$UCSORGTOP
 10
0.0
 20
0.0
 30
0.0
  9
$UCSORGBOTTOM
 10
0.0
 20
0.0
 30
0.0
  9
$UCSORGLEFT
 10
0.0
 20
0.0
 30
0.0
  9
$UCSORGRIGHT
 10
0.0
 20
0.0
 30
0.0
  9
$UCSORGFRONT
 10
0.0
 20
0.0
 30
0.0
  9
$UCSORGBACK
 10
0.0
 20
0.0
 30
0.0
  9
$PUCSBASE
  2

  9
$PUCSNAME
  2

  9
$PUCSORG
 10
0.0
 20
0.0
 30
0.0
  9
$PUCSXDIR
 10
1.0
 20
0.0
 30
0.0
  9
$PUCSYDIR
 10
0.0
 20
1.0
 30
0.0
  9
$PUCSORTHOREF
  2

  9
$PUCSORTHOVIEW
 70
     0
  9
$PUCSORGTOP
 10
0.0
 20
0.0
 30
0.0
  9
$PUCSORGBOTTOM
 10
0.0
 20
0.0
 30
0.0
  9
$PUCSORGLEFT
 10
0.0
 20
0.0
 30
0.0
  9
$PUCSORGRIGHT
 10
0.0
 20
0.0
 30
0.0
  9
$PUCSORGFRONT
 10
0.0
 20
0.0
 30
0.0
  9
$PUCSORGBACK
 10
0.0
 20
0.0
 30
0.0
  9
$USERI1
 70
     0
  9
$USERI2
 70
     0
  9
$USERI3
 70
     0
  9
$USERI4
 70
   257
  9
$USERI5
 70
     0
  9
$USERR1
 40
0.0
  9
$USERR2
 40
0.0
  9
$USERR3
 40
0.0
  9
$USERR4
 40
0.0
  9
$USERR5
 40
0.0
  9
$WORLDVIEW
 70
     1
  9
$SHADEDGE
 70
     3
  9
$SHADEDIF
 70
    70
  9
$TILEMODE
 70
     1
  9
$MAXACTVP
 70
    48
  9
$PINSBASE
 10
0.0
 20
0.0
 30
0.0
  9
$PLIMCHECK
 70
     0
  9
$PEXTMIN
 10
0.0
 20
0.0
 30
0.0
  9
$PEXTMAX
 10
0.0
 20
0.0
 30
0.0
  9
$PLIMMIN
 10
0.0
 20
0.0
  9
$PLIMMAX
 10
12.0
 20
9.0
  9
$UNITMODE
 70
     0
  9
$VISRETAIN
 70
     1
  9
$PLINEGEN
 70
     0
  9
$PSLTSCALE
 70
     1
  9
$TREEDEPTH
 70
  3020
  9
$CMLSTYLE
  2
STANDARD
  9
$CMLJUST
 70
     0
  9
$CMLSCALE
 40
20.0
  9
$PROXYGRAPHICS
 70
     1
  9
$MEASUREMENT
 70
     1
  9
$CELWEIGHT
370
    15
  9
$ENDCAPS
280
     0
  9
$JOINSTYLE
280
     0
  9
$LWDISPLAY
290
     0
  9
$INSUNITS
 70
     0
  9
$HYPERLINKBASE
  1

  9
$STYLESHEET
  1

  9
$XEDIT
290
     1
  9
$CEPSNTYPE
380
     0
  9
$PSTYLEMODE
290
     1
  9
$FINGERPRINTGUID
  2
{1989D620-E742-11D2-9219-00105A146177}
  9
$VERSIONGUID
  2
{A21ECEEE-E888-46D9-B0D1-A6A7060D8670}
  9
$EXTNAMES
290
     1
  9
$PSVPSCALE
 40
0.0
  9
$OLESTARTUP
290
     0
  0
ENDSEC
  0
SECTION
  2
CLASSES
  0
CLASS
  1
ACDBDICTIONARYWDFLT
  2
AcDbDictionaryWithDefault
  3
AutoCAD 2000
 90
        0
280
     0
281
     0
  0
CLASS
  1
ACDBPLACEHOLDER
  2
AcDbPlaceHolder
  3
AutoCAD 2000
 90
        0
280
     0
281
     0
  0
CLASS
  1
LAYOUT
  2
AcDbLayout
  3
AutoCAD 2000
 90
        0
280
     0
281
     0
  0
CLASS
  1
DICTIONARYVAR
  2
AcDbDictionaryVar
  3
AutoCAD 2000
 90
        0
280
     0
281
     0
  0
ENDSEC
  0
SECTION
  2
TABLES
  0
TABLE
  2
VPORT
  5
8
330
0
100
AcDbSymbolTable
 70
     2
  0
VPORT
  5
B75
330
8
100
AcDbSymbolTableRecord
100
AcDbViewportTableRecord
  2
*Active
 70
     0
 10
0.0
 20
0.0
 11
1.0
 21
1.0
 12
423.5
 22
301.9999999999999
 13
0.0
 23
0.0
 14
10.0
 24
10.0
 15
10.0
 25
10.0
 16
0.0
 26
0.0
 36
1.0
 17
0.0
 27
0.0
 37
0.0
 40
543.3820588630576
 41
2.20035778175313
 42
50.0
 43
0.0
 44
0.0
 50
0.0
 51
0.0
 71
     0
 72
 20000
 73
     1
 74
     1
 75
     0
 76
     0
 77
     0
 78
     0
281
     0
 65
     1
110
0.0
120
0.0
130
0.0
111
1.0
121
0.0
131
0.0
112
0.0
122
1.0
132
0.0
 79
     0
146
0.0
  0
ENDTAB
  0
TABLE
  2
LTYPE
  5
5
330
0
100
AcDbSymbolTable
 70
     6
  0
LTYPE
  5
12
330
5
100
AcDbSymbolTableRecord
100
AcDbLinetypeTableRecord
  2
BYBLOCK
 70
     0
  3

 72
    65
 73
     0
 40
0.0
  0
LTYPE
  5
13
330
5
100
AcDbSymbolTableRecord
100
AcDbLinetypeTableRecord
  2
BYLAYER
 70
     0
  3

 72
    65
 73
     0
 40
0.0
  0
LTYPE
  5
14
330
5
100
AcDbSymbolTableRecord
100
AcDbLinetypeTableRecord
  2
CONTINUOUS
 70
     0
  3
Solid line
 72
    65
 73
     0
 40
0.0
  0
LTYPE
  5
180
330
5
100
AcDbSymbolTableRecord
100
AcDbLinetypeTableRecord
  2
CENTER
 70
     0
  3
Center ____ _ ____ _ ____ _ ____ _ ____ _ ____
 72
    65
 73
     4
 40
50.8
 49
31.75
 74
     0
 49
-6.349999999999999
 74
     0
 49
6.349999999999999
 74
     0
 49
-6.349999999999999
 74
     0
  0
LTYPE
  5
181
330
5
100
AcDbSymbolTableRecord
100
AcDbLinetypeTableRecord
  2
DASHED
 70
     0
  3
Dashed __ __ __ __ __ __ __ __ __ __ __ __ __ _
 72
    65
 73
     2
 40
19.05
 49
12.7
 74
     0
 49
-6.349999999999999
 74
     0
  0
LTYPE
  5
182
330
5
100
AcDbSymbolTableRecord
100
AcDbLinetypeTableRecord
  2
HIDDEN
 70
     0
  3
Hidden __ __ __ __ __ __ __ __ __ __ __ __ __ _
 72
    65
 73
     2
 40
9.525
 49
6.349999999999999
 74
     0
 49
-3.174999999999999
 74
     0
  0
LTYPE
  5
183
330
5
100
AcDbSymbolTableRecord
100
AcDbLinetypeTableRecord
  2
PHANTOM
 70
     0
  3
Phantom ______  __  __  ______  __  __  ______
 72
    65
 73
     6
 40
63.5
 49
31.75
 74
     0
 49
-6.349999999999999
 74
     0
 49
6.349999999999999
 74
     0
 49
-6.349999999999999
 74
     0
 49
6.349999999999999
 74
     0
 49
-6.349999999999999
 74
     0
  0
LTYPE
  5
221
330
5
100
AcDbSymbolTableRecord
100
AcDbLinetypeTableRecord
  2
RUPTURE
 70
     0
  3
Rupture line
 72
    65
 73
     4
 40
45.72
 49
25.4
 74
     0
 49
-5.08
 74
     4
 75
   131
340
17F
 46
5.08
 50
0.0
 44
-5.08
 45
0.0
 49
-10.16
 74
     4
 75
   131
340
17F
 46
5.08
 50
180.0
 44
5.08
 45
0.0
 49
-5.08
 74
     0
  0
ENDTAB
  0
TABLE
  2
LAYER
  5
2
330
0
100
AcDbSymbolTable
 70
    20
  0
LAYER
  5
E
330
2
100
AcDbSymbolTableRecord
100
AcDbLayerTableRecord
  2
0
 70
     0
 62
     7
  6
CONTINUOUS
370
    -3
390
1D5
  0
LAYER
  5
20
330
2
100
AcDbSymbolTableRecord
100
AcDbLayerTableRecord
  2
KCAD_DIMS
 70
     0
 62
   134
  6
CONTINUOUS
370
    15
390
1D5
  0
LAYER
  5
4F
330
2
100
AcDbSymbolTableRecord
100
AcDbLayerTableRecord
  2
DEFPOINTS
 70
     0
 62
     7
  6
CONTINUOUS
290
     0
370
    -3
390
1D5
  0
LAYER
  5
20B
330
2
100
AcDbSymbolTableRecord
100
AcDbLayerTableRecord
  2
KCAD_ASST
 70
     0
 62
   134
  6
CONTINUOUS
370
    15
390
1D5
  0
LAYER
  5
20C
330
2
100
AcDbSymbolTableRecord
100
AcDbLayerTableRecord
  2
KCAD_RASTER
 70
     0
 62
     7
  6
CONTINUOUS
370
    30
390
1D5
  0
LAYER
  5
20D
330
2
100
AcDbSymbolTableRecord
100
AcDbLayerTableRecord
  2
SYBCENTER
 70
     0
 62
   134
  6
CENTER
370
    15
390
1D5
  0
LAYER
  5
20E
330
2
100
AcDbSymbolTableRecord
100
AcDbLayerTableRecord
  2
SYBHIDE
 70
     0
 62
   134
  6
HIDDEN
370
    15
390
1D5
  0
LAYER
  5
20F
330
2
100
AcDbSymbolTableRecord
100
AcDbLayerTableRecord
  2
SYBOUTLINE
 70
     0
 62
     7
  6
CONTINUOUS
370
    30
390
1D5
  0
LAYER
  5
210
330
2
100
AcDbSymbolTableRecord
100
AcDbLayerTableRecord
  2
SYBTHREAD
 70
     0
 62
   134
  6
CONTINUOUS
370
    15
390
1D5
  0
LAYER
  5
211
330
2
100
AcDbSymbolTableRecord
100
AcDbLayerTableRecord
  2
SYBTHRHID
 70
     0
 62
   134
  6
HIDDEN
370
    15
390
1D5
  0
LAYER
  5
282
330
2
100
AcDbSymbolTableRecord
100
AcDbLayerTableRecord
  2
KCAD_UIR_TMP_LAYER_
 70
     0
 62
     7
  6
CONTINUOUS
370
    -3
390
1D5
  0
LAYER
  5
2A8
330
2
100
AcDbSymbolTableRecord
100
AcDbLayerTableRecord
  2
KCAD_CPM_MAX_LAYER
 70
     3
 62
     7
  6
CONTINUOUS
370
    -3
390
1D5
  0
LAYER
  5
2EF
330
2
100
AcDbSymbolTableRecord
100
AcDbLayerTableRecord
  2
1
 70
     0
 62
     7
  6
CONTINUOUS
370
    -3
390
1D5
  0
LAYER
  5
2F8
330
2
100
AcDbSymbolTableRecord
100
AcDbLayerTableRecord
  2
16
 70
     0
 62
     7
  6
CONTINUOUS
370
    -3
390
1D5
  0
LAYER
  5
30B
330
2
100
AcDbSymbolTableRecord
100
AcDbLayerTableRecord
  2
15
 70
     0
 62
     7
  6
CONTINUOUS
370
    -3
390
1D5
  0
LAYER
  5
3A2
330
2
100
AcDbSymbolTableRecord
100
AcDbLayerTableRecord
  2
19
 70
     0
 62
     7
  6
CONTINUOUS
370
    -3
390
1D5
  0
LAYER
  5
3A5
330
2
100
AcDbSymbolTableRecord
100
AcDbLayerTableRecord
  2
13
 70
     0
 62
     7
  6
CONTINUOUS
370
    -3
390
1D5
  0
LAYER
  5
3AA
330
2
100
AcDbSymbolTableRecord
100
AcDbLayerTableRecord
  2
14
 70
     0
 62
     7
  6
CONTINUOUS
370
    -3
390
1D5
  0
LAYER
  5
3F9
330
2
100
AcDbSymbolTableRecord
100
AcDbLayerTableRecord
  2
18
 70
     0
 62
     7
  6
CONTINUOUS
370
    -3
390
1D5
  0
LAYER
  5
492
330
2
100
AcDbSymbolTableRecord
100
AcDbLayerTableRecord
  2
17
 70
     0
 62
     7
  6
CONTINUOUS
370
    -3
390
1D5
  0
ENDTAB
  0
TABLE
  2
STYLE
  5
3
330
0
100
AcDbSymbolTable
 70
     5
  0
STYLE
  5
F
330
3
100
AcDbSymbolTableRecord
100
AcDbTextStyleTableRecord
  2
STANDARD
 70
     0
 40
0.0
 41
1.0
 50
0.0
 71
     0
 42
3.2
  3
txt.shx
  4
bigfont.shx
  0
STYLE
  5
17F
330
3
100
AcDbSymbolTableRecord
100
AcDbTextStyleTableRecord
  2

 70
     1
 40
0.0
 41
1.0
 50
0.0
 71
     0
 42
3.2
  3
ltypeshp.shx
  4

  0
STYLE
  5
189
330
3
100
AcDbSymbolTableRecord
100
AcDbTextStyleTableRecord
  2
KCADDIMSTANDARD
 70
     0
 40
0.0
 41
1.0
 50
0.0
 71
     0
 42
3.2
  3
txt.shx
  4
bigfont.shx
  0
STYLE
  5
18A
330
3
100
AcDbSymbolTableRecord
100
AcDbTextStyleTableRecord
  2
KCADTEXTSTANDARD
 70
     0
 40
0.0
 41
1.0
 50
0.0
 71
     0
 42
6.4
  3
txt.shx
  4
bigfont.shx
  0
STYLE
  5
1AD
330
3
100
AcDbSymbolTableRecord
100
AcDbTextStyleTableRecord
  2
KCADTEXT2
 70
     0
 40
0.0
 41
1.0
 50
0.0
 71
     0
 42
3.2
  3
txt.shx
  4
extfont.shx
  0
ENDTAB
  0
TABLE
  2
VIEW
  5
6
330
0
100
AcDbSymbolTable
 70
     0
  0
ENDTAB
  0
TABLE
  2
UCS
  5
7
330
0
100
AcDbSymbolTable
 70
     0
  0
ENDTAB
  0
TABLE
  2
APPID
  5
9
330
0
100
AcDbSymbolTable
 70
     3
  0
APPID
  5
10
330
9
100
AcDbSymbolTableRecord
100
AcDbRegAppTableRecord
  2
ACAD
 70
     0
  0
APPID
  5
2F1
330
9
100
AcDbSymbolTableRecord
100
AcDbRegAppTableRecord
  2
Sigma
 70
     0
  0
APPID
  5
73A
330
9
100
AcDbSymbolTableRecord
100
AcDbRegAppTableRecord
  2
KCAD_DIM_EXT
 70
     0
  0
ENDTAB
  0
TABLE
  2
DIMSTYLE
  5
A
330
0
100
AcDbSymbolTable
 70
     1
100
AcDbDimStyleTable
 71
     1
340
1D
  0
DIMSTYLE
105
1D
102
{ACAD_REACTORS
330
711
330
74D
330
78B
330
7C9
330
7F7
330
825
330
861
330
89D
330
8D9
330
915
330
951
330
98D
330
9C9
330
A05
330
A41
330
A7D
330
ABB
330
AF7
330
B35
102
}
330
A
100
AcDbSymbolTableRecord
100
AcDbDimStyleTableRecord
  2
STANDARD
 70
     0
340
F
  0
ENDTAB
  0
TABLE
  2
BLOCK_RECORD
  5
1
330
0
100
AcDbSymbolTable
 70
    46
  0
BLOCK_RECORD
  5
18
330
1
100
AcDbSymbolTableRecord
100
AcDbBlockTableRecord
  2
*MODEL_SPACE
340
1D8
  0
BLOCK_RECORD
  5
22C
330
1
100
AcDbSymbolTableRecord
100
AcDbBlockTableRecord
  2
*Paper_Space
340
22F
  0
BLOCK_RECORD
  5
21
330
1
100
AcDbSymbolTableRecord
100
AcDbBlockTableRecord
  2
KCAD_OPEN
340
0
  0
BLOCK_RECORD
  5
3C
330
1
100
AcDbSymbolTableRecord
100
AcDbBlockTableRecord
  2
KCAD_DOTSMALL
340
0
  0
BLOCK_RECORD
  5
44
330
1
100
AcDbSymbolTableRecord
100
AcDbBlockTableRecord
  2
KCAD_NONE
340
0
  0
BLOCK_RECORD
  5
FC
330
1
100
AcDbSymbolTableRecord
100
AcDbBlockTableRecord
  2
_CLOSED
340
0
  0
BLOCK_RECORD
  5
103
330
1
100
AcDbSymbolTableRecord
100
AcDbBlockTableRecord
  2
_DOT
340
0
  0
BLOCK_RECORD
  5
10B
330
1
100
AcDbSymbolTableRecord
100
AcDbBlockTableRecord
  2
_CLOSEDBLANK
340
0
  0
BLOCK_RECORD
  5
111
330
1
100
AcDbSymbolTableRecord
100
AcDbBlockTableRecord
  2
_OBLIQUE
340
0
  0
BLOCK_RECORD
  5
115
330
1
100
AcDbSymbolTableRecord
100
AcDbBlockTableRecord
  2
_ARCHTICK
340
0
  0
BLOCK_RECORD
  5
11C
330
1
100
AcDbSymbolTableRecord
100
AcDbBlockTableRecord
  2
_OPEN
340
0
  0
BLOCK_RECORD
  5
122
330
1
100
AcDbSymbolTableRecord
100
AcDbBlockTableRecord
  2
_ORIGIN
340
0
  0
BLOCK_RECORD
  5
127
330
1
100
AcDbSymbolTableRecord
100
AcDbBlockTableRecord
  2
_OPEN90
340
0
  0
BLOCK_RECORD
  5
12D
330
1
100
AcDbSymbolTableRecord
100
AcDbBlockTableRecord
  2
_OPEN30
340
0
102
{BLKREFS
331
72C
331
72D
331
735
331
736
331
73F
331
740
331
746
331
747
331
768
331
769
331
771
331
772
331
77B
331
77C
331
782
331
783
331
7A6
331
7A7
331
7AF
331
7B0
331
7B9
331
7BA
331
7C0
331
7C1
331
7E0
331
7E1
331
7E6
331
7E7
331
7ED
331
7EE
331
7F5
331
7F6
331
80E
331
80F
331
814
331
815
331
81B
331
81C
331
823
331
824
331
840
331
841
331
849
331
84A
331
853
331
854
331
85A
331
85B
331
87C
331
87D
331
885
331
886
331
88F
331
890
331
896
331
897
331
8B8
331
8B9
331
8C1
331
8C2
331
8CB
331
8CC
331
8D2
331
8D3
331
8F4
331
8F5
331
8FD
331
8FE
331
907
331
908
331
90E
331
90F
331
930
331
931
331
939
331
93A
331
943
331
944
331
94A
331
94B
331
96C
331
96D
331
975
331
976
331
97F
331
980
331
986
331
987
331
9A8
331
9A9
331
9B1
331
9B2
331
9BB
331
9BC
331
9C2
331
9C3
331
9E4
331
9E5
331
9ED
331
9EE
331
9F7
331
9F8
331
9FE
331
9FF
331
A20
331
A21
331
A29
331
A2A
331
A33
331
A34
331
A3A
331
A3B
331
A5C
331
A5D
331
A65
331
A66
331
A6F
331
A70
331
A76
331
A77
331
A98
331
A99
331
AA1
331
AA2
331
AAB
331
AAC
331
AB2
331
AB3
331
AD6
331
AD7
331
ADF
331
AE0
331
AE9
331
AEA
331
AF0
331
AF1
331
B12
331
B13
331
B1B
331
B1C
331
B25
331
B26
331
B2C
331
B2D
331
B50
331
B51
331
B59
331
B5A
331
B63
331
B64
331
B6A
331
B6B
102
}
  0
BLOCK_RECORD
  5
133
330
1
100
AcDbSymbolTableRecord
100
AcDbBlockTableRecord
  2
_DOTBLANK
340
0
  0
BLOCK_RECORD
  5
138
330
1
100
AcDbSymbolTableRecord
100
AcDbBlockTableRecord
  2
_DOTSMALL
340
0
  0
BLOCK_RECORD
  5
13F
330
1
100
AcDbSymbolTableRecord
100
AcDbBlockTableRecord
  2
_BOXFILLED
340
0
  0
BLOCK_RECORD
  5
144
330
1
100
AcDbSymbolTableRecord
100
AcDbBlockTableRecord
  2
_BOXBLANK
340
0
  0
BLOCK_RECORD
  5
14C
330
1
100
AcDbSymbolTableRecord
100
AcDbBlockTableRecord
  2
_DATUMFILLED
340
0
  0
BLOCK_RECORD
  5
150
330
1
100
AcDbSymbolTableRecord
100
AcDbBlockTableRecord
  2
_DATUMBLANK
340
0
  0
BLOCK_RECORD
  5
156
330
1
100
AcDbSymbolTableRecord
100
AcDbBlockTableRecord
  2
_INTEGRAL
340
0
  0
BLOCK_RECORD
  5
1F1
330
1
100
AcDbSymbolTableRecord
100
AcDbBlockTableRecord
  2
_Origin2
340
0
  0
BLOCK_RECORD
  5
1F7
330
1
100
AcDbSymbolTableRecord
100
AcDbBlockTableRecord
  2
KCAD_OPEN30
340
0
102
{BLKREFS
331
716
331
717
331
722
331
723
331
752
331
753
331
75E
331
75F
331
790
331
791
331
79C
331
79D
331
7CF
331
7D0
331
7DA
331
7DB
331
7FD
331
7FE
331
808
331
809
331
82A
331
82B
331
836
331
837
331
866
331
867
331
872
331
873
331
8A2
331
8A3
331
8AE
331
8AF
331
8DE
331
8DF
331
8EA
331
8EB
331
91A
331
91B
331
926
331
927
331
956
331
957
331
962
331
963
331
992
331
993
331
99E
331
99F
331
9CE
331
9CF
331
9DA
331
9DB
331
A0A
331
A0B
331
A16
331
A17
331
A46
331
A47
331
A52
331
A53
331
A82
331
A83
331
A8E
331
A8F
331
AC0
331
AC1
331
ACC
331
ACD
331
AFC
331
AFD
331
B08
331
B09
331
B3A
331
B3B
331
B46
331
B47
102
}
  0
BLOCK_RECORD
  5
222
330
1
100
AcDbSymbolTableRecord
100
AcDbBlockTableRecord
  2
_None
340
0
  0
BLOCK_RECORD
  5
283
330
1
100
AcDbSymbolTableRecord
100
AcDbBlockTableRecord
  2
_Small
340
0
  0
BLOCK_RECORD
  5
287
330
1
100
AcDbSymbolTableRecord
100
AcDbBlockTableRecord
  2
KCAD_OPEN_2
340
0
  0
BLOCK_RECORD
  5
28E
330
1
100
AcDbSymbolTableRecord
100
AcDbBlockTableRecord
  2
KCAD_OPEN30_2
340
0
  0
BLOCK_RECORD
  5
2AD
330
1
100
AcDbSymbolTableRecord
100
AcDbBlockTableRecord
  2
KCAD_OPEN30ANG
340
0
310
2800000020000000200000000100080000000000000400000000000000000000000000000000000000000000000080000080000000808000800000008000800080800000C0C0C000C0DCC000F0CAA6000020400000206000002080000020A0000020C0000020E00000400000004020000040400000406000004080000040A0
310
000040C0000040E00000600000006020000060400000606000006080000060A0000060C0000060E00000800000008020000080400000806000008080000080A0000080C0000080E00000A0000000A0200000A0400000A0600000A0800000A0A00000A0C00000A0E00000C0000000C0200000C0400000C0600000C0800000C0
310
A00000C0C00000C0E00000E0000000E0200000E0400000E0600000E0800000E0A00000E0C00000E0E00040000000400020004000400040006000400080004000A0004000C0004000E00040200000402020004020400040206000402080004020A0004020C0004020E000404000004040200040404000404060004040800040
310
40A0004040C0004040E00040600000406020004060400040606000406080004060A0004060C0004060E00040800000408020004080400040806000408080004080A0004080C0004080E00040A0000040A0200040A0400040A0600040A0800040A0A00040A0C00040A0E00040C0000040C0200040C0400040C0600040C08000
310
40C0A00040C0C00040C0E00040E0000040E0200040E0400040E0600040E0800040E0A00040E0C00040E0E00080000000800020008000400080006000800080008000A0008000C0008000E00080200000802020008020400080206000802080008020A0008020C0008020E00080400000804020008040400080406000804080
310
008040A0008040C0008040E00080600000806020008060400080606000806080008060A0008060C0008060E00080800000808020008080400080806000808080008080A0008080C0008080E00080A0000080A0200080A0400080A0600080A0800080A0A00080A0C00080A0E00080C0000080C0200080C0400080C0600080C0
310
800080C0A00080C0C00080C0E00080E0000080E0200080E0400080E0600080E0800080E0A00080E0C00080E0E000C0000000C0002000C0004000C0006000C0008000C000A000C000C000C000E000C0200000C0202000C0204000C0206000C0208000C020A000C020C000C020E000C0400000C0402000C0404000C0406000C0
310
408000C040A000C040C000C040E000C0600000C0602000C0604000C0606000C0608000C060A000C060C000C060E000C0800000C0802000C0804000C0806000C0808000C080A000C080C000C080E000C0A00000C0A02000C0A04000C0A06000C0A08000C0A0A000C0A0C000C0A0E000C0C00000C0C02000C0C04000C0C06000
310
C0C08000C0C0A000F0FBFF00A4A0A000808080000000FF0000FF000000FFFF00FF000000FF00FF00FFFF0000FFFFFF0000000000000000000000000000000000000000000000000000000000000000000000000000000000000000000000000000000000000000000000000000000000000000000000000000000000000000
310
00000000000000000000000000000000000000000000000000000000000000000000000000000000000000000000000000000000000000000000000000000000000000000000000000000000000000000000000000000000000000000000000000000000000000000000000000000000000000000000000000000000000000
310
000000000000000000000000000000000000000000000000000000000000000000000000000000000000000000000000000000FFFF0000000000000000000000000000000000000000000000000000000000000000FFFFFFFF0000000000000000000000000000000000000000000000000000000000000000FFFFFFFF0000
310
000000000000000000000000000000000000000000000000000000000000FFFFFF0000000000000000000000000000000000000000000000000000000000000000FFFFFFFF0000000000000000000000000000000000000000000000000000000000000000FFFFFF0000000000000000000000000000000000000000000000
310
000000000000000000FFFFFFFF0000000000000000000000000000000000000000000000000000000000000000FFFFFFFF00000000000000000000000000000000000000000000000000000000000000FFFFFF00000000000000000000000000000000000000000000000000FFFFFFFF000000000000000000000000000000
310
000000000000000000FFFFFFFF000000000000000000000000000000000000000000000000FFFFFFFF000000000000000000000000000000000000000000000000FFFFFFFF000000000000000000000000000000000000000000000000FFFFFFFF000000000000000000000000000000000000000000000000FFFFFFFF0000
310
0000000000000000000000000000000000000000000000FFFFFF0000000000000000000000000000000000000000000000000000000000000000000000000000000000000000000000000000000000000000000000000000000000000000000000000000000000000000000000000000000000000000000000000000000000
310
00000000000000000000000000000000000000000000000000000000000000000000000000000000000000000000000000000000000000000000000000000000000000000000000000000000000000000000000000000000000000000000000000000000000000000000000000000000000000000000000000000000000000
310
0000000000000000000000000000000000000000000000000000000000000000000000000000000000000000000000000000000000000000
  0
BLOCK_RECORD
  5
2B6
330
1
100
AcDbSymbolTableRecord
100
AcDbBlockTableRecord
  2
KCAD_DOTANG
340
0
310
2800000020000000200000000100080000000000000400000000000000000000000000000000000000000000000080000080000000808000800000008000800080800000C0C0C000C0DCC000F0CAA6000020400000206000002080000020A0000020C0000020E00000400000004020000040400000406000004080000040A0
310
000040C0000040E00000600000006020000060400000606000006080000060A0000060C0000060E00000800000008020000080400000806000008080000080A0000080C0000080E00000A0000000A0200000A0400000A0600000A0800000A0A00000A0C00000A0E00000C0000000C0200000C0400000C0600000C0800000C0
310
A00000C0C00000C0E00000E0000000E0200000E0400000E0600000E0800000E0A00000E0C00000E0E00040000000400020004000400040006000400080004000A0004000C0004000E00040200000402020004020400040206000402080004020A0004020C0004020E000404000004040200040404000404060004040800040
310
40A0004040C0004040E00040600000406020004060400040606000406080004060A0004060C0004060E00040800000408020004080400040806000408080004080A0004080C0004080E00040A0000040A0200040A0400040A0600040A0800040A0A00040A0C00040A0E00040C0000040C0200040C0400040C0600040C08000
310
40C0A00040C0C00040C0E00040E0000040E0200040E0400040E0600040E0800040E0A00040E0C00040E0E00080000000800020008000400080006000800080008000A0008000C0008000E00080200000802020008020400080206000802080008020A0008020C0008020E00080400000804020008040400080406000804080
310
008040A0008040C0008040E00080600000806020008060400080606000806080008060A0008060C0008060E00080800000808020008080400080806000808080008080A0008080C0008080E00080A0000080A0200080A0400080A0600080A0800080A0A00080A0C00080A0E00080C0000080C0200080C0400080C0600080C0
310
800080C0A00080C0C00080C0E00080E0000080E0200080E0400080E0600080E0800080E0A00080E0C00080E0E000C0000000C0002000C0004000C0006000C0008000C000A000C000C000C000E000C0200000C0202000C0204000C0206000C0208000C020A000C020C000C020E000C0400000C0402000C0404000C0406000C0
310
408000C040A000C040C000C040E000C0600000C0602000C0604000C0606000C0608000C060A000C060C000C060E000C0800000C0802000C0804000C0806000C0808000C080A000C080C000C080E000C0A00000C0A02000C0A04000C0A06000C0A08000C0A0A000C0A0C000C0A0E000C0C00000C0C02000C0C04000C0C06000
310
C0C08000C0C0A000F0FBFF00A4A0A000808080000000FF0000FF000000FFFF00FF000000FF00FF00FFFF0000FFFFFF0000000000000000FF00000000000000000000000000000000FF0000000000000000000000000000FF00000000000000000000000000000000FF000000000000000000000000000000FF000000000000
310
0000000000000000FF0000000000000000000000000000000000FF000000000000000000000000FF000000000000000000000000000000000000FF000000000000000000000000FF00000000000000000000000000000000000000FF00000000000000000000FF0000000000000000000000000000000000000000FF000000
310
00000000000000FF000000000000000000000000000000000000000000FF0000000000000000FF0000000000000000000000000000000000000000000000FF000000000000FF000000000000000000000000000000000000000000000000FF000000000000FF00000000000000000000000000000000000000000000000000
310
FF00000000FF0000000000000000000000000000000000000000000000000000FF00000000FF000000000000000000000000000000000000000000000000000000FF0000FF0000000000000000000000000000000000000000000000000000000000FFFF000000000000000000000000000000000000000000000000000000
310
0000FFFFFFFF00000000000000000000000000000000000000000000000000000000FFFFFF00FF0000000000000000000000FFFFFFFFFFFFFFFFFFFFFFFFFFFFFFFFFFFFFFFFFFFFFFFFFFFFFFFFFFFFFFFF00000000000000000000000000000000FFFFFFFF00000000000000000000000000000000000000000000000000
310
00000000FFFF0000000000000000000000000000000000000000000000000000000000FF0000FF000000000000000000000000000000000000000000000000000000FF00000000FF0000000000000000000000000000000000000000000000000000FF00000000FF0000000000000000000000000000000000000000000000
310
0000FF000000000000FF000000000000000000000000000000000000000000000000FF000000000000FF0000000000000000000000000000000000000000000000FF0000000000000000FF000000000000000000000000000000000000000000FF00000000000000000000FF00000000000000000000000000000000000000
310
00FF00000000000000000000FF00000000000000000000000000000000000000FF000000000000000000000000FF000000000000000000000000000000000000FF000000000000000000000000FF0000000000000000000000000000000000FF0000000000000000000000000000FF000000000000000000000000000000FF
310
00000000000000000000000000000000FF0000000000000000000000000000FF00000000000000000000000000000000FF00000000000000
  0
BLOCK_RECORD
  5
712
330
1
100
AcDbSymbolTableRecord
100
AcDbBlockTableRecord
  2
*D27
340
0
  0
BLOCK_RECORD
  5
74E
330
1
100
AcDbSymbolTableRecord
100
AcDbBlockTableRecord
  2
*D28
340
0
  0
BLOCK_RECORD
  5
78C
330
1
100
AcDbSymbolTableRecord
100
AcDbBlockTableRecord
  2
*D29
340
0
  0
BLOCK_RECORD
  5
7CA
330
1
100
AcDbSymbolTableRecord
100
AcDbBlockTableRecord
  2
*D30
340
0
  0
BLOCK_RECORD
  5
7F8
330
1
100
AcDbSymbolTableRecord
100
AcDbBlockTableRecord
  2
*D31
340
0
  0
BLOCK_RECORD
  5
826
330
1
100
AcDbSymbolTableRecord
100
AcDbBlockTableRecord
  2
*D32
340
0
  0
BLOCK_RECORD
  5
862
330
1
100
AcDbSymbolTableRecord
100
AcDbBlockTableRecord
  2
*D33
340
0
  0
BLOCK_RECORD
  5
89E
330
1
100
AcDbSymbolTableRecord
100
AcDbBlockTableRecord
  2
*D34
340
0
  0
BLOCK_RECORD
  5
8DA
330
1
100
AcDbSymbolTableRecord
100
AcDbBlockTableRecord
  2
*D35
340
0
  0
BLOCK_RECORD
  5
916
330
1
100
AcDbSymbolTableRecord
100
AcDbBlockTableRecord
  2
*D36
340
0
  0
BLOCK_RECORD
  5
952
330
1
100
AcDbSymbolTableRecord
100
AcDbBlockTableRecord
  2
*D37
340
0
  0
BLOCK_RECORD
  5
98E
330
1
100
AcDbSymbolTableRecord
100
AcDbBlockTableRecord
  2
*D38
340
0
  0
BLOCK_RECORD
  5
9CA
330
1
100
AcDbSymbolTableRecord
100
AcDbBlockTableRecord
  2
*D39
340
0
  0
BLOCK_RECORD
  5
A06
330
1
100
AcDbSymbolTableRecord
100
AcDbBlockTableRecord
  2
*D40
340
0
  0
BLOCK_RECORD
  5
A42
330
1
100
AcDbSymbolTableRecord
100
AcDbBlockTableRecord
  2
*D41
340
0
  0
BLOCK_RECORD
  5
A7E
330
1
100
AcDbSymbolTableRecord
100
AcDbBlockTableRecord
  2
*D42
340
0
  0
BLOCK_RECORD
  5
ABC
330
1
100
AcDbSymbolTableRecord
100
AcDbBlockTableRecord
  2
*D43
340
0
  0
BLOCK_RECORD
  5
AF8
330
1
100
AcDbSymbolTableRecord
100
AcDbBlockTableRecord
  2
*D44
340
0
  0
BLOCK_RECORD
  5
B36
330
1
100
AcDbSymbolTableRecord
100
AcDbBlockTableRecord
  2
*D45
340
0
  0
ENDTAB
  0
ENDSEC
  0
SECTION
  2
BLOCKS
  0
BLOCK
  5
19
330
18
100
AcDbEntity
  8
0
100
AcDbBlockBegin
  2
*MODEL_SPACE
 70
     0
 10
0.0
 20
0.0
 30
0.0
  3
*MODEL_SPACE
  1

  0
ENDBLK
  5
1A
330
18
100
AcDbEntity
  8
0
100
AcDbBlockEnd
  0
BLOCK
  5
22D
330
22C
100
AcDbEntity
 67
     1
  8
0
 62
    54
370
    30
100
AcDbBlockBegin
  2
*Paper_Space
 70
     0
 10
0.0
 20
0.0
 30
0.0
  3
*Paper_Space
  1

  0
ENDBLK
  5
22E
330
22C
100
AcDbEntity
 67
     1
  8
0
 62
    54
370
    30
100
AcDbBlockEnd
  0
BLOCK
  5
25
330
21
100
AcDbEntity
  8
KCAD_DIMS
100
AcDbBlockBegin
  2
KCAD_OPEN
 70
     0
 10
0.0
 20
0.0
 30
0.0
  3
KCAD_OPEN
  1

  0
LINE
  5
22
330
21
100
AcDbEntity
  8
0
  6
Continuous
 62
     0
370
    -2
100
AcDbLine
 10
0.0
 20
0.0
 30
0.0
 11
-1.0
 21
0.0
 31
0.0
  0
LINE
  5
23
330
21
100
AcDbEntity
  8
0
  6
Continuous
 62
     0
370
    -2
100
AcDbLine
 10
0.0
 20
0.0
 30
0.0
 11
-1.0
 21
0.158384
 31
0.0
  0
LINE
  5
24
330
21
100
AcDbEntity
  8
0
  6
Continuous
 62
     0
370
    -2
100
AcDbLine
 10
0.0
 20
0.0
 30
0.0
 11
-1.0
 21
-0.158384
 31
0.0
  0
ENDBLK
  5
26
330
21
100
AcDbEntity
  8
KCAD_DIMS
100
AcDbBlockEnd
  0
BLOCK
  5
42
330
3C
100
AcDbEntity
  8
KCAD_DIMS
100
AcDbBlockBegin
  2
KCAD_DOTSMALL
 70
     0
 10
0.0
 20
0.0
 30
0.0
  3
KCAD_DOTSMALL
  1

  0
LWPOLYLINE
  5
3D
330
3C
100
AcDbEntity
  8
KCAD_DIMS
 62
     0
100
AcDbPolyline
 90
        2
 70
     1
 43
0.5
 10
0.06252
 20
0.0
 42
1.0
 10
-0.06262
 20
0.0
 42
1.0
  0
LINE
  5
41
330
3C
100
AcDbEntity
  8
0
  6
Continuous
 62
     0
370
    -2
100
AcDbLine
 10
0.0
 20
0.0
 30
0.0
 11
-1.0
 21
0.0
 31
0.0
  0
ENDBLK
  5
43
330
3C
100
AcDbEntity
  8
0
100
AcDbBlockEnd
  0
BLOCK
  5
46
330
44
100
AcDbEntity
  8
KCAD_DIMS
100
AcDbBlockBegin
  2
KCAD_NONE
 70
     0
 10
0.0
 20
0.0
 30
0.0
  3
KCAD_NONE
  1

  0
LINE
  5
45
330
44
100
AcDbEntity
  8
0
  6
Continuous
 62
     0
370
    -2
100
AcDbLine
 10
0.0
 20
0.0
 30
0.0
 11
-1.0
 21
0.0
 31
0.0
  0
ENDBLK
  5
47
330
44
100
AcDbEntity
  8
0
100
AcDbBlockEnd
  0
BLOCK
  5
FD
330
FC
100
AcDbEntity
  8
0
100
AcDbBlockBegin
  2
_CLOSED
 70
     0
 10
0.0
 20
0.0
 30
0.0
  3
_CLOSED
  1

  0
LINE
  5
FE
330
FC
100
AcDbEntity
  8
0
  6
Continuous
 62
     0
370
    -2
100
AcDbLine
 10
-1.0
 20
0.166667
 30
0.0
 11
0.0
 21
0.0
 31
0.0
  0
LINE
  5
FF
330
FC
100
AcDbEntity
  8
0
  6
Continuous
 62
     0
370
    -2
100
AcDbLine
 10
0.0
 20
0.0
 30
0.0
 11
-1.0
 21
-0.166667
 31
0.0
  0
LINE
  5
100
330
FC
100
AcDbEntity
  8
0
  6
Continuous
 62
     0
370
    -2
100
AcDbLine
 10
-1.0
 20
0.166667
 30
0.0
 11
-1.0
 21
-0.166667
 31
0.0
  0
LINE
  5
101
330
FC
100
AcDbEntity
  8
0
  6
Continuous
 62
     0
370
    -2
100
AcDbLine
 10
0.0
 20
0.0
 30
0.0
 11
-1.0
 21
0.0
 31
0.0
  0
ENDBLK
  5
102
330
FC
100
AcDbEntity
  8
0
100
AcDbBlockEnd
  0
BLOCK
  5
104
330
103
100
AcDbEntity
  8
0
100
AcDbBlockBegin
  2
_DOT
 70
     0
 10
0.0
 20
0.0
 30
0.0
  3
_DOT
  1

  0
LWPOLYLINE
  5
105
330
103
100
AcDbEntity
  8
0
  6
ByBlock
 62
     0
100
AcDbPolyline
 90
        2
 70
     1
 43
0.5
 10
-0.25
 20
0.0
 42
1.0
 10
0.25
 20
0.0
 42
1.0
  0
LINE
  5
109
330
103
100
AcDbEntity
  8
0
  6
Continuous
 62
     0
370
    -2
100
AcDbLine
 10
-0.5
 20
0.0
 30
0.0
 11
-1.0
 21
0.0
 31
0.0
  0
ENDBLK
  5
10A
330
103
100
AcDbEntity
  8
0
100
AcDbBlockEnd
  0
BLOCK
  5
10C
330
10B
100
AcDbEntity
  8
0
100
AcDbBlockBegin
  2
_CLOSEDBLANK
 70
     0
 10
0.0
 20
0.0
 30
0.0
  3
_CLOSEDBLANK
  1

  0
LINE
  5
10D
330
10B
100
AcDbEntity
  8
0
  6
Continuous
 62
     0
370
    -2
100
AcDbLine
 10
-1.0
 20
0.166667
 30
0.0
 11
0.0
 21
0.0
 31
0.0
  0
LINE
  5
10E
330
10B
100
AcDbEntity
  8
0
  6
Continuous
 62
     0
370
    -2
100
AcDbLine
 10
0.0
 20
0.0
 30
0.0
 11
-1.0
 21
-0.166667
 31
0.0
  0
LINE
  5
10F
330
10B
100
AcDbEntity
  8
0
  6
Continuous
 62
     0
370
    -2
100
AcDbLine
 10
-1.0
 20
0.166667
 30
0.0
 11
-1.0
 21
-0.166667
 31
0.0
  0
ENDBLK
  5
110
330
10B
100
AcDbEntity
  8
0
100
AcDbBlockEnd
  0
BLOCK
  5
112
330
111
100
AcDbEntity
  8
0
100
AcDbBlockBegin
  2
_OBLIQUE
 70
     0
 10
0.0
 20
0.0
 30
0.0
  3
_OBLIQUE
  1

  0
LINE
  5
113
330
111
100
AcDbEntity
  8
0
  6
Continuous
 62
     0
370
    -2
100
AcDbLine
 10
-0.5
 20
-0.5
 30
0.0
 11
0.5
 21
0.5
 31
0.0
  0
ENDBLK
  5
114
330
111
100
AcDbEntity
  8
0
100
AcDbBlockEnd
  0
BLOCK
  5
116
330
115
100
AcDbEntity
  8
0
100
AcDbBlockBegin
  2
_ARCHTICK
 70
     0
 10
0.0
 20
0.0
 30
0.0
  3
_ARCHTICK
  1

  0
LWPOLYLINE
  5
117
330
115
100
AcDbEntity
  8
0
  6
ByBlock
 62
     0
100
AcDbPolyline
 90
        2
 70
     0
 43
0.15
 10
-0.5
 20
-0.5
 10
0.5
 20
0.5
  0
ENDBLK
  5
11B
330
115
100
AcDbEntity
  8
0
100
AcDbBlockEnd
  0
BLOCK
  5
11D
330
11C
100
AcDbEntity
  8
0
100
AcDbBlockBegin
  2
_OPEN
 70
     0
 10
0.0
 20
0.0
 30
0.0
  3
_OPEN
  1

  0
LINE
  5
11E
330
11C
100
AcDbEntity
  8
0
  6
Continuous
 62
     0
370
    -2
100
AcDbLine
 10
-1.0
 20
0.166667
 30
0.0
 11
0.0
 21
0.0
 31
0.0
  0
LINE
  5
11F
330
11C
100
AcDbEntity
  8
0
  6
Continuous
 62
     0
370
    -2
100
AcDbLine
 10
0.0
 20
0.0
 30
0.0
 11
-1.0
 21
-0.166667
 31
0.0
  0
LINE
  5
120
330
11C
100
AcDbEntity
  8
0
  6
Continuous
 62
     0
370
    -2
100
AcDbLine
 10
0.0
 20
0.0
 30
0.0
 11
-1.0
 21
0.0
 31
0.0
  0
ENDBLK
  5
121
330
11C
100
AcDbEntity
  8
0
100
AcDbBlockEnd
  0
BLOCK
  5
123
330
122
100
AcDbEntity
  8
0
100
AcDbBlockBegin
  2
_ORIGIN
 70
     0
 10
0.0
 20
0.0
 30
0.0
  3
_ORIGIN
  1

  0
CIRCLE
  5
124
330
122
100
AcDbEntity
  8
0
  6
ByBlock
 62
     0
100
AcDbCircle
 10
0.0
 20
0.0
 30
0.0
 40
0.5
  0
LINE
  5
125
330
122
100
AcDbEntity
  8
0
  6
Continuous
 62
     0
370
    -2
100
AcDbLine
 10
0.0
 20
0.0
 30
0.0
 11
-1.0
 21
0.0
 31
0.0
  0
ENDBLK
  5
126
330
122
100
AcDbEntity
  8
0
100
AcDbBlockEnd
  0
BLOCK
  5
128
330
127
100
AcDbEntity
  8
0
100
AcDbBlockBegin
  2
_OPEN90
 70
     0
 10
0.0
 20
0.0
 30
0.0
  3
_OPEN90
  1

  0
LINE
  5
129
330
127
100
AcDbEntity
  8
0
  6
Continuous
 62
     0
370
    -2
100
AcDbLine
 10
-0.5
 20
0.5
 30
0.0
 11
0.0
 21
0.0
 31
0.0
  0
LINE
  5
12A
330
127
100
AcDbEntity
  8
0
  6
Continuous
 62
     0
370
    -2
100
AcDbLine
 10
0.0
 20
0.0
 30
0.0
 11
-0.5
 21
-0.5
 31
0.0
  0
LINE
  5
12B
330
127
100
AcDbEntity
  8
0
  6
Continuous
 62
     0
370
    -2
100
AcDbLine
 10
0.0
 20
0.0
 30
0.0
 11
-1.0
 21
0.0
 31
0.0
  0
ENDBLK
  5
12C
330
127
100
AcDbEntity
  8
0
100
AcDbBlockEnd
  0
BLOCK
  5
12E
330
12D
100
AcDbEntity
  8
0
100
AcDbBlockBegin
  2
_OPEN30
 70
     0
 10
0.0
 20
0.0
 30
0.0
  3
_OPEN30
  1

  0
LINE
  5
12F
330
12D
100
AcDbEntity
  8
0
  6
Continuous
 62
     0
370
    -2
100
AcDbLine
 10
-1.0
 20
0.267949
 30
0.0
 11
0.0
 21
0.0
 31
0.0
  0
LINE
  5
130
330
12D
100
AcDbEntity
  8
0
  6
Continuous
 62
     0
370
    -2
100
AcDbLine
 10
0.0
 20
0.0
 30
0.0
 11
-1.0
 21
-0.267949
 31
0.0
  0
LINE
  5
131
330
12D
100
AcDbEntity
  8
0
  6
Continuous
 62
     0
370
    -2
100
AcDbLine
 10
0.0
 20
0.0
 30
0.0
 11
-1.0
 21
0.0
 31
0.0
  0
ENDBLK
  5
132
330
12D
100
AcDbEntity
  8
0
100
AcDbBlockEnd
  0
BLOCK
  5
134
330
133
100
AcDbEntity
  8
0
100
AcDbBlockBegin
  2
_DOTBLANK
 70
     0
 10
0.0
 20
0.0
 30
0.0
  3
_DOTBLANK
  1

  0
CIRCLE
  5
135
330
133
100
AcDbEntity
  8
0
  6
ByBlock
 62
     0
100
AcDbCircle
 10
0.0
 20
0.0
 30
0.0
 40
0.5
  0
LINE
  5
136
330
133
100
AcDbEntity
  8
0
  6
Continuous
 62
     0
370
    -2
100
AcDbLine
 10
-0.5
 20
0.0
 30
0.0
 11
-1.0
 21
0.0
 31
0.0
  0
ENDBLK
  5
137
330
133
100
AcDbEntity
  8
0
100
AcDbBlockEnd
  0
BLOCK
  5
139
330
138
100
AcDbEntity
  8
0
100
AcDbBlockBegin
  2
_DOTSMALL
 70
     0
 10
0.0
 20
0.0
 30
0.0
  3
_DOTSMALL
  1

  0
LWPOLYLINE
  5
13A
330
138
100
AcDbEntity
  8
0
  6
ByBlock
 62
     0
100
AcDbPolyline
 90
        2
 70
     1
 43
0.5
 10
-0.0625
 20
0.0
 42
1.0
 10
0.0625
 20
0.0
 42
1.0
  0
ENDBLK
  5
13E
330
138
100
AcDbEntity
  8
0
100
AcDbBlockEnd
  0
BLOCK
  5
140
330
13F
100
AcDbEntity
  8
0
100
AcDbBlockBegin
  2
_BOXFILLED
 70
     0
 10
0.0
 20
0.0
 30
0.0
  3
_BOXFILLED
  1

  0
SOLID
  5
141
330
13F
100
AcDbEntity
  8
0
  6
ByBlock
 62
     0
100
AcDbTrace
 10
-0.5
 20
0.5
 30
0.0
 11
0.5
 21
0.5
 31
0.0
 12
-0.5
 22
-0.5
 32
0.0
 13
0.5
 23
-0.5
 33
0.0
  0
LINE
  5
142
330
13F
100
AcDbEntity
  8
0
  6
Continuous
 62
     0
370
    -2
100
AcDbLine
 10
-0.5
 20
0.0
 30
0.0
 11
-1.0
 21
0.0
 31
0.0
  0
ENDBLK
  5
143
330
13F
100
AcDbEntity
  8
0
100
AcDbBlockEnd
  0
BLOCK
  5
145
330
144
100
AcDbEntity
  8
0
100
AcDbBlockBegin
  2
_BOXBLANK
 70
     0
 10
0.0
 20
0.0
 30
0.0
  3
_BOXBLANK
  1

  0
LINE
  5
146
330
144
100
AcDbEntity
  8
0
  6
Continuous
 62
     0
370
    -2
100
AcDbLine
 10
-0.5
 20
-0.5
 30
0.0
 11
0.5
 21
-0.5
 31
0.0
  0
LINE
  5
147
330
144
100
AcDbEntity
  8
0
  6
Continuous
 62
     0
370
    -2
100
AcDbLine
 10
0.5
 20
-0.5
 30
0.0
 11
0.5
 21
0.5
 31
0.0
  0
LINE
  5
148
330
144
100
AcDbEntity
  8
0
  6
Continuous
 62
     0
370
    -2
100
AcDbLine
 10
0.5
 20
0.5
 30
0.0
 11
-0.5
 21
0.5
 31
0.0
  0
LINE
  5
149
330
144
100
AcDbEntity
  8
0
  6
Continuous
 62
     0
370
    -2
100
AcDbLine
 10
-0.5
 20
0.5
 30
0.0
 11
-0.5
 21
-0.5
 31
0.0
  0
LINE
  5
14A
330
144
100
AcDbEntity
  8
0
  6
Continuous
 62
     0
370
    -2
100
AcDbLine
 10
-0.5
 20
0.0
 30
0.0
 11
-1.0
 21
0.0
 31
0.0
  0
ENDBLK
  5
14B
330
144
100
AcDbEntity
  8
0
100
AcDbBlockEnd
  0
BLOCK
  5
14D
330
14C
100
AcDbEntity
  8
0
100
AcDbBlockBegin
  2
_DATUMFILLED
 70
     0
 10
0.0
 20
0.0
 30
0.0
  3
_DATUMFILLED
  1

  0
SOLID
  5
14E
330
14C
100
AcDbEntity
  8
0
  6
ByBlock
 62
     0
100
AcDbTrace
 10
0.0
 20
0.5773500000000001
 30
0.0
 11
-1.0
 21
0.0
 31
0.0
 12
0.0
 22
-0.5773500000000001
 32
0.0
 13
0.0
 23
-0.5773500000000001
 33
0.0
  0
ENDBLK
  5
14F
330
14C
100
AcDbEntity
  8
0
100
AcDbBlockEnd
  0
BLOCK
  5
151
330
150
100
AcDbEntity
  8
0
100
AcDbBlockBegin
  2
_DATUMBLANK
 70
     0
 10
0.0
 20
0.0
 30
0.0
  3
_DATUMBLANK
  1

  0
LINE
  5
152
330
150
100
AcDbEntity
  8
0
  6
Continuous
 62
     0
370
    -2
100
AcDbLine
 10
0.0
 20
0.5773500000000001
 30
0.0
 11
-1.0
 21
0.0
 31
0.0
  0
LINE
  5
153
330
150
100
AcDbEntity
  8
0
  6
Continuous
 62
     0
370
    -2
100
AcDbLine
 10
-1.0
 20
0.0
 30
0.0
 11
0.0
 21
-0.5773500000000001
 31
0.0
  0
LINE
  5
154
330
150
100
AcDbEntity
  8
0
  6
Continuous
 62
     0
370
    -2
100
AcDbLine
 10
0.0
 20
-0.5773500000000001
 30
0.0
 11
0.0
 21
0.5773500000000001
 31
0.0
  0
ENDBLK
  5
155
330
150
100
AcDbEntity
  8
0
100
AcDbBlockEnd
  0
BLOCK
  5
157
330
156
100
AcDbEntity
  8
0
100
AcDbBlockBegin
  2
_INTEGRAL
 70
     0
 10
0.0
 20
0.0
 30
0.0
  3
_INTEGRAL
  1

  0
ARC
  5
158
330
156
100
AcDbEntity
  8
0
  6
ByBlock
 62
     0
100
AcDbCircle
 10
0.444888
 20
-0.091335
 30
0.0
 40
0.454167
100
AcDbArc
 50
102.0
 51
168.0
  0
ARC
  5
159
330
156
100
AcDbEntity
  8
0
  6
ByBlock
 62
     0
100
AcDbCircle
 10
-0.444888
 20
0.091335
 30
0.0
 40
0.454167
100
AcDbArc
 50
282.0
 51
348.0
  0
ENDBLK
  5
15A
330
156
100
AcDbEntity
  8
0
100
AcDbBlockEnd
  0
BLOCK
  5
1F5
330
1F1
100
AcDbEntity
  8
0
 62
     7
370
    30
100
AcDbBlockBegin
  2
_Origin2
 70
     0
 10
0.0
 20
0.0
 30
0.0
  3
_Origin2
  1

  0
CIRCLE
  5
1F2
330
1F1
100
AcDbEntity
  8
0
  6
Continuous
 62
     0
370
    -2
100
AcDbCircle
 10
0.0
 20
0.0
 30
0.0
 40
0.5
  0
CIRCLE
  5
1F3
330
1F1
100
AcDbEntity
  8
0
  6
Continuous
 62
     0
370
    -2
100
AcDbCircle
 10
0.0
 20
0.0
 30
0.0
 40
0.25
  0
LINE
  5
1F4
330
1F1
100
AcDbEntity
  8
0
  6
Continuous
 62
     0
370
    -2
100
AcDbLine
 10
-0.5
 20
0.0
 30
0.0
 11
-1.0
 21
0.0
 31
0.0
  0
ENDBLK
  5
1F6
330
1F1
100
AcDbEntity
  8
0
 62
     7
370
    30
100
AcDbBlockEnd
  0
BLOCK
  5
1FB
330
1F7
100
AcDbEntity
  8
0
 62
     7
370
    30
100
AcDbBlockBegin
  2
KCAD_OPEN30
 70
     0
 10
0.0
 20
0.0
 30
0.0
  3
KCAD_OPEN30
  1

  0
LINE
  5
1F8
330
1F7
100
AcDbEntity
  8
0
  6
Continuous
 62
     0
370
    -2
100
AcDbLine
 10
0.0
 20
0.0
 30
0.0
 11
-1.0
 21
0.0
 31
0.0
  0
LINE
  5
1F9
330
1F7
100
AcDbEntity
  8
0
  6
Continuous
 62
     0
370
    -2
100
AcDbLine
 10
0.0
 20
0.0
 30
0.0
 11
-1.0
 21
0.2679491924311227
 31
0.0
  0
LINE
  5
1FA
330
1F7
100
AcDbEntity
  8
0
  6
Continuous
 62
     0
370
    -2
100
AcDbLine
 10
0.0
 20
0.0
 30
0.0
 11
-1.0
 21
-0.2679491924311227
 31
0.0
  0
ENDBLK
  5
1FC
330
1F7
100
AcDbEntity
  8
0
 62
     7
370
    30
100
AcDbBlockEnd
  0
BLOCK
  5
223
330
222
100
AcDbEntity
  8
0
 62
    54
370
    30
100
AcDbBlockBegin
  2
_None
 70
     0
 10
0.0
 20
0.0
 30
0.0
  3
_None
  1

  0
ENDBLK
  5
224
330
222
100
AcDbEntity
  8
0
 62
    54
370
    30
100
AcDbBlockEnd
  0
BLOCK
  5
285
330
283
100
AcDbEntity
  8
0
 62
     7
370
    50
100
AcDbBlockBegin
  2
_Small
 70
     0
 10
0.0
 20
0.0
 30
0.0
  3
_Small
  1

  0
CIRCLE
  5
284
330
283
100
AcDbEntity
  8
0
  6
ByBlock
 62
     0
370
    -2
100
AcDbCircle
 10
0.0
 20
0.0
 30
0.0
 40
0.25
  0
ENDBLK
  5
286
330
283
100
AcDbEntity
  8
0
 62
     7
370
    50
100
AcDbBlockEnd
  0
BLOCK
  5
28C
330
287
100
AcDbEntity
  8
0
 62
     7
370
    50
100
AcDbBlockBegin
  2
KCAD_OPEN_2
 70
     0
 10
0.0
 20
0.0
 30
0.0
  3
KCAD_OPEN_2
  1

  0
LINE
  5
288
330
287
100
AcDbEntity
  8
0
  6
Continuous
 62
     0
370
    -2
100
AcDbLine
 10
0.0
 20
0.0
 30
0.0
 11
-2.0
 21
0.0
 31
0.0
  0
LINE
  5
289
330
287
100
AcDbEntity
  8
0
  6
Continuous
 62
     0
370
    -2
100
AcDbLine
 10
0.0
 20
0.0
 30
0.0
 11
-2.0
 21
0.3167688806490725
 31
0.0
  0
LINE
  5
28A
330
287
100
AcDbEntity
  8
0
  6
Continuous
 62
     0
370
    -2
100
AcDbLine
 10
0.0
 20
0.0
 30
0.0
 11
-2.0
 21
-0.3167688806490725
 31
0.0
  0
LINE
  5
28B
330
287
100
AcDbEntity
  8
0
  6
Continuous
 62
     0
370
    -2
100
AcDbLine
 10
-2.0
 20
0.0
 30
0.0
 11
-4.0
 21
0.0
 31
0.0
  0
ENDBLK
  5
28D
330
287
100
AcDbEntity
  8
0
 62
     7
370
    50
100
AcDbBlockEnd
  0
BLOCK
  5
293
330
28E
100
AcDbEntity
  8
0
 62
     7
370
    50
100
AcDbBlockBegin
  2
KCAD_OPEN30_2
 70
     0
 10
0.0
 20
0.0
 30
0.0
  3
KCAD_OPEN30_2
  1

  0
LINE
  5
28F
330
28E
100
AcDbEntity
  8
0
  6
Continuous
 62
     0
370
    -2
100
AcDbLine
 10
0.0
 20
0.0
 30
0.0
 11
-2.0
 21
0.0
 31
0.0
  0
LINE
  5
290
330
28E
100
AcDbEntity
  8
0
  6
Continuous
 62
     0
370
    -2
100
AcDbLine
 10
0.0
 20
0.0
 30
0.0
 11
-2.0
 21
0.5358983848622455
 31
0.0
  0
LINE
  5
291
330
28E
100
AcDbEntity
  8
0
  6
Continuous
 62
     0
370
    -2
100
AcDbLine
 10
0.0
 20
0.0
 30
0.0
 11
-2.0
 21
-0.5358983848622455
 31
0.0
  0
LINE
  5
292
330
28E
100
AcDbEntity
  8
0
  6
Continuous
 62
     0
370
    -2
100
AcDbLine
 10
-2.0
 20
0.0
 30
0.0
 11
-4.0
 21
0.0
 31
0.0
  0
ENDBLK
  5
294
330
28E
100
AcDbEntity
  8
0
 62
     7
370
    50
100
AcDbBlockEnd
  0
BLOCK
  5
2AE
330
2AD
100
AcDbEntity
  8
0
 62
     3
370
    80
100
AcDbBlockBegin
  2
KCAD_OPEN30ANG
 70
     0
 10
0.0
 20
0.0
 30
0.0
  3
KCAD_OPEN30ANG
  1

  0
LINE
  5
2D7
330
2AD
100
AcDbEntity
  8
0
  6
Continuous
 62
     0
370
    -2
100
AcDbLine
 10
0.0
 20
0.0
 30
0.0
 11
-1.0
 21
-0.267949
 31
0.0
  0
LINE
  5
2D8
330
2AD
100
AcDbEntity
  8
0
  6
Continuous
 62
     0
370
    -2
100
AcDbLine
 10
-1.0
 20
0.267949
 30
0.0
 11
0.0
 21
0.0
 31
0.0
  0
ENDBLK
  5
2AF
330
2AD
100
AcDbEntity
  8
0
 62
     3
370
    80
100
AcDbBlockEnd
  0
BLOCK
  5
2B7
330
2B6
100
AcDbEntity
  8
0
 62
     3
370
    80
100
AcDbBlockBegin
  2
KCAD_DOTANG
 70
     0
 10
0.0
 20
0.0
 30
0.0
  3
KCAD_DOTANG
  1

  0
LWPOLYLINE
  5
2DD
330
2B6
100
AcDbEntity
  8
0
  6
ByBlock
 62
     0
100
AcDbPolyline
 90
        2
 70
     1
 43
0.5
 10
-0.25
 20
0.0
 42
1.0
 10
0.25
 20
0.0
 42
1.0
  0
ENDBLK
  5
2B8
330
2B6
100
AcDbEntity
  8
0
 62
     3
370
    80
100
AcDbBlockEnd
  0
BLOCK
  5
71C
330
712
100
AcDbEntity
  8
0
 62
   134
370
    15
100
AcDbBlockBegin
  2
*D27
 70
     1
 10
0.0
 20
0.0
 30
0.0
  3
*D27
  1

  0
LINE
  5
744
330
712
100
AcDbEntity
  8
KCAD_DIMS
 62
     0
370
    -2
100
AcDbLine
 10
482.5937793979299
 20
413.1606064161999
 30
0.0
 11
452.05021217141
 21
413.1606064161999
 31
0.0
  0
LINE
  5
745
330
712
100
AcDbEntity
  8
KCAD_DIMS
 62
     0
370
    -2
100
AcDbLine
 10
482.5937793979299
 20
373.1606064161999
 30
0.0
 11
452.05021217141
 21
373.1606064161999
 31
0.0
  0
INSERT
  5
746
330
712
100
AcDbEntity
  8
KCAD_DIMS
 62
     0
370
    -2
100
AcDbBlockReference
  2
_OPEN30
 10
482.5937793979299
 20
413.1606064161999
 30
0.0
 41
5.0
 42
5.0
 43
5.0
 50
90.0
  0
INSERT
  5
747
330
712
100
AcDbEntity
  8
KCAD_DIMS
 62
     0
370
    -2
100
AcDbBlockReference
  2
_OPEN30
 10
482.5937793979299
 20
373.1606064161999
 30
0.0
 41
5.0
 42
5.0
 43
5.0
 50
270.0
  0
LINE
  5
748
330
712
100
AcDbEntity
  8
KCAD_DIMS
 62
     0
370
    -2
100
AcDbLine
 10
482.5937793979299
 20
408.1606064162
 30
0.0
 11
482.5937793979299
 21
378.1606064161999
 31
0.0
  0
POINT
  5
749
330
712
100
AcDbEntity
  8
DEFPOINTS
 62
     0
370
    15
100
AcDbPoint
 10
452.05021217141
 20
413.1606064161999
 30
0.0
  0
POINT
  5
74A
330
712
100
AcDbEntity
  8
DEFPOINTS
 62
     0
370
    15
100
AcDbPoint
 10
452.05021217141
 20
373.1606064161999
 30
0.0
  0
POINT
  5
74B
330
712
100
AcDbEntity
  8
DEFPOINTS
 62
     0
370
    15
100
AcDbPoint
 10
482.5937793979299
 20
373.1606064161999
 30
0.0
  0
MTEXT
  5
74C
330
712
100
AcDbEntity
  8
KCAD_DIMS
 62
     0
100
AcDbMText
 10
478.32711339793
 20
393.1606064162
 30
0.0
 40
6.4
 41
0.0
 71
     5
 72
     1
  1
\A1;40
  7
KCADDIMSTANDARD
 11
0.0000000000000001
 21
1.0
 31
0.0
 73
     1
 44
1.0
  0
ENDBLK
  5
71D
330
712
100
AcDbEntity
  8
0
 62
   134
370
    15
100
AcDbBlockEnd
  0
BLOCK
  5
758
330
74E
100
AcDbEntity
  8
0
 62
   134
370
    15
100
AcDbBlockBegin
  2
*D28
 70
     1
 10
0.0
 20
0.0
 30
0.0
  3
*D28
  1

  0
LINE
  5
780
330
74E
100
AcDbEntity
  8
KCAD_DIMS
 62
     0
370
    -2
100
AcDbLine
 10
659.8882290686699
 20
290.7076818588
 30
0.0
 11
600.4572434214099
 21
290.7076818588
 31
0.0
  0
LINE
  5
781
330
74E
100
AcDbEntity
  8
KCAD_DIMS
 62
     0
370
    -2
100
AcDbLine
 10
659.8882290686699
 20
220.7076818587999
 30
0.0
 11
595.4572434214099
 21
220.7076818587999
 31
0.0
  0
INSERT
  5
782
330
74E
100
AcDbEntity
  8
KCAD_DIMS
 62
     0
370
    -2
100
AcDbBlockReference
  2
_OPEN30
 10
659.8882290686699
 20
290.7076818588
 30
0.0
 41
5.0
 42
5.0
 43
5.0
 50
90.0
  0
INSERT
  5
783
330
74E
100
AcDbEntity
  8
KCAD_DIMS
 62
     0
370
    -2
100
AcDbBlockReference
  2
_OPEN30
 10
659.8882290686699
 20
220.7076818587999
 30
0.0
 41
5.0
 42
5.0
 43
5.0
 50
270.0
  0
LINE
  5
784
330
74E
100
AcDbEntity
  8
KCAD_DIMS
 62
     0
370
    -2
100
AcDbLine
 10
659.8882290686699
 20
285.7076818588
 30
0.0
 11
659.8882290686699
 21
225.7076818588
 31
0.0
  0
POINT
  5
785
330
74E
100
AcDbEntity
  8
DEFPOINTS
 62
     0
370
    15
100
AcDbPoint
 10
600.4572434214099
 20
290.7076818588
 30
0.0
  0
POINT
  5
786
330
74E
100
AcDbEntity
  8
DEFPOINTS
 62
     0
370
    15
100
AcDbPoint
 10
595.4572434214099
 20
220.7076818587999
 30
0.0
  0
POINT
  5
787
330
74E
100
AcDbEntity
  8
DEFPOINTS
 62
     0
370
    15
100
AcDbPoint
 10
659.8882290686699
 20
220.7076818587999
 30
0.0
  0
MTEXT
  5
788
330
74E
100
AcDbEntity
  8
KCAD_DIMS
 62
     0
100
AcDbMText
 10
655.62156306867
 20
255.7076818587999
 30
0.0
 40
6.4
 41
0.0
 71
     5
 72
     1
  1
\A1;70
  7
KCADDIMSTANDARD
 11
0.0000000000000001
 21
1.0
 31
0.0
 73
     1
 44
1.0
  0
ENDBLK
  5
759
330
74E
100
AcDbEntity
  8
0
 62
   134
370
    15
100
AcDbBlockEnd
  0
BLOCK
  5
796
330
78C
100
AcDbEntity
  8
0
 62
   134
370
    15
100
AcDbBlockBegin
  2
*D29
 70
     1
 10
0.0
 20
0.0
 30
0.0
  3
*D29
  1

  0
LINE
  5
7BE
330
78C
100
AcDbEntity
  8
KCAD_DIMS
 62
     0
370
    -2
100
AcDbLine
 10
643.68879350894
 20
250.7076818588
 30
0.0
 11
635.42975268071
 21
250.7076818588
 31
0.0
  0
LINE
  5
7BF
330
78C
100
AcDbEntity
  8
KCAD_DIMS
 62
     0
370
    -2
100
AcDbLine
 10
643.68879350894
 20
220.7076818587999
 30
0.0
 11
595.4572434214099
 21
220.7076818587999
 31
0.0
  0
INSERT
  5
7C0
330
78C
100
AcDbEntity
  8
KCAD_DIMS
 62
     0
370
    -2
100
AcDbBlockReference
  2
_OPEN30
 10
643.68879350894
 20
250.7076818588
 30
0.0
 41
5.0
 42
5.0
 43
5.0
 50
90.0
  0
INSERT
  5
7C1
330
78C
100
AcDbEntity
  8
KCAD_DIMS
 62
     0
370
    -2
100
AcDbBlockReference
  2
_OPEN30
 10
643.68879350894
 20
220.7076818587999
 30
0.0
 41
5.0
 42
5.0
 43
5.0
 50
270.0
  0
LINE
  5
7C2
330
78C
100
AcDbEntity
  8
KCAD_DIMS
 62
     0
370
    -2
100
AcDbLine
 10
643.68879350894
 20
245.7076818587999
 30
0.0
 11
643.68879350894
 21
225.7076818588
 31
0.0
  0
POINT
  5
7C3
330
78C
100
AcDbEntity
  8
DEFPOINTS
 62
     0
370
    15
100
AcDbPoint
 10
635.42975268071
 20
250.7076818588
 30
0.0
  0
POINT
  5
7C4
330
78C
100
AcDbEntity
  8
DEFPOINTS
 62
     0
370
    15
100
AcDbPoint
 10
595.4572434214099
 20
220.7076818587999
 30
0.0
  0
POINT
  5
7C5
330
78C
100
AcDbEntity
  8
DEFPOINTS
 62
     0
370
    15
100
AcDbPoint
 10
643.68879350894
 20
220.7076818587999
 30
0.0
  0
MTEXT
  5
7C6
330
78C
100
AcDbEntity
  8
KCAD_DIMS
 62
     0
100
AcDbMText
 10
639.42212750894
 20
235.7076818587999
 30
0.0
 40
6.4
 41
0.0
 71
     5
 72
     1
  1
\A1;30
  7
KCADDIMSTANDARD
 11
0.0000000000000001
 21
1.0
 31
0.0
 73
     1
 44
1.0
  0
ENDBLK
  5
797
330
78C
100
AcDbEntity
  8
0
 62
   134
370
    15
100
AcDbBlockEnd
  0
BLOCK
  5
7D3
330
7CA
100
AcDbEntity
  8
0
 62
   134
370
    15
100
AcDbBlockBegin
  2
*D30
 70
     1
 10
0.0
 20
0.0
 30
0.0
  3
*D30
  1

  0
MTEXT
  5
7F1
330
7CA
100
AcDbEntity
  8
KCAD_DIMS
 62
     0
100
AcDbMText
 10
399.4982280933119
 20
356.4528282154997
 30
0.0
 40
6.4
 41
0.0
 71
     5
 72
     1
  1
\A1;φ28
  7
KCADDIMSTANDARD
 11
0.6504435694122467
 21
0.7595545819822667
 31
0.0
 73
     1
 44
1.0
  0
LINE
  5
7F2
330
7CA
100
AcDbEntity
  8
KCAD_DIMS
 62
     0
370
    -2
100
AcDbLine
 10
427.4440021996397
 20
382.5268422684498
 30
0.0
 11
445.6564221431799
 21
403.79437056395
 31
0.0
  0
LINE
  5
7F3
330
7CA
100
AcDbEntity
  8
KCAD_DIMS
 62
     0
370
    -2
100
AcDbLine
 10
424.1917843525786
 20
378.7290693585384
 30
0.0
 11
398.629261343358
 21
348.8784683352623
 31
0.0
  0
LINE
  5
7F4
330
7CA
100
AcDbEntity
  8
KCAD_DIMS
 62
     0
370
    -2
100
AcDbLine
 10
448.9086399902411
 20
407.5921434738613
 30
0.0
 11
452.1608578373023
 21
411.3899163837727
 31
0.0
  0
INSERT
  5
7F5
330
7CA
100
AcDbEntity
  8
KCAD_DIMS
 62
     0
370
    -2
100
AcDbBlockReference
  2
_OPEN30
 10
427.4440021996397
 20
382.5268422684498
 30
0.0
 41
5.0
 42
5.0
 43
5.0
 50
49.42494654107563
  0
INSERT
  5
7F6
330
7CA
100
AcDbEntity
  8
KCAD_DIMS
 62
     0
370
    -2
100
AcDbBlockReference
  2
_OPEN30
 10
445.6564221431799
 20
403.79437056395
 30
0.0
 41
5.0
 42
5.0
 43
5.0
 50
229.4249465410755
  0
ENDBLK
  5
7D4
330
7CA
100
AcDbEntity
  8
0
 62
   134
370
    15
100
AcDbBlockEnd
  0
BLOCK
  5
801
330
7F8
100
AcDbEntity
  8
0
 62
   134
370
    15
100
AcDbBlockBegin
  2
*D31
 70
     1
 10
0.0
 20
0.0
 30
0.0
  3
*D31
  1

  0
MTEXT
  5
81F
330
7F8
100
AcDbEntity
  8
KCAD_DIMS
 62
     0
100
AcDbMText
 10
318.2405144621335
 20
368.2225957308121
 30
0.0
 40
6.4
 41
0.0
 71
     5
 72
     1
  1
\A1;φ20
  7
KCADDIMSTANDARD
 11
0.4750015170491332
 21
0.8799849764632472
 31
0.0
 73
     1
 44
1.0
  0
LINE
  5
820
330
7F8
100
AcDbEntity
  8
KCAD_DIMS
 62
     0
370
    -2
100
AcDbLine
 10
331.8001970009199
 20
384.36075665157
 30
0.0
 11
341.3002273418999
 21
401.96045618083
 31
0.0
  0
LINE
  5
821
330
7F8
100
AcDbEntity
  8
KCAD_DIMS
 62
     0
370
    -2
100
AcDbLine
 10
329.4251894156743
 20
379.9608317692538
 30
0.0
 11
318.9938889025646
 21
360.6358666753834
 31
0.0
  0
LINE
  5
822
330
7F8
100
AcDbEntity
  8
KCAD_DIMS
 62
     0
370
    -2
100
AcDbLine
 10
343.6752349271456
 20
406.3603810631462
 30
0.0
 11
346.0502425123913
 21
410.7603059454625
 31
0.0
  0
INSERT
  5
823
330
7F8
100
AcDbEntity
  8
KCAD_DIMS
 62
     0
370
    -2
100
AcDbBlockReference
  2
_OPEN30
 10
331.8001970009199
 20
384.36075665157
 30
0.0
 41
5.0
 42
5.0
 43
5.0
 50
61.64055119689235
  0
INSERT
  5
824
330
7F8
100
AcDbEntity
  8
KCAD_DIMS
 62
     0
370
    -2
100
AcDbBlockReference
  2
_OPEN30
 10
341.3002273418999
 20
401.96045618083
 30
0.0
 41
5.0
 42
5.0
 43
5.0
 50
241.6405511968923
  0
ENDBLK
  5
802
330
7F8
100
AcDbEntity
  8
0
 62
   134
370
    15
100
AcDbBlockEnd
  0
BLOCK
  5
830
330
826
100
AcDbEntity
  8
0
 62
   134
370
    15
100
AcDbBlockBegin
  2
*D32
 70
     1
 10
0.0
 20
0.0
 30
0.0
  3
*D32
  1

  0
LINE
  5
858
330
826
100
AcDbEntity
  8
KCAD_DIMS
 62
     0
370
    -2
100
AcDbLine
 10
269.11806208843
 20
413.1606064161999
 30
0.0
 11
292.05021217141
 21
413.1606064161999
 31
0.0
  0
LINE
  5
859
330
826
100
AcDbEntity
  8
KCAD_DIMS
 62
     0
370
    -2
100
AcDbLine
 10
269.11806208843
 20
373.1606064161999
 30
0.0
 11
292.05021217141
 21
373.1606064161999
 31
0.0
  0
INSERT
  5
85A
330
826
100
AcDbEntity
  8
KCAD_DIMS
 62
     0
370
    -2
100
AcDbBlockReference
  2
_OPEN30
 10
269.11806208843
 20
413.1606064161999
 30
0.0
 41
5.0
 42
5.0
 43
5.0
 50
90.0
  0
INSERT
  5
85B
330
826
100
AcDbEntity
  8
KCAD_DIMS
 62
     0
370
    -2
100
AcDbBlockReference
  2
_OPEN30
 10
269.11806208843
 20
373.1606064161999
 30
0.0
 41
5.0
 42
5.0
 43
5.0
 50
270.0
  0
LINE
  5
85C
330
826
100
AcDbEntity
  8
KCAD_DIMS
 62
     0
370
    -2
100
AcDbLine
 10
269.11806208843
 20
408.1606064162
 30
0.0
 11
269.11806208843
 21
378.1606064161999
 31
0.0
  0
POINT
  5
85D
330
826
100
AcDbEntity
  8
DEFPOINTS
 62
     0
370
    15
100
AcDbPoint
 10
292.05021217141
 20
413.1606064161999
 30
0.0
  0
POINT
  5
85E
330
826
100
AcDbEntity
  8
DEFPOINTS
 62
     0
370
    15
100
AcDbPoint
 10
292.05021217141
 20
373.1606064161999
 30
0.0
  0
POINT
  5
85F
330
826
100
AcDbEntity
  8
DEFPOINTS
 62
     0
370
    15
100
AcDbPoint
 10
269.11806208843
 20
373.1606064161999
 30
0.0
  0
MTEXT
  5
860
330
826
100
AcDbEntity
  8
KCAD_DIMS
 62
     0
100
AcDbMText
 10
264.85139608843
 20
393.1606064162
 30
0.0
 40
6.4
 41
0.0
 71
     5
 72
     1
  1
\A1;40
  7
KCADDIMSTANDARD
 11
0.0000000000000001
 21
1.0
 31
0.0
 73
     1
 44
1.0
  0
ENDBLK
  5
831
330
826
100
AcDbEntity
  8
0
 62
   134
370
    15
100
AcDbBlockEnd
  0
BLOCK
  5
86C
330
862
100
AcDbEntity
  8
0
 62
   134
370
    15
100
AcDbBlockBegin
  2
*D33
 70
     1
 10
0.0
 20
0.0
 30
0.0
  3
*D33
  1

  0
LINE
  5
894
330
862
100
AcDbEntity
  8
KCAD_DIMS
 62
     0
370
    -2
100
AcDbLine
 10
241.21354656632
 20
440.6606064162
 30
0.0
 11
355.55021217141
 21
440.6606064162
 31
0.0
  0
LINE
  5
895
330
862
100
AcDbEntity
  8
KCAD_DIMS
 62
     0
370
    -2
100
AcDbLine
 10
241.21354656632
 20
345.6606064162
 30
0.0
 11
355.55021217141
 21
345.6606064162
 31
0.0
  0
INSERT
  5
896
330
862
100
AcDbEntity
  8
KCAD_DIMS
 62
     0
370
    -2
100
AcDbBlockReference
  2
_OPEN30
 10
241.21354656632
 20
440.6606064162
 30
0.0
 41
5.0
 42
5.0
 43
5.0
 50
90.0
  0
INSERT
  5
897
330
862
100
AcDbEntity
  8
KCAD_DIMS
 62
     0
370
    -2
100
AcDbBlockReference
  2
_OPEN30
 10
241.21354656632
 20
345.6606064162
 30
0.0
 41
5.0
 42
5.0
 43
5.0
 50
270.0
  0
LINE
  5
898
330
862
100
AcDbEntity
  8
KCAD_DIMS
 62
     0
370
    -2
100
AcDbLine
 10
241.21354656632
 20
435.6606064162
 30
0.0
 11
241.21354656632
 21
350.6606064161999
 31
0.0
  0
POINT
  5
899
330
862
100
AcDbEntity
  8
DEFPOINTS
 62
     0
370
    15
100
AcDbPoint
 10
355.55021217141
 20
440.6606064162
 30
0.0
  0
POINT
  5
89A
330
862
100
AcDbEntity
  8
DEFPOINTS
 62
     0
370
    15
100
AcDbPoint
 10
355.55021217141
 20
345.6606064162
 30
0.0
  0
POINT
  5
89B
330
862
100
AcDbEntity
  8
DEFPOINTS
 62
     0
370
    15
100
AcDbPoint
 10
241.21354656632
 20
345.6606064162
 30
0.0
  0
MTEXT
  5
89C
330
862
100
AcDbEntity
  8
KCAD_DIMS
 62
     0
100
AcDbMText
 10
236.94688056632
 20
393.1606064162
 30
0.0
 40
6.4
 41
0.0
 71
     5
 72
     1
  1
\A1;95
  7
KCADDIMSTANDARD
 11
0.0000000000000001
 21
1.0
 31
0.0
 73
     1
 44
1.0
  0
ENDBLK
  5
86D
330
862
100
AcDbEntity
  8
0
 62
   134
370
    15
100
AcDbBlockEnd
  0
BLOCK
  5
8A8
330
89E
100
AcDbEntity
  8
0
 62
   134
370
    15
100
AcDbBlockBegin
  2
*D34
 70
     1
 10
0.0
 20
0.0
 30
0.0
  3
*D34
  1

  0
LINE
  5
8D0
330
89E
100
AcDbEntity
  8
KCAD_DIMS
 62
     0
370
    -2
100
AcDbLine
 10
269.11806208843
 20
270.7076818588
 30
0.0
 11
316.55021217141
 21
270.7076818588
 31
0.0
  0
LINE
  5
8D1
330
89E
100
AcDbEntity
  8
KCAD_DIMS
 62
     0
370
    -2
100
AcDbLine
 10
269.11806208843
 20
245.7076818587999
 30
0.0
 11
292.05021217141
 21
245.7076818587999
 31
0.0
  0
INSERT
  5
8D2
330
89E
100
AcDbEntity
  8
KCAD_DIMS
 62
     0
370
    -2
100
AcDbBlockReference
  2
_OPEN30
 10
269.11806208843
 20
270.7076818588
 30
0.0
 41
5.0
 42
5.0
 43
5.0
 50
90.0
  0
INSERT
  5
8D3
330
89E
100
AcDbEntity
  8
KCAD_DIMS
 62
     0
370
    -2
100
AcDbBlockReference
  2
_OPEN30
 10
269.11806208843
 20
245.7076818587999
 30
0.0
 41
5.0
 42
5.0
 43
5.0
 50
270.0
  0
LINE
  5
8D4
330
89E
100
AcDbEntity
  8
KCAD_DIMS
 62
     0
370
    -2
100
AcDbLine
 10
269.11806208843
 20
265.7076818588
 30
0.0
 11
269.11806208843
 21
250.7076818588
 31
0.0
  0
POINT
  5
8D5
330
89E
100
AcDbEntity
  8
DEFPOINTS
 62
     0
370
    15
100
AcDbPoint
 10
316.55021217141
 20
270.7076818588
 30
0.0
  0
POINT
  5
8D6
330
89E
100
AcDbEntity
  8
DEFPOINTS
 62
     0
370
    15
100
AcDbPoint
 10
292.05021217141
 20
245.7076818587999
 30
0.0
  0
POINT
  5
8D7
330
89E
100
AcDbEntity
  8
DEFPOINTS
 62
     0
370
    15
100
AcDbPoint
 10
269.11806208843
 20
245.7076818587999
 30
0.0
  0
MTEXT
  5
8D8
330
89E
100
AcDbEntity
  8
KCAD_DIMS
 62
     0
100
AcDbMText
 10
264.85139608843
 20
258.2076818588
 30
0.0
 40
6.4
 41
0.0
 71
     5
 72
     1
  1
\A1;25
  7
KCADDIMSTANDARD
 11
0.0000000000000001
 21
1.0
 31
0.0
 73
     1
 44
1.0
  0
ENDBLK
  5
8A9
330
89E
100
AcDbEntity
  8
0
 62
   134
370
    15
100
AcDbBlockEnd
  0
BLOCK
  5
8E4
330
8DA
100
AcDbEntity
  8
0
 62
   134
370
    15
100
AcDbBlockBegin
  2
*D35
 70
     1
 10
0.0
 20
0.0
 30
0.0
  3
*D35
  1

  0
LINE
  5
90C
330
8DA
100
AcDbEntity
  8
KCAD_DIMS
 62
     0
370
    -2
100
AcDbLine
 10
269.11806208843
 20
245.7076818587999
 30
0.0
 11
291.05021217141
 21
245.7076818587999
 31
0.0
  0
LINE
  5
90D
330
8DA
100
AcDbEntity
  8
KCAD_DIMS
 62
     0
370
    -2
100
AcDbLine
 10
269.11806208843
 20
220.7076818587999
 30
0.0
 11
316.55021217141
 21
220.7076818587999
 31
0.0
  0
INSERT
  5
90E
330
8DA
100
AcDbEntity
  8
KCAD_DIMS
 62
     0
370
    -2
100
AcDbBlockReference
  2
_OPEN30
 10
269.11806208843
 20
245.7076818587999
 30
0.0
 41
5.0
 42
5.0
 43
5.0
 50
90.0
  0
INSERT
  5
90F
330
8DA
100
AcDbEntity
  8
KCAD_DIMS
 62
     0
370
    -2
100
AcDbBlockReference
  2
_OPEN30
 10
269.11806208843
 20
220.7076818587999
 30
0.0
 41
5.0
 42
5.0
 43
5.0
 50
270.0
  0
LINE
  5
910
330
8DA
100
AcDbEntity
  8
KCAD_DIMS
 62
     0
370
    -2
100
AcDbLine
 10
269.11806208843
 20
240.7076818588
 30
0.0
 11
269.11806208843
 21
225.7076818588
 31
0.0
  0
POINT
  5
911
330
8DA
100
AcDbEntity
  8
DEFPOINTS
 62
     0
370
    15
100
AcDbPoint
 10
291.05021217141
 20
245.7076818587999
 30
0.0
  0
POINT
  5
912
330
8DA
100
AcDbEntity
  8
DEFPOINTS
 62
     0
370
    15
100
AcDbPoint
 10
316.55021217141
 20
220.7076818587999
 30
0.0
  0
POINT
  5
913
330
8DA
100
AcDbEntity
  8
DEFPOINTS
 62
     0
370
    15
100
AcDbPoint
 10
269.11806208843
 20
220.7076818587999
 30
0.0
  0
MTEXT
  5
914
330
8DA
100
AcDbEntity
  8
KCAD_DIMS
 62
     0
100
AcDbMText
 10
264.85139608843
 20
233.2076818587999
 30
0.0
 40
6.4
 41
0.0
 71
     5
 72
     1
  1
\A1;25
  7
KCADDIMSTANDARD
 11
0.0000000000000001
 21
1.0
 31
0.0
 73
     1
 44
1.0
  0
ENDBLK
  5
8E5
330
8DA
100
AcDbEntity
  8
0
 62
   134
370
    15
100
AcDbBlockEnd
  0
BLOCK
  5
920
330
916
100
AcDbEntity
  8
0
 62
   134
370
    15
100
AcDbBlockBegin
  2
*D36
 70
     1
 10
0.0
 20
0.0
 30
0.0
  3
*D36
  1

  0
LINE
  5
948
330
916
100
AcDbEntity
  8
KCAD_DIMS
 62
     0
370
    -2
100
AcDbLine
 10
241.21354656632
 20
270.7076818588
 30
0.0
 11
316.55021217141
 21
270.7076818588
 31
0.0
  0
LINE
  5
949
330
916
100
AcDbEntity
  8
KCAD_DIMS
 62
     0
370
    -2
100
AcDbLine
 10
241.21354656632
 20
220.7076818587999
 30
0.0
 11
326.55021217141
 21
220.7076818587999
 31
0.0
  0
INSERT
  5
94A
330
916
100
AcDbEntity
  8
KCAD_DIMS
 62
     0
370
    -2
100
AcDbBlockReference
  2
_OPEN30
 10
241.21354656632
 20
270.7076818588
 30
0.0
 41
5.0
 42
5.0
 43
5.0
 50
90.0
  0
INSERT
  5
94B
330
916
100
AcDbEntity
  8
KCAD_DIMS
 62
     0
370
    -2
100
AcDbBlockReference
  2
_OPEN30
 10
241.21354656632
 20
220.7076818587999
 30
0.0
 41
5.0
 42
5.0
 43
5.0
 50
270.0
  0
LINE
  5
94C
330
916
100
AcDbEntity
  8
KCAD_DIMS
 62
     0
370
    -2
100
AcDbLine
 10
241.21354656632
 20
265.7076818588
 30
0.0
 11
241.21354656632
 21
225.7076818588
 31
0.0
  0
POINT
  5
94D
330
916
100
AcDbEntity
  8
DEFPOINTS
 62
     0
370
    15
100
AcDbPoint
 10
316.55021217141
 20
270.7076818588
 30
0.0
  0
POINT
  5
94E
330
916
100
AcDbEntity
  8
DEFPOINTS
 62
     0
370
    15
100
AcDbPoint
 10
326.55021217141
 20
220.7076818587999
 30
0.0
  0
POINT
  5
94F
330
916
100
AcDbEntity
  8
DEFPOINTS
 62
     0
370
    15
100
AcDbPoint
 10
241.21354656632
 20
220.7076818588
 30
0.0
  0
MTEXT
  5
950
330
916
100
AcDbEntity
  8
KCAD_DIMS
 62
     0
100
AcDbMText
 10
236.94688056632
 20
245.7076818587999
 30
0.0
 40
6.4
 41
0.0
 71
     5
 72
     1
  1
\A1;50
  7
KCADDIMSTANDARD
 11
0.0000000000000001
 21
1.0
 31
0.0
 73
     1
 44
1.0
  0
ENDBLK
  5
921
330
916
100
AcDbEntity
  8
0
 62
   134
370
    15
100
AcDbBlockEnd
  0
BLOCK
  5
95C
330
952
100
AcDbEntity
  8
0
 62
   134
370
    15
100
AcDbBlockBegin
  2
*D37
 70
     1
 10
0.0
 20
0.0
 30
0.0
  3
*D37
  1

  0
LINE
  5
984
330
952
100
AcDbEntity
  8
KCAD_DIMS
 62
     0
370
    -2
100
AcDbLine
 10
336.55021217141
 20
304.3886552857999
 30
0.0
 11
336.55021217141
 21
270.7076818588
 31
0.0
  0
LINE
  5
985
330
952
100
AcDbEntity
  8
KCAD_DIMS
 62
     0
370
    -2
100
AcDbLine
 10
436.55021217141
 20
304.3886552857999
 30
0.0
 11
436.55021217141
 21
294.3886552857999
 31
0.0
  0
INSERT
  5
986
330
952
100
AcDbEntity
  8
KCAD_DIMS
 62
     0
370
    -2
100
AcDbBlockReference
  2
_OPEN30
 10
336.55021217141
 20
304.3886552857999
 30
0.0
 41
3.0
 42
3.0
 43
3.0
 50
180.0
  0
INSERT
  5
987
330
952
100
AcDbEntity
  8
KCAD_DIMS
 62
     0
370
    -2
100
AcDbBlockReference
  2
_OPEN30
 10
436.55021217141
 20
304.3886552857999
 30
0.0
 41
3.0
 42
3.0
 43
3.0
  0
LINE
  5
988
330
952
100
AcDbEntity
  8
KCAD_DIMS
 62
     0
370
    -2
100
AcDbLine
 10
339.55021217141
 20
304.3886552857999
 30
0.0
 11
433.55021217141
 21
304.3886552857999
 31
0.0
  0
POINT
  5
989
330
952
100
AcDbEntity
  8
DEFPOINTS
 62
     0
370
    15
100
AcDbPoint
 10
336.55021217141
 20
270.7076818588
 30
0.0
  0
POINT
  5
98A
330
952
100
AcDbEntity
  8
DEFPOINTS
 62
     0
370
    15
100
AcDbPoint
 10
436.55021217141
 20
294.3886552857999
 30
0.0
  0
POINT
  5
98B
330
952
100
AcDbEntity
  8
DEFPOINTS
 62
     0
370
    15
100
AcDbPoint
 10
436.55021217141
 20
304.3886552857999
 30
0.0
  0
MTEXT
  5
98C
330
952
100
AcDbEntity
  8
KCAD_DIMS
 62
     0
100
AcDbMText
 10
386.55021217141
 20
308.6553212857999
 30
0.0
 40
6.4
 41
0.0
 71
     5
 72
     1
  1
\A1;100
  7
KCADDIMSTANDARD
 73
     1
 44
1.0
  0
ENDBLK
  5
95D
330
952
100
AcDbEntity
  8
0
 62
   134
370
    15
100
AcDbBlockEnd
  0
BLOCK
  5
998
330
98E
100
AcDbEntity
  8
0
 62
   134
370
    15
100
AcDbBlockBegin
  2
*D38
 70
     1
 10
0.0
 20
0.0
 30
0.0
  3
*D38
  1

  0
LINE
  5
9C0
330
98E
100
AcDbEntity
  8
KCAD_DIMS
 62
     0
370
    -2
100
AcDbLine
 10
436.55021217141
 20
304.3886552857999
 30
0.0
 11
436.55021217141
 21
280.70768185885
 31
0.0
  0
LINE
  5
9C1
330
98E
100
AcDbEntity
  8
KCAD_DIMS
 62
     0
370
    -2
100
AcDbLine
 10
457.05021217141
 20
304.3886552857999
 30
0.0
 11
457.05021217141
 21
290.7076818588
 31
0.0
  0
INSERT
  5
9C2
330
98E
100
AcDbEntity
  8
KCAD_DIMS
 62
     0
370
    -2
100
AcDbBlockReference
  2
_OPEN30
 10
436.55021217141
 20
304.3886552857999
 30
0.0
 41
3.0
 42
3.0
 43
3.0
 50
180.0
  0
INSERT
  5
9C3
330
98E
100
AcDbEntity
  8
KCAD_DIMS
 62
     0
370
    -2
100
AcDbBlockReference
  2
_OPEN30
 10
457.05021217141
 20
304.3886552857999
 30
0.0
 41
3.0
 42
3.0
 43
3.0
  0
LINE
  5
9C4
330
98E
100
AcDbEntity
  8
KCAD_DIMS
 62
     0
370
    -2
100
AcDbLine
 10
439.55021217141
 20
304.3886552857999
 30
0.0
 11
454.05021217141
 21
304.3886552857999
 31
0.0
  0
POINT
  5
9C5
330
98E
100
AcDbEntity
  8
DEFPOINTS
 62
     0
370
    15
100
AcDbPoint
 10
436.55021217141
 20
280.70768185885
 30
0.0
  0
POINT
  5
9C6
330
98E
100
AcDbEntity
  8
DEFPOINTS
 62
     0
370
    15
100
AcDbPoint
 10
457.05021217141
 20
290.7076818588
 30
0.0
  0
POINT
  5
9C7
330
98E
100
AcDbEntity
  8
DEFPOINTS
 62
     0
370
    15
100
AcDbPoint
 10
457.05021217141
 20
304.3886552857999
 30
0.0
  0
MTEXT
  5
9C8
330
98E
100
AcDbEntity
  8
KCAD_DIMS
 62
     0
100
AcDbMText
 10
446.80021217141
 20
308.6553212857999
 30
0.0
 40
6.4
 41
0.0
 71
     5
 72
     1
  1
\A1;20.5
  7
KCADDIMSTANDARD
 73
     1
 44
1.0
  0
ENDBLK
  5
999
330
98E
100
AcDbEntity
  8
0
 62
   134
370
    15
100
AcDbBlockEnd
  0
BLOCK
  5
9D4
330
9CA
100
AcDbEntity
  8
0
 62
   134
370
    15
100
AcDbBlockBegin
  2
*D39
 70
     1
 10
0.0
 20
0.0
 30
0.0
  3
*D39
  1

  0
LINE
  5
9FC
330
9CA
100
AcDbEntity
  8
KCAD_DIMS
 62
     0
370
    -2
100
AcDbLine
 10
469.34577110091
 20
290.7076818588
 30
0.0
 11
457.05021217141
 21
290.7076818588
 31
0.0
  0
LINE
  5
9FD
330
9CA
100
AcDbEntity
  8
KCAD_DIMS
 62
     0
370
    -2
100
AcDbLine
 10
469.34577110091
 20
270.7076818588
 30
0.0
 11
457.05021217141
 21
270.7076818588
 31
0.0
  0
INSERT
  5
9FE
330
9CA
100
AcDbEntity
  8
KCAD_DIMS
 62
     0
370
    -2
100
AcDbBlockReference
  2
_OPEN30
 10
469.34577110091
 20
290.7076818588
 30
0.0
 41
5.0
 42
5.0
 43
5.0
 50
90.0
  0
INSERT
  5
9FF
330
9CA
100
AcDbEntity
  8
KCAD_DIMS
 62
     0
370
    -2
100
AcDbBlockReference
  2
_OPEN30
 10
469.34577110091
 20
270.7076818588
 30
0.0
 41
5.0
 42
5.0
 43
5.0
 50
270.0
  0
LINE
  5
A00
330
9CA
100
AcDbEntity
  8
KCAD_DIMS
 62
     0
370
    -2
100
AcDbLine
 10
469.34577110091
 20
285.7076818588
 30
0.0
 11
469.34577110091
 21
275.7076818588
 31
0.0
  0
POINT
  5
A01
330
9CA
100
AcDbEntity
  8
DEFPOINTS
 62
     0
370
    15
100
AcDbPoint
 10
457.05021217141
 20
290.7076818588
 30
0.0
  0
POINT
  5
A02
330
9CA
100
AcDbEntity
  8
DEFPOINTS
 62
     0
370
    15
100
AcDbPoint
 10
457.05021217141
 20
270.7076818588
 30
0.0
  0
POINT
  5
A03
330
9CA
100
AcDbEntity
  8
DEFPOINTS
 62
     0
370
    15
100
AcDbPoint
 10
469.34577110091
 20
270.7076818588
 30
0.0
  0
MTEXT
  5
A04
330
9CA
100
AcDbEntity
  8
KCAD_DIMS
 62
     0
100
AcDbMText
 10
465.0791051009099
 20
280.7076818588
 30
0.0
 40
6.4
 41
0.0
 71
     5
 72
     1
  1
\A1;20
  7
KCADDIMSTANDARD
 11
0.0000000000000001
 21
1.0
 31
0.0
 73
     1
 44
1.0
  0
ENDBLK
  5
9D5
330
9CA
100
AcDbEntity
  8
0
 62
   134
370
    15
100
AcDbBlockEnd
  0
BLOCK
  5
A10
330
A06
100
AcDbEntity
  8
0
 62
   134
370
    15
100
AcDbBlockBegin
  2
*D40
 70
     1
 10
0.0
 20
0.0
 30
0.0
  3
*D40
  1

  0
LINE
  5
A38
330
A06
100
AcDbEntity
  8
KCAD_DIMS
 62
     0
370
    -2
100
AcDbLine
 10
291.05021217141
 20
204.1496856985999
 30
0.0
 11
291.05021217141
 21
245.7076818587999
 31
0.0
  0
LINE
  5
A39
330
A06
100
AcDbEntity
  8
KCAD_DIMS
 62
     0
370
    -2
100
AcDbLine
 10
316.55021217141
 20
204.1496856985999
 30
0.0
 11
316.55021217141
 21
220.7076818587999
 31
0.0
  0
INSERT
  5
A3A
330
A06
100
AcDbEntity
  8
KCAD_DIMS
 62
     0
370
    -2
100
AcDbBlockReference
  2
_OPEN30
 10
291.05021217141
 20
204.1496856985999
 30
0.0
 41
5.0
 42
5.0
 43
5.0
 50
180.0
  0
INSERT
  5
A3B
330
A06
100
AcDbEntity
  8
KCAD_DIMS
 62
     0
370
    -2
100
AcDbBlockReference
  2
_OPEN30
 10
316.55021217141
 20
204.1496856985999
 30
0.0
 41
5.0
 42
5.0
 43
5.0
  0
LINE
  5
A3C
330
A06
100
AcDbEntity
  8
KCAD_DIMS
 62
     0
370
    -2
100
AcDbLine
 10
296.05021217141
 20
204.1496856985999
 30
0.0
 11
311.55021217141
 21
204.1496856985999
 31
0.0
  0
POINT
  5
A3D
330
A06
100
AcDbEntity
  8
DEFPOINTS
 62
     0
370
    15
100
AcDbPoint
 10
291.05021217141
 20
245.7076818587999
 30
0.0
  0
POINT
  5
A3E
330
A06
100
AcDbEntity
  8
DEFPOINTS
 62
     0
370
    15
100
AcDbPoint
 10
316.55021217141
 20
220.7076818587999
 30
0.0
  0
POINT
  5
A3F
330
A06
100
AcDbEntity
  8
DEFPOINTS
 62
     0
370
    15
100
AcDbPoint
 10
316.55021217141
 20
204.1496856985999
 30
0.0
  0
MTEXT
  5
A40
330
A06
100
AcDbEntity
  8
KCAD_DIMS
 62
     0
100
AcDbMText
 10
303.80021217141
 20
208.4163516985999
 30
0.0
 40
6.4
 41
0.0
 71
     5
 72
     1
  1
\A1;(25.5)
  7
KCADDIMSTANDARD
 73
     1
 44
1.0
  0
ENDBLK
  5
A11
330
A06
100
AcDbEntity
  8
0
 62
   134
370
    15
100
AcDbBlockEnd
  0
BLOCK
  5
A4C
330
A42
100
AcDbEntity
  8
0
 62
   134
370
    15
100
AcDbBlockBegin
  2
*D41
 70
     1
 10
0.0
 20
0.0
 30
0.0
  3
*D41
  1

  0
LINE
  5
A74
330
A42
100
AcDbEntity
  8
KCAD_DIMS
 62
     0
370
    -2
100
AcDbLine
 10
316.55021217141
 20
204.1496856985999
 30
0.0
 11
316.55021217141
 21
220.7076818587999
 31
0.0
  0
LINE
  5
A75
330
A42
100
AcDbEntity
  8
KCAD_DIMS
 62
     0
370
    -2
100
AcDbLine
 10
336.55021217141
 20
204.1496856985999
 30
0.0
 11
336.55021217141
 21
220.7076818587999
 31
0.0
  0
INSERT
  5
A76
330
A42
100
AcDbEntity
  8
KCAD_DIMS
 62
     0
370
    -2
100
AcDbBlockReference
  2
_OPEN30
 10
316.55021217141
 20
204.1496856985999
 30
0.0
 41
5.0
 42
5.0
 43
5.0
 50
180.0
  0
INSERT
  5
A77
330
A42
100
AcDbEntity
  8
KCAD_DIMS
 62
     0
370
    -2
100
AcDbBlockReference
  2
_OPEN30
 10
336.55021217141
 20
204.1496856985999
 30
0.0
 41
5.0
 42
5.0
 43
5.0
  0
LINE
  5
A78
330
A42
100
AcDbEntity
  8
KCAD_DIMS
 62
     0
370
    -2
100
AcDbLine
 10
321.5502121714099
 20
204.1496856985999
 30
0.0
 11
331.55021217141
 21
204.1496856985999
 31
0.0
  0
POINT
  5
A79
330
A42
100
AcDbEntity
  8
DEFPOINTS
 62
     0
370
    15
100
AcDbPoint
 10
316.55021217141
 20
220.7076818587999
 30
0.0
  0
POINT
  5
A7A
330
A42
100
AcDbEntity
  8
DEFPOINTS
 62
     0
370
    15
100
AcDbPoint
 10
336.55021217141
 20
220.7076818587999
 30
0.0
  0
POINT
  5
A7B
330
A42
100
AcDbEntity
  8
DEFPOINTS
 62
     0
370
    15
100
AcDbPoint
 10
336.55021217141
 20
204.1496856985999
 30
0.0
  0
MTEXT
  5
A7C
330
A42
100
AcDbEntity
  8
KCAD_DIMS
 62
     0
100
AcDbMText
 10
326.55021217141
 20
208.4163516985999
 30
0.0
 40
6.4
 41
0.0
 71
     5
 72
     1
  1
\A1;20
  7
KCADDIMSTANDARD
 73
     1
 44
1.0
  0
ENDBLK
  5
A4D
330
A42
100
AcDbEntity
  8
0
 62
   134
370
    15
100
AcDbBlockEnd
  0
BLOCK
  5
A88
330
A7E
100
AcDbEntity
  8
0
 62
   134
370
    15
100
AcDbBlockBegin
  2
*D42
 70
     1
 10
0.0
 20
0.0
 30
0.0
  3
*D42
  1

  0
LINE
  5
AB0
330
A7E
100
AcDbEntity
  8
KCAD_DIMS
 62
     0
370
    -2
100
AcDbLine
 10
336.55021217141
 20
204.1496856985999
 30
0.0
 11
336.55021217141
 21
220.7076818587999
 31
0.0
  0
LINE
  5
AB1
330
A7E
100
AcDbEntity
  8
KCAD_DIMS
 62
     0
370
    -2
100
AcDbLine
 10
396.5502121714099
 20
204.1496856985999
 30
0.0
 11
396.5502121714099
 21
220.9076818588
 31
0.0
  0
INSERT
  5
AB2
330
A7E
100
AcDbEntity
  8
KCAD_DIMS
 62
     0
370
    -2
100
AcDbBlockReference
  2
_OPEN30
 10
336.55021217141
 20
204.1496856985999
 30
0.0
 41
5.0
 42
5.0
 43
5.0
 50
180.0
  0
INSERT
  5
AB3
330
A7E
100
AcDbEntity
  8
KCAD_DIMS
 62
     0
370
    -2
100
AcDbBlockReference
  2
_OPEN30
 10
396.5502121714099
 20
204.1496856985999
 30
0.0
 41
5.0
 42
5.0
 43
5.0
  0
LINE
  5
AB4
330
A7E
100
AcDbEntity
  8
KCAD_DIMS
 62
     0
370
    -2
100
AcDbLine
 10
341.55021217141
 20
204.1496856985999
 30
0.0
 11
391.55021217141
 21
204.1496856985999
 31
0.0
  0
POINT
  5
AB5
330
A7E
100
AcDbEntity
  8
DEFPOINTS
 62
     0
370
    15
100
AcDbPoint
 10
336.55021217141
 20
220.7076818587999
 30
0.0
  0
POINT
  5
AB6
330
A7E
100
AcDbEntity
  8
DEFPOINTS
 62
     0
370
    15
100
AcDbPoint
 10
396.5502121714099
 20
220.9076818588
 30
0.0
  0
POINT
  5
AB7
330
A7E
100
AcDbEntity
  8
DEFPOINTS
 62
     0
370
    15
100
AcDbPoint
 10
396.5502121714099
 20
204.1496856985999
 30
0.0
  0
MTEXT
  5
AB8
330
A7E
100
AcDbEntity
  8
KCAD_DIMS
 62
     0
100
AcDbMText
 10
366.55021217141
 20
208.4163516985999
 30
0.0
 40
6.4
 41
0.0
 71
     5
 72
     1
  1
\A1;60
  7
KCADDIMSTANDARD
 73
     1
 44
1.0
  0
ENDBLK
  5
A89
330
A7E
100
AcDbEntity
  8
0
 62
   134
370
    15
100
AcDbBlockEnd
  0
BLOCK
  5
AC6
330
ABC
100
AcDbEntity
  8
0
 62
   134
370
    15
100
AcDbBlockBegin
  2
*D43
 70
     1
 10
0.0
 20
0.0
 30
0.0
  3
*D43
  1

  0
LINE
  5
AEE
330
ABC
100
AcDbEntity
  8
KCAD_DIMS
 62
     0
370
    -2
100
AcDbLine
 10
469.34577110091
 20
270.7076818588
 30
0.0
 11
396.35021217141
 21
270.7076818588
 31
0.0
  0
LINE
  5
AEF
330
ABC
100
AcDbEntity
  8
KCAD_DIMS
 62
     0
370
    -2
100
AcDbLine
 10
469.34577110091
 20
220.7076818587999
 30
0.0
 11
396.35021217141
 21
220.7076818587999
 31
0.0
  0
INSERT
  5
AF0
330
ABC
100
AcDbEntity
  8
KCAD_DIMS
 62
     0
370
    -2
100
AcDbBlockReference
  2
_OPEN30
 10
469.34577110091
 20
270.7076818588
 30
0.0
 41
5.0
 42
5.0
 43
5.0
 50
90.0
  0
INSERT
  5
AF1
330
ABC
100
AcDbEntity
  8
KCAD_DIMS
 62
     0
370
    -2
100
AcDbBlockReference
  2
_OPEN30
 10
469.34577110091
 20
220.7076818587999
 30
0.0
 41
5.0
 42
5.0
 43
5.0
 50
270.0
  0
LINE
  5
AF2
330
ABC
100
AcDbEntity
  8
KCAD_DIMS
 62
     0
370
    -2
100
AcDbLine
 10
469.34577110091
 20
265.7076818588
 30
0.0
 11
469.34577110091
 21
225.7076818588
 31
0.0
  0
POINT
  5
AF3
330
ABC
100
AcDbEntity
  8
DEFPOINTS
 62
     0
370
    15
100
AcDbPoint
 10
396.35021217141
 20
270.7076818588
 30
0.0
  0
POINT
  5
AF4
330
ABC
100
AcDbEntity
  8
DEFPOINTS
 62
     0
370
    15
100
AcDbPoint
 10
396.35021217141
 20
220.7076818587999
 30
0.0
  0
POINT
  5
AF5
330
ABC
100
AcDbEntity
  8
DEFPOINTS
 62
     0
370
    15
100
AcDbPoint
 10
469.34577110091
 20
220.7076818587999
 30
0.0
  0
MTEXT
  5
AF6
330
ABC
100
AcDbEntity
  8
KCAD_DIMS
 62
     0
100
AcDbMText
 10
465.0791051009099
 20
245.7076818587999
 30
0.0
 40
6.4
 41
0.0
 71
     5
 72
     1
  1
\A1;50
  7
KCADDIMSTANDARD
 11
0.0000000000000001
 21
1.0
 31
0.0
 73
     1
 44
1.0
  0
ENDBLK
  5
AC7
330
ABC
100
AcDbEntity
  8
0
 62
   134
370
    15
100
AcDbBlockEnd
  0
BLOCK
  5
B02
330
AF8
100
AcDbEntity
  8
0
 62
   134
370
    15
100
AcDbBlockBegin
  2
*D44
 70
     1
 10
0.0
 20
0.0
 30
0.0
  3
*D44
  1

  0
LINE
  5
B2A
330
AF8
100
AcDbEntity
  8
KCAD_DIMS
 62
     0
370
    -2
100
AcDbLine
 10
515.01444213661
 20
270.7076818588
 30
0.0
 11
534.15724342141
 21
270.7076818588
 31
0.0
  0
LINE
  5
B2B
330
AF8
100
AcDbEntity
  8
KCAD_DIMS
 62
     0
370
    -2
100
AcDbLine
 10
515.01444213661
 20
230.7076818587999
 30
0.0
 11
534.15724342141
 21
230.7076818587999
 31
0.0
  0
INSERT
  5
B2C
330
AF8
100
AcDbEntity
  8
KCAD_DIMS
 62
     0
370
    -2
100
AcDbBlockReference
  2
_OPEN30
 10
515.01444213661
 20
270.7076818588
 30
0.0
 41
5.0
 42
5.0
 43
5.0
 50
90.0
  0
INSERT
  5
B2D
330
AF8
100
AcDbEntity
  8
KCAD_DIMS
 62
     0
370
    -2
100
AcDbBlockReference
  2
_OPEN30
 10
515.01444213661
 20
230.7076818587999
 30
0.0
 41
5.0
 42
5.0
 43
5.0
 50
270.0
  0
LINE
  5
B2E
330
AF8
100
AcDbEntity
  8
KCAD_DIMS
 62
     0
370
    -2
100
AcDbLine
 10
515.01444213661
 20
265.7076818588
 30
0.0
 11
515.01444213661
 21
235.7076818587999
 31
0.0
  0
POINT
  5
B2F
330
AF8
100
AcDbEntity
  8
DEFPOINTS
 62
     0
370
    15
100
AcDbPoint
 10
534.15724342141
 20
270.7076818588
 30
0.0
  0
POINT
  5
B30
330
AF8
100
AcDbEntity
  8
DEFPOINTS
 62
     0
370
    15
100
AcDbPoint
 10
534.15724342141
 20
230.7076818587999
 30
0.0
  0
POINT
  5
B31
330
AF8
100
AcDbEntity
  8
DEFPOINTS
 62
     0
370
    15
100
AcDbPoint
 10
515.01444213661
 20
230.7076818587999
 30
0.0
  0
MTEXT
  5
B32
330
AF8
100
AcDbEntity
  8
KCAD_DIMS
 62
     0
100
AcDbMText
 10
510.74777613661
 20
250.7076818588
 30
0.0
 40
6.4
 41
0.0
 71
     5
 72
     1
  1
\A1;40
  7
KCADDIMSTANDARD
 11
0.0000000000000001
 21
1.0
 31
0.0
 73
     1
 44
1.0
  0
ENDBLK
  5
B03
330
AF8
100
AcDbEntity
  8
0
 62
   134
370
    15
100
AcDbBlockEnd
  0
BLOCK
  5
B40
330
B36
100
AcDbEntity
  8
0
 62
   134
370
    15
100
AcDbBlockBegin
  2
*D45
 70
     1
 10
0.0
 20
0.0
 30
0.0
  3
*D45
  1

  0
LINE
  5
B68
330
B36
100
AcDbEntity
  8
KCAD_DIMS
 62
     0
370
    -2
100
AcDbLine
 10
565.65724342141
 20
196.40235633794
 30
0.0
 11
565.65724342141
 21
220.9076818588
 31
0.0
  0
LINE
  5
B69
330
B36
100
AcDbEntity
  8
KCAD_DIMS
 62
     0
370
    -2
100
AcDbLine
 10
595.65724342141
 20
196.40235633794
 30
0.0
 11
595.65724342141
 21
220.9076818588
 31
0.0
  0
INSERT
  5
B6A
330
B36
100
AcDbEntity
  8
KCAD_DIMS
 62
     0
370
    -2
100
AcDbBlockReference
  2
_OPEN30
 10
565.65724342141
 20
196.40235633794
 30
0.0
 41
5.0
 42
5.0
 43
5.0
 50
180.0
  0
INSERT
  5
B6B
330
B36
100
AcDbEntity
  8
KCAD_DIMS
 62
     0
370
    -2
100
AcDbBlockReference
  2
_OPEN30
 10
595.65724342141
 20
196.40235633794
 30
0.0
 41
5.0
 42
5.0
 43
5.0
  0
LINE
  5
B6C
330
B36
100
AcDbEntity
  8
KCAD_DIMS
 62
     0
370
    -2
100
AcDbLine
 10
570.65724342141
 20
196.40235633794
 30
0.0
 11
590.65724342141
 21
196.40235633794
 31
0.0
  0
POINT
  5
B6D
330
B36
100
AcDbEntity
  8
DEFPOINTS
 62
     0
370
    15
100
AcDbPoint
 10
565.65724342141
 20
220.9076818588
 30
0.0
  0
POINT
  5
B6E
330
B36
100
AcDbEntity
  8
DEFPOINTS
 62
     0
370
    15
100
AcDbPoint
 10
595.65724342141
 20
220.9076818588
 30
0.0
  0
POINT
  5
B6F
330
B36
100
AcDbEntity
  8
DEFPOINTS
 62
     0
370
    15
100
AcDbPoint
 10
595.65724342141
 20
196.40235633794
 30
0.0
  0
MTEXT
  5
B70
330
B36
100
AcDbEntity
  8
KCAD_DIMS
 62
     0
100
AcDbMText
 10
580.65724342141
 20
200.66902233794
 30
0.0
 40
6.4
 41
0.0
 71
     5
 72
     1
  1
\A1;30
  7
KCADDIMSTANDARD
 73
     1
 44
1.0
  0
ENDBLK
  5
B41
330
B36
100
AcDbEntity
  8
0
 62
   134
370
    15
100
AcDbBlockEnd
  0
ENDSEC
  0
SECTION
  2
ENTITIES
  0
LINE
  5
2F0
330
18
100
AcDbEntity
  8
1
  6
Continuous
 62
     4
370
    30
100
AcDbLine
 10
798.5
 20
566.0
 30
0.0
 11
48.5
 21
566.0
 31
0.0
1001
Sigma
1000

  0
LINE
  5
2F2
330
18
100
AcDbEntity
  8
1
  6
Continuous
 62
     4
370
    30
100
AcDbLine
 10
798.5
 20
566.0
 30
0.0
 11
798.5
 21
38.0
 31
0.0
1001
Sigma
1000

  0
LINE
  5
2F4
330
18
100
AcDbEntity
  8
1
  6
Continuous
 62
   134
370
    15
100
AcDbLine
 10
44.5
 20
302.0
 30
0.0
 11
48.5
 21
302.0
 31
0.0
1001
Sigma
1000

  0
LINE
  5
2F6
330
18
100
AcDbEntity
  8
1
  6
Continuous
 62
     4
370
    30
100
AcDbLine
 10
798.5
 20
38.0
 30
0.0
 11
48.5
 21
38.0
 31
0.0
1001
Sigma
1000

  0
LINE
  5
2F9
330
18
100
AcDbEntity
  8
16
  6
Continuous
 62
   134
370
    15
100
AcDbLine
 10
423.5
 20
38.0
 30
0.0
 11
423.5
 21
33.18908748824
 31
0.0
1001
Sigma
1000

  0
LINE
  5
2FB
330
18
100
AcDbEntity
  8
1
  6
Continuous
 62
   134
370
    15
100
AcDbLine
 10
802.5
 20
302.0
 30
0.0
 11
798.5
 21
302.0
 31
0.0
1001
Sigma
1000

  0
LINE
  5
2FD
330
18
100
AcDbEntity
  8
16
  6
Continuous
 62
   134
370
    15
100
AcDbLine
 10
423.5
 20
566.0
 30
0.0
 11
423.5
 21
570.81091251176
 31
0.0
1001
Sigma
1000

  0
LINE
  5
2FF
330
18
100
AcDbEntity
  8
1
  6
Continuous
 62
     4
370
    30
100
AcDbLine
 10
48.5
 20
566.0
 30
0.0
 11
48.5
 21
38.0
 31
0.0
1001
Sigma
1000

  0
LINE
  5
301
330
18
100
AcDbEntity
  8
1
  6
Continuous
 62
     4
370
    30
100
AcDbLine
 10
475.4999999999999
 20
38.0
 30
0.0
 11
798.5
 21
38.0
 31
0.0
1001
Sigma
1000

  0
LINE
  5
303
330
18
100
AcDbEntity
  8
16
  6
Continuous
 62
     3
370
    30
100
AcDbLine
 10
720.0898400752599
 20
89.29444967073999
 30
0.0
 11
773.0343367827
 21
89.29444967073999
 31
0.0
1001
Sigma
1000

  0
LINE
  5
305
330
18
100
AcDbEntity
  8
16
  6
Continuous
 62
     3
370
    30
100
AcDbLine
 10
657.2676387582399
 20
90.47977422389999
 30
0.0
 11
684.1349952963399
 21
90.47977422389999
 31
0.0
1001
Sigma
1000

  0
LINE
  5
307
330
18
100
AcDbEntity
  8
16
  6
Continuous
 62
     3
370
    30
100
AcDbLine
 10
716.5338664158
 20
114.1862652869199
 30
0.0
 11
780.9365004703599
 21
114.1862652869199
 31
0.0
1001
Sigma
1000

  0
LINE
  5
309
330
18
100
AcDbEntity
  8
16
  6
Continuous
 62
     3
370
    30
100
AcDbLine
 10
625.6589840075199
 20
114.1862652869199
 30
0.0
 11
673.07196613358
 21
114.1862652869199
 31
0.0
1001
Sigma
1000

  0
TEXT
  5
30C
330
18
100
AcDbEntity
  8
15
  6
Continuous
 62
     7
370
    30
100
AcDbText
 10
533.6035541179135
 20
108.6130250213334
 30
0.0
 40
12.24000034332275
  1
組立図
 41
0.7599999866766093
  7
KCADTEXTSTANDARD
100
AcDbText
1001
Sigma
1000

  0
TEXT
  5
30E
330
18
100
AcDbEntity
  8
1
  6
Continuous
 62
     3
370
    30
100
AcDbText
 10
603.0505976357399
 20
109.1350480807
 30
0.0
 40
8.135999999999999
  1
1
 41
0.8084070796460174
  7
KCADTEXTSTANDARD
100
AcDbText
1001
Sigma
1000

  0
TEXT
  5
310
330
18
100
AcDbEntity
  8
1
  6
Continuous
 62
     3
370
    30
100
AcDbText
 10
484.92030600826
 20
108.7399398962999
 30
0.0
 40
8.135999999999999
  1
100
 41
1.222959685349064
  7
KCADTEXTSTANDARD
100
AcDbText
1001
Sigma
1000

  0
LINE
  5
312
330
18
100
AcDbEntity
  8
1
  6
Continuous
 62
     4
370
    30
100
AcDbLine
 10
798.5
 20
123.0
 30
0.0
 11
475.4999999999999
 21
123.0
 31
0.0
1001
Sigma
1000

  0
TEXT
  5
314
330
18
100
AcDbEntity
  8
1
  6
Continuous
 62
     4
370
    30
100
AcDbText
 10
633.3413758831693
 20
99.20181252758931
 30
0.0
 40
6.120000171661376
  1
材       質          表  面  処  理
 41
0.6678663812054823
  7
KCADTEXTSTANDARD
100
AcDbText
1001
Sigma
1000

  0
LINE
  5
316
330
18
100
AcDbEntity
  8
1
  6
Continuous
 62
     4
370
    30
100
AcDbLine
 10
592.7999999999999
 20
72.0
 30
0.0
 11
798.5
 21
72.0
 31
0.0
1001
Sigma
1000

  0
TEXT
  5
318
330
18
100
AcDbEntity
  8
1
  6
Continuous
 62
     3
370
    30
100
AcDbText
 10
742.4812826275397
 20
73.6005572989
 30
0.0
 40
8.135999999999999
  1
0.3
 41
1.293912577498026
  7
KCADTEXTSTANDARD
100
AcDbText
1001
Sigma
1000

  0
TEXT
  5
31A
330
18
100
AcDbEntity
  8
1
  6
Continuous
 62
     2
370
    30
100
AcDbText
 10
731.6618128349273
 20
74.49022533016
 30
0.0
 40
7.65
  1
±
 41
0.664999978682574
  7
KCADTEXTSTANDARD
100
AcDbText
1001
Sigma
1000

  0
TEXT
  5
31C
330
18
100
AcDbEntity
  8
1
  6
Continuous
 62
     3
370
    30
100
AcDbText
 10
717.4379751585299
 20
41.49387795805499
 30
0.0
 40
9.763199999999999
  1
KGK-1021
 41
0.8278473271458382
  7
KCADTEXTSTANDARD
100
AcDbText
1001
Sigma
1000

  0
TEXT
  5
31E
330
18
100
AcDbEntity
  8
1
  6
Continuous
 62
     3
370
    30
100
AcDbText
 10
596.1432599122999
 20
76.24229173074001
 30
0.0
 40
8.135999999999999
  1
1/2
 41
1.048251158870632
  7
KCADTEXTSTANDARD
100
AcDbText
1001
Sigma
1000

  0
LINE
  5
320
330
18
100
AcDbEntity
  8
1
  6
Continuous
 62
     4
370
    30
100
AcDbLine
 10
475.4999999999999
 20
38.0
 30
0.0
 11
475.4999999999999
 21
123.0
 31
0.0
1001
Sigma
1000

  0
TEXT
  5
322
330
18
100
AcDbEntity
  8
1
  6
Continuous
 62
     4
370
    30
100
AcDbText
 10
596.8662161303893
 20
99.20362514102931
 30
0.0
 40
6.120000171661376
  1
個数
 41
1.1875
  7
KCADTEXTSTANDARD
100
AcDbText
1001
Sigma
1000

  0
TEXT
  5
324
330
18
100
AcDbEntity
  8
1
  6
Continuous
 62
     4
370
    30
100
AcDbText
 10
478.6189864193693
 20
98.69804959250931
 30
0.0
 40
6.120000171661376
  1
部品番号     部   品   名
 41
0.7659375021280415
  7
KCADTEXTSTANDARD
100
AcDbText
1001
Sigma
1000

  0
LINE
  5
326
330
18
100
AcDbEntity
  8
1
  6
Continuous
 62
   134
370
    15
100
AcDbLine
 10
484.0
 20
38.0
 30
0.0
 11
484.0
 21
97.5
 31
0.0
1001
Sigma
1000

  0
LINE
  5
328
330
18
100
AcDbEntity
  8
1
  6
Continuous
 62
   134
370
    15
100
AcDbLine
 10
475.4999999999999
 20
89.0
 30
0.0
 11
618.2999999999999
 21
89.0
 31
0.0
1001
Sigma
1000

  0
LINE
  5
32A
330
18
100
AcDbEntity
  8
1
  6
Continuous
 62
     4
370
    30
100
AcDbLine
 10
475.4999999999999
 20
97.5
 30
0.0
 11
798.5
 21
97.5
 31
0.0
1001
Sigma
1000

  0
LINE
  5
32C
330
18
100
AcDbEntity
  8
1
  6
Continuous
 62
     4
370
    30
100
AcDbLine
 10
643.7999999999999
 20
84.74999999999999
 30
0.0
 11
643.7999999999999
 21
97.5
 31
0.0
1001
Sigma
1000

  0
LINE
  5
32E
330
18
100
AcDbEntity
  8
1
  6
Continuous
 62
   134
370
    15
100
AcDbLine
 10
482.5247300596
 20
90.19080385265999
 30
0.0
 11
477.0847300596
 21
90.19080385265999
 31
0.0
1001
Sigma
1000

  0
LINE
  5
330
330
18
100
AcDbEntity
  8
1
  6
Continuous
 62
   134
370
    15
100
AcDbLine
 10
479.8047300596
 20
96.07977659844001
 30
0.0
 11
482.5247300596
 21
90.19080385265999
 31
0.0
1001
Sigma
1000

  0
TEXT
  5
332
330
18
100
AcDbEntity
  8
1
  6
Continuous
 62
   134
370
    15
100
AcDbText
 10
479.1279759568931
 20
91.18752210022107
 30
0.0
 40
3.540787392425536
  1
6
 41
0.577433628318584
  7
KCADTEXTSTANDARD
100
AcDbText
1001
Sigma
1000

  0
LINE
  5
334
330
18
100
AcDbEntity
  8
1
  6
Continuous
 62
   134
370
    15
100
AcDbLine
 10
477.0847300596
 20
90.19080385265999
 30
0.0
 11
479.8047300596
 21
96.07977659844001
 31
0.0
1001
Sigma
1000

  0
TEXT
  5
336
330
18
100
AcDbEntity
  8
1
  6
Continuous
 62
     4
370
    30
100
AcDbText
 10
596.8662161303893
 20
90.5336251410493
 30
0.0
 40
6.120000171661376
  1
尺度
 41
1.1875
  7
KCADTEXTSTANDARD
100
AcDbText
1001
Sigma
1000

  0
LINE
  5
338
330
18
100
AcDbEntity
  8
1
  6
Continuous
 62
   134
370
    15
100
AcDbLine
 10
652.2999999999999
 20
97.5
 30
0.0
 11
652.2999999999999
 21
84.74999999999999
 31
0.0
1001
Sigma
1000

  0
LINE
  5
33A
330
18
100
AcDbEntity
  8
1
  6
Continuous
 62
   134
370
    15
100
AcDbLine
 10
475.4999999999999
 20
106.0
 30
0.0
 11
798.5
 21
106.0
 31
0.0
1001
Sigma
1000

  0
TEXT
  5
33C
330
18
100
AcDbEntity
  8
1
  6
Continuous
 62
     4
370
    30
100
AcDbText
 10
695.9049998998641
 20
40.80500004291534
 30
0.0
 40
4.589999914169311
  1
番
 41
1.266666725881739
  7
KCADTEXTSTANDARD
100
AcDbText
1001
Sigma
1000

  0
TEXT
  5
33E
330
18
100
AcDbEntity
  8
1
  6
Continuous
 62
     4
370
    30
100
AcDbText
 10
695.9049998998641
 20
48.45500004291534
 30
0.0
 40
4.589999914169311
  1
図
 41
1.266666725881739
  7
KCADTEXTSTANDARD
100
AcDbText
1001
Sigma
1000

  0
LINE
  5
340
330
18
100
AcDbEntity
  8
1
  6
Continuous
 62
     4
370
    30
100
AcDbLine
 10
511.2
 20
97.5
 30
0.0
 11
511.2
 21
123.0
 31
0.0
1001
Sigma
1000

  0
TEXT
  5
342
330
18
100
AcDbEntity
  8
1
  6
Continuous
 62
     4
370
    30
100
AcDbText
 10
696.0204538012442
 20
91.99517982967535
 30
0.0
 40
4.589999914169311
  1
仕
 41
1.266666725881739
  7
KCADTEXTSTANDARD
100
AcDbText
1001
Sigma
1000

  0
TEXT
  5
344
330
18
100
AcDbEntity
  8
1
  6
Continuous
 62
     4
370
    30
100
AcDbText
 10
696.0204538012442
 20
86.04517982967534
 30
0.0
 40
4.589999914169311
  1
上
 41
1.266666725881739
  7
KCADTEXTSTANDARD
100
AcDbText
1001
Sigma
1000

  0
TEXT
  5
346
330
18
100
AcDbEntity
  8
1
  6
Continuous
 62
     4
370
    30
100
AcDbText
 10
645.1904538775381
 20
86.04517982967534
 30
0.0
 40
4.589999914169311
  1
取
 41
1.203333362940869
  7
KCADTEXTSTANDARD
100
AcDbText
1001
Sigma
1000

  0
TEXT
  5
348
330
18
100
AcDbEntity
  8
1
  6
Continuous
 62
     4
370
    30
100
AcDbText
 10
645.1904538775381
 20
91.99517982967535
 30
0.0
 40
4.589999914169311
  1
面
 41
1.203333362940869
  7
KCADTEXTSTANDARD
100
AcDbText
1001
Sigma
1000

  0
TEXT
  5
34A
330
18
100
AcDbEntity
  8
1
  6
Continuous
 62
     4
370
    30
100
AcDbText
 10
696.0204538012442
 20
79.24517982967535
 30
0.0
 40
4.589999914169311
  1
公
 41
1.266666725881739
  7
KCADTEXTSTANDARD
100
AcDbText
1001
Sigma
1000

  0
TEXT
  5
34C
330
18
100
AcDbEntity
  8
1
  6
Continuous
 62
     4
370
    30
100
AcDbText
 10
696.0204538012442
 20
73.29517982967534
 30
0.0
 40
4.589999914169311
  1
差
 41
1.266666725881739
  7
KCADTEXTSTANDARD
100
AcDbText
1001
Sigma
1000

  0
TEXT
  5
34E
330
18
100
AcDbEntity
  8
1
  6
Continuous
 62
   134
370
    15
100
AcDbText
 10
479.1279759568931
 20
48.68752210022107
 30
0.0
 40
3.540787392425536
  1
1
 41
0.577433628318584
  7
KCADTEXTSTANDARD
100
AcDbText
1001
Sigma
1000

  0
LINE
  5
350
330
18
100
AcDbEntity
  8
1
  6
Continuous
 62
   134
370
    15
100
AcDbLine
 10
477.0847300596
 20
56.19080385265999
 30
0.0
 11
479.8047300596
 21
62.0797765985
 31
0.0
1001
Sigma
1000

  0
LINE
  5
352
330
18
100
AcDbEntity
  8
1
  6
Continuous
 62
   134
370
    15
100
AcDbLine
 10
479.8047300596
 20
62.0797765985
 30
0.0
 11
482.5247300596
 21
56.19080385265999
 31
0.0
1001
Sigma
1000

  0
LINE
  5
354
330
18
100
AcDbEntity
  8
1
  6
Continuous
 62
   134
370
    15
100
AcDbLine
 10
482.5247300596
 20
56.19080385265999
 30
0.0
 11
477.0847300596
 21
56.19080385265999
 31
0.0
1001
Sigma
1000

  0
TEXT
  5
356
330
18
100
AcDbEntity
  8
1
  6
Continuous
 62
   134
370
    15
100
AcDbText
 10
479.1279759568931
 20
57.18752210022107
 30
0.0
 40
3.540787392425536
  1
2
 41
0.577433628318584
  7
KCADTEXTSTANDARD
100
AcDbText
1001
Sigma
1000

  0
LINE
  5
358
330
18
100
AcDbEntity
  8
1
  6
Continuous
 62
   134
370
    15
100
AcDbLine
 10
477.0847300596
 20
64.69080385266
 30
0.0
 11
479.8047300596
 21
70.5797765985
 31
0.0
1001
Sigma
1000

  0
LINE
  5
35A
330
18
100
AcDbEntity
  8
1
  6
Continuous
 62
   134
370
    15
100
AcDbLine
 10
477.0847300596
 20
47.69080385266
 30
0.0
 11
479.8047300596
 21
53.5797765985
 31
0.0
1001
Sigma
1000

  0
LINE
  5
35C
330
18
100
AcDbEntity
  8
1
  6
Continuous
 62
   134
370
    15
100
AcDbLine
 10
479.8047300596
 20
53.5797765985
 30
0.0
 11
482.5247300596
 21
47.69080385266
 31
0.0
1001
Sigma
1000

  0
TEXT
  5
35E
330
18
100
AcDbEntity
  8
1
  6
Continuous
 62
   134
370
    15
100
AcDbText
 10
479.1279759568931
 20
65.68752210022108
 30
0.0
 40
3.540787392425536
  1
3
 41
0.577433628318584
  7
KCADTEXTSTANDARD
100
AcDbText
1001
Sigma
1000

  0
LINE
  5
360
330
18
100
AcDbEntity
  8
1
  6
Continuous
 62
   134
370
    15
100
AcDbLine
 10
479.8047300596
 20
70.5797765985
 30
0.0
 11
482.5247300596
 21
64.69080385266
 31
0.0
1001
Sigma
1000

  0
LINE
  5
362
330
18
100
AcDbEntity
  8
1
  6
Continuous
 62
   134
370
    15
100
AcDbLine
 10
482.5247300596
 20
64.69080385266
 30
0.0
 11
477.0847300596
 21
64.69080385266
 31
0.0
1001
Sigma
1000

  0
LINE
  5
364
330
18
100
AcDbEntity
  8
1
  6
Continuous
 62
   134
370
    15
100
AcDbLine
 10
477.0847300596
 20
73.19080385266
 30
0.0
 11
479.8047300596
 21
79.07977659850001
 31
0.0
1001
Sigma
1000

  0
TEXT
  5
366
330
18
100
AcDbEntity
  8
1
  6
Continuous
 62
   134
370
    15
100
AcDbText
 10
479.1279759568931
 20
74.18752210022107
 30
0.0
 40
3.540787392425536
  1
4
 41
0.577433628318584
  7
KCADTEXTSTANDARD
100
AcDbText
1001
Sigma
1000

  0
LINE
  5
368
330
18
100
AcDbEntity
  8
1
  6
Continuous
 62
   134
370
    15
100
AcDbLine
 10
479.8047300596
 20
79.07977659850001
 30
0.0
 11
482.5247300596
 21
73.19080385266
 31
0.0
1001
Sigma
1000

  0
LINE
  5
36A
330
18
100
AcDbEntity
  8
1
  6
Continuous
 62
   134
370
    15
100
AcDbLine
 10
482.5247300596
 20
73.19080385266
 30
0.0
 11
477.0847300596
 21
73.19080385266
 31
0.0
1001
Sigma
1000

  0
LINE
  5
36C
330
18
100
AcDbEntity
  8
1
  6
Continuous
 62
   134
370
    15
100
AcDbLine
 10
477.0847300596
 20
81.69080385265999
 30
0.0
 11
479.8047300596
 21
87.5797765985
 31
0.0
1001
Sigma
1000

  0
TEXT
  5
36E
330
18
100
AcDbEntity
  8
1
  6
Continuous
 62
   134
370
    15
100
AcDbText
 10
479.1279759568931
 20
82.68752210022107
 30
0.0
 40
3.540787392425536
  1
5
 41
0.577433628318584
  7
KCADTEXTSTANDARD
100
AcDbText
1001
Sigma
1000

  0
LINE
  5
370
330
18
100
AcDbEntity
  8
1
  6
Continuous
 62
   134
370
    15
100
AcDbLine
 10
479.8047300596
 20
87.5797765985
 30
0.0
 11
482.5247300596
 21
81.69080385265999
 31
0.0
1001
Sigma
1000

  0
LINE
  5
372
330
18
100
AcDbEntity
  8
1
  6
Continuous
 62
   134
370
    15
100
AcDbLine
 10
482.5247300596
 20
81.69080385265999
 30
0.0
 11
477.0847300596
 21
81.69080385265999
 31
0.0
1001
Sigma
1000

  0
TEXT
  5
374
330
18
100
AcDbEntity
  8
1
  6
Continuous
 62
     4
370
    30
100
AcDbText
 10
476.696640586853
 20
39.64858415740931
 30
0.0
 40
6.120000171661376
  1
符号
 41
0.4987499995836441
  7
KCADTEXTSTANDARD
100
AcDbText
1001
Sigma
1000

  0
TEXT
  5
376
330
18
100
AcDbEntity
  8
1
  6
Continuous
 62
     4
370
    30
100
AcDbText
 10
483.162391129433
 20
39.36570416268931
 30
0.0
 40
6.120000171661376
  1
 年月日 担当   訂 正 記 事
 41
0.8102941176470586
  7
KCADTEXTSTANDARD
100
AcDbText
1001
Sigma
1000

  0
TEXT
  5
378
330
18
100
AcDbEntity
  8
1
  6
Continuous
 62
     4
370
    30
100
AcDbText
 10
592.541375930833
 20
64.8618125276093
 30
0.0
 40
6.120000171661376
  1
 設計 製図 検図 承認
 41
1.147916666666666
  7
KCADTEXTSTANDARD
100
AcDbText
1001
Sigma
1000

  0
TEXT
  5
37A
330
18
100
AcDbEntity
  8
1
  6
Continuous
 62
     4
370
    30
100
AcDbText
 10
696.0408541444242
 20
56.16543816683535
 30
0.0
 40
4.589999914169311
  1
名
 41
1.266666725881739
  7
KCADTEXTSTANDARD
100
AcDbText
1001
Sigma
1000

  0
LINE
  5
37C
330
18
100
AcDbEntity
  8
1
  6
Continuous
 62
   134
370
    15
100
AcDbLine
 10
482.5247300596
 20
47.69080385266
 30
0.0
 11
477.0847300596
 21
47.69080385266
 31
0.0
1001
Sigma
1000

  0
TEXT
  5
37E
330
18
100
AcDbEntity
  8
1
  6
Continuous
 62
     4
370
    30
100
AcDbText
 10
696.0408541444242
 20
61.43543816683535
 30
0.0
 40
4.589999914169311
  1
品
 41
1.266666725881739
  7
KCADTEXTSTANDARD
100
AcDbText
1001
Sigma
1000

  0
TEXT
  5
380
330
18
100
AcDbEntity
  8
1
  6
Continuous
 62
     4
370
    30
100
AcDbText
 10
616.9824999570846
 20
87.68249995708465
 30
0.0
 40
6.885000085830689
  1
 三角法
 41
0.7916666780779043
  7
KCADTEXTSTANDARD
100
AcDbText
1001
Sigma
1000

  0
TEXT
  5
382
330
18
100
AcDbEntity
  8
1
  6
Continuous
 62
     4
370
    30
100
AcDbText
 10
696.0408541444242
 20
66.70543816683535
 30
0.0
 40
4.589999914169311
  1
製
 41
1.266666725881739
  7
KCADTEXTSTANDARD
100
AcDbText
1001
Sigma
1000

  0
LINE
  5
384
330
18
100
AcDbEntity
  8
1
  6
Continuous
 62
     4
370
    30
100
AcDbLine
 10
694.7999999999999
 20
55.0
 30
0.0
 11
798.5
 21
55.0
 31
0.0
1001
Sigma
1000

  0
LINE
  5
386
330
18
100
AcDbEntity
  8
1
  6
Continuous
 62
   134
370
    15
100
AcDbLine
 10
703.2999999999999
 20
38.0
 30
0.0
 11
703.2999999999999
 21
97.5
 31
0.0
1001
Sigma
1000

  0
LINE
  5
388
330
18
100
AcDbEntity
  8
1
  6
Continuous
 62
   134
370
    15
100
AcDbLine
 10
529.8999999999999
 20
38.0
 30
0.0
 11
529.8999999999999
 21
97.5
 31
0.0
1001
Sigma
1000

  0
LINE
  5
38A
330
18
100
AcDbEntity
  8
1
  6
Continuous
 62
   134
370
    15
100
AcDbLine
 10
511.2
 20
38.0
 30
0.0
 11
511.2
 21
97.5
 31
0.0
1001
Sigma
1000

  0
LINE
  5
38C
330
18
100
AcDbEntity
  8
1
  6
Continuous
 62
     4
370
    30
100
AcDbLine
 10
618.2999999999999
 20
84.74999999999999
 30
0.0
 11
798.5
 21
84.74999999999999
 31
0.0
1001
Sigma
1000

  0
LINE
  5
38E
330
18
100
AcDbEntity
  8
1
  6
Continuous
 62
   134
370
    15
100
AcDbLine
 10
475.4999999999999
 20
80.5
 30
0.0
 11
592.7999999999999
 21
80.5
 31
0.0
1001
Sigma
1000

  0
LINE
  5
390
330
18
100
AcDbEntity
  8
1
  6
Continuous
 62
   134
370
    15
100
AcDbLine
 10
475.4999999999999
 20
72.0
 30
0.0
 11
592.7999999999999
 21
72.0
 31
0.0
1001
Sigma
1000

  0
LINE
  5
392
330
18
100
AcDbEntity
  8
1
  6
Continuous
 62
   134
370
    15
100
AcDbLine
 10
475.4999999999999
 20
63.5
 30
0.0
 11
694.7999999999999
 21
63.5
 31
0.0
1001
Sigma
1000

  0
LINE
  5
394
330
18
100
AcDbEntity
  8
1
  6
Continuous
 62
   134
370
    15
100
AcDbLine
 10
475.4999999999999
 20
55.0
 30
0.0
 11
592.7999999999999
 21
55.0
 31
0.0
1001
Sigma
1000

  0
LINE
  5
396
330
18
100
AcDbEntity
  8
1
  6
Continuous
 62
   134
370
    15
100
AcDbLine
 10
475.4999999999999
 20
46.5
 30
0.0
 11
592.7999999999999
 21
46.5
 31
0.0
1001
Sigma
1000

  0
LINE
  5
398
330
18
100
AcDbEntity
  8
1
  6
Continuous
 62
     4
370
    30
100
AcDbLine
 10
592.7999999999999
 20
38.0
 30
0.0
 11
592.7999999999999
 21
123.0
 31
0.0
1001
Sigma
1000

  0
LINE
  5
39A
330
18
100
AcDbEntity
  8
1
  6
Continuous
 62
     4
370
    30
100
AcDbLine
 10
618.2999999999999
 20
38.0
 30
0.0
 11
618.2999999999999
 21
123.0
 31
0.0
1001
Sigma
1000

  0
LINE
  5
39C
330
18
100
AcDbEntity
  8
1
  6
Continuous
 62
     4
370
    30
100
AcDbLine
 10
643.7999999999999
 20
38.0
 30
0.0
 11
643.7999999999999
 21
72.0
 31
0.0
1001
Sigma
1000

  0
LINE
  5
39E
330
18
100
AcDbEntity
  8
1
  6
Continuous
 62
     4
370
    30
100
AcDbLine
 10
669.2999999999999
 20
38.0
 30
0.0
 11
669.2999999999999
 21
72.0
 31
0.0
1001
Sigma
1000

  0
LINE
  5
3A0
330
18
100
AcDbEntity
  8
1
  6
Continuous
 62
     4
370
    30
100
AcDbLine
 10
694.7999999999999
 20
38.0
 30
0.0
 11
694.7999999999999
 21
123.0
 31
0.0
1001
Sigma
1000

  0
TEXT
  5
3A3
330
18
100
AcDbEntity
  8
19
  6
Continuous
 62
     7
370
    30
100
AcDbText
 10
717.9528700377499
 20
58.141535679284
 30
0.0
 40
8.135999999999999
  1
KSF-28
 41
1.10185662222761
  7
KCADTEXTSTANDARD
100
AcDbText
1001
Sigma
1000

  0
LINE
  5
3A6
330
18
100
AcDbEntity
  8
13
  6
CENTER
 62
   253
370
    15
100
AcDbLine
 10
458.55021217141
 20
376.9106064162
 30
0.0
 11
435.0502121714099
 21
376.9106064162
 31
0.0
1001
Sigma
1000

  0
LINE
  5
3A8
330
18
100
AcDbEntity
  8
13
  6
CENTER
 62
   253
370
    15
100
AcDbLine
 10
436.55021217141
 20
417.2536749926
 30
0.0
 11
436.55021217141
 21
369.0675378398
 31
0.0
1001
Sigma
1000

  0
LINE
  5
3AB
330
18
100
AcDbEntity
  8
14
  6
Continuous
 62
     7
370
    30
100
AcDbLine
 10
371.5502121714099
 20
413.1606064161999
 30
0.0
 11
435.85021217141
 21
413.1606064161999
 31
0.0
1001
Sigma
1000

  0
LINE
  5
3AD
330
18
100
AcDbEntity
  8
14
  6
Continuous
 62
     7
370
    30
100
AcDbLine
 10
435.85021217141
 20
373.1606064161999
 30
0.0
 11
371.5502121714099
 21
373.1606064161999
 31
0.0
1001
Sigma
1000

  0
LINE
  5
3AF
330
18
100
AcDbEntity
  8
14
  6
CENTER
 62
   253
370
    15
100
AcDbLine
 10
443.0199589886099
 20
393.1606064162
 30
0.0
 11
283.8852304797699
 21
393.1606064162
 31
0.0
1001
Sigma
1000

  0
LINE
  5
3B1
330
18
100
AcDbEntity
  8
13
  6
CENTER
 62
   253
370
    15
100
AcDbLine
 10
458.55021217141
 20
409.4106064162
 30
0.0
 11
435.0502121714099
 21
409.4106064162
 31
0.0
1001
Sigma
1000

  0
LINE
  5
3B3
330
18
100
AcDbEntity
  8
13
  6
Continuous
 62
     7
370
    30
100
AcDbLine
 10
437.05021217141
 20
407.1516749959
 30
0.0
 11
437.05021217141
 21
412.9606064162
 31
0.0
1001
Sigma
1000

  0
LINE
  5
3B5
330
18
100
AcDbEntity
  8
13
  6
Continuous
 62
     7
370
    30
100
AcDbLine
 10
457.05021217141
 20
270.7076818588
 30
0.0
 11
437.05021217141
 21
270.7076818588
 31
0.0
1001
Sigma
1000

  0
LINE
  5
3B7
330
18
100
AcDbEntity
  8
13
  6
Continuous
 62
     7
370
    30
100
AcDbLine
 10
437.05021217141
 20
290.7076818588
 30
0.0
 11
457.05021217141
 21
290.7076818588
 31
0.0
1001
Sigma
1000

  0
LINE
  5
3B9
330
18
100
AcDbEntity
  8
14
  6
CENTER
 62
   253
370
    15
100
AcDbLine
 10
425.68418676761
 20
376.9106064162
 30
0.0
 11
437.55021217141
 21
376.9106064162
 31
0.0
1001
Sigma
1000

  0
LINE
  5
3BB
330
18
100
AcDbEntity
  8
14
  6
Continuous
 62
     7
370
    30
100
AcDbLine
 10
436.05021217141
 20
379.1695378366
 30
0.0
 11
436.05021217141
 21
373.3606064162
 31
0.0
1001
Sigma
1000

  0
LINE
  5
3BD
330
18
100
AcDbEntity
  8
13
  6
Continuous
 62
     7
370
    30
100
AcDbLine
 10
437.05021217141
 20
373.3606064162
 30
0.0
 11
437.05021217141
 21
379.1695378366
 31
0.0
1001
Sigma
1000

  0
LINE
  5
3BF
330
18
100
AcDbEntity
  8
14
  6
Continuous
 62
     7
370
    30
100
AcDbLine
 10
436.05021217141
 20
412.9606064162
 30
0.0
 11
436.05021217141
 21
407.1516749959
 31
0.0
1001
Sigma
1000

  0
LINE
  5
3C1
330
18
100
AcDbEntity
  8
14
  6
Continuous
 62
     7
370
    30
100
AcDbLine
 10
435.85021217141
 20
413.1606064161999
 30
0.0
 11
436.05021217141
 21
412.9606064162
 31
0.0
1001
Sigma
1000

  0
LINE
  5
3C3
330
18
100
AcDbEntity
  8
14
  6
HIDDEN
 62
   253
370
    15
100
AcDbLine
 10
436.05021217141
 20
378.1106064162
 30
0.0
 11
427.8770070907099
 21
378.1106064162
 31
0.0
1001
Sigma
1000

  0
LINE
  5
3C5
330
18
100
AcDbEntity
  8
13
  6
HIDDEN
 62
   253
370
    15
100
AcDbLine
 10
437.05021217141
 20
411.0106064162
 30
0.0
 11
447.0502121714099
 21
411.0106064162
 31
0.0
1001
Sigma
1000

  0
LINE
  5
3C7
330
18
100
AcDbEntity
  8
14
  6
Continuous
 62
     7
370
    30
100
AcDbLine
 10
436.05021217141
 20
373.3606064162
 30
0.0
 11
435.85021217141
 21
373.1606064161999
 31
0.0
1001
Sigma
1000

  0
LINE
  5
3C9
330
18
100
AcDbEntity
  8
14
  6
HIDDEN
 62
   253
370
    15
100
AcDbLine
 10
436.05021217141
 20
375.4106064161999
 30
0.0
 11
428.05021217141
 21
375.4106064161999
 31
0.0
1001
Sigma
1000

  0
LINE
  5
3CB
330
18
100
AcDbEntity
  8
14
  6
HIDDEN
 62
   253
370
    15
100
AcDbLine
 10
427.8770070907099
 20
375.7106064161999
 30
0.0
 11
436.05021217141
 21
375.7106064161999
 31
0.0
1001
Sigma
1000

  0
LINE
  5
3CD
330
18
100
AcDbEntity
  8
13
  6
Continuous
 62
     7
370
    30
100
AcDbLine
 10
437.05021217141
 20
373.3606064162
 30
0.0
 11
437.25021217141
 21
373.1606064161999
 31
0.0
1001
Sigma
1000

  0
LINE
  5
3CF
330
18
100
AcDbEntity
  8
13
  6
Continuous
 62
     7
370
    30
100
AcDbLine
 10
452.05021217141
 20
373.1606064161999
 30
0.0
 11
437.25021217141
 21
373.1606064161999
 31
0.0
1001
Sigma
1000

  0
LINE
  5
3D1
330
18
100
AcDbEntity
  8
13
  6
HIDDEN
 62
   253
370
    15
100
AcDbLine
 10
437.05021217141
 20
375.3106064162
 30
0.0
 11
447.0502121714099
 21
375.3106064162
 31
0.0
1001
Sigma
1000

  0
LINE
  5
3D3
330
18
100
AcDbEntity
  8
16
  6
Continuous
 62
     7
370
    30
100
AcDbLine
 10
305.0502121714099
 20
236.7076818588
 30
0.0
 11
305.0502121714099
 21
226.7076818587999
 31
0.0
1001
Sigma
1000

  0
LINE
  5
3D5
330
18
100
AcDbEntity
  8
13
  6
Continuous
 62
     7
370
    30
100
AcDbLine
 10
437.25021217141
 20
413.1606064161999
 30
0.0
 11
437.05021217141
 21
412.9606064162
 31
0.0
1001
Sigma
1000

  0
LINE
  5
3D7
330
18
100
AcDbEntity
  8
13
  6
Continuous
 62
     7
370
    30
100
AcDbLine
 10
437.25021217141
 20
413.1606064161999
 30
0.0
 11
452.05021217141
 21
413.1606064161999
 31
0.0
1001
Sigma
1000

  0
LINE
  5
3D9
330
18
100
AcDbEntity
  8
13
  6
HIDDEN
 62
   253
370
    15
100
AcDbLine
 10
447.0502121714099
 20
378.5106064162
 30
0.0
 11
437.05021217141
 21
378.5106064162
 31
0.0
1001
Sigma
1000

  0
LINE
  5
3DB
330
18
100
AcDbEntity
  8
13
  6
HIDDEN
 62
   253
370
    15
100
AcDbLine
 10
447.0502121714099
 20
407.8106064162
 30
0.0
 11
437.05021217141
 21
407.8106064162
 31
0.0
1001
Sigma
1000

  0
LINE
  5
3DD
330
18
100
AcDbEntity
  8
14
  6
HIDDEN
 62
   253
370
    15
100
AcDbLine
 10
427.8770070907099
 20
410.6106064162
 30
0.0
 11
436.05021217141
 21
410.6106064162
 31
0.0
1001
Sigma
1000

  0
LINE
  5
3DF
330
18
100
AcDbEntity
  8
14
  6
HIDDEN
 62
   253
370
    15
100
AcDbLine
 10
436.05021217141
 20
408.2106064161999
 30
0.0
 11
427.8770070907099
 21
408.2106064161999
 31
0.0
1001
Sigma
1000

  0
LINE
  5
3E1
330
18
100
AcDbEntity
  8
14
  6
HIDDEN
 62
   253
370
    15
100
AcDbLine
 10
436.05021217141
 20
407.9106064161999
 30
0.0
 11
428.05021217141
 21
407.9106064161999
 31
0.0
1001
Sigma
1000

  0
LINE
  5
3E3
330
18
100
AcDbEntity
  8
14
  6
HIDDEN
 62
   253
370
    15
100
AcDbLine
 10
436.05021217141
 20
410.9106064161999
 30
0.0
 11
428.05021217141
 21
410.9106064161999
 31
0.0
1001
Sigma
1000

  0
LINE
  5
3E5
330
18
100
AcDbEntity
  8
14
  6
HIDDEN
 62
   253
370
    15
100
AcDbLine
 10
436.05021217141
 20
378.4106064161999
 30
0.0
 11
428.05021217141
 21
378.4106064161999
 31
0.0
1001
Sigma
1000

  0
LINE
  5
3E7
330
18
100
AcDbEntity
  8
13
  6
CENTER
 62
   253
370
    15
100
AcDbLine
 10
462.03262543411
 20
393.1606064162
 30
0.0
 11
432.06779890881
 21
393.1606064162
 31
0.0
1001
Sigma
1000

  0
ARC
  5
3E9
330
18
100
AcDbEntity
  8
13
  6
Continuous
 62
     7
370
    30
100
AcDbCircle
 10
436.55021217141
 20
393.1606064162
 30
0.0
 40
14.0
100
AcDbArc
 50
272.0467130976999
 51
87.95328690229998
1001
Sigma
1000

  0
ARC
  5
3EB
330
18
100
AcDbEntity
  8
14
  6
Continuous
 62
     7
370
    30
100
AcDbCircle
 10
436.55021217141
 20
393.1606064162
 30
0.0
 40
14.0
100
AcDbArc
 50
92.04671309770001
 51
267.9532869023
1001
Sigma
1000

  0
LINE
  5
3ED
330
18
100
AcDbEntity
  8
14
  6
CENTER
 62
   253
370
    15
100
AcDbLine
 10
425.68418676761
 20
409.4106064162
 30
0.0
 11
437.55021217141
 21
409.4106064162
 31
0.0
1001
Sigma
1000

  0
LINE
  5
3EF
330
18
100
AcDbEntity
  8
13
  6
Continuous
 62
     7
370
    30
100
AcDbLine
 10
437.05021217141
 20
290.7076818588
 30
0.0
 11
437.05021217141
 21
270.7076818588
 31
0.0
1001
Sigma
1000

  0
LINE
  5
3F1
330
18
100
AcDbEntity
  8
13
  6
CENTER
 62
   253
370
    15
100
AcDbLine
 10
436.55021217141
 20
294.3886552857999
 30
0.0
 11
436.55021217141
 21
267.0267084318999
 31
0.0
1001
Sigma
1000

  0
LINE
  5
3F3
330
18
100
AcDbEntity
  8
14
  6
Continuous
 62
     7
370
    30
100
AcDbLine
 10
436.05021217141
 20
270.7076818588
 30
0.0
 11
366.55021217141
 21
270.7076818588
 31
0.0
1001
Sigma
1000

  0
LINE
  5
3F5
330
18
100
AcDbEntity
  8
14
  6
Continuous
 62
     7
370
    30
100
AcDbLine
 10
366.55021217141
 20
290.7076818588
 30
0.0
 11
436.05021217141
 21
290.7076818588
 31
0.0
1001
Sigma
1000

  0
LINE
  5
3F7
330
18
100
AcDbEntity
  8
14
  6
Continuous
 62
     7
370
    30
100
AcDbLine
 10
436.05021217141
 20
290.7076818588
 30
0.0
 11
436.05021217141
 21
270.7076818588
 31
0.0
1001
Sigma
1000

  0
LINE
  5
3FA
330
18
100
AcDbEntity
  8
18
  6
Continuous
 62
     7
370
    30
100
AcDbLine
 10
366.7502121714099
 20
270.7076818588
 30
0.0
 11
366.55021217141
 21
270.5076818588
 31
0.0
1001
Sigma
1000

  0
LINE
  5
3FC
330
18
100
AcDbEntity
  8
18
  6
Continuous
 62
     7
370
    30
100
AcDbLine
 10
396.5502121714099
 20
270.5076818588
 30
0.0
 11
396.35021217141
 21
270.7076818588
 31
0.0
1001
Sigma
1000

  0
LINE
  5
3FE
330
18
100
AcDbEntity
  8
18
  6
Continuous
 62
     7
370
    30
100
AcDbLine
 10
366.55021217141
 20
267.4109749473
 30
0.0
 11
366.55021217141
 21
270.5076818588
 31
0.0
1001
Sigma
1000

  0
LINE
  5
400
330
18
100
AcDbEntity
  8
19
  6
Continuous
 62
     7
370
    30
100
AcDbLine
 10
366.55021217141
 20
234.0043887703
 30
0.0
 11
366.55021217141
 21
220.7076818587999
 31
0.0
1001
Sigma
1000

  0
LINE
  5
402
330
18
100
AcDbEntity
  8
19
  6
Continuous
 62
     7
370
    30
100
AcDbLine
 10
365.55021217141
 20
233.3871737831
 30
0.0
 11
365.55021217141
 21
220.7076818587999
 31
0.0
1001
Sigma
1000

  0
LINE
  5
404
330
18
100
AcDbEntity
  8
19
  6
Continuous
 62
     7
370
    30
100
AcDbLine
 10
316.55021217141
 20
270.7076818588
 30
0.0
 11
366.55021217141
 21
270.7076818588
 31
0.0
1001
Sigma
1000

  0
CIRCLE
  5
406
330
18
100
AcDbEntity
  8
15
  6
Continuous
 62
     7
370
    30
100
AcDbCircle
 10
355.55021217141
 20
250.7076818588
 30
0.0
 40
19.0
1001
Sigma
1000

  0
LINE
  5
408
330
18
100
AcDbEntity
  8
16
  6
Continuous
 62
     7
370
    30
100
AcDbLine
 10
292.05021217141
 20
249.6094882991
 30
0.0
 11
304.05021217141
 21
249.6094882991
 31
0.0
1001
Sigma
1000

  0
LINE
  5
40A
330
18
100
AcDbEntity
  8
16
  6
Continuous
 62
     7
370
    30
100
AcDbLine
 10
292.05021217141
 20
262.3370741049
 30
0.0
 11
304.05021217141
 21
262.3370741049
 31
0.0
1001
Sigma
1000

  0
LINE
  5
40C
330
18
100
AcDbEntity
  8
16
  6
Continuous
 62
     7
370
    30
100
AcDbLine
 10
304.05021217141
 20
264.185272509
 30
0.0
 11
292.05021217141
 21
264.185272509
 31
0.0
1001
Sigma
1000

  0
LINE
  5
40E
330
18
100
AcDbEntity
  8
16
  6
Continuous
 62
     7
370
    30
100
AcDbLine
 10
292.05021217141
 20
265.3233874669
 30
0.0
 11
304.05021217141
 21
265.3233874669
 31
0.0
1001
Sigma
1000

  0
LINE
  5
410
330
18
100
AcDbEntity
  8
16
  6
Continuous
 62
     7
370
    30
100
AcDbLine
 10
309.25021217141
 20
254.7076818587999
 30
0.0
 11
305.85021217141
 21
254.7076818587999
 31
0.0
1001
Sigma
1000

  0
LINE
  5
412
330
18
100
AcDbEntity
  8
16
  6
Continuous
 62
     7
370
    30
100
AcDbLine
 10
304.05021217141
 20
253.3613505061
 30
0.0
 11
292.05021217141
 21
253.3613505061
 31
0.0
1001
Sigma
1000

  0
LINE
  5
414
330
18
100
AcDbEntity
  8
16
  6
Continuous
 62
     7
370
    30
100
AcDbLine
 10
311.05021217141
 20
248.7076818588
 30
0.0
 11
311.55021217141
 21
248.2076818587999
 31
0.0
1001
Sigma
1000

  0
LINE
  5
416
330
18
100
AcDbEntity
  8
16
  6
Continuous
 62
     7
370
    30
100
AcDbLine
 10
311.05021217141
 20
248.7076818588
 30
0.0
 11
311.05021217141
 21
252.7076818587999
 31
0.0
1001
Sigma
1000

  0
LINE
  5
418
330
18
100
AcDbEntity
  8
16
  6
Continuous
 62
     7
370
    30
100
AcDbLine
 10
311.05021217141
 20
248.7076818588
 30
0.0
 11
316.55021217141
 21
248.7076818588
 31
0.0
1001
Sigma
1000

  0
CIRCLE
  5
41A
330
18
100
AcDbEntity
  8
15
  6
Continuous
 62
     7
370
    30
100
AcDbCircle
 10
355.55021217141
 20
250.7076818588
 30
0.0
 40
20.0
1001
Sigma
1000

  0
LINE
  5
41C
330
18
100
AcDbEntity
  8
15
  6
CENTER
 62
   253
370
    15
100
AcDbLine
 10
380.55021217141
 20
250.7076818588
 30
0.0
 11
330.55021217141
 21
250.7076818588
 31
0.0
1001
Sigma
1000

  0
LINE
  5
41E
330
18
100
AcDbEntity
  8
19
  6
Continuous
 62
     7
370
    30
100
AcDbLine
 10
346.5502121714099
 20
220.7076818587999
 30
0.0
 11
326.55021217141
 21
220.7076818587999
 31
0.0
1001
Sigma
1000

  0
LINE
  5
420
330
18
100
AcDbEntity
  8
19
  6
Continuous
 62
     7
370
    30
100
AcDbLine
 10
354.95448300481
 20
220.7076818587999
 30
0.0
 11
346.5502121714099
 21
220.7076818587999
 31
0.0
1001
Sigma
1000

  0
LINE
  5
422
330
18
100
AcDbEntity
  8
16
  6
Continuous
 62
     7
370
    30
100
AcDbLine
 10
311.05021217141
 20
242.7076818588
 30
0.0
 11
311.55021217141
 21
243.2076818587999
 31
0.0
1001
Sigma
1000

  0
LINE
  5
424
330
18
100
AcDbEntity
  8
16
  6
Continuous
 62
     7
370
    30
100
AcDbLine
 10
311.55021217141
 20
243.2076818587999
 30
0.0
 11
316.55021217141
 21
243.2076818587999
 31
0.0
1001
Sigma
1000

  0
LINE
  5
426
330
18
100
AcDbEntity
  8
16
  6
Continuous
 62
     7
370
    30
100
AcDbLine
 10
304.05021217141
 20
227.2300912086
 30
0.0
 11
292.05021217141
 21
227.2300912086
 31
0.0
1001
Sigma
1000

  0
LINE
  5
428
330
18
100
AcDbEntity
  8
16
  6
Continuous
 62
     7
370
    30
100
AcDbLine
 10
292.05021217141
 20
225.7076818588
 30
0.0
 11
304.05021217141
 21
225.7076818588
 31
0.0
1001
Sigma
1000

  0
LINE
  5
42A
330
18
100
AcDbEntity
  8
16
  6
Continuous
 62
     7
370
    30
100
AcDbLine
 10
291.05021217141
 20
226.7076818587999
 30
0.0
 11
292.05021217141
 21
225.7076818588
 31
0.0
1001
Sigma
1000

  0
LINE
  5
42C
330
18
100
AcDbEntity
  8
16
  6
Continuous
 62
     7
370
    30
100
AcDbLine
 10
310.85021217141
 20
254.7076818587999
 30
0.0
 11
309.25021217141
 21
254.7076818587999
 31
0.0
1001
Sigma
1000

  0
LINE
  5
42E
330
18
100
AcDbEntity
  8
16
  6
Continuous
 62
     7
370
    30
100
AcDbLine
 10
304.05021217141
 20
265.7076818588
 30
0.0
 11
305.0502121714099
 21
264.7076818588
 31
0.0
1001
Sigma
1000

  0
LINE
  5
430
330
18
100
AcDbEntity
  8
16
  6
Continuous
 62
     7
370
    30
100
AcDbLine
 10
305.0502121714099
 20
254.7076818587999
 30
0.0
 11
305.0502121714099
 21
264.7076818588
 31
0.0
1001
Sigma
1000

  0
LINE
  5
432
330
18
100
AcDbEntity
  8
16
  6
Continuous
 62
     7
370
    30
100
AcDbLine
 10
292.05021217141
 20
265.7076818588
 30
0.0
 11
304.05021217141
 21
265.7076818588
 31
0.0
1001
Sigma
1000

  0
LINE
  5
434
330
18
100
AcDbEntity
  8
16
  6
Continuous
 62
     7
370
    30
100
AcDbLine
 10
291.05021217141
 20
264.7076818588
 30
0.0
 11
292.05021217141
 21
265.7076818588
 31
0.0
1001
Sigma
1000

  0
LINE
  5
436
330
18
100
AcDbEntity
  8
16
  6
Continuous
 62
     7
370
    30
100
AcDbLine
 10
311.05021217141
 20
254.5076818587999
 30
0.0
 11
310.85021217141
 21
254.7076818587999
 31
0.0
1001
Sigma
1000

  0
LINE
  5
438
330
18
100
AcDbEntity
  8
16
  6
Continuous
 62
     7
370
    30
100
AcDbLine
 10
311.05021217141
 20
252.7076818587999
 30
0.0
 11
311.05021217141
 21
254.5076818587999
 31
0.0
1001
Sigma
1000

  0
LINE
  5
43A
330
18
100
AcDbEntity
  8
16
  6
Continuous
 62
     7
370
    30
100
AcDbLine
 10
311.05021217141
 20
248.7076818588
 30
0.0
 11
311.05021217141
 21
242.7076818588
 31
0.0
1001
Sigma
1000

  0
LINE
  5
43C
330
18
100
AcDbEntity
  8
16
  6
Continuous
 62
     7
370
    30
100
AcDbLine
 10
305.0502121714099
 20
254.7076818587999
 30
0.0
 11
305.0502121714099
 21
236.7076818588
 31
0.0
1001
Sigma
1000

  0
LINE
  5
43E
330
18
100
AcDbEntity
  8
16
  6
Continuous
 62
     7
370
    30
100
AcDbLine
 10
292.05021217141
 20
265.7076818588
 30
0.0
 11
292.05021217141
 21
245.7076818587999
 31
0.0
1001
Sigma
1000

  0
LINE
  5
440
330
18
100
AcDbEntity
  8
16
  6
Continuous
 62
     7
370
    30
100
AcDbLine
 10
304.05021217141
 20
265.7076818588
 30
0.0
 11
304.05021217141
 21
245.7076818587999
 31
0.0
1001
Sigma
1000

  0
LINE
  5
442
330
18
100
AcDbEntity
  8
16
  6
Continuous
 62
     7
370
    30
100
AcDbLine
 10
292.05021217141
 20
245.7076818587999
 30
0.0
 11
304.05021217141
 21
245.7076818587999
 31
0.0
1001
Sigma
1000

  0
LINE
  5
444
330
18
100
AcDbEntity
  8
16
  6
Continuous
 62
     7
370
    30
100
AcDbLine
 10
311.55021217141
 20
248.2076818587999
 30
0.0
 11
311.55021217141
 21
243.2076818587999
 31
0.0
1001
Sigma
1000

  0
LINE
  5
446
330
18
100
AcDbEntity
  8
16
  6
CENTER
 62
   253
370
    15
100
AcDbLine
 10
284.61973305661
 20
245.7076818587999
 30
0.0
 11
324.66859295921
 21
245.7076818587999
 31
0.0
1001
Sigma
1000

  0
LINE
  5
448
330
18
100
AcDbEntity
  8
16
  6
Continuous
 62
     7
370
    30
100
AcDbLine
 10
311.05021217141
 20
242.7076818588
 30
0.0
 11
311.05021217141
 21
238.7076818588
 31
0.0
1001
Sigma
1000

  0
LINE
  5
44A
330
18
100
AcDbEntity
  8
16
  6
Continuous
 62
     7
370
    30
100
AcDbLine
 10
310.85021217141
 20
236.7076818588
 30
0.0
 11
305.0502121714099
 21
236.7076818588
 31
0.0
1001
Sigma
1000

  0
LINE
  5
44C
330
18
100
AcDbEntity
  8
16
  6
Continuous
 62
     7
370
    30
100
AcDbLine
 10
310.85021217141
 20
236.7076818588
 30
0.0
 11
311.05021217141
 21
236.9076818588
 31
0.0
1001
Sigma
1000

  0
LINE
  5
44E
330
18
100
AcDbEntity
  8
16
  6
Continuous
 62
     7
370
    30
100
AcDbLine
 10
311.05021217141
 20
238.7076818588
 30
0.0
 11
311.05021217141
 21
236.9076818588
 31
0.0
1001
Sigma
1000

  0
LINE
  5
450
330
18
100
AcDbEntity
  8
16
  6
Continuous
 62
     7
370
    30
100
AcDbLine
 10
304.05021217141
 20
238.0540132115
 30
0.0
 11
292.05021217141
 21
238.0540132115
 31
0.0
1001
Sigma
1000

  0
LINE
  5
452
330
18
100
AcDbEntity
  8
16
  6
Continuous
 62
     7
370
    30
100
AcDbLine
 10
292.05021217141
 20
241.8058754185
 30
0.0
 11
304.05021217141
 21
241.8058754185
 31
0.0
1001
Sigma
1000

  0
LINE
  5
454
330
18
100
AcDbEntity
  8
16
  6
Continuous
 62
     7
370
    30
100
AcDbLine
 10
311.05021217141
 20
242.7076818588
 30
0.0
 11
316.55021217141
 21
242.7076818588
 31
0.0
1001
Sigma
1000

  0
LINE
  5
456
330
18
100
AcDbEntity
  8
14
  6
Continuous
 62
     7
370
    30
100
AcDbLine
 10
366.55021217141
 20
270.7076818588
 30
0.0
 11
366.55021217141
 21
290.7076818588
 31
0.0
1001
Sigma
1000

  0
LINE
  5
458
330
18
100
AcDbEntity
  8
19
  6
Continuous
 62
     7
370
    30
100
AcDbLine
 10
365.55021217141
 20
270.7076818588
 30
0.0
 11
365.55021217141
 21
268.0281899345
 31
0.0
1001
Sigma
1000

  0
LINE
  5
45A
330
18
100
AcDbEntity
  8
19
  6
Continuous
 62
     7
370
    30
100
AcDbLine
 10
366.55021217141
 20
270.7076818588
 30
0.0
 11
366.55021217141
 21
267.4109749473
 31
0.0
1001
Sigma
1000

  0
LINE
  5
45C
330
18
100
AcDbEntity
  8
18
  6
Continuous
 62
     7
370
    30
100
AcDbLine
 10
366.7502121714099
 20
270.7076818588
 30
0.0
 11
396.35021217141
 21
270.7076818588
 31
0.0
1001
Sigma
1000

  0
LINE
  5
45E
330
18
100
AcDbEntity
  8
18
  6
Continuous
 62
     7
370
    30
100
AcDbLine
 10
396.35021217141
 20
220.7076818587999
 30
0.0
 11
366.7502121714099
 21
220.7076818587999
 31
0.0
1001
Sigma
1000

  0
LINE
  5
460
330
18
100
AcDbEntity
  8
18
  6
Continuous
 62
     7
370
    30
100
AcDbLine
 10
366.55021217141
 20
220.9076818588
 30
0.0
 11
366.55021217141
 21
234.0043887703
 31
0.0
1001
Sigma
1000

  0
LINE
  5
462
330
18
100
AcDbEntity
  8
16
  6
Continuous
 62
     7
370
    30
100
AcDbLine
 10
292.05021217141
 20
225.7076818588
 30
0.0
 11
292.05021217141
 21
245.7076818587999
 31
0.0
1001
Sigma
1000

  0
LINE
  5
464
330
18
100
AcDbEntity
  8
16
  6
Continuous
 62
     7
370
    30
100
AcDbLine
 10
291.05021217141
 20
245.7076818587999
 30
0.0
 11
291.05021217141
 21
264.7076818588
 31
0.0
1001
Sigma
1000

  0
LINE
  5
466
330
18
100
AcDbEntity
  8
16
  6
Continuous
 62
     7
370
    30
100
AcDbLine
 10
311.55021217141
 20
248.2076818587999
 30
0.0
 11
316.55021217141
 21
248.2076818587999
 31
0.0
1001
Sigma
1000

  0
LINE
  5
468
330
18
100
AcDbEntity
  8
19
  6
Continuous
 62
     7
370
    30
100
AcDbLine
 10
316.55021217141
 20
248.0076818587999
 30
0.0
 11
316.55021217141
 21
259.7563456747999
 31
0.0
1001
Sigma
1000

  0
LINE
  5
46A
330
18
100
AcDbEntity
  8
19
  6
Continuous
 62
     7
370
    30
100
AcDbLine
 10
326.55021217141
 20
220.7076818587999
 30
0.0
 11
316.55021217141
 21
220.7076818587999
 31
0.0
1001
Sigma
1000

  0
LINE
  5
46C
330
18
100
AcDbEntity
  8
16
  6
Continuous
 62
     7
370
    30
100
AcDbLine
 10
304.05021217141
 20
225.7076818588
 30
0.0
 11
305.0502121714099
 21
226.7076818587999
 31
0.0
1001
Sigma
1000

  0
LINE
  5
46E
330
18
100
AcDbEntity
  8
16
  6
Continuous
 62
     7
370
    30
100
AcDbLine
 10
292.05021217141
 20
234.5962771983999
 30
0.0
 11
304.05021217141
 21
234.5962771983999
 31
0.0
1001
Sigma
1000

  0
LINE
  5
470
330
18
100
AcDbEntity
  8
19
  6
Continuous
 62
     7
370
    30
100
AcDbLine
 10
319.05021217141
 20
220.7076818587999
 30
0.0
 11
319.05021217141
 21
270.7076818588
 31
0.0
1001
Sigma
1000

  0
LINE
  5
472
330
18
100
AcDbEntity
  8
16
  6
Continuous
 62
     7
370
    30
100
AcDbLine
 10
292.05021217141
 20
229.0782896127999
 30
0.0
 11
304.05021217141
 21
229.0782896127999
 31
0.0
1001
Sigma
1000

  0
LINE
  5
474
330
18
100
AcDbEntity
  8
16
  6
Continuous
 62
     7
370
    30
100
AcDbLine
 10
292.05021217141
 20
256.8190865192
 30
0.0
 11
304.05021217141
 21
256.8190865192
 31
0.0
1001
Sigma
1000

  0
LINE
  5
476
330
18
100
AcDbEntity
  8
16
  6
Continuous
 62
     7
370
    30
100
AcDbLine
 10
304.05021217141
 20
259.8498174825999
 30
0.0
 11
292.05021217141
 21
259.8498174825999
 31
0.0
1001
Sigma
1000

  0
LINE
  5
478
330
18
100
AcDbEntity
  8
16
  6
Continuous
 62
     7
370
    30
100
AcDbLine
 10
305.85021217141
 20
254.7076818587999
 30
0.0
 11
305.0502121714099
 21
254.7076818587999
 31
0.0
1001
Sigma
1000

  0
LINE
  5
47A
330
18
100
AcDbEntity
  8
15
  6
CENTER
 62
   253
370
    15
100
AcDbLine
 10
355.55021217141
 20
275.7076818588
 30
0.0
 11
355.55021217141
 21
225.7076818588
 31
0.0
1001
Sigma
1000

  0
LINE
  5
47C
330
18
100
AcDbEntity
  8
19
  6
Continuous
 62
     7
370
    30
100
AcDbLine
 10
366.55021217141
 20
220.7076818587999
 30
0.0
 11
354.95448300481
 21
220.7076818587999
 31
0.0
1001
Sigma
1000

  0
LINE
  5
47E
330
18
100
AcDbEntity
  8
18
  6
Continuous
 62
     7
370
    30
100
AcDbLine
 10
396.5502121714099
 20
270.5076818588
 30
0.0
 11
396.5502121714099
 21
220.9076818588
 31
0.0
1001
Sigma
1000

  0
LINE
  5
480
330
18
100
AcDbEntity
  8
14
  6
Continuous
 62
     7
370
    30
100
AcDbLine
 10
371.5502121714099
 20
270.7076818588
 30
0.0
 11
371.5502121714099
 21
290.7076818588
 31
0.0
1001
Sigma
1000

  0
LINE
  5
482
330
18
100
AcDbEntity
  8
18
  6
Continuous
 62
     7
370
    30
100
AcDbLine
 10
366.55021217141
 20
220.9076818588
 30
0.0
 11
366.7502121714099
 21
220.7076818587999
 31
0.0
1001
Sigma
1000

  0
LINE
  5
484
330
18
100
AcDbEntity
  8
16
  6
Continuous
 62
     7
370
    30
100
AcDbLine
 10
292.05021217141
 20
226.0919762508
 30
0.0
 11
304.05021217141
 21
226.0919762508
 31
0.0
1001
Sigma
1000

  0
LINE
  5
486
330
18
100
AcDbEntity
  8
19
  6
Continuous
 62
     7
370
    30
100
AcDbLine
 10
316.55021217141
 20
220.7076818587999
 30
0.0
 11
316.55021217141
 21
243.4076818588
 31
0.0
1001
Sigma
1000

  0
LINE
  5
488
330
18
100
AcDbEntity
  8
19
  6
Continuous
 62
     7
370
    30
100
AcDbLine
 10
316.55021217141
 20
243.4076818588
 30
0.0
 11
316.55021217141
 21
248.0076818587999
 31
0.0
1001
Sigma
1000

  0
LINE
  5
48A
330
18
100
AcDbEntity
  8
19
  6
Continuous
 62
   253
370
    15
100
AcDbLine
 10
336.55021217141
 20
283.962943644
 30
0.0
 11
336.55021217141
 21
220.7076818587999
 31
0.0
1001
Sigma
1000

  0
LINE
  5
48C
330
18
100
AcDbEntity
  8
16
  6
Continuous
 62
     7
370
    30
100
AcDbLine
 10
291.05021217141
 20
245.7076818587999
 30
0.0
 11
291.05021217141
 21
226.7076818587999
 31
0.0
1001
Sigma
1000

  0
LINE
  5
48E
330
18
100
AcDbEntity
  8
16
  6
Continuous
 62
     7
370
    30
100
AcDbLine
 10
304.05021217141
 20
225.7076818588
 30
0.0
 11
304.05021217141
 21
245.7076818587999
 31
0.0
1001
Sigma
1000

  0
LINE
  5
490
330
18
100
AcDbEntity
  8
16
  6
Continuous
 62
     7
370
    30
100
AcDbLine
 10
292.05021217141
 20
373.1606064161999
 30
0.0
 11
292.05021217141
 21
393.1606064162
 31
0.0
1001
Sigma
1000

  0
LINE
  5
493
330
18
100
AcDbEntity
  8
17
  6
Continuous
 62
   253
370
    15
100
AcDbLine
 10
298.05021217141
 20
413.1606064161999
 30
0.0
 11
297.27769612101
 21
415.0816493700999
 31
0.0
1001
Sigma
1000

  0
LINE
  5
495
330
18
100
AcDbEntity
  8
17
  6
Continuous
 62
   253
370
    15
100
AcDbLine
 10
298.05021217141
 20
413.1606064161999
 30
0.0
 11
296.4206721699099
 21
414.4380203907999
 31
0.0
1001
Sigma
1000

  0
LINE
  5
497
330
18
100
AcDbEntity
  8
17
  6
Continuous
 62
   253
370
    15
100
AcDbLine
 10
298.05021217141
 20
413.1606064161999
 30
0.0
 11
287.4937243147099
 21
427.2170942728999
 31
0.0
1001
Sigma
1000

  0
LINE
  5
499
330
18
100
AcDbEntity
  8
17
  6
Continuous
 62
   253
370
    15
100
AcDbLine
 10
287.4937243147099
 20
427.2170942728999
 30
0.0
 11
255.5362182502399
 21
427.2170942728999
 31
0.0
1001
Sigma
1000

  0
TEXT
  5
49B
330
18
100
AcDbEntity
  8
17
  6
Continuous
 62
   253
370
    15
100
AcDbText
 10
256.07406255602
 20
428.9416758398099
 30
0.0
 40
4.067999999999999
  1
ｸﾗﾝﾌﾟﾉﾌﾞ
 41
2.007208109817967
  7
KCADTEXTSTANDARD
100
AcDbText
1001
Sigma
1000

  0
LINE
  5
49D
330
18
100
AcDbEntity
  8
15
  6
Continuous
 62
     7
370
    30
100
AcDbLine
 10
344.4388075110099
 20
346.6606064161999
 30
0.0
 11
344.4388075110099
 21
358.6606064161999
 31
0.0
1001
Sigma
1000

  0
LINE
  5
49F
330
18
100
AcDbEntity
  8
15
  6
Continuous
 62
     7
370
    30
100
AcDbLine
 10
337.07262152121
 20
358.6606064161999
 30
0.0
 11
337.07262152121
 21
346.6606064161999
 31
0.0
1001
Sigma
1000

  0
LINE
  5
4A1
330
18
100
AcDbEntity
  8
15
  6
Continuous
 62
     7
370
    30
100
AcDbLine
 10
335.93450656341
 20
346.6606064161999
 30
0.0
 11
335.93450656341
 21
358.6606064161999
 31
0.0
1001
Sigma
1000

  0
LINE
  5
4A3
330
18
100
AcDbEntity
  8
15
  6
Continuous
 62
     7
370
    30
100
AcDbLine
 10
335.55021217141
 20
346.6606064161999
 30
0.0
 11
336.55021217141
 21
345.6606064162
 31
0.0
1001
Sigma
1000

  0
LINE
  5
4A5
330
18
100
AcDbEntity
  8
15
  6
Continuous
 62
     7
370
    30
100
AcDbLine
 10
335.55021217141
 20
358.6606064161999
 30
0.0
 11
335.55021217141
 21
346.6606064161999
 31
0.0
1001
Sigma
1000

  0
LINE
  5
4A7
330
18
100
AcDbEntity
  8
15
  6
Continuous
 62
     7
370
    30
100
AcDbLine
 10
335.55021217141
 20
358.6606064161999
 30
0.0
 11
336.55021217141
 21
359.6606064161999
 31
0.0
1001
Sigma
1000

  0
LINE
  5
4A9
330
18
100
AcDbEntity
  8
15
  6
Continuous
 62
     7
370
    30
100
AcDbLine
 10
355.55021217141
 20
426.6606064161999
 30
0.0
 11
336.55021217141
 21
426.6606064161999
 31
0.0
1001
Sigma
1000

  0
LINE
  5
4AB
330
18
100
AcDbEntity
  8
15
  6
Continuous
 62
     7
370
    30
100
AcDbLine
 10
335.55021217141
 20
439.6606064161999
 30
0.0
 11
355.55021217141
 21
439.6606064161999
 31
0.0
1001
Sigma
1000

  0
LINE
  5
4AD
330
18
100
AcDbEntity
  8
15
  6
Continuous
 62
     7
370
    30
100
AcDbLine
 10
355.55021217141
 20
440.6606064162
 30
0.0
 11
336.55021217141
 21
440.6606064162
 31
0.0
1001
Sigma
1000

  0
LINE
  5
4AF
330
18
100
AcDbEntity
  8
15
  6
Continuous
 62
     7
370
    30
100
AcDbLine
 10
335.55021217141
 20
427.6606064162
 30
0.0
 11
355.55021217141
 21
427.6606064162
 31
0.0
1001
Sigma
1000

  0
LINE
  5
4B1
330
18
100
AcDbEntity
  8
15
  6
Continuous
 62
     7
370
    30
100
AcDbLine
 10
346.5502121714099
 20
366.1606064162
 30
0.0
 11
346.5502121714099
 21
359.6606064161999
 31
0.0
1001
Sigma
1000

  0
LINE
  5
4B3
330
18
100
AcDbEntity
  8
15
  6
Continuous
 62
     7
370
    30
100
AcDbLine
 10
347.8965435241099
 20
358.6606064161999
 30
0.0
 11
347.8965435241099
 21
346.6606064161999
 31
0.0
1001
Sigma
1000

  0
LINE
  5
4B5
330
18
100
AcDbEntity
  8
15
  6
Continuous
 62
     7
370
    30
100
AcDbLine
 10
346.5502121714099
 20
420.1606064162
 30
0.0
 11
355.55021217141
 21
420.1606064162
 31
0.0
1001
Sigma
1000

  0
LINE
  5
4B7
330
18
100
AcDbEntity
  8
15
  6
Continuous
 62
     7
370
    30
100
AcDbLine
 10
346.5502121714099
 20
420.1606064162
 30
0.0
 11
346.5502121714099
 21
426.6606064161999
 31
0.0
1001
Sigma
1000

  0
LINE
  5
4B9
330
18
100
AcDbEntity
  8
15
  6
Continuous
 62
     7
370
    30
100
AcDbLine
 10
347.8965435241099
 20
427.6606064162
 30
0.0
 11
347.8965435241099
 21
439.6606064161999
 31
0.0
1001
Sigma
1000

  0
LINE
  5
4BB
330
18
100
AcDbEntity
  8
16
  6
Continuous
 62
     7
370
    30
100
AcDbLine
 10
304.05021217141
 20
231.5655462350999
 30
0.0
 11
292.05021217141
 21
231.5655462350999
 31
0.0
1001
Sigma
1000

  0
LINE
  5
4BD
330
18
100
AcDbEntity
  8
19
  6
Continuous
 62
     7
370
    30
100
AcDbLine
 10
316.55021217141
 20
270.7076818588
 30
0.0
 11
316.55021217141
 21
259.7563456747999
 31
0.0
1001
Sigma
1000

  0
LINE
  5
4BF
330
18
100
AcDbEntity
  8
18
  6
Continuous
 62
     7
370
    30
100
AcDbLine
 10
396.5502121714099
 20
220.9076818588
 30
0.0
 11
396.35021217141
 21
220.7076818587999
 31
0.0
1001
Sigma
1000

  0
LINE
  5
4C1
330
18
100
AcDbEntity
  8
16
  6
Continuous
 62
     7
370
    30
100
AcDbLine
 10
311.05021217141
 20
400.1606064161999
 30
0.0
 11
311.05021217141
 21
401.9606064161999
 31
0.0
1001
Sigma
1000

  0
LINE
  5
4C3
330
18
100
AcDbEntity
  8
16
  6
Continuous
 62
     7
370
    30
100
AcDbLine
 10
311.05021217141
 20
401.9606064161999
 30
0.0
 11
310.85021217141
 21
402.1606064161999
 31
0.0
1001
Sigma
1000

  0
LINE
  5
4C5
330
18
100
AcDbEntity
  8
16
  6
Continuous
 62
     7
370
    30
100
AcDbLine
 10
292.05021217141
 20
404.2720110766
 30
0.0
 11
304.05021217141
 21
404.2720110766
 31
0.0
1001
Sigma
1000

  0
LINE
  5
4C7
330
18
100
AcDbEntity
  8
16
  6
Continuous
 62
     7
370
    30
100
AcDbLine
 10
304.05021217141
 20
400.8142750635
 30
0.0
 11
292.05021217141
 21
400.8142750635
 31
0.0
1001
Sigma
1000

  0
LINE
  5
4C9
330
18
100
AcDbEntity
  8
15
  6
Continuous
 62
     7
370
    30
100
AcDbLine
 10
341.4080765477099
 20
358.6606064161999
 30
0.0
 11
341.4080765477099
 21
346.6606064161999
 31
0.0
1001
Sigma
1000

  0
LINE
  5
4CB
330
18
100
AcDbEntity
  8
15
  6
Continuous
 62
     7
370
    30
100
AcDbLine
 10
338.9208199254099
 20
346.6606064161999
 30
0.0
 11
338.9208199254099
 21
358.6606064161999
 31
0.0
1001
Sigma
1000

  0
LINE
  5
4CD
330
18
100
AcDbEntity
  8
16
  6
Continuous
 62
     7
370
    30
100
AcDbLine
 10
304.05021217141
 20
373.1606064161999
 30
0.0
 11
305.0502121714099
 21
374.1606064161999
 31
0.0
1001
Sigma
1000

  0
LINE
  5
4CF
330
18
100
AcDbEntity
  8
16
  6
Continuous
 62
     7
370
    30
100
AcDbLine
 10
291.05021217141
 20
374.1606064161999
 30
0.0
 11
292.05021217141
 21
373.1606064161999
 31
0.0
1001
Sigma
1000

  0
LINE
  5
4D1
330
18
100
AcDbEntity
  8
19
  6
Continuous
 62
     7
370
    30
100
AcDbLine
 10
319.05021217141
 20
378.1606064161999
 30
0.0
 11
365.55021217141
 21
378.1606064161999
 31
0.0
1001
Sigma
1000

  0
LINE
  5
4D3
330
18
100
AcDbEntity
  8
15
  6
Continuous
 62
     7
370
    30
100
AcDbLine
 10
346.5502121714099
 20
366.1606064162
 30
0.0
 11
355.55021217141
 21
366.1606064162
 31
0.0
1001
Sigma
1000

  0
LINE
  5
4D5
330
18
100
AcDbEntity
  8
15
  6
Continuous
 62
     7
370
    30
100
AcDbLine
 10
355.55021217141
 20
359.6606064161999
 30
0.0
 11
336.55021217141
 21
359.6606064161999
 31
0.0
1001
Sigma
1000

  0
LINE
  5
4D7
330
18
100
AcDbEntity
  8
15
  6
Continuous
 62
     7
370
    30
100
AcDbLine
 10
335.55021217141
 20
358.6606064161999
 30
0.0
 11
355.55021217141
 21
358.6606064161999
 31
0.0
1001
Sigma
1000

  0
LINE
  5
4D9
330
18
100
AcDbEntity
  8
15
  6
Continuous
 62
     7
370
    30
100
AcDbLine
 10
355.55021217141
 20
345.6606064162
 30
0.0
 11
336.55021217141
 21
345.6606064162
 31
0.0
1001
Sigma
1000

  0
LINE
  5
4DB
330
18
100
AcDbEntity
  8
15
  6
Continuous
 62
     7
370
    30
100
AcDbLine
 10
335.55021217141
 20
346.6606064161999
 30
0.0
 11
355.55021217141
 21
346.6606064161999
 31
0.0
1001
Sigma
1000

  0
CIRCLE
  5
4DD
330
18
100
AcDbEntity
  8
19
  6
Continuous
 62
     7
370
    30
100
AcDbCircle
 10
336.55021217141
 20
393.1606064162
 30
0.0
 40
10.0
1001
Sigma
1000

  0
LINE
  5
4DF
330
18
100
AcDbEntity
  8
16
  6
Continuous
 62
     7
370
    30
100
AcDbLine
 10
292.05021217141
 20
393.1606064162
 30
0.0
 11
304.05021217141
 21
393.1606064162
 31
0.0
1001
Sigma
1000

  0
LINE
  5
4E1
330
18
100
AcDbEntity
  8
16
  6
Continuous
 62
     7
370
    30
100
AcDbLine
 10
291.05021217141
 20
412.1606064162
 30
0.0
 11
292.05021217141
 21
413.1606064161999
 31
0.0
1001
Sigma
1000

  0
LINE
  5
4E3
330
18
100
AcDbEntity
  8
16
  6
Continuous
 62
     7
370
    30
100
AcDbLine
 10
304.05021217141
 20
411.6381970665
 30
0.0
 11
292.05021217141
 21
411.6381970665
 31
0.0
1001
Sigma
1000

  0
LINE
  5
4E5
330
18
100
AcDbEntity
  8
16
  6
Continuous
 62
     7
370
    30
100
AcDbLine
 10
292.05021217141
 20
409.7899986623
 30
0.0
 11
304.05021217141
 21
409.7899986623
 31
0.0
1001
Sigma
1000

  0
LINE
  5
4E7
330
18
100
AcDbEntity
  8
16
  6
Continuous
 62
     7
370
    30
100
AcDbLine
 10
304.05021217141
 20
407.3027420399999
 30
0.0
 11
292.05021217141
 21
407.3027420399999
 31
0.0
1001
Sigma
1000

  0
LINE
  5
4E9
330
18
100
AcDbEntity
  8
16
  6
Continuous
 62
     7
370
    30
100
AcDbLine
 10
305.0502121714099
 20
402.1606064161999
 30
0.0
 11
305.0502121714099
 21
412.1606064162
 31
0.0
1001
Sigma
1000

  0
LINE
  5
4EB
330
18
100
AcDbEntity
  8
16
  6
Continuous
 62
     7
370
    30
100
AcDbLine
 10
292.05021217141
 20
397.0624128564999
 30
0.0
 11
304.05021217141
 21
397.0624128564999
 31
0.0
1001
Sigma
1000

  0
LINE
  5
4ED
330
18
100
AcDbEntity
  8
16
  6
Continuous
 62
     7
370
    30
100
AcDbLine
 10
310.85021217141
 20
402.1606064161999
 30
0.0
 11
309.25021217141
 21
402.1606064161999
 31
0.0
1001
Sigma
1000

  0
LINE
  5
4EF
330
18
100
AcDbEntity
  8
16
  6
Continuous
 62
     7
370
    30
100
AcDbLine
 10
305.85021217141
 20
402.1606064161999
 30
0.0
 11
305.0502121714099
 21
402.1606064161999
 31
0.0
1001
Sigma
1000

  0
LINE
  5
4F1
330
18
100
AcDbEntity
  8
16
  6
Continuous
 62
     7
370
    30
100
AcDbLine
 10
291.05021217141
 20
393.1606064162
 30
0.0
 11
291.05021217141
 21
374.1606064161999
 31
0.0
1001
Sigma
1000

  0
CIRCLE
  5
4F3
330
18
100
AcDbEntity
  8
14
  6
Continuous
 62
     7
370
    30
100
AcDbCircle
 10
371.5502121714099
 20
383.1606064162
 30
0.0
 40
3.75
1001
Sigma
1000

  0
LINE
  5
4F5
330
18
100
AcDbEntity
  8
14
  6
CENTER
 62
   253
370
    15
100
AcDbLine
 10
364.05021217141
 20
383.1606064162
 30
0.0
 11
379.05021217141
 21
383.1606064162
 31
0.0
1001
Sigma
1000

  0
CIRCLE
  5
4F7
330
18
100
AcDbEntity
  8
14
  6
Continuous
 62
     7
370
    30
100
AcDbCircle
 10
371.5502121714099
 20
403.1606064162
 30
0.0
 40
3.75
1001
Sigma
1000

  0
CIRCLE
  5
4F9
330
18
100
AcDbEntity
  8
14
  6
Continuous
 62
     7
370
    30
100
AcDbCircle
 10
371.5502121714099
 20
403.1606064162
 30
0.0
 40
2.1
1001
Sigma
1000

  0
LINE
  5
4FB
330
18
100
AcDbEntity
  8
14
  6
HIDDEN
 62
   253
370
    15
100
AcDbLine
 10
428.05021217141
 20
378.4106064161999
 30
0.0
 11
427.8770070907099
 21
378.1106064162
 31
0.0
1001
Sigma
1000

  0
LINE
  5
4FD
330
18
100
AcDbEntity
  8
14
  6
HIDDEN
 62
   253
370
    15
100
AcDbLine
 10
427.8770070907099
 20
410.6106064162
 30
0.0
 11
427.18418676761
 21
409.4106064162
 31
0.0
1001
Sigma
1000

  0
LINE
  5
4FF
330
18
100
AcDbEntity
  8
16
  6
Continuous
 62
     7
370
    30
100
AcDbLine
 10
309.25021217141
 20
402.1606064161999
 30
0.0
 11
305.85021217141
 21
402.1606064161999
 31
0.0
1001
Sigma
1000

  0
LINE
  5
501
330
18
100
AcDbEntity
  8
16
  6
Continuous
 62
     7
370
    30
100
AcDbLine
 10
304.05021217141
 20
385.5069377689
 30
0.0
 11
292.05021217141
 21
385.5069377689
 31
0.0
1001
Sigma
1000

  0
LINE
  5
503
330
18
100
AcDbEntity
  8
16
  6
Continuous
 62
     7
370
    30
100
AcDbLine
 10
311.05021217141
 20
390.1606064161999
 30
0.0
 11
311.05021217141
 21
386.1606064161999
 31
0.0
1001
Sigma
1000

  0
LINE
  5
505
330
18
100
AcDbEntity
  8
16
  6
Continuous
 62
     7
370
    30
100
AcDbLine
 10
311.05021217141
 20
390.1606064161999
 30
0.0
 11
311.55021217141
 21
390.6606064161999
 31
0.0
1001
Sigma
1000

  0
LINE
  5
507
330
18
100
AcDbEntity
  8
16
  6
Continuous
 62
     7
370
    30
100
AcDbLine
 10
292.05021217141
 20
389.2587999758999
 30
0.0
 11
304.05021217141
 21
389.2587999758999
 31
0.0
1001
Sigma
1000

  0
LINE
  5
509
330
18
100
AcDbEntity
  8
16
  6
Continuous
 62
     7
370
    30
100
AcDbLine
 10
304.05021217141
 20
373.1606064161999
 30
0.0
 11
304.05021217141
 21
393.1606064162
 31
0.0
1001
Sigma
1000

  0
LINE
  5
50B
330
18
100
AcDbEntity
  8
16
  6
Continuous
 62
     7
370
    30
100
AcDbLine
 10
305.0502121714099
 20
384.1606064161999
 30
0.0
 11
305.0502121714099
 21
374.1606064161999
 31
0.0
1001
Sigma
1000

  0
LINE
  5
50D
330
18
100
AcDbEntity
  8
16
  6
Continuous
 62
     7
370
    30
100
AcDbLine
 10
310.85021217141
 20
384.1606064161999
 30
0.0
 11
305.0502121714099
 21
384.1606064161999
 31
0.0
1001
Sigma
1000

  0
LINE
  5
50F
330
18
100
AcDbEntity
  8
16
  6
Continuous
 62
     7
370
    30
100
AcDbLine
 10
305.0502121714099
 20
402.1606064161999
 30
0.0
 11
305.0502121714099
 21
384.1606064161999
 31
0.0
1001
Sigma
1000

  0
LINE
  5
511
330
18
100
AcDbEntity
  8
16
  6
Continuous
 62
     7
370
    30
100
AcDbLine
 10
311.05021217141
 20
386.1606064161999
 30
0.0
 11
311.05021217141
 21
384.3606064162
 31
0.0
1001
Sigma
1000

  0
LINE
  5
513
330
18
100
AcDbEntity
  8
16
  6
Continuous
 62
     7
370
    30
100
AcDbLine
 10
292.05021217141
 20
382.0492017558
 30
0.0
 11
304.05021217141
 21
382.0492017558
 31
0.0
1001
Sigma
1000

  0
LINE
  5
515
330
18
100
AcDbEntity
  8
19
  6
Continuous
 62
     7
370
    30
100
AcDbLine
 10
319.05021217141
 20
378.1606064161999
 30
0.0
 11
316.55021217141
 21
380.6606064162
 31
0.0
1001
Sigma
1000

  0
LINE
  5
517
330
18
100
AcDbEntity
  8
19
  6
Continuous
 62
     7
370
    30
100
AcDbLine
 10
316.55021217141
 20
405.6606064161999
 30
0.0
 11
316.55021217141
 21
380.6606064162
 31
0.0
1001
Sigma
1000

  0
LINE
  5
519
330
18
100
AcDbEntity
  8
19
  6
CENTER
 62
   253
370
    15
100
AcDbLine
 10
336.55021217141
 20
367.8370720615999
 30
0.0
 11
336.55021217141
 21
418.4841407709
 31
0.0
1001
Sigma
1000

  0
LINE
  5
51B
330
18
100
AcDbEntity
  8
16
  6
Continuous
 62
     7
370
    30
100
AcDbLine
 10
304.05021217141
 20
413.1606064161999
 30
0.0
 11
305.0502121714099
 21
412.1606064162
 31
0.0
1001
Sigma
1000

  0
LINE
  5
51D
330
18
100
AcDbEntity
  8
16
  6
Continuous
 62
     7
370
    30
100
AcDbLine
 10
311.05021217141
 20
396.1606064161999
 30
0.0
 11
316.55021217141
 21
396.1606064161999
 31
0.0
1001
Sigma
1000

  0
LINE
  5
51F
330
18
100
AcDbEntity
  8
16
  6
Continuous
 62
     7
370
    30
100
AcDbLine
 10
311.55021217141
 20
395.6606064162
 30
0.0
 11
316.55021217141
 21
395.6606064162
 31
0.0
1001
Sigma
1000

  0
LINE
  5
521
330
18
100
AcDbEntity
  8
16
  6
Continuous
 62
     7
370
    30
100
AcDbLine
 10
292.05021217141
 20
412.7763120243
 30
0.0
 11
304.05021217141
 21
412.7763120243
 31
0.0
1001
Sigma
1000

  0
LINE
  5
523
330
18
100
AcDbEntity
  8
16
  6
Continuous
 62
     7
370
    30
100
AcDbLine
 10
292.05021217141
 20
413.1606064161999
 30
0.0
 11
304.05021217141
 21
413.1606064161999
 31
0.0
1001
Sigma
1000

  0
LINE
  5
525
330
18
100
AcDbEntity
  8
15
  6
Continuous
 62
     7
370
    30
100
AcDbLine
 10
350.8002121714099
 20
366.1606064162
 30
0.0
 11
360.30021217141
 21
366.1606064162
 31
0.0
1001
Sigma
1000

  0
LINE
  5
527
330
18
100
AcDbEntity
  8
15
  6
Continuous
 62
     7
370
    30
100
AcDbLine
 10
355.55021217141
 20
346.6606064161999
 30
0.0
 11
355.55021217141
 21
358.6606064161999
 31
0.0
1001
Sigma
1000

  0
LINE
  5
529
330
18
100
AcDbEntity
  8
19
  6
Continuous
 62
     7
370
    30
100
AcDbLine
 10
366.55021217141
 20
379.1606064161999
 30
0.0
 11
366.55021217141
 21
407.1606064162
 31
0.0
1001
Sigma
1000

  0
CIRCLE
  5
52B
330
18
100
AcDbEntity
  8
18
  6
Continuous
 62
     7
370
    30
100
AcDbCircle
 10
391.55021217141
 20
383.1606064162
 30
0.0
 40
2.0
1001
Sigma
1000

  0
CIRCLE
  5
52D
330
18
100
AcDbEntity
  8
18
  6
Continuous
 62
     7
370
    30
100
AcDbCircle
 10
391.55021217141
 20
383.1606064162
 30
0.0
 40
1.649999999999999
1001
Sigma
1000

  0
LINE
  5
52F
330
18
100
AcDbEntity
  8
14
  6
CENTER
 62
   253
370
    15
100
AcDbLine
 10
371.5502121714099
 20
395.6606064162
 30
0.0
 11
371.5502121714099
 21
410.6606064161999
 31
0.0
1001
Sigma
1000

  0
LINE
  5
531
330
18
100
AcDbEntity
  8
14
  6
HIDDEN
 62
   253
370
    15
100
AcDbLine
 10
428.05021217141
 20
375.4106064161999
 30
0.0
 11
428.05021217141
 21
378.4106064161999
 31
0.0
1001
Sigma
1000

  0
LINE
  5
533
330
18
100
AcDbEntity
  8
14
  6
HIDDEN
 62
   253
370
    15
100
AcDbLine
 10
427.8770070907099
 20
378.1106064162
 30
0.0
 11
427.18418676761
 21
376.9106064162
 31
0.0
1001
Sigma
1000

  0
LINE
  5
535
330
18
100
AcDbEntity
  8
14
  6
HIDDEN
 62
   253
370
    15
100
AcDbLine
 10
427.8770070907099
 20
375.7106064161999
 30
0.0
 11
427.18418676761
 21
376.9106064162
 31
0.0
1001
Sigma
1000

  0
LINE
  5
537
330
18
100
AcDbEntity
  8
14
  6
Continuous
 62
     7
370
    30
100
AcDbLine
 10
366.55021217141
 20
378.1606064161999
 30
0.0
 11
366.55021217141
 21
408.1606064162
 31
0.0
1001
Sigma
1000

  0
LINE
  5
539
330
18
100
AcDbEntity
  8
16
  6
Continuous
 62
     7
370
    30
100
AcDbLine
 10
304.05021217141
 20
379.0184707925
 30
0.0
 11
292.05021217141
 21
379.0184707925
 31
0.0
1001
Sigma
1000

  0
LINE
  5
53B
330
18
100
AcDbEntity
  8
16
  6
Continuous
 62
     7
370
    30
100
AcDbLine
 10
292.05021217141
 20
373.5449008081999
 30
0.0
 11
304.05021217141
 21
373.5449008081999
 31
0.0
1001
Sigma
1000

  0
LINE
  5
53D
330
18
100
AcDbEntity
  8
19
  6
Continuous
 62
     7
370
    30
100
AcDbLine
 10
365.55021217141
 20
408.1606064162
 30
0.0
 11
319.05021217141
 21
408.1606064162
 31
0.0
1001
Sigma
1000

  0
LINE
  5
53F
330
18
100
AcDbEntity
  8
16
  6
Continuous
 62
     7
370
    30
100
AcDbLine
 10
311.55021217141
 20
390.6606064161999
 30
0.0
 11
316.55021217141
 21
390.6606064161999
 31
0.0
1001
Sigma
1000

  0
LINE
  5
541
330
18
100
AcDbEntity
  8
16
  6
Continuous
 62
     7
370
    30
100
AcDbLine
 10
311.05021217141
 20
390.1606064161999
 30
0.0
 11
316.55021217141
 21
390.1606064161999
 31
0.0
1001
Sigma
1000

  0
LINE
  5
543
330
18
100
AcDbEntity
  8
16
  6
Continuous
 62
     7
370
    30
100
AcDbLine
 10
304.05021217141
 20
413.1606064161999
 30
0.0
 11
304.05021217141
 21
393.1606064162
 31
0.0
1001
Sigma
1000

  0
LINE
  5
545
330
18
100
AcDbEntity
  8
16
  6
Continuous
 62
     7
370
    30
100
AcDbLine
 10
292.05021217141
 20
413.1606064161999
 30
0.0
 11
292.05021217141
 21
393.1606064162
 31
0.0
1001
Sigma
1000

  0
LINE
  5
547
330
18
100
AcDbEntity
  8
16
  6
Continuous
 62
     7
370
    30
100
AcDbLine
 10
291.05021217141
 20
393.1606064162
 30
0.0
 11
291.05021217141
 21
412.1606064162
 31
0.0
1001
Sigma
1000

  0
LINE
  5
549
330
18
100
AcDbEntity
  8
16
  6
Continuous
 62
     7
370
    30
100
AcDbLine
 10
311.05021217141
 20
396.1606064161999
 30
0.0
 11
311.05021217141
 21
390.1606064161999
 31
0.0
1001
Sigma
1000

  0
LINE
  5
54B
330
18
100
AcDbEntity
  8
16
  6
Continuous
 62
     7
370
    30
100
AcDbLine
 10
311.55021217141
 20
395.6606064162
 30
0.0
 11
311.55021217141
 21
390.6606064161999
 31
0.0
1001
Sigma
1000

  0
LINE
  5
54D
330
18
100
AcDbEntity
  8
14
  6
Continuous
 62
     7
370
    30
100
AcDbLine
 10
371.5502121714099
 20
413.1606064161999
 30
0.0
 11
366.55021217141
 21
408.1606064162
 31
0.0
1001
Sigma
1000

  0
LINE
  5
54F
330
18
100
AcDbEntity
  8
14
  6
CENTER
 62
   253
370
    15
100
AcDbLine
 10
364.05021217141
 20
403.1606064162
 30
0.0
 11
379.05021217141
 21
403.1606064162
 31
0.0
1001
Sigma
1000

  0
CIRCLE
  5
551
330
18
100
AcDbEntity
  8
14
  6
Continuous
 62
     7
370
    30
100
AcDbCircle
 10
371.5502121714099
 20
383.1606064162
 30
0.0
 40
2.1
1001
Sigma
1000

  0
CIRCLE
  5
553
330
18
100
AcDbEntity
  8
18
  6
Continuous
 62
     7
370
    30
100
AcDbCircle
 10
391.55021217141
 20
403.1606064162
 30
0.0
 40
1.649999999999999
1001
Sigma
1000

  0
LINE
  5
555
330
18
100
AcDbEntity
  8
18
  6
Continuous
 62
     7
370
    30
100
AcDbLine
 10
387.55021217141
 20
403.1606064162
 30
0.0
 11
395.55021217141
 21
403.1606064162
 31
0.0
1001
Sigma
1000

  0
CIRCLE
  5
557
330
18
100
AcDbEntity
  8
18
  6
Continuous
 62
     7
370
    30
100
AcDbCircle
 10
371.5502121714099
 20
403.1606064162
 30
0.0
 40
2.0
1001
Sigma
1000

  0
LINE
  5
559
330
18
100
AcDbEntity
  8
18
  6
Continuous
 62
     7
370
    30
100
AcDbLine
 10
367.5502121714099
 20
403.1606064162
 30
0.0
 11
375.55021217141
 21
403.1606064162
 31
0.0
1001
Sigma
1000

  0
CIRCLE
  5
55B
330
18
100
AcDbEntity
  8
18
  6
Continuous
 62
     7
370
    30
100
AcDbCircle
 10
371.5502121714099
 20
403.1606064162
 30
0.0
 40
1.649999999999999
1001
Sigma
1000

  0
LINE
  5
55D
330
18
100
AcDbEntity
  8
18
  6
Continuous
 62
     7
370
    30
100
AcDbLine
 10
387.55021217141
 20
383.1606064162
 30
0.0
 11
395.55021217141
 21
383.1606064162
 31
0.0
1001
Sigma
1000

  0
LINE
  5
55F
330
18
100
AcDbEntity
  8
14
  6
HIDDEN
 62
   253
370
    15
100
AcDbLine
 10
427.8770070907099
 20
408.2106064161999
 30
0.0
 11
427.18418676761
 21
409.4106064162
 31
0.0
1001
Sigma
1000

  0
LINE
  5
561
330
18
100
AcDbEntity
  8
14
  6
HIDDEN
 62
   253
370
    15
100
AcDbLine
 10
428.05021217141
 20
410.9106064161999
 30
0.0
 11
427.8770070907099
 21
410.6106064162
 31
0.0
1001
Sigma
1000

  0
LINE
  5
563
330
18
100
AcDbEntity
  8
14
  6
HIDDEN
 62
   253
370
    15
100
AcDbLine
 10
428.05021217141
 20
407.9106064161999
 30
0.0
 11
427.8770070907099
 21
408.2106064161999
 31
0.0
1001
Sigma
1000

  0
LINE
  5
565
330
18
100
AcDbEntity
  8
14
  6
HIDDEN
 62
   253
370
    15
100
AcDbLine
 10
428.05021217141
 20
410.9106064161999
 30
0.0
 11
428.05021217141
 21
407.9106064161999
 31
0.0
1001
Sigma
1000

  0
LINE
  5
567
330
18
100
AcDbEntity
  8
15
  6
CENTER
 62
   253
370
    15
100
AcDbLine
 10
355.55021217141
 20
447.9331156755
 30
0.0
 11
355.55021217141
 21
338.388097157
 31
0.0
1001
Sigma
1000

  0
LINE
  5
569
330
18
100
AcDbEntity
  8
16
  6
Continuous
 62
     7
370
    30
100
AcDbLine
 10
311.05021217141
 20
396.1606064161999
 30
0.0
 11
311.05021217141
 21
400.1606064161999
 31
0.0
1001
Sigma
1000

  0
LINE
  5
56B
330
18
100
AcDbEntity
  8
16
  6
Continuous
 62
     7
370
    30
100
AcDbLine
 10
311.05021217141
 20
396.1606064161999
 30
0.0
 11
311.55021217141
 21
395.6606064162
 31
0.0
1001
Sigma
1000

  0
LINE
  5
56D
330
18
100
AcDbEntity
  8
16
  6
Continuous
 62
     7
370
    30
100
AcDbLine
 10
292.05021217141
 20
373.1606064161999
 30
0.0
 11
304.05021217141
 21
373.1606064161999
 31
0.0
1001
Sigma
1000

  0
LINE
  5
56F
330
18
100
AcDbEntity
  8
16
  6
Continuous
 62
     7
370
    30
100
AcDbLine
 10
310.85021217141
 20
384.1606064161999
 30
0.0
 11
311.05021217141
 21
384.3606064162
 31
0.0
1001
Sigma
1000

  0
LINE
  5
571
330
18
100
AcDbEntity
  8
15
  6
Continuous
 62
     7
370
    30
100
AcDbLine
 10
335.55021217141
 20
427.6606064162
 30
0.0
 11
336.55021217141
 21
426.6606064161999
 31
0.0
1001
Sigma
1000

  0
LINE
  5
573
330
18
100
AcDbEntity
  8
19
  6
Continuous
 62
     7
370
    30
100
AcDbLine
 10
316.55021217141
 20
405.6606064161999
 30
0.0
 11
319.05021217141
 21
408.1606064162
 31
0.0
1001
Sigma
1000

  0
LINE
  5
575
330
18
100
AcDbEntity
  8
15
  6
Continuous
 62
     7
370
    30
100
AcDbLine
 10
335.55021217141
 20
427.6606064162
 30
0.0
 11
335.55021217141
 21
439.6606064161999
 31
0.0
1001
Sigma
1000

  0
LINE
  5
577
330
18
100
AcDbEntity
  8
15
  6
Continuous
 62
     7
370
    30
100
AcDbLine
 10
335.55021217141
 20
439.6606064161999
 30
0.0
 11
336.55021217141
 21
440.6606064162
 31
0.0
1001
Sigma
1000

  0
LINE
  5
579
330
18
100
AcDbEntity
  8
15
  6
Continuous
 62
     7
370
    30
100
AcDbLine
 10
335.93450656341
 20
439.6606064161999
 30
0.0
 11
335.93450656341
 21
427.6606064162
 31
0.0
1001
Sigma
1000

  0
LINE
  5
57B
330
18
100
AcDbEntity
  8
15
  6
Continuous
 62
     7
370
    30
100
AcDbLine
 10
341.4080765477099
 20
427.6606064162
 30
0.0
 11
341.4080765477099
 21
439.6606064161999
 31
0.0
1001
Sigma
1000

  0
LINE
  5
57D
330
18
100
AcDbEntity
  8
15
  6
Continuous
 62
     7
370
    30
100
AcDbLine
 10
338.9208199254099
 20
439.6606064161999
 30
0.0
 11
338.9208199254099
 21
427.6606064162
 31
0.0
1001
Sigma
1000

  0
LINE
  5
57F
330
18
100
AcDbEntity
  8
15
  6
Continuous
 62
     7
370
    30
100
AcDbLine
 10
355.55021217141
 20
359.6606064161999
 30
0.0
 11
374.55021217141
 21
359.6606064161999
 31
0.0
1001
Sigma
1000

  0
LINE
  5
581
330
18
100
AcDbEntity
  8
15
  6
Continuous
 62
     7
370
    30
100
AcDbLine
 10
364.55021217141
 20
366.1606064162
 30
0.0
 11
355.55021217141
 21
366.1606064162
 31
0.0
1001
Sigma
1000

  0
LINE
  5
583
330
18
100
AcDbEntity
  8
15
  6
Continuous
 62
     7
370
    30
100
AcDbLine
 10
360.30021217141
 20
366.1606064162
 30
0.0
 11
350.8002121714099
 21
366.1606064162
 31
0.0
1001
Sigma
1000

  0
LINE
  5
585
330
18
100
AcDbEntity
  8
15
  6
Continuous
 62
     7
370
    30
100
AcDbLine
 10
375.55021217141
 20
346.6606064161999
 30
0.0
 11
355.55021217141
 21
346.6606064161999
 31
0.0
1001
Sigma
1000

  0
LINE
  5
587
330
18
100
AcDbEntity
  8
15
  6
Continuous
 62
     7
370
    30
100
AcDbLine
 10
363.20388081871
 20
427.6606064162
 30
0.0
 11
363.20388081871
 21
439.6606064161999
 31
0.0
1001
Sigma
1000

  0
LINE
  5
589
330
18
100
AcDbEntity
  8
15
  6
Continuous
 62
     7
370
    30
100
AcDbLine
 10
369.69234779521
 20
427.6606064162
 30
0.0
 11
369.69234779521
 21
439.6606064161999
 31
0.0
1001
Sigma
1000

  0
LINE
  5
58B
330
18
100
AcDbEntity
  8
15
  6
Continuous
 62
     7
370
    30
100
AcDbLine
 10
372.17960441751
 20
439.6606064161999
 30
0.0
 11
372.17960441751
 21
427.6606064162
 31
0.0
1001
Sigma
1000

  0
LINE
  5
58D
330
18
100
AcDbEntity
  8
15
  6
Continuous
 62
     7
370
    30
100
AcDbLine
 10
375.55021217141
 20
427.6606064162
 30
0.0
 11
375.55021217141
 21
439.6606064161999
 31
0.0
1001
Sigma
1000

  0
LINE
  5
58F
330
18
100
AcDbEntity
  8
15
  6
Continuous
 62
     7
370
    30
100
AcDbLine
 10
375.55021217141
 20
439.6606064161999
 30
0.0
 11
374.55021217141
 21
440.6606064162
 31
0.0
1001
Sigma
1000

  0
CIRCLE
  5
591
330
18
100
AcDbEntity
  8
18
  6
Continuous
 62
     7
370
    30
100
AcDbCircle
 10
371.5502121714099
 20
383.1606064162
 30
0.0
 40
1.649999999999999
1001
Sigma
1000

  0
CIRCLE
  5
593
330
18
100
AcDbEntity
  8
18
  6
Continuous
 62
     7
370
    30
100
AcDbCircle
 10
371.5502121714099
 20
383.1606064162
 30
0.0
 40
2.0
1001
Sigma
1000

  0
LINE
  5
595
330
18
100
AcDbEntity
  8
18
  6
Continuous
 62
     7
370
    30
100
AcDbLine
 10
391.55021217141
 20
379.1606064161999
 30
0.0
 11
391.55021217141
 21
387.1606064162
 31
0.0
1001
Sigma
1000

  0
LINE
  5
597
330
18
100
AcDbEntity
  8
18
  6
Continuous
 62
     7
370
    30
100
AcDbLine
 10
381.55021217141
 20
371.1606064161999
 30
0.0
 11
381.55021217141
 21
415.1606064162
 31
0.0
1001
Sigma
1000

  0
LINE
  5
599
330
18
100
AcDbEntity
  8
18
  6
Continuous
 62
     7
370
    30
100
AcDbLine
 10
371.5502121714099
 20
379.1606064161999
 30
0.0
 11
371.5502121714099
 21
387.1606064162
 31
0.0
1001
Sigma
1000

  0
LINE
  5
59B
330
18
100
AcDbEntity
  8
14
  6
Continuous
 62
     7
370
    30
100
AcDbLine
 10
366.55021217141
 20
378.1606064161999
 30
0.0
 11
371.5502121714099
 21
373.1606064161999
 31
0.0
1001
Sigma
1000

  0
LINE
  5
59D
330
18
100
AcDbEntity
  8
14
  6
CENTER
 62
   253
370
    15
100
AcDbLine
 10
371.5502121714099
 20
390.6606064161999
 30
0.0
 11
371.5502121714099
 21
375.6606064161999
 31
0.0
1001
Sigma
1000

  0
LINE
  5
59F
330
18
100
AcDbEntity
  8
16
  6
Continuous
 62
     7
370
    30
100
AcDbLine
 10
304.05021217141
 20
374.6830157659999
 30
0.0
 11
292.05021217141
 21
374.6830157659999
 31
0.0
1001
Sigma
1000

  0
LINE
  5
5A1
330
18
100
AcDbEntity
  8
16
  6
Continuous
 62
     7
370
    30
100
AcDbLine
 10
292.05021217141
 20
376.5312141701999
 30
0.0
 11
304.05021217141
 21
376.5312141701999
 31
0.0
1001
Sigma
1000

  0
CIRCLE
  5
5A3
330
18
100
AcDbEntity
  8
14
  6
Continuous
 62
     7
370
    30
100
AcDbCircle
 10
391.55021217141
 20
383.1606064162
 30
0.0
 40
2.1
1001
Sigma
1000

  0
LINE
  5
5A5
330
18
100
AcDbEntity
  8
14
  6
CENTER
 62
   253
370
    15
100
AcDbLine
 10
391.55021217141
 20
390.6606064161999
 30
0.0
 11
391.55021217141
 21
375.6606064161999
 31
0.0
1001
Sigma
1000

  0
LINE
  5
5A7
330
18
100
AcDbEntity
  8
14
  6
CENTER
 62
   253
370
    15
100
AcDbLine
 10
391.55021217141
 20
395.6606064162
 30
0.0
 11
391.55021217141
 21
410.6606064161999
 31
0.0
1001
Sigma
1000

  0
LINE
  5
5A9
330
18
100
AcDbEntity
  8
14
  6
CENTER
 62
   253
370
    15
100
AcDbLine
 10
384.0502121714099
 20
403.1606064162
 30
0.0
 11
399.05021217141
 21
403.1606064162
 31
0.0
1001
Sigma
1000

  0
CIRCLE
  5
5AB
330
18
100
AcDbEntity
  8
14
  6
Continuous
 62
     7
370
    30
100
AcDbCircle
 10
391.55021217141
 20
403.1606064162
 30
0.0
 40
3.75
1001
Sigma
1000

  0
CIRCLE
  5
5AD
330
18
100
AcDbEntity
  8
14
  6
Continuous
 62
     7
370
    30
100
AcDbCircle
 10
391.55021217141
 20
403.1606064162
 30
0.0
 40
2.1
1001
Sigma
1000

  0
LINE
  5
5AF
330
18
100
AcDbEntity
  8
14
  6
HIDDEN
 62
   253
370
    15
100
AcDbLine
 10
428.05021217141
 20
375.4106064161999
 30
0.0
 11
427.8770070907099
 21
375.7106064161999
 31
0.0
1001
Sigma
1000

  0
LINE
  5
5B1
330
18
100
AcDbEntity
  8
15
  6
Continuous
 62
     7
370
    30
100
AcDbLine
 10
360.30021217141
 20
408.1606064162
 30
0.0
 11
360.30021217141
 21
420.1606064162
 31
0.0
1001
Sigma
1000

  0
CIRCLE
  5
5B3
330
18
100
AcDbEntity
  8
18
  6
Continuous
 62
     7
370
    30
100
AcDbCircle
 10
391.55021217141
 20
403.1606064162
 30
0.0
 40
2.0
1001
Sigma
1000

  0
LINE
  5
5B5
330
18
100
AcDbEntity
  8
18
  6
Continuous
 62
     7
370
    30
100
AcDbLine
 10
391.55021217141
 20
399.1606064161999
 30
0.0
 11
391.55021217141
 21
407.1606064162
 31
0.0
1001
Sigma
1000

  0
LINE
  5
5B7
330
18
100
AcDbEntity
  8
15
  6
Continuous
 62
     7
370
    30
100
AcDbLine
 10
350.8002121714099
 20
366.1606064162
 30
0.0
 11
350.8002121714099
 21
378.1606064161999
 31
0.0
1001
Sigma
1000

  0
LINE
  5
5B9
330
18
100
AcDbEntity
  8
14
  6
CENTER
 62
   253
370
    15
100
AcDbLine
 10
384.0502121714099
 20
383.1606064162
 30
0.0
 11
399.05021217141
 21
383.1606064162
 31
0.0
1001
Sigma
1000

  0
CIRCLE
  5
5BB
330
18
100
AcDbEntity
  8
14
  6
Continuous
 62
     7
370
    30
100
AcDbCircle
 10
391.55021217141
 20
383.1606064162
 30
0.0
 40
3.75
1001
Sigma
1000

  0
LINE
  5
5BD
330
18
100
AcDbEntity
  8
15
  6
Continuous
 62
     7
370
    30
100
AcDbLine
 10
360.30021217141
 20
366.1606064162
 30
0.0
 11
360.30021217141
 21
378.1606064161999
 31
0.0
1001
Sigma
1000

  0
LINE
  5
5BF
330
18
100
AcDbEntity
  8
15
  6
Continuous
 62
     7
370
    30
100
AcDbLine
 10
351.64840573111
 20
439.6606064161999
 30
0.0
 11
351.64840573111
 21
427.6606064162
 31
0.0
1001
Sigma
1000

  0
LINE
  5
5C1
330
18
100
AcDbEntity
  8
15
  6
Continuous
 62
     7
370
    30
100
AcDbLine
 10
350.8002121714099
 20
408.1606064162
 30
0.0
 11
350.8002121714099
 21
420.1606064162
 31
0.0
1001
Sigma
1000

  0
LINE
  5
5C3
330
18
100
AcDbEntity
  8
15
  6
Continuous
 62
     7
370
    30
100
AcDbLine
 10
375.55021217141
 20
427.6606064162
 30
0.0
 11
374.55021217141
 21
426.6606064161999
 31
0.0
1001
Sigma
1000

  0
LINE
  5
5C5
330
18
100
AcDbEntity
  8
15
  6
Continuous
 62
     7
370
    30
100
AcDbLine
 10
364.55021217141
 20
420.1606064162
 30
0.0
 11
364.55021217141
 21
426.6606064161999
 31
0.0
1001
Sigma
1000

  0
LINE
  5
5C7
330
18
100
AcDbEntity
  8
15
  6
Continuous
 62
     7
370
    30
100
AcDbLine
 10
366.66161683181
 20
439.6606064161999
 30
0.0
 11
366.66161683181
 21
427.6606064162
 31
0.0
1001
Sigma
1000

  0
LINE
  5
5C9
330
18
100
AcDbEntity
  8
19
  6
Continuous
 62
     7
370
    30
100
AcDbLine
 10
366.55021217141
 20
407.1606064162
 30
0.0
 11
365.55021217141
 21
408.1606064162
 31
0.0
1001
Sigma
1000

  0
LINE
  5
5CB
330
18
100
AcDbEntity
  8
18
  6
Continuous
 62
     7
370
    30
100
AcDbLine
 10
367.5502121714099
 20
383.1606064162
 30
0.0
 11
375.55021217141
 21
383.1606064162
 31
0.0
1001
Sigma
1000

  0
LINE
  5
5CD
330
18
100
AcDbEntity
  8
18
  6
Continuous
 62
     7
370
    30
100
AcDbLine
 10
371.5502121714099
 20
399.1606064161999
 30
0.0
 11
371.5502121714099
 21
407.1606064162
 31
0.0
1001
Sigma
1000

  0
LINE
  5
5CF
330
18
100
AcDbEntity
  8
15
  6
Continuous
 62
     7
370
    30
100
AcDbLine
 10
369.69234779521
 20
358.6606064161999
 30
0.0
 11
369.69234779521
 21
346.6606064161999
 31
0.0
1001
Sigma
1000

  0
LINE
  5
5D1
330
18
100
AcDbEntity
  8
15
  6
Continuous
 62
     7
370
    30
100
AcDbLine
 10
366.66161683181
 20
346.6606064161999
 30
0.0
 11
366.66161683181
 21
358.6606064161999
 31
0.0
1001
Sigma
1000

  0
LINE
  5
5D3
330
18
100
AcDbEntity
  8
15
  6
Continuous
 62
     7
370
    30
100
AcDbLine
 10
364.55021217141
 20
366.1606064162
 30
0.0
 11
364.55021217141
 21
359.6606064161999
 31
0.0
1001
Sigma
1000

  0
LINE
  5
5D5
330
18
100
AcDbEntity
  8
15
  6
Continuous
 62
     7
370
    30
100
AcDbLine
 10
359.4520186118099
 20
439.6606064161999
 30
0.0
 11
359.4520186118099
 21
427.6606064162
 31
0.0
1001
Sigma
1000

  0
LINE
  5
5D7
330
18
100
AcDbEntity
  8
15
  6
Continuous
 62
     7
370
    30
100
AcDbLine
 10
359.4520186118099
 20
346.6606064161999
 30
0.0
 11
359.4520186118099
 21
358.6606064161999
 31
0.0
1001
Sigma
1000

  0
LINE
  5
5D9
330
18
100
AcDbEntity
  8
15
  6
Continuous
 62
     7
370
    30
100
AcDbLine
 10
344.4388075110099
 20
439.6606064161999
 30
0.0
 11
344.4388075110099
 21
427.6606064162
 31
0.0
1001
Sigma
1000

  0
LINE
  5
5DB
330
18
100
AcDbEntity
  8
15
  6
Continuous
 62
     7
370
    30
100
AcDbLine
 10
337.07262152121
 20
427.6606064162
 30
0.0
 11
337.07262152121
 21
439.6606064161999
 31
0.0
1001
Sigma
1000

  0
LINE
  5
5DD
330
18
100
AcDbEntity
  8
15
  6
Continuous
 62
     7
370
    30
100
AcDbLine
 10
375.55021217141
 20
427.6606064162
 30
0.0
 11
355.55021217141
 21
427.6606064162
 31
0.0
1001
Sigma
1000

  0
LINE
  5
5DF
330
18
100
AcDbEntity
  8
15
  6
Continuous
 62
     7
370
    30
100
AcDbLine
 10
355.55021217141
 20
426.6606064161999
 30
0.0
 11
374.55021217141
 21
426.6606064161999
 31
0.0
1001
Sigma
1000

  0
LINE
  5
5E1
330
18
100
AcDbEntity
  8
15
  6
Continuous
 62
     7
370
    30
100
AcDbLine
 10
375.55021217141
 20
439.6606064161999
 30
0.0
 11
355.55021217141
 21
439.6606064161999
 31
0.0
1001
Sigma
1000

  0
LINE
  5
5E3
330
18
100
AcDbEntity
  8
15
  6
Continuous
 62
     7
370
    30
100
AcDbLine
 10
355.55021217141
 20
440.6606064162
 30
0.0
 11
374.55021217141
 21
440.6606064162
 31
0.0
1001
Sigma
1000

  0
LINE
  5
5E5
330
18
100
AcDbEntity
  8
15
  6
Continuous
 62
     7
370
    30
100
AcDbLine
 10
375.55021217141
 20
358.6606064161999
 30
0.0
 11
355.55021217141
 21
358.6606064161999
 31
0.0
1001
Sigma
1000

  0
LINE
  5
5E7
330
18
100
AcDbEntity
  8
15
  6
Continuous
 62
     7
370
    30
100
AcDbLine
 10
355.55021217141
 20
345.6606064162
 30
0.0
 11
374.55021217141
 21
345.6606064162
 31
0.0
1001
Sigma
1000

  0
LINE
  5
5E9
330
18
100
AcDbEntity
  8
15
  6
Continuous
 62
     7
370
    30
100
AcDbLine
 10
546.15724342141
 20
243.0540132114999
 30
0.0
 11
534.15724342141
 21
243.0540132114999
 31
0.0
1001
Sigma
1000

  0
CIRCLE
  5
5EB
330
18
100
AcDbEntity
  8
13
  6
Continuous
 62
     7
370
    30
100
AcDbCircle
 10
564.40724342141
 20
280.7076818588
 30
0.0
 40
3.0
1001
Sigma
1000

  0
LINE
  5
5ED
330
18
100
AcDbEntity
  8
13
  6
CENTER
 62
   253
370
    15
100
AcDbLine
 10
558.41247677601
 20
280.7076818588
 30
0.0
 11
570.4020100669099
 21
280.7076818588
 31
0.0
1001
Sigma
1000

  0
LINE
  5
5EF
330
18
100
AcDbEntity
  8
13
  6
Continuous
 62
     7
370
    30
100
AcDbLine
 10
600.4572434214099
 20
270.7076818588
 30
0.0
 11
560.8572434214099
 21
270.7076818588
 31
0.0
1001
Sigma
1000

  0
LINE
  5
5F1
330
18
100
AcDbEntity
  8
13
  6
Continuous
 62
     7
370
    30
100
AcDbLine
 10
560.8572434214099
 20
290.7076818588
 30
0.0
 11
600.4572434214099
 21
290.7076818588
 31
0.0
1001
Sigma
1000

  0
LINE
  5
5F3
330
18
100
AcDbEntity
  8
15
  6
Continuous
 62
     7
370
    30
100
AcDbLine
 10
372.17960441751
 20
346.6606064161999
 30
0.0
 11
372.17960441751
 21
358.6606064161999
 31
0.0
1001
Sigma
1000

  0
LINE
  5
5F5
330
18
100
AcDbEntity
  8
15
  6
Continuous
 62
     7
370
    30
100
AcDbLine
 10
375.55021217141
 20
358.6606064161999
 30
0.0
 11
374.55021217141
 21
359.6606064161999
 31
0.0
1001
Sigma
1000

  0
LINE
  5
5F7
330
18
100
AcDbEntity
  8
15
  6
Continuous
 62
     7
370
    30
100
AcDbLine
 10
355.55021217141
 20
439.6606064161999
 30
0.0
 11
355.55021217141
 21
427.6606064162
 31
0.0
1001
Sigma
1000

  0
LINE
  5
5F9
330
18
100
AcDbEntity
  8
19
  6
Continuous
 62
     7
370
    30
100
AcDbLine
 10
365.55021217141
 20
378.1606064161999
 30
0.0
 11
366.55021217141
 21
379.1606064161999
 31
0.0
1001
Sigma
1000

  0
LINE
  5
5FB
330
18
100
AcDbEntity
  8
15
  6
Continuous
 62
     7
370
    30
100
AcDbLine
 10
360.30021217141
 20
420.1606064162
 30
0.0
 11
350.8002121714099
 21
420.1606064162
 31
0.0
1001
Sigma
1000

  0
LINE
  5
5FD
330
18
100
AcDbEntity
  8
15
  6
Continuous
 62
     7
370
    30
100
AcDbLine
 10
364.55021217141
 20
420.1606064162
 30
0.0
 11
355.55021217141
 21
420.1606064162
 31
0.0
1001
Sigma
1000

  0
LINE
  5
5FF
330
18
100
AcDbEntity
  8
15
  6
Continuous
 62
     7
370
    30
100
AcDbLine
 10
374.02780282171
 20
358.6606064161999
 30
0.0
 11
374.02780282171
 21
346.6606064161999
 31
0.0
1001
Sigma
1000

  0
LINE
  5
601
330
18
100
AcDbEntity
  8
15
  6
Continuous
 62
     7
370
    30
100
AcDbLine
 10
375.16591777951
 20
346.6606064161999
 30
0.0
 11
375.16591777951
 21
358.6606064161999
 31
0.0
1001
Sigma
1000

  0
LINE
  5
603
330
18
100
AcDbEntity
  8
15
  6
Continuous
 62
     7
370
    30
100
AcDbLine
 10
375.55021217141
 20
346.6606064161999
 30
0.0
 11
374.55021217141
 21
345.6606064162
 31
0.0
1001
Sigma
1000

  0
LINE
  5
605
330
18
100
AcDbEntity
  8
15
  6
Continuous
 62
     7
370
    30
100
AcDbLine
 10
375.55021217141
 20
358.6606064161999
 30
0.0
 11
375.55021217141
 21
346.6606064161999
 31
0.0
1001
Sigma
1000

  0
LINE
  5
607
330
18
100
AcDbEntity
  8
15
  6
Continuous
 62
     7
370
    30
100
AcDbLine
 10
363.20388081871
 20
358.6606064161999
 30
0.0
 11
363.20388081871
 21
346.6606064161999
 31
0.0
1001
Sigma
1000

  0
LINE
  5
609
330
18
100
AcDbEntity
  8
15
  6
Continuous
 62
     7
370
    30
100
AcDbLine
 10
375.16591777951
 20
439.6606064161999
 30
0.0
 11
375.16591777951
 21
427.6606064162
 31
0.0
1001
Sigma
1000

  0
LINE
  5
60B
330
18
100
AcDbEntity
  8
15
  6
Continuous
 62
     7
370
    30
100
AcDbLine
 10
374.02780282171
 20
427.6606064162
 30
0.0
 11
374.02780282171
 21
439.6606064161999
 31
0.0
1001
Sigma
1000

  0
LINE
  5
60D
330
18
100
AcDbEntity
  8
15
  6
Continuous
 62
     7
370
    30
100
AcDbLine
 10
351.64840573111
 20
346.6606064161999
 30
0.0
 11
351.64840573111
 21
358.6606064161999
 31
0.0
1001
Sigma
1000

  0
LINE
  5
60F
330
18
100
AcDbEntity
  8
15
  6
Continuous
 62
     7
370
    30
100
AcDbLine
 10
546.15724342141
 20
264.8498174825999
 30
0.0
 11
534.15724342141
 21
264.8498174825999
 31
0.0
1001
Sigma
1000

  0
LINE
  5
611
330
18
100
AcDbEntity
  8
15
  6
Continuous
 62
     7
370
    30
100
AcDbLine
 10
534.15724342141
 20
267.3370741049
 30
0.0
 11
546.15724342141
 21
267.3370741049
 31
0.0
1001
Sigma
1000

  0
LINE
  5
613
330
18
100
AcDbEntity
  8
15
  6
Continuous
 62
     7
370
    30
100
AcDbLine
 10
546.15724342141
 20
269.185272509
 30
0.0
 11
534.15724342141
 21
269.185272509
 31
0.0
1001
Sigma
1000

  0
LINE
  5
615
330
18
100
AcDbEntity
  8
15
  6
Continuous
 62
     7
370
    30
100
AcDbLine
 10
553.65724342141
 20
245.9576818587999
 30
0.0
 11
553.65724342141
 21
255.4576818588
 31
0.0
1001
Sigma
1000

  0
LINE
  5
617
330
18
100
AcDbEntity
  8
15
  6
Continuous
 62
     7
370
    30
100
AcDbLine
 10
553.65724342141
 20
255.4576818588
 30
0.0
 11
553.65724342141
 21
245.9576818587999
 31
0.0
1001
Sigma
1000

  0
LINE
  5
619
330
18
100
AcDbEntity
  8
15
  6
Continuous
 62
     7
370
    30
100
AcDbLine
 10
534.15724342141
 20
230.7076818587999
 30
0.0
 11
533.15724342141
 21
231.7076818587999
 31
0.0
1001
Sigma
1000

  0
LINE
  5
61B
330
18
100
AcDbEntity
  8
15
  6
Continuous
 62
     7
370
    30
100
AcDbLine
 10
534.15724342141
 20
270.7076818588
 30
0.0
 11
534.15724342141
 21
250.7076818588
 31
0.0
1001
Sigma
1000

  0
LINE
  5
61D
330
18
100
AcDbEntity
  8
15
  6
Continuous
 62
     7
370
    30
100
AcDbLine
 10
533.15724342141
 20
250.7076818588
 30
0.0
 11
533.15724342141
 21
269.7076818588
 31
0.0
1001
Sigma
1000

  0
LINE
  5
61F
330
18
100
AcDbEntity
  8
15
  6
Continuous
 62
     7
370
    30
100
AcDbLine
 10
534.15724342141
 20
270.7076818588
 30
0.0
 11
533.15724342141
 21
269.7076818588
 31
0.0
1001
Sigma
1000

  0
LINE
  5
621
330
18
100
AcDbEntity
  8
15
  6
Continuous
 62
     7
370
    30
100
AcDbLine
 10
546.15724342141
 20
230.7076818587999
 30
0.0
 11
547.15724342141
 21
231.7076818587999
 31
0.0
1001
Sigma
1000

  0
LINE
  5
623
330
18
100
AcDbEntity
  8
15
  6
Continuous
 62
     7
370
    30
100
AcDbLine
 10
553.65724342141
 20
241.7076818587999
 30
0.0
 11
547.15724342141
 21
241.7076818587999
 31
0.0
1001
Sigma
1000

  0
LINE
  5
625
330
18
100
AcDbEntity
  8
15
  6
Continuous
 62
     7
370
    30
100
AcDbLine
 10
553.65724342141
 20
259.7076818587999
 30
0.0
 11
553.65724342141
 21
250.7076818588
 31
0.0
1001
Sigma
1000

  0
LINE
  5
627
330
18
100
AcDbEntity
  8
15
  6
CENTER
 62
   253
370
    15
100
AcDbLine
 10
635.42975268071
 20
250.7076818588
 30
0.0
 11
525.8847341622099
 21
250.7076818588
 31
0.0
1001
Sigma
1000

  0
ARC
  5
629
330
18
100
AcDbEntity
  8
16
  6
Continuous
 62
     7
370
    30
100
AcDbCircle
 10
580.65724342141
 20
245.7076818587999
 30
0.0
 40
20.0
100
AcDbArc
 50
179.2837841038
 51
221.409622109301
1001
Sigma
1000

  0
LINE
  5
62B
330
18
100
AcDbEntity
  8
15
  6
Continuous
 62
     7
370
    30
100
AcDbLine
 10
553.65724342141
 20
245.9576818587999
 30
0.0
 11
565.65724342141
 21
245.9576818587999
 31
0.0
1001
Sigma
1000

  0
LINE
  5
62D
330
18
100
AcDbEntity
  8
16
  6
Continuous
 62
     7
370
    30
100
AcDbLine
 10
563.65724342141
 20
244.9576818588
 30
0.0
 11
565.65724342141
 21
244.9576818588
 31
0.0
1001
Sigma
1000

  0
ARC
  5
62F
330
18
100
AcDbEntity
  8
16
  6
Continuous
 62
     7
370
    30
100
AcDbCircle
 10
580.65724342141
 20
245.7076818587999
 30
0.0
 40
17.0
100
AcDbArc
 50
179.1573846342
 51
208.072486935901
1001
Sigma
1000

  0
LINE
  5
631
330
18
100
AcDbEntity
  8
15
  6
Continuous
 62
     7
370
    30
100
AcDbLine
 10
546.15724342141
 20
232.2300912085999
 30
0.0
 11
534.15724342141
 21
232.2300912085999
 31
0.0
1001
Sigma
1000

  0
LINE
  5
633
330
18
100
AcDbEntity
  8
15
  6
Continuous
 62
     7
370
    30
100
AcDbLine
 10
534.15724342141
 20
231.0919762508
 30
0.0
 11
546.15724342141
 21
231.0919762508
 31
0.0
1001
Sigma
1000

  0
LINE
  5
635
330
18
100
AcDbEntity
  8
15
  6
Continuous
 62
     7
370
    30
100
AcDbLine
 10
546.15724342141
 20
230.7076818587999
 30
0.0
 11
534.15724342141
 21
230.7076818587999
 31
0.0
1001
Sigma
1000

  0
LINE
  5
637
330
18
100
AcDbEntity
  8
15
  6
Continuous
 62
     7
370
    30
100
AcDbLine
 10
534.15724342141
 20
234.0782896128
 30
0.0
 11
546.15724342141
 21
234.0782896128
 31
0.0
1001
Sigma
1000

  0
LINE
  5
639
330
18
100
AcDbEntity
  8
15
  6
Continuous
 62
     7
370
    30
100
AcDbLine
 10
546.15724342141
 20
270.7076818588
 30
0.0
 11
534.15724342141
 21
270.7076818588
 31
0.0
1001
Sigma
1000

  0
LINE
  5
63B
330
18
100
AcDbEntity
  8
15
  6
Continuous
 62
     7
370
    30
100
AcDbLine
 10
534.15724342141
 20
254.6094882990999
 30
0.0
 11
546.15724342141
 21
254.6094882990999
 31
0.0
1001
Sigma
1000

  0
LINE
  5
63D
330
18
100
AcDbEntity
  8
15
  6
Continuous
 62
     7
370
    30
100
AcDbLine
 10
546.15724342141
 20
236.5655462350999
 30
0.0
 11
534.15724342141
 21
236.5655462350999
 31
0.0
1001
Sigma
1000

  0
LINE
  5
63F
330
18
100
AcDbEntity
  8
15
  6
Continuous
 62
     7
370
    30
100
AcDbLine
 10
534.15724342141
 20
246.8058754184999
 30
0.0
 11
546.15724342141
 21
246.8058754184999
 31
0.0
1001
Sigma
1000

  0
LINE
  5
641
330
18
100
AcDbEntity
  8
15
  6
Continuous
 62
     7
370
    30
100
AcDbLine
 10
546.15724342141
 20
270.7076818588
 30
0.0
 11
547.15724342141
 21
269.7076818588
 31
0.0
1001
Sigma
1000

  0
LINE
  5
643
330
18
100
AcDbEntity
  8
15
  6
Continuous
 62
     7
370
    30
100
AcDbLine
 10
553.65724342141
 20
259.7076818587999
 30
0.0
 11
547.15724342141
 21
259.7076818587999
 31
0.0
1001
Sigma
1000

  0
LINE
  5
645
330
18
100
AcDbEntity
  8
17
  6
Continuous
 62
   253
370
    15
100
AcDbLine
 10
540.15724342141
 20
230.7076818587999
 30
0.0
 11
538.25368031681
 21
229.6221431669
 31
0.0
1001
Sigma
1000

  0
LINE
  5
647
330
18
100
AcDbEntity
  8
17
  6
Continuous
 62
   253
370
    15
100
AcDbLine
 10
540.15724342141
 20
230.7076818587999
 30
0.0
 11
539.05147876111
 21
228.8157962225
 31
0.0
1001
Sigma
1000

  0
LINE
  5
649
330
18
100
AcDbEntity
  8
17
  6
Continuous
 62
   253
370
    15
100
AcDbLine
 10
540.15724342141
 20
230.7076818587999
 30
0.0
 11
520.46057930791
 21
211.9112715694799
 31
0.0
1001
Sigma
1000

  0
TEXT
  5
64B
330
18
100
AcDbEntity
  8
17
  6
Continuous
 62
   253
370
    15
100
AcDbText
 10
494.5884916570367
 20
212.8117452744367
 30
0.0
 40
4.320000171661376
  1
上下動ﾉﾌﾞ
 41
0.8411458018753275
 51
7.000000052497139
  7
KCADTEXTSTANDARD
100
AcDbText
1001
Sigma
1000

  0
LINE
  5
64D
330
18
100
AcDbEntity
  8
17
  6
Continuous
 62
   253
370
    15
100
AcDbLine
 10
470.8952745093999
 20
211.9112715694799
 30
0.0
 11
520.46057930791
 21
211.9112715694799
 31
0.0
1001
Sigma
1000

  0
ARC
  5
64F
330
18
100
AcDbEntity
  8
16
  6
Continuous
 62
     7
370
    30
100
AcDbCircle
 10
580.65724342141
 20
245.7076818587999
 30
0.0
 40
20.0
100
AcDbArc
 50
138.5903778907
 51
150.823604144999
1001
Sigma
1000

  0
LINE
  5
651
330
18
100
AcDbEntity
  8
15
  6
Continuous
 62
     7
370
    30
100
AcDbLine
 10
553.65724342141
 20
255.4576818588
 30
0.0
 11
565.65724342141
 21
255.4576818588
 31
0.0
1001
Sigma
1000

  0
LINE
  5
653
330
18
100
AcDbEntity
  8
13
  6
Continuous
 62
     7
370
    30
100
AcDbLine
 10
452.05021217141
 20
290.7076818588
 30
0.0
 11
452.05021217141
 21
270.7076818588
 31
0.0
1001
Sigma
1000

  0
LINE
  5
655
330
18
100
AcDbEntity
  8
13
  6
Continuous
 62
     7
370
    30
100
AcDbLine
 10
457.05021217141
 20
290.7076818588
 30
0.0
 11
457.05021217141
 21
270.7076818588
 31
0.0
1001
Sigma
1000

  0
LINE
  5
657
330
18
100
AcDbEntity
  8
13
  6
Continuous
 62
     7
370
    30
100
AcDbLine
 10
560.65724342141
 20
270.9076818588
 30
0.0
 11
560.8572434214099
 21
270.7076818588
 31
0.0
1001
Sigma
1000

  0
LINE
  5
659
330
18
100
AcDbEntity
  8
13
  6
Continuous
 62
     7
370
    30
100
AcDbLine
 10
560.8572434214099
 20
290.7076818588
 30
0.0
 11
560.65724342141
 21
290.5076818588
 31
0.0
1001
Sigma
1000

  0
LINE
  5
65B
330
18
100
AcDbEntity
  8
13
  6
Continuous
 62
     7
370
    30
100
AcDbLine
 10
560.65724342141
 20
270.9076818588
 30
0.0
 11
560.65724342141
 21
290.5076818588
 31
0.0
1001
Sigma
1000

  0
LINE
  5
65D
330
18
100
AcDbEntity
  8
13
  6
Continuous
 62
     7
370
    30
100
AcDbLine
 10
600.65724342141
 20
270.9076818588
 30
0.0
 11
600.4572434214099
 21
270.7076818588
 31
0.0
1001
Sigma
1000

  0
CIRCLE
  5
65F
330
18
100
AcDbEntity
  8
13
  6
Continuous
 62
     7
370
    30
100
AcDbCircle
 10
564.40724342141
 20
280.7076818588
 30
0.0
 40
1.6
1001
Sigma
1000

  0
LINE
  5
661
330
18
100
AcDbEntity
  8
13
  6
CENTER
 62
   253
370
    15
100
AcDbLine
 10
564.40724342141
 20
286.7024485042999
 30
0.0
 11
564.40724342141
 21
274.7129152133999
 31
0.0
1001
Sigma
1000

  0
LINE
  5
663
330
18
100
AcDbEntity
  8
13
  6
Continuous
 62
     7
370
    30
100
AcDbLine
 10
565.65724342141
 20
277.9805038302
 30
0.0
 11
565.65724342141
 21
270.7076818588
 31
0.0
1001
Sigma
1000

  0
LINE
  5
665
330
18
100
AcDbEntity
  8
13
  6
Continuous
 62
     7
370
    30
100
AcDbLine
 10
600.65724342141
 20
290.5076818588
 30
0.0
 11
600.4572434214099
 21
290.7076818588
 31
0.0
1001
Sigma
1000

  0
LINE
  5
667
330
18
100
AcDbEntity
  8
13
  6
CENTER
 62
   253
370
    15
100
AcDbLine
 10
580.65724342141
 20
265.32672212
 30
0.0
 11
580.65724342141
 21
296.0886415975999
 31
0.0
1001
Sigma
1000

  0
LINE
  5
669
330
18
100
AcDbEntity
  8
13
  6
Continuous
 62
     7
370
    30
100
AcDbLine
 10
595.65724342141
 20
290.7076818588
 30
0.0
 11
595.65724342141
 21
283.4348598875
 31
0.0
1001
Sigma
1000

  0
LINE
  5
66B
330
18
100
AcDbEntity
  8
13
  6
Continuous
 62
     7
370
    30
100
AcDbLine
 10
600.65724342141
 20
290.5076818588
 30
0.0
 11
600.65724342141
 21
270.9076818588
 31
0.0
1001
Sigma
1000

  0
LINE
  5
66D
330
18
100
AcDbEntity
  8
13
  6
Continuous
 62
     7
370
    30
100
AcDbLine
 10
565.65724342141
 20
290.7076818588
 30
0.0
 11
565.65724342141
 21
283.4348598875
 31
0.0
1001
Sigma
1000

  0
LINE
  5
66F
330
18
100
AcDbEntity
  8
15
  6
Continuous
 62
     7
370
    30
100
AcDbLine
 10
534.15724342141
 20
239.5962771984
 30
0.0
 11
546.15724342141
 21
239.5962771984
 31
0.0
1001
Sigma
1000

  0
LINE
  5
671
330
18
100
AcDbEntity
  8
15
  6
Continuous
 62
     7
370
    30
100
AcDbLine
 10
534.15724342141
 20
250.7076818588
 30
0.0
 11
546.15724342141
 21
250.7076818588
 31
0.0
1001
Sigma
1000

  0
LINE
  5
673
330
18
100
AcDbEntity
  8
15
  6
Continuous
 62
     7
370
    30
100
AcDbLine
 10
546.15724342141
 20
258.3613505060999
 30
0.0
 11
534.15724342141
 21
258.3613505060999
 31
0.0
1001
Sigma
1000

  0
LINE
  5
675
330
18
100
AcDbEntity
  8
15
  6
Continuous
 62
     7
370
    30
100
AcDbLine
 10
534.15724342141
 20
261.8190865192
 30
0.0
 11
546.15724342141
 21
261.8190865192
 31
0.0
1001
Sigma
1000

  0
LINE
  5
677
330
18
100
AcDbEntity
  8
15
  6
Continuous
 62
     7
370
    30
100
AcDbLine
 10
595.65724342141
 20
245.9576818587999
 30
0.0
 11
607.65724342141
 21
245.9576818587999
 31
0.0
1001
Sigma
1000

  0
ARC
  5
679
330
18
100
AcDbEntity
  8
16
  6
Continuous
 62
     7
370
    30
100
AcDbCircle
 10
580.65724342141
 20
245.7076818587999
 30
0.0
 40
19.0
100
AcDbArc
 50
322.1363536383
 51
0.7539135910000665
1001
Sigma
1000

  0
LINE
  5
67B
330
18
100
AcDbEntity
  8
18
  6
Continuous
 62
     7
370
    30
100
AcDbLine
 10
595.65724342141
 20
270.5076818588
 30
0.0
 11
595.4572434214099
 21
270.7076818588
 31
0.0
1001
Sigma
1000

  0
LINE
  5
67D
330
18
100
AcDbEntity
  8
15
  6
Continuous
 62
     7
370
    30
100
AcDbLine
 10
615.15724342141
 20
270.7076818588
 30
0.0
 11
615.15724342141
 21
250.7076818588
 31
0.0
1001
Sigma
1000

  0
LINE
  5
67F
330
18
100
AcDbEntity
  8
18
  6
CENTER
 62
   253
370
    15
100
AcDbLine
 10
580.65724342141
 20
213.7076818588
 30
0.0
 11
580.65724342141
 21
277.7076818588
 31
0.0
1001
Sigma
1000

  0
LINE
  5
681
330
18
100
AcDbEntity
  8
18
  6
Continuous
 62
     7
370
    30
100
AcDbLine
 10
595.65724342141
 20
270.5076818588
 30
0.0
 11
595.65724342141
 21
220.9076818588
 31
0.0
1001
Sigma
1000

  0
LINE
  5
683
330
18
100
AcDbEntity
  8
18
  6
Continuous
 62
     7
370
    30
100
AcDbLine
 10
565.65724342141
 20
220.9076818588
 30
0.0
 11
565.65724342141
 21
270.5076818588
 31
0.0
1001
Sigma
1000

  0
ARC
  5
685
330
18
100
AcDbEntity
  8
16
  6
Continuous
 62
     7
370
    30
100
AcDbCircle
 10
580.65724342141
 20
245.7076818587999
 30
0.0
 40
20.0
100
AcDbArc
 50
318.5903778906999
 51
0.7162158962010005
1001
Sigma
1000

  0
LINE
  5
687
330
18
100
AcDbEntity
  8
15
  6
Continuous
 62
     7
370
    30
100
AcDbLine
 10
534.15724342141
 20
270.3233874668999
 30
0.0
 11
546.15724342141
 21
270.3233874668999
 31
0.0
1001
Sigma
1000

  0
LINE
  5
689
330
18
100
AcDbEntity
  8
15
  6
Continuous
 62
     7
370
    30
100
AcDbLine
 10
533.15724342141
 20
250.7076818588
 30
0.0
 11
533.15724342141
 21
231.7076818587999
 31
0.0
1001
Sigma
1000

  0
LINE
  5
68B
330
18
100
AcDbEntity
  8
15
  6
Continuous
 62
     7
370
    30
100
AcDbLine
 10
534.15724342141
 20
230.7076818587999
 30
0.0
 11
534.15724342141
 21
250.7076818588
 31
0.0
1001
Sigma
1000

  0
LINE
  5
68D
330
18
100
AcDbEntity
  8
15
  6
Continuous
 62
     7
370
    30
100
AcDbLine
 10
547.15724342141
 20
250.7076818588
 30
0.0
 11
547.15724342141
 21
231.7076818587999
 31
0.0
1001
Sigma
1000

  0
LINE
  5
68F
330
18
100
AcDbEntity
  8
15
  6
Continuous
 62
     7
370
    30
100
AcDbLine
 10
546.15724342141
 20
230.7076818587999
 30
0.0
 11
546.15724342141
 21
250.7076818588
 31
0.0
1001
Sigma
1000

  0
LINE
  5
691
330
18
100
AcDbEntity
  8
15
  6
Continuous
 62
     7
370
    30
100
AcDbLine
 10
553.65724342141
 20
241.7076818587999
 30
0.0
 11
553.65724342141
 21
250.7076818588
 31
0.0
1001
Sigma
1000

  0
ARC
  5
693
330
18
100
AcDbEntity
  8
16
  6
Continuous
 62
     7
370
    30
100
AcDbCircle
 10
580.65724342141
 20
245.7076818587999
 30
0.0
 40
17.0
100
AcDbArc
 50
331.9275130641
 51
0.8426153658010214
1001
Sigma
1000

  0
LINE
  5
695
330
18
100
AcDbEntity
  8
16
  6
Continuous
 62
     7
370
    30
100
AcDbLine
 10
595.65724342141
 20
244.9576818588
 30
0.0
 11
597.65724342141
 21
244.9576818588
 31
0.0
1001
Sigma
1000

  0
LINE
  5
697
330
18
100
AcDbEntity
  8
15
  6
Continuous
 62
     7
370
    30
100
AcDbLine
 10
627.15724342141
 20
261.8190865192
 30
0.0
 11
615.15724342141
 21
261.8190865192
 31
0.0
1001
Sigma
1000

  0
LINE
  5
699
330
18
100
AcDbEntity
  8
15
  6
Continuous
 62
     7
370
    30
100
AcDbLine
 10
595.65724342141
 20
255.4576818588
 30
0.0
 11
607.65724342141
 21
255.4576818588
 31
0.0
1001
Sigma
1000

  0
LINE
  5
69B
330
18
100
AcDbEntity
  8
15
  6
Continuous
 62
     7
370
    30
100
AcDbLine
 10
627.15724342141
 20
270.7076818588
 30
0.0
 11
628.15724342141
 21
269.7076818588
 31
0.0
1001
Sigma
1000

  0
LINE
  5
69D
330
18
100
AcDbEntity
  8
18
  6
Continuous
 62
     7
370
    30
100
AcDbLine
 10
565.65724342141
 20
220.9076818588
 30
0.0
 11
565.8572434214099
 21
220.7076818587999
 31
0.0
1001
Sigma
1000

  0
LINE
  5
69F
330
18
100
AcDbEntity
  8
18
  6
Continuous
 62
     7
370
    30
100
AcDbLine
 10
595.65724342141
 20
220.9076818588
 30
0.0
 11
595.4572434214099
 21
220.7076818587999
 31
0.0
1001
Sigma
1000

  0
LINE
  5
6A1
330
18
100
AcDbEntity
  8
18
  6
Continuous
 62
     7
370
    30
100
AcDbLine
 10
595.4572434214099
 20
220.7076818587999
 30
0.0
 11
565.8572434214099
 21
220.7076818587999
 31
0.0
1001
Sigma
1000

  0
LINE
  5
6A3
330
18
100
AcDbEntity
  8
15
  6
Continuous
 62
     7
370
    30
100
AcDbLine
 10
615.15724342141
 20
243.0540132114999
 30
0.0
 11
627.15724342141
 21
243.0540132114999
 31
0.0
1001
Sigma
1000

  0
LINE
  5
6A5
330
18
100
AcDbEntity
  8
15
  6
Continuous
 62
     7
370
    30
100
AcDbLine
 10
547.15724342141
 20
250.7076818588
 30
0.0
 11
547.15724342141
 21
269.7076818588
 31
0.0
1001
Sigma
1000

  0
LINE
  5
6A7
330
18
100
AcDbEntity
  8
15
  6
Continuous
 62
     7
370
    30
100
AcDbLine
 10
546.15724342141
 20
270.7076818588
 30
0.0
 11
546.15724342141
 21
250.7076818588
 31
0.0
1001
Sigma
1000

  0
LINE
  5
6A9
330
18
100
AcDbEntity
  8
15
  6
Continuous
 62
     7
370
    30
100
AcDbLine
 10
615.15724342141
 20
236.5655462350999
 30
0.0
 11
627.15724342141
 21
236.5655462350999
 31
0.0
1001
Sigma
1000

  0
LINE
  5
6AB
330
18
100
AcDbEntity
  8
15
  6
Continuous
 62
     7
370
    30
100
AcDbLine
 10
615.15724342141
 20
230.7076818587999
 30
0.0
 11
627.15724342141
 21
230.7076818587999
 31
0.0
1001
Sigma
1000

  0
LINE
  5
6AD
330
18
100
AcDbEntity
  8
15
  6
Continuous
 62
     7
370
    30
100
AcDbLine
 10
627.15724342141
 20
231.0919762508
 30
0.0
 11
615.15724342141
 21
231.0919762508
 31
0.0
1001
Sigma
1000

  0
LINE
  5
6AF
330
18
100
AcDbEntity
  8
15
  6
Continuous
 62
     7
370
    30
100
AcDbLine
 10
615.15724342141
 20
232.2300912085999
 30
0.0
 11
627.15724342141
 21
232.2300912085999
 31
0.0
1001
Sigma
1000

  0
LINE
  5
6B1
330
18
100
AcDbEntity
  8
15
  6
Continuous
 62
     7
370
    30
100
AcDbLine
 10
615.15724342141
 20
230.7076818587999
 30
0.0
 11
614.15724342141
 21
231.7076818587999
 31
0.0
1001
Sigma
1000

  0
LINE
  5
6B3
330
18
100
AcDbEntity
  8
15
  6
Continuous
 62
     7
370
    30
100
AcDbLine
 10
627.15724342141
 20
230.7076818587999
 30
0.0
 11
628.15724342141
 21
231.7076818587999
 31
0.0
1001
Sigma
1000

  0
LINE
  5
6B5
330
18
100
AcDbEntity
  8
15
  6
Continuous
 62
     7
370
    30
100
AcDbLine
 10
627.15724342141
 20
234.0782896128
 30
0.0
 11
615.15724342141
 21
234.0782896128
 31
0.0
1001
Sigma
1000

  0
TEXT
  5
6B7
330
18
100
AcDbEntity
  8
17
  6
Continuous
 62
   253
370
    15
100
AcDbText
 10
473.9258772095467
 20
206.1907994840767
 30
0.0
 40
4.320000171661376
  1
移動量　上方向23mm
 41
0.8456439079359336
 51
7.000000052497139
  7
KCADTEXTSTANDARD
100
AcDbText
1001
Sigma
1000

  0
TEXT
  5
6B9
330
18
100
AcDbEntity
  8
17
  6
Continuous
 62
   253
370
    15
100
AcDbText
 10
473.7283231173567
 20
200.8822462518567
 30
0.0
 40
4.320000171661376
  1
　　　　下方向12mm
 41
0.8456439079359336
 51
7.000000052497139
  7
KCADTEXTSTANDARD
100
AcDbText
1001
Sigma
1000

  0
ARC
  5
6BB
330
18
100
AcDbEntity
  8
16
  6
Continuous
 62
     7
370
    30
100
AcDbCircle
 10
580.65724342141
 20
245.7076818587999
 30
0.0
 40
19.0
100
AcDbArc
 50
179.2460864089999
 51
217.8636463616999
1001
Sigma
1000

  0
LINE
  5
6BD
330
18
100
AcDbEntity
  8
18
  6
Continuous
 62
     7
370
    30
100
AcDbLine
 10
565.8572434214099
 20
270.7076818588
 30
0.0
 11
595.4572434214099
 21
270.7076818588
 31
0.0
1001
Sigma
1000

  0
LINE
  5
6BF
330
18
100
AcDbEntity
  8
18
  6
Continuous
 62
     7
370
    30
100
AcDbLine
 10
565.8572434214099
 20
270.7076818588
 30
0.0
 11
565.65724342141
 21
270.5076818588
 31
0.0
1001
Sigma
1000

  0
LINE
  5
6C1
330
18
100
AcDbEntity
  8
13
  6
Continuous
 62
     7
370
    30
100
AcDbLine
 10
595.65724342141
 20
277.9805038302
 30
0.0
 11
595.65724342141
 21
270.7076818588
 31
0.0
1001
Sigma
1000

  0
LINE
  5
6C3
330
18
100
AcDbEntity
  8
13
  6
CENTER
 62
   253
370
    15
100
AcDbLine
 10
590.90724342141
 20
280.7076818588
 30
0.0
 11
602.90724342141
 21
280.7076818588
 31
0.0
1001
Sigma
1000

  0
CIRCLE
  5
6C5
330
18
100
AcDbEntity
  8
13
  6
Continuous
 62
     7
370
    30
100
AcDbCircle
 10
596.90724342141
 20
280.7076818588
 30
0.0
 40
1.6
1001
Sigma
1000

  0
CIRCLE
  5
6C7
330
18
100
AcDbEntity
  8
13
  6
Continuous
 62
     7
370
    30
100
AcDbCircle
 10
596.90724342141
 20
280.7076818588
 30
0.0
 40
3.0
1001
Sigma
1000

  0
LINE
  5
6C9
330
18
100
AcDbEntity
  8
13
  6
CENTER
 62
   253
370
    15
100
AcDbLine
 10
596.90724342141
 20
274.7076818588
 30
0.0
 11
596.90724342141
 21
286.7076818588
 31
0.0
1001
Sigma
1000

  0
LINE
  5
6CB
330
18
100
AcDbEntity
  8
15
  6
Continuous
 62
     7
370
    30
100
AcDbLine
 10
627.15724342141
 20
270.7076818588
 30
0.0
 11
627.15724342141
 21
250.7076818588
 31
0.0
1001
Sigma
1000

  0
LINE
  5
6CD
330
18
100
AcDbEntity
  8
15
  6
Continuous
 62
     7
370
    30
100
AcDbLine
 10
628.15724342141
 20
250.7076818588
 30
0.0
 11
628.15724342141
 21
269.7076818588
 31
0.0
1001
Sigma
1000

  0
LINE
  5
6CF
330
18
100
AcDbEntity
  8
15
  6
Continuous
 62
     7
370
    30
100
AcDbLine
 10
607.65724342141
 20
259.7076818587999
 30
0.0
 11
607.65724342141
 21
250.7076818588
 31
0.0
1001
Sigma
1000

  0
LINE
  5
6D1
330
18
100
AcDbEntity
  8
15
  6
Continuous
 62
     7
370
    30
100
AcDbLine
 10
615.15724342141
 20
269.185272509
 30
0.0
 11
627.15724342141
 21
269.185272509
 31
0.0
1001
Sigma
1000

  0
LINE
  5
6D3
330
18
100
AcDbEntity
  8
15
  6
Continuous
 62
     7
370
    30
100
AcDbLine
 10
627.15724342141
 20
267.3370741049
 30
0.0
 11
615.15724342141
 21
267.3370741049
 31
0.0
1001
Sigma
1000

  0
LINE
  5
6D5
330
18
100
AcDbEntity
  8
15
  6
Continuous
 62
     7
370
    30
100
AcDbLine
 10
615.15724342141
 20
264.8498174825999
 30
0.0
 11
627.15724342141
 21
264.8498174825999
 31
0.0
1001
Sigma
1000

  0
LINE
  5
6D7
330
18
100
AcDbEntity
  8
15
  6
Continuous
 62
     7
370
    30
100
AcDbLine
 10
615.15724342141
 20
258.3613505060999
 30
0.0
 11
627.15724342141
 21
258.3613505060999
 31
0.0
1001
Sigma
1000

  0
LINE
  5
6D9
330
18
100
AcDbEntity
  8
15
  6
Continuous
 62
     7
370
    30
100
AcDbLine
 10
627.15724342141
 20
254.6094882990999
 30
0.0
 11
615.15724342141
 21
254.6094882990999
 31
0.0
1001
Sigma
1000

  0
LINE
  5
6DB
330
18
100
AcDbEntity
  8
15
  6
Continuous
 62
     7
370
    30
100
AcDbLine
 10
615.15724342141
 20
270.7076818588
 30
0.0
 11
627.15724342141
 21
270.7076818588
 31
0.0
1001
Sigma
1000

  0
LINE
  5
6DD
330
18
100
AcDbEntity
  8
13
  6
HIDDEN
 62
   253
370
    15
100
AcDbLine
 10
447.0502121714099
 20
412.4195378366
 30
0.0
 11
447.0502121714099
 21
406.4106064161999
 31
0.0
1001
Sigma
1000

  0
LINE
  5
6DF
330
18
100
AcDbEntity
  8
13
  6
HIDDEN
 62
   253
370
    15
100
AcDbLine
 10
447.0502121714099
 20
406.4106064161999
 30
0.0
 11
457.05021217141
 21
406.4106064161999
 31
0.0
1001
Sigma
1000

  0
LINE
  5
6E1
330
18
100
AcDbEntity
  8
13
  6
Continuous
 62
     7
370
    30
100
AcDbLine
 10
447.0502121714099
 20
373.9016749959
 30
0.0
 11
447.0502121714099
 21
379.9106064161999
 31
0.0
1001
Sigma
1000

  0
LINE
  5
6E3
330
18
100
AcDbEntity
  8
13
  6
Continuous
 62
     7
370
    30
100
AcDbLine
 10
457.05021217141
 20
378.1606064161999
 30
0.0
 11
452.05021217141
 21
373.1606064161999
 31
0.0
1001
Sigma
1000

  0
LINE
  5
6E5
330
18
100
AcDbEntity
  8
13
  6
Continuous
 62
     7
370
    30
100
AcDbLine
 10
452.05021217141
 20
413.1606064161999
 30
0.0
 11
457.05021217141
 21
408.1606064162
 31
0.0
1001
Sigma
1000

  0
LINE
  5
6E7
330
18
100
AcDbEntity
  8
13
  6
HIDDEN
 62
   253
370
    15
100
AcDbLine
 10
447.0502121714099
 20
379.9106064161999
 30
0.0
 11
457.05021217141
 21
379.9106064161999
 31
0.0
1001
Sigma
1000

  0
LINE
  5
6E9
330
18
100
AcDbEntity
  8
15
  6
Continuous
 62
     7
370
    30
100
AcDbLine
 10
607.65724342141
 20
241.7076818587999
 30
0.0
 11
614.15724342141
 21
241.7076818587999
 31
0.0
1001
Sigma
1000

  0
LINE
  5
6EB
330
18
100
AcDbEntity
  8
15
  6
Continuous
 62
     7
370
    30
100
AcDbLine
 10
627.15724342141
 20
239.5962771984
 30
0.0
 11
615.15724342141
 21
239.5962771984
 31
0.0
1001
Sigma
1000

  0
ARC
  5
6ED
330
18
100
AcDbEntity
  8
16
  6
Continuous
 62
     7
370
    30
100
AcDbCircle
 10
580.65724342141
 20
245.7076818587999
 30
0.0
 40
20.0
100
AcDbArc
 50
29.17639585499999
 51
41.409622109299
1001
Sigma
1000

  0
LINE
  5
6EF
330
18
100
AcDbEntity
  8
15
  6
Continuous
 62
     7
370
    30
100
AcDbLine
 10
627.15724342141
 20
250.7076818588
 30
0.0
 11
615.15724342141
 21
250.7076818588
 31
0.0
1001
Sigma
1000

  0
LINE
  5
6F1
330
18
100
AcDbEntity
  8
15
  6
Continuous
 62
     7
370
    30
100
AcDbLine
 10
607.65724342141
 20
259.7076818587999
 30
0.0
 11
614.15724342141
 21
259.7076818587999
 31
0.0
1001
Sigma
1000

  0
LINE
  5
6F3
330
18
100
AcDbEntity
  8
15
  6
Continuous
 62
     7
370
    30
100
AcDbLine
 10
614.15724342141
 20
250.7076818588
 30
0.0
 11
614.15724342141
 21
269.7076818588
 31
0.0
1001
Sigma
1000

  0
LINE
  5
6F5
330
18
100
AcDbEntity
  8
15
  6
Continuous
 62
     7
370
    30
100
AcDbLine
 10
627.15724342141
 20
230.7076818587999
 30
0.0
 11
627.15724342141
 21
250.7076818588
 31
0.0
1001
Sigma
1000

  0
LINE
  5
6F7
330
18
100
AcDbEntity
  8
15
  6
Continuous
 62
     7
370
    30
100
AcDbLine
 10
628.15724342141
 20
250.7076818588
 30
0.0
 11
628.15724342141
 21
231.7076818587999
 31
0.0
1001
Sigma
1000

  0
LINE
  5
6F9
330
18
100
AcDbEntity
  8
15
  6
Continuous
 62
     7
370
    30
100
AcDbLine
 10
615.15724342141
 20
230.7076818587999
 30
0.0
 11
615.15724342141
 21
250.7076818588
 31
0.0
1001
Sigma
1000

  0
LINE
  5
6FB
330
18
100
AcDbEntity
  8
15
  6
Continuous
 62
     7
370
    30
100
AcDbLine
 10
614.15724342141
 20
250.7076818588
 30
0.0
 11
614.15724342141
 21
231.7076818587999
 31
0.0
1001
Sigma
1000

  0
LINE
  5
6FD
330
18
100
AcDbEntity
  8
15
  6
Continuous
 62
     7
370
    30
100
AcDbLine
 10
607.65724342141
 20
241.7076818587999
 30
0.0
 11
607.65724342141
 21
250.7076818588
 31
0.0
1001
Sigma
1000

  0
LINE
  5
6FF
330
18
100
AcDbEntity
  8
15
  6
Continuous
 62
     7
370
    30
100
AcDbLine
 10
627.15724342141
 20
246.8058754184999
 30
0.0
 11
615.15724342141
 21
246.8058754184999
 31
0.0
1001
Sigma
1000

  0
LINE
  5
701
330
18
100
AcDbEntity
  8
15
  6
Continuous
 62
     7
370
    30
100
AcDbLine
 10
607.65724342141
 20
245.9576818587999
 30
0.0
 11
607.65724342141
 21
255.4576818588
 31
0.0
1001
Sigma
1000

  0
LINE
  5
703
330
18
100
AcDbEntity
  8
15
  6
Continuous
 62
     7
370
    30
100
AcDbLine
 10
627.15724342141
 20
270.3233874668999
 30
0.0
 11
615.15724342141
 21
270.3233874668999
 31
0.0
1001
Sigma
1000

  0
LINE
  5
705
330
18
100
AcDbEntity
  8
15
  6
Continuous
 62
     7
370
    30
100
AcDbLine
 10
615.15724342141
 20
270.7076818588
 30
0.0
 11
614.15724342141
 21
269.7076818588
 31
0.0
1001
Sigma
1000

  0
ARC
  5
707
330
18
100
AcDbEntity
  8
16
  6
Continuous
 62
     7
370
    30
100
AcDbCircle
 10
580.65724342141
 20
245.7076818587999
 30
0.0
 40
19.0
100
AcDbArc
 50
30.87440540760099
 51
37.86364636170059
1001
Sigma
1000

  0
ARC
  5
709
330
18
100
AcDbEntity
  8
16
  6
Continuous
 62
     7
370
    30
100
AcDbCircle
 10
580.65724342141
 20
245.7076818587999
 30
0.0
 40
19.0
100
AcDbArc
 50
142.1363536382999
 51
149.1255945923995
1001
Sigma
1000

  0
LINE
  5
70B
330
18
100
AcDbEntity
  8
13
  6
HIDDEN
 62
   253
370
    15
100
AcDbLine
 10
452.7912807511099
 20
412.4195378366
 30
0.0
 11
447.0502121714099
 21
412.4195378366
 31
0.0
1001
Sigma
1000

  0
LINE
  5
70D
330
18
100
AcDbEntity
  8
13
  6
HIDDEN
 62
   253
370
    15
100
AcDbLine
 10
452.7912807511099
 20
373.9016749959
 30
0.0
 11
447.0502121714099
 21
373.9016749959
 31
0.0
1001
Sigma
1000

  0
LINE
  5
70F
330
18
100
AcDbEntity
  8
13
  6
Continuous
 62
     7
370
    30
100
AcDbLine
 10
457.05021217141
 20
408.1606064162
 30
0.0
 11
457.05021217141
 21
378.1606064161999
 31
0.0
1001
Sigma
1000

  0
DIMENSION
  5
711
330
18
100
AcDbEntity
  8
KCAD_DIMS
100
AcDbDimension
  2
*D27
 10
482.5937793979299
 20
373.1606064161999
 30
0.0
 11
478.32711339793
 21
393.1606064162
 31
0.0
 70
   160
 71
     5
 42
40.0
  3
STANDARD
100
AcDbAlignedDimension
 13
452.05021217141
 23
413.1606064161999
 33
0.0
 14
452.05021217141
 24
373.1606064161999
 34
0.0
 50
90.0
100
AcDbRotatedDimension
1001
Sigma
1000
DIM_TPVO
1001
KCAD_DIM_EXT
1002
{
1071
 20001212
1070
     0
1070
     2
1070
     2
1040
2.5
1040
0.0
1040
0.0
1040
0.0
1040
0.0
1040
0.0
1040
0.0
1040
0.0
1070
     0
1040
50.0
1040
-1.0
1013
1.0
1023
0.0
1033
0.0
1040
0.0
1013
1.0
1023
0.0
1033
0.0
1000
_None
1040
1.0
1040
40.0
1070
     0
1070
     0
1070
     0
1012
1.0
1022
0.0
1032
0.0
1013
1.0
1023
0.0
1033
0.0
1002
}
1001
ACAD
1000
DSTYLE
1002
{
1070
    40
1040
2.0
1070
    41
1040
2.5
1070
    42
1040
0.0
1070
    43
1040
8.0
1070
    44
1040
0.0
1070
    45
1040
0.0
1070
    73
1070
     0
1070
    74
1070
     0
1070
    77
1070
     1
1070
    78
1070
     8
1070
    79
1070
     2
1070
   140
1040
3.2
1070
   141
1040
2.5
1070
   145
1040
0.0001
1070
   146
1040
0.667
1070
   147
1040
0.5333000000000001
1070
   172
1070
     1
1070
   173
1070
     1
1070
   179
1070
     3
1070
   271
1070
     3
1070
   272
1070
     3
1070
   279
1070
     2
1070
   284
1070
     8
1070
   289
1070
     2
1070
   340
1005
189
1070
   341
1005
21
1070
   343
1005
12D
1070
   344
1005
12D
1002
}
  0
DIMENSION
  5
74D
330
18
100
AcDbEntity
  8
KCAD_DIMS
100
AcDbDimension
  2
*D28
 10
659.8882290686699
 20
220.7076818587999
 30
0.0
 11
655.62156306867
 21
255.7076818587999
 31
0.0
 70
   160
 71
     5
 42
70.0
  3
STANDARD
100
AcDbAlignedDimension
 13
600.4572434214099
 23
290.7076818588
 33
0.0
 14
595.4572434214099
 24
220.7076818587999
 34
0.0
 50
90.0
100
AcDbRotatedDimension
1001
Sigma
1000
DIM_TPVO
1001
KCAD_DIM_EXT
1002
{
1071
 20001212
1070
     0
1070
     2
1070
     2
1040
2.5
1040
0.0
1040
0.0
1040
0.0
1040
0.0
1040
0.0
1040
0.0
1040
0.0
1070
     0
1040
50.0
1040
-1.0
1013
1.0
1023
0.0
1033
0.0
1040
0.0
1013
1.0
1023
0.0
1033
0.0
1000
_None
1040
1.0
1040
69.99999999999601
1070
     0
1070
     0
1070
     0
1012
1.0
1022
0.0
1032
0.0
1013
1.0
1023
0.0
1033
0.0
1002
}
1001
ACAD
1000
DSTYLE
1002
{
1070
    40
1040
2.0
1070
    41
1040
2.5
1070
    42
1040
0.0
1070
    43
1040
8.0
1070
    44
1040
0.0
1070
    45
1040
0.0
1070
    73
1070
     0
1070
    74
1070
     0
1070
    77
1070
     1
1070
    78
1070
     8
1070
    79
1070
     2
1070
   140
1040
3.2
1070
   141
1040
2.5
1070
   145
1040
0.0001
1070
   146
1040
0.667
1070
   147
1040
0.5333000000000001
1070
   172
1070
     1
1070
   173
1070
     1
1070
   179
1070
     3
1070
   271
1070
     3
1070
   272
1070
     3
1070
   279
1070
     2
1070
   284
1070
     8
1070
   289
1070
     2
1070
   340
1005
189
1070
   341
1005
21
1070
   343
1005
12D
1070
   344
1005
12D
1002
}
  0
POINT
  5
789
330
18
100
AcDbEntity
  8
14
  6
Continuous
 62
     3
370
    15
100
AcDbPoint
 10
659.8882290686699
 20
290.7076818588
 30
0.0
1001
Sigma
1000

  0
DIMENSION
  5
78B
330
18
100
AcDbEntity
  8
KCAD_DIMS
100
AcDbDimension
  2
*D29
 10
643.68879350894
 20
220.7076818587999
 30
0.0
 11
639.42212750894
 21
235.7076818587999
 31
0.0
 70
   160
 71
     5
 42
30.0
  3
STANDARD
100
AcDbAlignedDimension
 13
635.42975268071
 23
250.7076818588
 33
0.0
 14
595.4572434214099
 24
220.7076818587999
 34
0.0
 50
90.0
100
AcDbRotatedDimension
1001
Sigma
1000
DIM_TPVO
1001
KCAD_DIM_EXT
1002
{
1071
 20001212
1070
     0
1070
     2
1070
     2
1040
2.5
1040
0.0
1040
0.0
1040
0.0
1040
0.0
1040
0.0
1040
0.0
1040
0.0
1070
     0
1040
50.0
1040
-1.0
1013
1.0
1023
0.0
1033
0.0
1040
0.0
1013
1.0
1023
0.0
1033
0.0
1000
_None
1040
1.0
1040
30.0
1070
     0
1070
     0
1070
     0
1012
1.0
1022
0.0
1032
0.0
1013
1.0
1023
0.0
1033
0.0
1002
}
1001
ACAD
1000
DSTYLE
1002
{
1070
    40
1040
2.0
1070
    41
1040
2.5
1070
    42
1040
0.0
1070
    43
1040
8.0
1070
    44
1040
0.0
1070
    45
1040
0.0
1070
    73
1070
     0
1070
    74
1070
     0
1070
    77
1070
     1
1070
    78
1070
     8
1070
    79
1070
     2
1070
   140
1040
3.2
1070
   141
1040
2.5
1070
   145
1040
0.0001
1070
   146
1040
0.667
1070
   147
1040
0.5333000000000001
1070
   172
1070
     1
1070
   173
1070
     1
1070
   179
1070
     3
1070
   271
1070
     3
1070
   272
1070
     3
1070
   279
1070
     2
1070
   284
1070
     8
1070
   289
1070
     2
1070
   340
1005
189
1070
   341
1005
21
1070
   343
1005
12D
1070
   344
1005
12D
1002
}
  0
POINT
  5
7C7
330
18
100
AcDbEntity
  8
14
  6
Continuous
 62
     3
370
    15
100
AcDbPoint
 10
642.65242562001
 20
250.7076818588
 30
0.0
1001
Sigma
1000

  0
DIMENSION
  5
7C9
330
18
100
AcDbEntity
  8
KCAD_DIMS
100
AcDbDimension
  2
*D30
 10
445.6564221431799
 20
403.79437056395
 30
0.0
 11
399.4982280933119
 21
356.4528282154997
 31
0.0
 70
   163
 71
     5
 42
27.99999999999568
  3
STANDARD
100
AcDbDiametricDimension
 15
427.4440021996397
 25
382.5268422684498
 35
0.0
 40
0.0
1001
Sigma
1000
DIM_TPDO
1001
KCAD_DIM_EXT
1002
{
1071
 20001212
1070
     2
1070
     1
1070
     1
1040
2.5
1040
22.150069745727
1040
5.0
1040
0.0
1040
0.0
1040
0.0
1040
0.0
1040
0.0
1070
     0
1040
50.0
1040
-1.0
1013
1.0
1023
0.0
1033
0.0
1040
0.0
1013
1.0
1023
0.0
1033
0.0
1000
_None
1040
1.0
1040
28.0
1070
     0
1070
     0
1070
     0
1012
1.0
1022
0.0
1032
0.0
1013
1.0
1023
0.0
1033
0.0
1002
}
1001
ACAD
1000
DSTYLE
1002
{
1070
     3
1000
φ<>
1070
    40
1040
2.0
1070
    41
1040
2.5
1070
    42
1040
0.0
1070
    43
1040
8.0
1070
    44
1040
0.0
1070
    45
1040
0.0
1070
    73
1070
     0
1070
    74
1070
     0
1070
    77
1070
     1
1070
    78
1070
     8
1070
    79
1070
     2
1070
   140
1040
3.2
1070
   141
1040
2.5
1070
   145
1040
0.0001
1070
   146
1040
0.667
1070
   147
1040
0.5333000000000001
1070
   172
1070
     1
1070
   173
1070
     1
1070
   179
1070
     3
1070
   271
1070
     3
1070
   272
1070
     3
1070
   279
1070
     2
1070
   284
1070
     8
1070
   289
1070
     2
1070
   340
1005
189
1070
   341
1005
21
1070
   343
1005
12D
1070
   344
1005
12D
1002
}
  0
DIMENSION
  5
7F7
330
18
100
AcDbEntity
  8
KCAD_DIMS
100
AcDbDimension
  2
*D31
 10
341.3002273418999
 20
401.96045618083
 30
0.0
 11
318.2405144621336
 21
368.2225957308121
 31
0.0
 70
   163
 71
     5
 42
19.99999999999437
  3
STANDARD
100
AcDbDiametricDimension
 15
331.8001970009199
 25
384.36075665157
 35
0.0
 40
0.0
1001
Sigma
1000
DIM_TPDO
1001
KCAD_DIM_EXT
1002
{
1071
 20001212
1070
     2
1070
     1
1070
     1
1040
2.5
1040
13.4802812609025
1040
5.0
1040
0.0
1040
0.0
1040
0.0
1040
0.0
1040
0.0
1070
     0
1040
50.0
1040
-1.0
1013
1.0
1023
0.0
1033
0.0
1040
0.0
1013
1.0
1023
0.0
1033
0.0
1000
_None
1040
1.0
1040
20.0
1070
     0
1070
     0
1070
     0
1012
1.0
1022
0.0
1032
0.0
1013
1.0
1023
0.0
1033
0.0
1002
}
1001
ACAD
1000
DSTYLE
1002
{
1070
     3
1000
φ<>
1070
    40
1040
2.0
1070
    41
1040
2.5
1070
    42
1040
0.0
1070
    43
1040
8.0
1070
    44
1040
0.0
1070
    45
1040
0.0
1070
    73
1070
     0
1070
    74
1070
     0
1070
    77
1070
     1
1070
    78
1070
     8
1070
    79
1070
     2
1070
   140
1040
3.2
1070
   141
1040
2.5
1070
   145
1040
0.0001
1070
   146
1040
0.667
1070
   147
1040
0.5333000000000001
1070
   172
1070
     1
1070
   173
1070
     1
1070
   179
1070
     3
1070
   271
1070
     3
1070
   272
1070
     3
1070
   279
1070
     2
1070
   284
1070
     8
1070
   289
1070
     2
1070
   340
1005
189
1070
   341
1005
21
1070
   343
1005
12D
1070
   344
1005
12D
1002
}
  0
DIMENSION
  5
825
330
18
100
AcDbEntity
  8
KCAD_DIMS
100
AcDbDimension
  2
*D32
 10
269.11806208843
 20
373.1606064161999
 30
0.0
 11
264.85139608843
 21
393.1606064162
 31
0.0
 70
   160
 71
     5
 42
40.0
  3
STANDARD
100
AcDbAlignedDimension
 13
292.05021217141
 23
413.1606064161999
 33
0.0
 14
292.05021217141
 24
373.1606064161999
 34
0.0
 50
90.0
100
AcDbRotatedDimension
1001
Sigma
1000
DIM_TPVO
1001
KCAD_DIM_EXT
1002
{
1071
 20001212
1070
     0
1070
     2
1070
     2
1040
2.5
1040
0.0
1040
0.0
1040
0.0
1040
0.0
1040
0.0
1040
0.0
1040
0.0
1070
     0
1040
50.0
1040
-1.0
1013
1.0
1023
0.0
1033
0.0
1040
0.0
1013
1.0
1023
0.0
1033
0.0
1000
_None
1040
1.0
1040
40.0
1070
     0
1070
     0
1070
     0
1012
1.0
1022
0.0
1032
0.0
1013
1.0
1023
0.0
1033
0.0
1002
}
1001
ACAD
1000
DSTYLE
1002
{
1070
    40
1040
2.0
1070
    41
1040
2.5
1070
    42
1040
0.0
1070
    43
1040
8.0
1070
    44
1040
0.0
1070
    45
1040
0.0
1070
    73
1070
     0
1070
    74
1070
     0
1070
    77
1070
     1
1070
    78
1070
     8
1070
    79
1070
     2
1070
   140
1040
3.2
1070
   141
1040
2.5
1070
   145
1040
0.0001
1070
   146
1040
0.667
1070
   147
1040
0.5333000000000001
1070
   172
1070
     1
1070
   173
1070
     1
1070
   179
1070
     3
1070
   271
1070
     3
1070
   272
1070
     3
1070
   279
1070
     2
1070
   284
1070
     8
1070
   289
1070
     2
1070
   340
1005
189
1070
   341
1005
21
1070
   343
1005
12D
1070
   344
1005
12D
1002
}
  0
DIMENSION
  5
861
330
18
100
AcDbEntity
  8
KCAD_DIMS
100
AcDbDimension
  2
*D33
 10
241.21354656632
 20
345.6606064162
 30
0.0
 11
236.94688056632
 21
393.1606064162
 31
0.0
 70
   160
 71
     5
 42
95.0
  3
STANDARD
100
AcDbAlignedDimension
 13
355.55021217141
 23
440.6606064162
 33
0.0
 14
355.55021217141
 24
345.6606064162
 34
0.0
 50
90.0
100
AcDbRotatedDimension
1001
Sigma
1000
DIM_TPVO
1001
KCAD_DIM_EXT
1002
{
1071
 20001212
1070
     0
1070
     2
1070
     2
1040
2.5
1040
0.0
1040
0.0
1040
0.0
1040
0.0
1040
0.0
1040
0.0
1040
0.0
1070
     0
1040
50.0
1040
-1.0
1013
1.0
1023
0.0
1033
0.0
1040
0.0
1013
1.0
1023
0.0
1033
0.0
1000
_None
1040
1.0
1040
95.0
1070
     0
1070
     0
1070
     0
1012
1.0
1022
0.0
1032
0.0
1013
1.0
1023
0.0
1033
0.0
1002
}
1001
ACAD
1000
DSTYLE
1002
{
1070
    40
1040
2.0
1070
    41
1040
2.5
1070
    42
1040
0.0
1070
    43
1040
8.0
1070
    44
1040
0.0
1070
    45
1040
0.0
1070
    73
1070
     0
1070
    74
1070
     0
1070
    77
1070
     1
1070
    78
1070
     8
1070
    79
1070
     2
1070
   140
1040
3.2
1070
   141
1040
2.5
1070
   145
1040
0.0001
1070
   146
1040
0.667
1070
   147
1040
0.5333000000000001
1070
   172
1070
     1
1070
   173
1070
     1
1070
   179
1070
     3
1070
   271
1070
     3
1070
   272
1070
     3
1070
   279
1070
     2
1070
   284
1070
     8
1070
   289
1070
     2
1070
   340
1005
189
1070
   341
1005
21
1070
   343
1005
12D
1070
   344
1005
12D
1002
}
  0
DIMENSION
  5
89D
330
18
100
AcDbEntity
  8
KCAD_DIMS
100
AcDbDimension
  2
*D34
 10
269.11806208843
 20
245.7076818587999
 30
0.0
 11
264.85139608843
 21
258.2076818588
 31
0.0
 70
   160
 71
     5
 42
25.00000000000003
  3
STANDARD
100
AcDbAlignedDimension
 13
316.55021217141
 23
270.7076818588
 33
0.0
 14
292.05021217141
 24
245.7076818587999
 34
0.0
 50
90.0
100
AcDbRotatedDimension
1001
Sigma
1000
DIM_TPVO
1001
KCAD_DIM_EXT
1002
{
1071
 20001212
1070
     0
1070
     2
1070
     2
1040
2.5
1040
0.0
1040
0.0
1040
0.0
1040
0.0
1040
0.0
1040
0.0
1040
0.0
1070
     0
1040
50.0
1040
-1.0
1013
1.0
1023
0.0
1033
0.0
1040
0.0
1013
1.0
1023
0.0
1033
0.0
1000
_None
1040
1.0
1040
24.999999999996
1070
     0
1070
     0
1070
     0
1012
1.0
1022
0.0
1032
0.0
1013
1.0
1023
0.0
1033
0.0
1002
}
1001
ACAD
1000
DSTYLE
1002
{
1070
    40
1040
2.0
1070
    41
1040
2.5
1070
    42
1040
0.0
1070
    43
1040
8.0
1070
    44
1040
0.0
1070
    45
1040
0.0
1070
    73
1070
     0
1070
    74
1070
     0
1070
    77
1070
     1
1070
    78
1070
     8
1070
    79
1070
     2
1070
   140
1040
3.2
1070
   141
1040
2.5
1070
   145
1040
0.0001
1070
   146
1040
0.667
1070
   147
1040
0.5333000000000001
1070
   172
1070
     1
1070
   173
1070
     1
1070
   179
1070
     3
1070
   271
1070
     3
1070
   272
1070
     3
1070
   279
1070
     2
1070
   284
1070
     8
1070
   289
1070
     2
1070
   340
1005
189
1070
   341
1005
21
1070
   343
1005
12D
1070
   344
1005
12D
1002
}
  0
DIMENSION
  5
8D9
330
18
100
AcDbEntity
  8
KCAD_DIMS
100
AcDbDimension
  2
*D35
 10
269.11806208843
 20
220.7076818587999
 30
0.0
 11
264.85139608843
 21
233.2076818587999
 31
0.0
 70
   160
 71
     5
 42
25.0
  3
STANDARD
100
AcDbAlignedDimension
 13
291.05021217141
 23
245.7076818587999
 33
0.0
 14
316.55021217141
 24
220.7076818587999
 34
0.0
 50
90.0
100
AcDbRotatedDimension
1001
Sigma
1000
DIM_TPVO
1001
KCAD_DIM_EXT
1002
{
1071
 20001212
1070
     0
1070
     2
1070
     2
1040
2.5
1040
0.0
1040
0.0
1040
0.0
1040
0.0
1040
0.0
1040
0.0
1040
0.0
1070
     0
1040
50.0
1040
-1.0
1013
1.0
1023
0.0
1033
0.0
1040
0.0
1013
1.0
1023
0.0
1033
0.0
1000
_None
1040
1.0
1040
25.0
1070
     0
1070
     0
1070
     0
1012
1.0
1022
0.0
1032
0.0
1013
1.0
1023
0.0
1033
0.0
1002
}
1001
ACAD
1000
DSTYLE
1002
{
1070
    40
1040
2.0
1070
    41
1040
2.5
1070
    42
1040
0.0
1070
    43
1040
8.0
1070
    44
1040
0.0
1070
    45
1040
0.0
1070
    73
1070
     0
1070
    74
1070
     0
1070
    77
1070
     1
1070
    78
1070
     8
1070
    79
1070
     2
1070
   140
1040
3.2
1070
   141
1040
2.5
1070
   145
1040
0.0001
1070
   146
1040
0.667
1070
   147
1040
0.5333000000000001
1070
   172
1070
     1
1070
   173
1070
     1
1070
   179
1070
     3
1070
   271
1070
     3
1070
   272
1070
     3
1070
   279
1070
     2
1070
   284
1070
     8
1070
   289
1070
     2
1070
   340
1005
189
1070
   341
1005
21
1070
   343
1005
12D
1070
   344
1005
12D
1002
}
  0
DIMENSION
  5
915
330
18
100
AcDbEntity
  8
KCAD_DIMS
100
AcDbDimension
  2
*D36
 10
241.21354656632
 20
220.7076818588
 30
0.0
 11
236.94688056632
 21
245.7076818587999
 31
0.0
 70
   160
 71
     5
 42
50.0
  3
STANDARD
100
AcDbAlignedDimension
 13
316.55021217141
 23
270.7076818588
 33
0.0
 14
326.55021217141
 24
220.7076818587999
 34
0.0
 50
90.0
100
AcDbRotatedDimension
1001
Sigma
1000
DIM_TPVO
1001
KCAD_DIM_EXT
1002
{
1071
 20001212
1070
     0
1070
     2
1070
     2
1040
2.5
1040
0.0
1040
0.0
1040
0.0
1040
0.0
1040
0.0
1040
0.0
1040
0.0
1070
     0
1040
50.0
1040
-1.0
1013
1.0
1023
0.0
1033
0.0
1040
0.0
1013
1.0
1023
0.0
1033
0.0
1000
_None
1040
1.0
1040
49.999999999996
1070
     0
1070
     0
1070
     0
1012
1.0
1022
0.0
1032
0.0
1013
1.0
1023
0.0
1033
0.0
1002
}
1001
ACAD
1000
DSTYLE
1002
{
1070
    40
1040
2.0
1070
    41
1040
2.5
1070
    42
1040
0.0
1070
    43
1040
8.0
1070
    44
1040
0.0
1070
    45
1040
0.0
1070
    73
1070
     0
1070
    74
1070
     0
1070
    77
1070
     1
1070
    78
1070
     8
1070
    79
1070
     2
1070
   140
1040
3.2
1070
   141
1040
2.5
1070
   145
1040
0.0001
1070
   146
1040
0.667
1070
   147
1040
0.5333000000000001
1070
   172
1070
     1
1070
   173
1070
     1
1070
   179
1070
     3
1070
   271
1070
     3
1070
   272
1070
     3
1070
   279
1070
     2
1070
   284
1070
     8
1070
   289
1070
     2
1070
   340
1005
189
1070
   341
1005
21
1070
   343
1005
12D
1070
   344
1005
12D
1002
}
  0
DIMENSION
  5
951
330
18
100
AcDbEntity
  8
KCAD_DIMS
100
AcDbDimension
  2
*D37
 10
436.55021217141
 20
304.3886552857999
 30
0.0
 11
386.55021217141
 21
308.6553212857999
 31
0.0
 70
   160
 71
     5
 42
100.0
  3
STANDARD
100
AcDbAlignedDimension
 13
336.55021217141
 23
270.7076818588
 33
0.0
 14
436.55021217141
 24
294.3886552857999
 34
0.0
100
AcDbRotatedDimension
1001
Sigma
1000
DIM_TPHO
1001
KCAD_DIM_EXT
1002
{
1071
 20001212
1070
     0
1070
     2
1070
     2
1040
1.5
1040
0.0
1040
0.0
1040
0.0
1040
0.0
1040
0.0
1040
0.0
1040
0.0
1070
     0
1040
50.0
1040
-1.0
1013
1.0
1023
0.0
1033
0.0
1040
0.0
1013
1.0
1023
0.0
1033
0.0
1000
_None
1040
1.0
1040
100.0
1070
     0
1070
     0
1070
     0
1012
1.0
1022
0.0
1032
0.0
1013
1.0
1023
0.0
1033
0.0
1002
}
1001
ACAD
1000
DSTYLE
1002
{
1070
    40
1040
2.0
1070
    41
1040
1.5
1070
    42
1040
0.0
1070
    43
1040
8.0
1070
    44
1040
0.0
1070
    45
1040
0.0
1070
    73
1070
     0
1070
    74
1070
     0
1070
    77
1070
     1
1070
    78
1070
     8
1070
    79
1070
     2
1070
   140
1040
3.2
1070
   141
1040
2.5
1070
   145
1040
0.0001
1070
   146
1040
0.667
1070
   147
1040
0.5333000000000001
1070
   172
1070
     1
1070
   173
1070
     1
1070
   179
1070
     3
1070
   271
1070
     3
1070
   272
1070
     3
1070
   279
1070
     2
1070
   284
1070
     8
1070
   289
1070
     2
1070
   340
1005
189
1070
   341
1005
21
1070
   343
1005
12D
1070
   344
1005
12D
1002
}
  0
DIMENSION
  5
98D
330
18
100
AcDbEntity
  8
KCAD_DIMS
100
AcDbDimension
  2
*D38
 10
457.05021217141
 20
304.3886552857999
 30
0.0
 11
446.80021217141
 21
308.6553212857999
 31
0.0
 70
   160
 71
     5
 42
20.5
  3
STANDARD
100
AcDbAlignedDimension
 13
436.55021217141
 23
280.70768185885
 33
0.0
 14
457.05021217141
 24
290.7076818588
 34
0.0
100
AcDbRotatedDimension
1001
Sigma
1000
DIM_TPHO
1001
KCAD_DIM_EXT
1002
{
1071
 20001212
1070
     0
1070
     2
1070
     2
1040
1.5
1040
0.0
1040
0.0
1040
0.0
1040
0.0
1040
0.0
1040
0.0
1040
0.0
1070
     0
1040
50.0
1040
-1.0
1013
1.0
1023
0.0
1033
0.0
1040
0.0
1013
1.0
1023
0.0
1033
0.0
1000
_None
1040
1.0
1040
20.5
1070
     0
1070
     0
1070
     0
1012
1.0
1022
0.0
1032
0.0
1013
1.0
1023
0.0
1033
0.0
1002
}
1001
ACAD
1000
DSTYLE
1002
{
1070
    40
1040
2.0
1070
    41
1040
1.5
1070
    42
1040
0.0
1070
    43
1040
8.0
1070
    44
1040
0.0
1070
    45
1040
0.0
1070
    73
1070
     0
1070
    74
1070
     0
1070
    77
1070
     1
1070
    78
1070
     8
1070
    79
1070
     2
1070
   140
1040
3.2
1070
   141
1040
2.5
1070
   145
1040
0.0001
1070
   146
1040
0.667
1070
   147
1040
0.5333000000000001
1070
   172
1070
     1
1070
   173
1070
     1
1070
   179
1070
     3
1070
   271
1070
     3
1070
   272
1070
     3
1070
   279
1070
     2
1070
   284
1070
     8
1070
   289
1070
     2
1070
   340
1005
189
1070
   341
1005
21
1070
   343
1005
12D
1070
   344
1005
12D
1002
}
  0
DIMENSION
  5
9C9
330
18
100
AcDbEntity
  8
KCAD_DIMS
100
AcDbDimension
  2
*D39
 10
469.34577110091
 20
270.7076818588
 30
0.0
 11
465.0791051009099
 21
280.7076818588
 31
0.0
 70
   160
 71
     5
 42
20.0
  3
STANDARD
100
AcDbAlignedDimension
 13
457.05021217141
 23
290.7076818588
 33
0.0
 14
457.05021217141
 24
270.7076818588
 34
0.0
 50
90.0
100
AcDbRotatedDimension
1001
Sigma
1000
DIM_TPVO
1001
KCAD_DIM_EXT
1002
{
1071
 20001212
1070
     0
1070
     2
1070
     2
1040
2.5
1040
0.0
1040
0.0
1040
0.0
1040
0.0
1040
0.0
1040
0.0
1040
0.0
1070
     0
1040
50.0
1040
-1.0
1013
1.0
1023
0.0
1033
0.0
1040
0.0
1013
1.0
1023
0.0
1033
0.0
1000
_None
1040
1.0
1040
20.0
1070
     0
1070
     0
1070
     0
1012
1.0
1022
0.0
1032
0.0
1013
1.0
1023
0.0
1033
0.0
1002
}
1001
ACAD
1000
DSTYLE
1002
{
1070
    40
1040
2.0
1070
    41
1040
2.5
1070
    42
1040
0.0
1070
    43
1040
8.0
1070
    44
1040
0.0
1070
    45
1040
0.0
1070
    73
1070
     0
1070
    74
1070
     0
1070
    77
1070
     1
1070
    78
1070
     8
1070
    79
1070
     2
1070
   140
1040
3.2
1070
   141
1040
2.5
1070
   145
1040
0.0001
1070
   146
1040
0.667
1070
   147
1040
0.5333000000000001
1070
   172
1070
     1
1070
   173
1070
     1
1070
   179
1070
     3
1070
   271
1070
     3
1070
   272
1070
     3
1070
   279
1070
     2
1070
   284
1070
     8
1070
   289
1070
     2
1070
   340
1005
189
1070
   341
1005
21
1070
   343
1005
12D
1070
   344
1005
12D
1002
}
  0
DIMENSION
  5
A05
330
18
100
AcDbEntity
  8
KCAD_DIMS
100
AcDbDimension
  2
*D40
 10
316.55021217141
 20
204.1496856985999
 30
0.0
 11
303.80021217141
 21
208.4163516985999
 31
0.0
 70
   160
 71
     5
 42
25.5
  3
STANDARD
100
AcDbAlignedDimension
 13
291.05021217141
 23
245.7076818587999
 33
0.0
 14
316.55021217141
 24
220.7076818587999
 34
0.0
100
AcDbRotatedDimension
1001
Sigma
1000
DIM_TPHO
1001
KCAD_DIM_EXT
1002
{
1071
 20001212
1070
     0
1070
     2
1070
     2
1040
2.5
1040
0.0
1040
0.0
1040
0.0
1040
0.0
1040
0.0
1040
0.0
1040
0.0
1070
     0
1040
50.0
1040
-1.0
1013
1.0
1023
0.0
1033
0.0
1040
0.0
1013
1.0
1023
0.0
1033
0.0
1000
_None
1040
1.0
1040
25.5
1070
     0
1070
     0
1070
     0
1012
1.0
1022
0.0
1032
0.0
1013
1.0
1023
0.0
1033
0.0
1002
}
1001
ACAD
1000
DSTYLE
1002
{
1070
     3
1000
(<>)
1070
    40
1040
2.0
1070
    41
1040
2.5
1070
    42
1040
0.0
1070
    43
1040
8.0
1070
    44
1040
0.0
1070
    45
1040
0.0
1070
    73
1070
     0
1070
    74
1070
     0
1070
    77
1070
     1
1070
    78
1070
     8
1070
    79
1070
     2
1070
   140
1040
3.2
1070
   141
1040
2.5
1070
   145
1040
0.0001
1070
   146
1040
0.667
1070
   147
1040
0.5333000000000001
1070
   172
1070
     1
1070
   173
1070
     1
1070
   179
1070
     3
1070
   271
1070
     3
1070
   272
1070
     3
1070
   279
1070
     2
1070
   284
1070
     8
1070
   289
1070
     2
1070
   340
1005
189
1070
   341
1005
21
1070
   343
1005
12D
1070
   344
1005
12D
1002
}
  0
DIMENSION
  5
A41
330
18
100
AcDbEntity
  8
KCAD_DIMS
100
AcDbDimension
  2
*D41
 10
336.55021217141
 20
204.1496856985999
 30
0.0
 11
326.55021217141
 21
208.4163516985999
 31
0.0
 70
   160
 71
     5
 42
20.0
  3
STANDARD
100
AcDbAlignedDimension
 13
316.55021217141
 23
220.7076818587999
 33
0.0
 14
336.55021217141
 24
220.7076818587999
 34
0.0
100
AcDbRotatedDimension
1001
Sigma
1000
DIM_TPHO
1001
KCAD_DIM_EXT
1002
{
1071
 20001212
1070
     0
1070
     2
1070
     2
1040
2.5
1040
0.0
1040
0.0
1040
0.0
1040
0.0
1040
0.0
1040
0.0
1040
0.0
1070
     0
1040
50.0
1040
-1.0
1013
1.0
1023
0.0
1033
0.0
1040
0.0
1013
1.0
1023
0.0
1033
0.0
1000
_None
1040
1.0
1040
19.999999999999
1070
     0
1070
     0
1070
     0
1012
1.0
1022
0.0
1032
0.0
1013
1.0
1023
0.0
1033
0.0
1002
}
1001
ACAD
1000
DSTYLE
1002
{
1070
    40
1040
2.0
1070
    41
1040
2.5
1070
    42
1040
0.0
1070
    43
1040
8.0
1070
    44
1040
0.0
1070
    45
1040
0.0
1070
    73
1070
     0
1070
    74
1070
     0
1070
    77
1070
     1
1070
    78
1070
     8
1070
    79
1070
     2
1070
   140
1040
3.2
1070
   141
1040
2.5
1070
   145
1040
0.0001
1070
   146
1040
0.667
1070
   147
1040
0.5333000000000001
1070
   172
1070
     1
1070
   173
1070
     1
1070
   179
1070
     3
1070
   271
1070
     3
1070
   272
1070
     3
1070
   279
1070
     2
1070
   284
1070
     8
1070
   289
1070
     2
1070
   340
1005
189
1070
   341
1005
21
1070
   343
1005
12D
1070
   344
1005
12D
1002
}
  0
DIMENSION
  5
A7D
330
18
100
AcDbEntity
  8
KCAD_DIMS
100
AcDbDimension
  2
*D42
 10
396.5502121714099
 20
204.1496856985999
 30
0.0
 11
366.55021217141
 21
208.4163516985999
 31
0.0
 70
   160
 71
     5
 42
60.0
  3
STANDARD
100
AcDbAlignedDimension
 13
336.55021217141
 23
220.7076818587999
 33
0.0
 14
396.5502121714099
 24
220.9076818588
 34
0.0
100
AcDbRotatedDimension
1001
Sigma
1000
DIM_TPHO
1001
KCAD_DIM_EXT
1002
{
1071
 20001212
1070
     0
1070
     2
1070
     2
1040
2.5
1040
0.0
1040
0.0
1040
0.0
1040
0.0
1040
0.0
1040
0.0
1040
0.0
1070
     0
1040
50.0
1040
-1.0
1013
1.0
1023
0.0
1033
0.0
1040
0.0
1013
1.0
1023
0.0
1033
0.0
1000
_None
1040
1.0
1040
60.0
1070
     0
1070
     0
1070
     0
1012
1.0
1022
0.0
1032
0.0
1013
1.0
1023
0.0
1033
0.0
1002
}
1001
ACAD
1000
DSTYLE
1002
{
1070
    40
1040
2.0
1070
    41
1040
2.5
1070
    42
1040
0.0
1070
    43
1040
8.0
1070
    44
1040
0.0
1070
    45
1040
0.0
1070
    73
1070
     0
1070
    74
1070
     0
1070
    77
1070
     1
1070
    78
1070
     8
1070
    79
1070
     2
1070
   140
1040
3.2
1070
   141
1040
2.5
1070
   145
1040
0.0001
1070
   146
1040
0.667
1070
   147
1040
0.5333000000000001
1070
   172
1070
     1
1070
   173
1070
     1
1070
   179
1070
     3
1070
   271
1070
     3
1070
   272
1070
     3
1070
   279
1070
     2
1070
   284
1070
     8
1070
   289
1070
     2
1070
   340
1005
189
1070
   341
1005
21
1070
   343
1005
12D
1070
   344
1005
12D
1002
}
  0
POINT
  5
AB9
330
18
100
AcDbEntity
  8
14
  6
Continuous
 62
     3
370
    15
100
AcDbPoint
 10
336.55021217141
 20
204.1496856985999
 30
0.0
1001
Sigma
1000

  0
DIMENSION
  5
ABB
330
18
100
AcDbEntity
  8
KCAD_DIMS
100
AcDbDimension
  2
*D43
 10
469.34577110091
 20
220.7076818587999
 30
0.0
 11
465.0791051009099
 21
245.7076818587999
 31
0.0
 70
   160
 71
     5
 42
50.00000000000006
  3
STANDARD
100
AcDbAlignedDimension
 13
396.35021217141
 23
270.7076818588
 33
0.0
 14
396.35021217141
 24
220.7076818587999
 34
0.0
 50
90.0
100
AcDbRotatedDimension
1001
Sigma
1000
DIM_TPVO
1001
KCAD_DIM_EXT
1002
{
1071
 20001212
1070
     0
1070
     2
1070
     2
1040
2.5
1040
0.0
1040
0.0
1040
0.0
1040
0.0
1040
0.0
1040
0.0
1040
0.0
1070
     0
1040
50.0
1040
-1.0
1013
1.0
1023
0.0
1033
0.0
1040
0.0
1013
1.0
1023
0.0
1033
0.0
1000
_None
1040
1.0
1040
49.999999999996
1070
     0
1070
     0
1070
     0
1012
1.0
1022
0.0
1032
0.0
1013
1.0
1023
0.0
1033
0.0
1002
}
1001
ACAD
1000
DSTYLE
1002
{
1070
    40
1040
2.0
1070
    41
1040
2.5
1070
    42
1040
0.0
1070
    43
1040
8.0
1070
    44
1040
0.0
1070
    45
1040
0.0
1070
    73
1070
     0
1070
    74
1070
     0
1070
    77
1070
     1
1070
    78
1070
     8
1070
    79
1070
     2
1070
   140
1040
3.2
1070
   141
1040
2.5
1070
   145
1040
0.0001
1070
   146
1040
0.667
1070
   147
1040
0.5333000000000001
1070
   172
1070
     1
1070
   173
1070
     1
1070
   179
1070
     3
1070
   271
1070
     3
1070
   272
1070
     3
1070
   279
1070
     2
1070
   284
1070
     8
1070
   289
1070
     2
1070
   340
1005
189
1070
   341
1005
21
1070
   343
1005
12D
1070
   344
1005
12D
1002
}
  0
DIMENSION
  5
AF7
330
18
100
AcDbEntity
  8
KCAD_DIMS
100
AcDbDimension
  2
*D44
 10
515.01444213661
 20
230.7076818587999
 30
0.0
 11
510.74777613661
 21
250.7076818588
 31
0.0
 70
   160
 71
     5
 42
40.00000000000002
  3
STANDARD
100
AcDbAlignedDimension
 13
534.15724342141
 23
270.7076818588
 33
0.0
 14
534.15724342141
 24
230.7076818587999
 34
0.0
 50
90.0
100
AcDbRotatedDimension
1001
Sigma
1000
DIM_TPVO
1001
KCAD_DIM_EXT
1002
{
1071
 20001212
1070
     0
1070
     2
1070
     2
1040
2.5
1040
0.0
1040
0.0
1040
0.0
1040
0.0
1040
0.0
1040
0.0
1040
0.0
1070
     0
1040
50.0
1040
-1.0
1013
1.0
1023
0.0
1033
0.0
1040
0.0
1013
1.0
1023
0.0
1033
0.0
1000
_None
1040
1.0
1040
39.999999999996
1070
     0
1070
     0
1070
     0
1012
1.0
1022
0.0
1032
0.0
1013
1.0
1023
0.0
1033
0.0
1002
}
1001
ACAD
1000
DSTYLE
1002
{
1070
    40
1040
2.0
1070
    41
1040
2.5
1070
    42
1040
0.0
1070
    43
1040
8.0
1070
    44
1040
0.0
1070
    45
1040
0.0
1070
    73
1070
     0
1070
    74
1070
     0
1070
    77
1070
     1
1070
    78
1070
     8
1070
    79
1070
     2
1070
   140
1040
3.2
1070
   141
1040
2.5
1070
   145
1040
0.0001
1070
   146
1040
0.667
1070
   147
1040
0.5333000000000001
1070
   172
1070
     1
1070
   173
1070
     1
1070
   179
1070
     3
1070
   271
1070
     3
1070
   272
1070
     3
1070
   279
1070
     2
1070
   284
1070
     8
1070
   289
1070
     2
1070
   340
1005
189
1070
   341
1005
21
1070
   343
1005
12D
1070
   344
1005
12D
1002
}
  0
POINT
  5
B33
330
18
100
AcDbEntity
  8
14
  6
Continuous
 62
     3
370
    15
100
AcDbPoint
 10
515.01444213661
 20
270.7076818588
 30
0.0
1001
Sigma
1000

  0
DIMENSION
  5
B35
330
18
100
AcDbEntity
  8
KCAD_DIMS
100
AcDbDimension
  2
*D45
 10
595.65724342141
 20
196.40235633794
 30
0.0
 11
580.65724342141
 21
200.66902233794
 31
0.0
 70
   160
 71
     5
 42
30.0
  3
STANDARD
100
AcDbAlignedDimension
 13
565.65724342141
 23
220.9076818588
 33
0.0
 14
595.65724342141
 24
220.9076818588
 34
0.0
100
AcDbRotatedDimension
1001
Sigma
1000
DIM_TPHO
1001
KCAD_DIM_EXT
1002
{
1071
 20001212
1070
     0
1070
     2
1070
     2
1040
2.5
1040
0.0
1040
0.0
1040
0.0
1040
0.0
1040
0.0
1040
0.0
1040
0.0
1070
     0
1040
50.0
1040
-1.0
1013
1.0
1023
0.0
1033
0.0
1040
0.0
1013
1.0
1023
0.0
1033
0.0
1000
_None
1040
1.0
1040
30.0
1070
     0
1070
     0
1070
     0
1012
1.0
1022
0.0
1032
0.0
1013
1.0
1023
0.0
1033
0.0
1002
}
1001
ACAD
1000
DSTYLE
1002
{
1070
    40
1040
2.0
1070
    41
1040
2.5
1070
    42
1040
0.0
1070
    43
1040
8.0
1070
    44
1040
0.0
1070
    45
1040
0.0
1070
    73
1070
     0
1070
    74
1070
     0
1070
    77
1070
     1
1070
    78
1070
     8
1070
    79
1070
     2
1070
   140
1040
3.2
1070
   141
1040
2.5
1070
   145
1040
0.0001
1070
   146
1040
0.667
1070
   147
1040
0.5333000000000001
1070
   172
1070
     1
1070
   173
1070
     1
1070
   179
1070
     3
1070
   271
1070
     3
1070
   272
1070
     3
1070
   279
1070
     2
1070
   284
1070
     8
1070
   289
1070
     2
1070
   340
1005
189
1070
   341
1005
21
1070
   343
1005
12D
1070
   344
1005
12D
1002
}
  0
TEXT
  5
B71
330
18
100
AcDbEntity
  8
1
  6
Continuous
 62
     4
370
    30
100
AcDbText
 10
624.8843675437079
 20
75.90250959556634
 30
0.0
 40
5.939999914169312
  1
２００４年０９月０１日
 41
0.808677710660666
  7
KCADTEXTSTANDARD
100
AcDbText
1001
Sigma
1000

  0
ENDSEC
  0
SECTION
  2
OBJECTS
  0
DICTIONARY
  5
C
330
0
100
AcDbDictionary
281
     1
  3
ACAD_GROUP
350
D
  3
ACAD_LAYOUT
350
1D6
  3
ACAD_MLINESTYLE
350
1B
  3
ACAD_PLOTSETTINGS
350
1D7
  3
ACAD_PLOTSTYLENAME
350
1D4
  3
AcDbVariableDictionary
350
B73
  3
KCADFRAMEINFO
350
2A7
  0
DICTIONARY
  5
D
102
{ACAD_REACTORS
330
C
102
}
330
C
100
AcDbDictionary
281
     1
  0
DICTIONARY
  5
1D6
102
{ACAD_REACTORS
330
C
102
}
330
C
100
AcDbDictionary
281
     1
  3
Model
350
1D8
  3
ﾚｲｱｳﾄ1
350
22F
  0
DICTIONARY
  5
1B
102
{ACAD_REACTORS
330
C
102
}
330
C
100
AcDbDictionary
281
     1
  3
STANDARD
350
1C
  0
DICTIONARY
  5
1D7
102
{ACAD_REACTORS
330
C
102
}
330
C
100
AcDbDictionary
281
     1
  0
ACDBDICTIONARYWDFLT
  5
1D4
102
{ACAD_REACTORS
330
C
102
}
330
C
100
AcDbDictionary
281
     1
  3
Normal
350
1D5
100
AcDbDictionaryWithDefault
340
1D5
  0
DICTIONARY
  5
B73
102
{ACAD_REACTORS
330
C
102
}
330
C
100
AcDbDictionary
281
     1
  3
DIMASSOC
350
B74
  0
XRECORD
  5
2A7
102
{ACAD_REACTORS
330
C
102
}
330
C
100
AcDbXrecord
280
     1
  1
A3
 40
420.0
 40
297.0
 90
        1
 90
        2
  0
LAYOUT
  5
1D8
102
{ACAD_REACTORS
330
1D6
102
}
330
1D6
100
AcDbPlotSettings
  1

  2
DWF ePlot.pc3
  4
ISO_A3_(297.00_x_420.00_MM)
  6

 40
5.793749809265136
 41
17.79375076293945
 42
5.79376220703125
 43
17.79376220703125
 44
297.0
 45
420.0
 46
0.0
 47
0.0
 48
0.0
 49
0.0
140
0.0
141
0.0
142
1.0
143
1.0
 70
 11952
 72
     1
 73
     1
 74
     2
  7

 75
    16
147
1.0
148
0.0
149
0.0
100
AcDbLayout
  1
Model
 70
     1
 71
     0
 10
0.0
 20
0.0
 11
12.0
 21
9.0
 12
0.0
 22
0.0
 32
0.0
 14
0.0
 24
0.0
 34
0.0
 15
0.0
 25
0.0
 35
0.0
146
0.0
 13
0.0
 23
0.0
 33
0.0
 16
1.0
 26
0.0
 36
0.0
 17
0.0
 27
1.0
 37
0.0
 76
     0
330
18
  0
LAYOUT
  5
22F
102
{ACAD_REACTORS
330
1D6
102
}
330
1D6
100
AcDbPlotSettings
  1

  2
D:\ACAD2000\plotters\HP DesignJet 700(System).pc3
  4

  6

 40
0.0
 41
0.0
 42
0.0
 43
0.0
 44
0.0
 45
0.0
 46
0.0
 47
0.0
 48
0.0
 49
0.0
140
0.0
141
0.0
142
1.0
143
1.0
 70
   688
 72
     0
 73
     0
 74
     5
  7
monochrome.ctb
 75
    16
147
1.0
148
0.0
149
0.0
100
AcDbLayout
  1
ﾚｲｱｳﾄ1
 70
     1
 71
     1
 10
0.0
 20
0.0
 11
12.0
 21
9.0
 12
0.0
 22
0.0
 32
0.0
 14
0.0
 24
0.0
 34
0.0
 15
0.0
 25
0.0
 35
0.0
146
0.0
 13
0.0
 23
0.0
 33
0.0
 16
1.0
 26
0.0
 36
0.0
 17
0.0
 27
1.0
 37
0.0
 76
     0
330
22C
  0
MLINESTYLE
  5
1C
102
{ACAD_REACTORS
330
1B
102
}
330
1B
100
AcDbMlineStyle
  2
STANDARD
 70
     0
  3

 62
   256
 51
90.0
 52
90.0
 71
     2
 49
0.5
 62
   256
  6
BYLAYER
 49
-0.5
 62
   256
  6
BYLAYER
  0
ACDBPLACEHOLDER
  5
1D5
102
{ACAD_REACTORS
330
1D4
102
}
330
1D4
  0
DICTIONARYVAR
  5
B74
102
{ACAD_REACTORS
330
B73
102
}
330
B73
100
DictionaryVariables
280
     0
  1
1
  0
ENDSEC
  0
EOF
